osu file format v14

[General]
AudioFilename: audio.mp3
AudioLeadIn: 0
PreviewTime: -1
Countdown: 0
SampleSet: Drum
StackLeniency: 0.7
Mode: 0
LetterboxInBreaks: 0
WidescreenStoryboard: 1

[Editor]
DistanceSpacing: 0.9
BeatDivisor: 4
GridSize: 32
TimelineZoom: 1

[Metadata]
Title:Pochemu ti eshe ne fanat?
TitleUnicode:Почему ты еще не фанат?
Artist:SEREGA PIRAT
ArtistUnicode:СЕРЕГА ПИРАТ
Creator:[Katana]
Version:Normal
Source:
Tags:dota 2 serega pirat pirat anti-mage valve russian dota 2
BeatmapID:3698883
BeatmapSetID:1800378

[Difficulty]
HPDrainRate:4
CircleSize:3
OverallDifficulty:4
ApproachRate:5
SliderMultiplier:2.3
SliderTickRate:1

[Events]
//Background and Video events
0,0,"maxresdefault.jpg",0,0
//Break Periods
//Storyboard Layer 0 (Background)
//Storyboard Layer 1 (Fail)
//Storyboard Layer 2 (Pass)
//Storyboard Layer 3 (Foreground)
//Storyboard Layer 4 (Overlay)
//Storyboard Sound Samples

[TimingPoints]
260,454.545454545455,4,3,1,100,1,0
29350,-133.333333333333,4,3,1,100,0,0
43896,-133.333333333333,4,3,1,100,0,0
58441,-200,4,3,1,100,0,0
61850,-133.333333333333,4,3,1,100,0,0
87532,-200,4,3,1,100,0,0
91169,-100,4,3,1,100,0,0
101623,-100,4,3,1,100,0,1
117760,-100,4,3,1,100,0,0
119578,-100,4,3,1,100,0,1
145714,-100,4,3,1,100,0,0

[HitObjects]
256,192,25714,12,0,28896,0:0:0:0:
84,42,29350,6,0,B|84:90|71:164|72:165|119:89|187:109,1,172.500006580353
239,46,30032,2,0,B|263:100|232:126|232:126|261:131|386:47,1,258.75000987053
472,30,31169,6,0,B|437:73|468:98|497:107|405:119|367:166,1,172.500006580353
302,224,31850,2,0,B|306:165|299:123|266:98|209:191|115:77,1,258.75000987053
79,30,32760,1,0,0:0:0:0:
42,117,32987,6,0,B|27:182|43:228|82:168|77:165|155:131,1,172.500006580353
190,64,33669,2,0,P|228:104|171:205,1,172.500006580353
112,257,34350,2,0,B|132:290|180:335|235:286|283:233,1,172.500006580353
310,174,35032,5,0,0:0:0:0:
281,65,35260,2,0,P|239:97|294:273,1,258.75000987053
396,330,36169,6,0,P|368:297|366:233,2,86.2500032901765
481,364,36850,1,0,0:0:0:0:
481,364,37078,2,0,P|502:296|437:189,1,172.500006580353
81,319,37987,6,0,P|133:305|209:197,1,172.500006580353
226,114,38669,2,0,P|277:156|256:275,1,172.500006580353
480,266,39464,1,0,0:0:0:0:
400,246,39805,2,0,L|209:193,1,172.500006580353
34,142,40600,5,0,0:0:0:0:
0,295,40941,1,0,0:0:0:0:
198,184,41396,1,0,0:0:0:0:
198,184,41623,2,0,P|232:233|249:288,1,86.2500032901765
270,366,42078,2,0,P|317:342|332:216,1,172.500006580353
304,144,42760,5,0,0:0:0:0:
304,144,43214,1,0,0:0:0:0:
445,35,43896,6,0,P|459:98|399:213,1,172.500006580353
272,246,44805,2,0,P|310:218|330:95,1,172.500006580353
179,73,45714,6,0,P|248:93|346:58,1,172.500006580353
380,138,46623,2,0,P|334:179|199:193,1,172.500006580353
80,319,47532,6,0,P|121:271|97:157,1,172.500006580353
88,53,48441,2,0,P|149:91|194:189,1,172.500006580353
229,365,49350,6,0,P|228:290|267:178,1,172.500006580353
303,67,50260,2,0,P|388:108|381:212,1,172.500006580353
407,316,51169,6,0,B|339:289|298:266|244:289|229:261,1,172.500006580353
145,172,52078,2,0,P|175:231|151:295,1,129.375004935265
129,321,52532,2,0,P|180:343|263:284,1,129.375004935265
277,286,52987,2,0,B|266:238|210:220|162:228,1,129.375004935265
131,224,53441,2,0,P|142:183|198:162,1,86.2500032901765
294,131,53896,6,0,P|262:89|129:83,1,172.500006580353
373,62,54805,6,0,B|319:109|317:148|263:160,1,129.375004935265
248,198,55260,2,0,B|232:155|201:140|202:89|242:75,1,129.375004935265
278,55,55714,2,0,B|330:70|325:110|364:138|338:187,1,129.375004935265
350,212,56169,2,0,B|406:219|435:175|425:73,1,172.500006580353
417,0,56850,5,0,0:0:0:0:
417,0,57078,1,0,0:0:0:0:
361,102,57305,1,0,0:0:0:0:
361,102,57532,2,0,P|315:146|177:142,1,172.500006580353
106,50,58441,6,0,P|77:118|93:176,1,115
152,233,59123,2,0,L|189:164,1,57.5
221,87,59578,5,0,0:0:0:0:
289,9,59805,2,0,P|309:55|288:129,1,115
223,190,60487,1,0,0:0:0:0:
223,190,60714,2,0,P|272:219|343:194,1,115
413,108,61396,2,0,L|437:178,1,57.5
462,267,61850,5,0,0:0:0:0:
380,332,62078,2,0,P|318:360|194:332,1,172.500006580353
77,277,62760,2,0,P|143:276|179:248,1,86.2500032901765
318,85,63441,6,0,P|276:157|172:183,1,172.500006580353
74,177,64123,2,0,P|92:124|148:91,1,86.2500032901765
202,22,64578,5,0,0:0:0:0:
229,103,64805,1,0,0:0:0:0:
314,60,65032,1,0,0:0:0:0:
314,60,65260,2,0,P|366:38|442:138,1,172.500006580353
455,278,66169,6,0,P|440:221|326:174,1,172.500006580353
130,281,67078,6,0,P|188:244|196:119,1,172.500006580353
188,27,67760,2,0,P|253:53|268:95,1,86.2500032901765
309,174,68214,2,0,P|367:133|385:94,1,86.2500032901765
377,17,68669,5,0,0:0:0:0:
377,17,68896,2,0,P|425:67|434:184,1,172.500006580353
362,358,69805,6,0,P|357:287|280:209,1,172.500006580353
151,61,70714,6,0,B|156:134|111:154|210:209,1,172.500006580353
315,233,71396,2,0,P|297:169|316:123,1,86.2500032901765
334,44,71850,2,0,P|394:82|388:131,1,86.2500032901765
397,203,72305,2,0,P|438:183|454:138,2,86.2500032901765
297,233,72987,1,0,0:0:0:0:
104,308,73441,6,0,B|140:260|125:221|77:205|177:146,1,172.500006580353
318,25,74350,6,0,P|252:102|254:180,1,172.500006580353
278,278,75032,2,0,P|226:329|189:324,1,86.2500032901765
115,282,75487,2,0,P|139:246|197:224,1,86.2500032901765
250,182,75941,1,0,0:0:0:0:
183,126,76169,1,0,0:0:0:0:
43,24,76623,6,0,P|41:95|90:204,1,172.500006580353
140,247,77305,2,0,P|165:189|145:139,2,86.2500032901765
66,332,77987,6,0,P|124:366|220:320,1,172.500006580353
281,225,78669,2,0,P|218:247|188:243,1,86.2500032901765
99,236,79123,2,0,P|158:174|197:164,1,86.2500032901765
243,102,79578,2,0,P|188:93|132:107,2,86.2500032901765
362,130,80260,1,0,0:0:0:0:
443,338,80714,6,0,B|401:303|334:304|325:338|254:364|250:323,1,172.500006580353
55,332,81623,6,0,B|95:309|91:275|64:253|127:204|110:138,1,172.500006580353
135,64,82305,2,0,P|175:95|192:135,1,86.2500032901765
209,237,82760,2,0,P|257:208|271:158,1,86.2500032901765
278,70,83214,5,0,0:0:0:0:
278,70,83441,1,0,0:0:0:0:
473,180,83896,6,0,B|425:194|392:233|439:249|314:211,1,172.500006580353
214,173,84578,2,0,P|241:218|205:276,2,86.2500032901765
135,92,85260,6,0,B|132:160|103:162|74:200|138:270,1,172.500006580353
185,346,85941,2,0,P|231:321|239:260,1,86.2500032901765
251,161,86396,5,0,0:0:0:0:
251,161,86623,1,0,0:0:0:0:
347,104,86850,5,0,0:0:0:0:
347,104,87078,1,0,0:0:0:0:
471,186,87532,6,0,B|475:238|447:262|398:268,1,115
329,302,88214,2,0,B|336:240|272:226|287:178,1,115
270,82,88896,2,0,P|252:120|109:55,1,230
43,0,90032,2,0,P|22:43|43:125,1,115
58,206,90714,2,0,P|97:209|125:190,1,57.5
189,100,91169,6,0,P|183:164|235:235,1,115
247,327,91623,2,0,B|283:273|292:220|345:228|285:101,1,230
257,25,92305,5,0,0:0:0:0:
385,95,92532,2,0,P|422:156|344:290,1,230
