osu file format v14

[General]
AudioFilename: audio.mp3
AudioLeadIn: 0
PreviewTime: 35062
Countdown: 0
SampleSet: Soft
StackLeniency: 1
Mode: 0
LetterboxInBreaks: 0
WidescreenStoryboard: 0

[Editor]
Bookmarks: 1144,16753,35778,36265,49924,51387,51509,65534,67485,81143,86997,132485,149436,163095,165046
DistanceSpacing: 0.4
BeatDivisor: 4
GridSize: 4
TimelineZoom: 2.3

[Metadata]
Title:V kosmose
TitleUnicode:В космосе
Artist:SEREBRO
ArtistUnicode:SEREBRO
Creator:Marmowka
Version:Insane
Source:
Tags:russian pop Bakari -Bakari- riffy Shmiklak ZLOdeuka- Nattu серебро Ольга Серябкина olga seryabkina Екатерина Кищук Ekaterina Kishchuk Полина Фаворская Polina Favorskaya maksim fadeev Максим Фадеев
BeatmapID:1641563
BeatmapSetID:781632

[Difficulty]
HPDrainRate:5.5
CircleSize:4
OverallDifficulty:7.2
ApproachRate:8.4
SliderMultiplier:1.8
SliderTickRate:1

[Events]
//Background and Video events
0,0,"4o-Q601otFg.jpg",0,0
//Break Periods
//Storyboard Layer 0 (Background)
//Storyboard Layer 1 (Fail)
//Storyboard Layer 2 (Pass)
//Storyboard Layer 3 (Foreground)
//Storyboard Sound Samples

[TimingPoints]
1160,487.80487804878,4,2,2,38,1,0
7867,-100,4,2,2,5,0,0
7989,-100,4,2,2,38,0,0
8355,-100,4,2,2,5,0,0
8477,-100,4,2,2,38,0,0
15672,-100,4,2,2,5,0,0
15794,-100,4,2,2,38,0,0
16159,-100,4,2,2,5,0,0
16281,-100,4,2,2,38,0,0
16769,-90.9090909090909,4,2,2,45,0,0
19574,-90.9090909090909,4,2,2,5,0,0
19696,-90.9090909090909,4,2,2,45,0,0
23477,-90.9090909090909,4,2,2,5,0,0
23599,-90.9090909090909,4,2,2,45,0,0
23964,-90.9090909090909,4,2,2,5,0,0
24086,-90.9090909090909,4,2,2,45,0,0
31281,-90.9090909090909,4,2,2,5,0,0
31403,-90.9090909090909,4,2,2,45,0,0
31769,-90.9090909090909,4,2,2,5,0,0
31891,-90.9090909090909,4,2,2,45,0,0
35794,-90.9090909090909,4,2,3,45,0,0
36281,-83.3333333333333,4,2,2,75,0,1
49940,-83.3333333333333,4,2,4,75,0,0
50550,-83.3333333333333,4,2,5,75,0,0
51525,-83.3333333333333,4,2,2,75,0,0
51891,-83.3333333333333,4,2,2,75,0,1
65550,-83.3333333333333,4,2,4,75,0,0
67493,487.80487804878,4,2,2,75,1,0
67493,-83.3333333333333,4,2,2,75,0,0
81151,-83.3333333333333,4,2,4,75,0,0
83103,-100,4,2,4,62,0,0
87005,-90.9090909090909,4,2,5,62,0,0
89810,-90.9090909090909,4,2,5,5,0,0
89932,-90.9090909090909,4,2,5,62,0,0
90298,-90.9090909090909,4,2,5,5,0,0
90420,-90.9090909090909,4,2,5,62,0,0
93712,-90.9090909090909,4,2,5,5,0,0
93834,-90.9090909090909,4,2,5,62,0,0
105420,-90.9090909090909,4,2,5,5,0,0
105542,-90.9090909090909,4,2,5,62,0,0
105908,-90.9090909090909,4,2,5,5,0,0
106030,-90.9090909090909,4,2,5,62,0,0
117737,-90.9090909090909,4,2,3,62,0,0
118224,-83.3333333333333,4,2,2,75,0,1
131883,-83.3333333333333,4,2,4,75,0,0
132493,-83.3333333333333,4,2,5,75,0,0
133469,-83.3333333333333,4,2,2,75,0,0
133834,-83.3333333333333,4,2,2,75,0,1
147492,-83.3333333333333,4,2,4,75,0,0
149444,-83.3333333333333,4,2,2,75,0,0
163103,-83.3333333333333,4,2,4,75,0,0
165054,-83.3333333333333,4,2,4,70,0,0
165541,-83.3333333333333,4,2,4,65,0,0
166029,-83.3333333333333,4,2,4,60,0,0
166517,-83.3333333333333,4,2,4,55,0,0
167005,-83.3333333333333,4,2,4,50,0,0
167492,-83.3333333333333,4,2,4,45,0,0
167980,-83.3333333333333,4,2,4,40,0,0
168468,-83.3333333333333,4,2,4,35,0,0
168712,-83.3333333333333,4,2,2,5,0,0

[Colours]
Combo1 : 111,157,124
Combo2 : 180,155,213
Combo3 : 156,97,98
Combo4 : 167,215,243
SliderBorder : 210,157,230
SliderTrackOverride : 76,55,111

[HitObjects]
55,169,1647,6,0,B|156:147|156:147|195:160,1,135,0|0,0:2|0:2,0:2:0:0:
234,212,2135,2,0,L|219:271,1,45,0|0,0:2|0:2,0:2:0:0:
246,326,2378,1,0,0:2:0:0:
389,283,2623,2,0,L|380:219,1,45,0|0,0:2|0:2,0:2:0:0:
330,181,2867,2,0,P|306:232|321:286,1,90,0|0,0:2|1:2,0:2:0:0:
409,353,3355,5,0,0:2:0:0:
309,264,3599,2,0,B|198:279|198:279|167:258,1,135,0|0,0:2|0:2,0:2:0:0:
137,205,4086,2,0,B|125:140|125:140|142:100,1,90,0|0,0:2|0:2,0:2:0:0:
222,14,4574,2,0,P|307:46|316:137,1,180,0|0,0:2|1:2,0:2:0:0:
320,125,5550,5,0,0:2:0:0:
292,192,5794,2,0,L|301:258,1,45,0|0,0:2|0:2,0:2:0:0:
346,295,6038,2,0,P|371:251|360:197,1,90,0|0,0:2|0:2,0:2:0:0:
360,67,6525,1,0,0:2:0:0:
247,138,6769,2,0,B|204:150|204:150|161:139,1,90,0|0,0:2|1:2,0:2:0:0:
48,227,7257,5,0,0:2:0:0:
48,227,7501,2,0,P|61:284|37:370,1,135,0|0,0:2|0:2,0:2:0:0:
44,357,7989,2,0,P|98:332|183:333,1,135,0|0,0:2|0:2,0:2:0:0:
172,330,8477,2,0,P|263:336|323:249,1,180,0|0,0:2|1:2,0:2:0:0:
318,274,9452,5,0,0:2:0:0:
280,149,9696,1,0,0:2:0:0:
318,274,9940,2,0,L|365:282,2,45,0|0|0,0:2|0:2|0:2,0:2:0:0:
213,180,10428,1,0,0:2:0:0:
124,315,10672,2,0,L|20:332,1,90,0|0,0:2|1:2,0:2:0:0:
78,230,11159,6,0,L|134:222,1,45,0|0,0:2|0:2,0:2:0:0:
190,256,11403,2,0,B|196:318|196:318|185:350,1,90,0|0,0:2|0:2,0:2:0:0:
122,223,11891,2,0,B|114:162|114:162|123:120,1,90,0|0,0:2|0:2,0:2:0:0:
216,55,12379,2,0,P|290:75|323:177,1,180,0|0,0:2|1:2,0:2:0:0:
325,164,13355,5,0,0:2:0:0:
350,307,13599,1,0,0:2:0:0:
399,207,13842,2,0,B|462:196|462:196|488:219,2,90,0|0|0,0:2|0:2|0:2,0:2:0:0:
246,229,14574,2,0,B|188:239|188:239|146:221,1,90,0|0,0:2|1:2,0:2:0:0:
116,104,15062,5,0,0:2:0:0:
198,40,15306,2,0,P|219:115|192:176,1,135,0|0,0:2|0:2,0:2:0:0:
199,166,15794,2,0,P|261:143|336:174,1,135,0|0,0:2|0:2,0:2:0:0:
324,163,16281,2,0,B|292:92|322:35|322:35|323:77|334:91,1,180,0|0,0:2|1:2,0:2:0:0:
265,211,17257,5,0,1:2:0:0:
148,190,17501,1,0,0:2:0:0:
324,163,17745,2,0,P|340:220|312:270,1,99.0000030212403,0|0,1:2|0:2,0:2:0:0:
283,339,18233,1,0,1:2:0:0:
199,240,18477,1,0,0:2:0:0:
283,339,18720,2,0,P|334:353|387:323,1,99.0000030212403,0|0,1:2|0:2,0:2:0:0:
454,230,19208,2,0,B|443:131|443:131|428:186,1,148.50000453186,0|0,1:2|0:2,0:2:0:0:
358,251,19696,2,0,P|311:266|254:247,1,99.0000030212403,0|0,1:2|0:2,0:2:0:0:
178,194,20184,2,0,P|129:183|71:204,1,99.0000030212403,0|0,1:2|0:2,0:2:0:0:
129,359,20672,6,0,P|146:310|120:253,1,99.0000030212403,0|0,1:2|0:2,0:2:0:0:
59,310,21159,1,0,1:2:0:0:
208,260,21403,1,0,0:2:0:0:
83,196,21647,1,0,1:2:0:0:
217,331,21891,2,0,L|265:320,2,49.5000015106202,0|0|0,0:2|0:2|1:2,0:2:0:0:
320,157,22379,6,0,P|354:244|447:253,1,198.000006042481,0|0,0:2|0:2,0:2:0:0:
495,106,23111,2,0,P|430:108|413:193,1,148.50000453186,0|0,1:2|0:2,0:2:0:0:
405,178,23599,2,0,P|350:110|286:119,1,148.50000453186,0|0,1:2|0:2,0:2:0:0:
295,114,24086,2,0,B|206:155|148:106|148:106|177:93|184:117,1,198.000006042481,0|0,1:2|1:2,0:2:0:0:
183,114,25062,5,0,1:2:0:0:
240,23,25306,1,0,0:2:0:0:
195,201,25550,2,0,L|210:306,1,99.0000030212403,0|0,1:2|0:2,0:2:0:0:
257,356,26038,1,0,1:2:0:0:
137,305,26281,2,0,L|72:315,2,49.5000015106202,0|0|0,0:2|0:2|1:2,0:2:0:0:
317,307,26769,1,0,0:2:0:0:
179,363,27013,1,0,1:2:0:0:
317,307,27257,2,0,L|386:295,1,49.5000015106202,0|0,0:2|0:2,0:2:0:0:
331,234,27501,2,0,B|208:250|208:250|160:256|140:218,1,198.000006042481,0|0,1:2|1:2,0:2:0:0:
224,24,28477,6,0,L|215:122,1,99.0000030212403,0|0,1:2|0:2,0:2:0:0:
143,223,28964,1,0,1:2:0:0:
105,113,29208,2,0,L|98:31,1,49.5000015106202,0|0,0:2|0:2,0:2:0:0:
36,4,29452,2,0,L|27:107,1,99.0000030212403,0|0,1:2|0:2,0:2:0:0:
56,231,29940,1,0,1:2:0:0:
170,143,30184,2,0,P|222:127|269:143,1,99.0000030212403,0|0,0:2|1:2,0:2:0:0:
224,248,30672,1,0,0:2:0:0:
263,139,30916,6,0,P|310:76|385:81,1,148.50000453186,0|0,1:2|0:2,0:2:0:0:
374,76,31403,2,0,B|400:181|400:181|389:240,1,148.50000453186,0|0,1:2|0:2,0:2:0:0:
392,220,31891,2,0,B|347:239|347:239|245:211|245:211|200:227,1,198.000006042481,0|0,1:2|0:2,0:2:0:0:
256,192,32501,12,4,35794,0:2:0:0:
256,192,36281,6,0,B|250:265|250:265|272:296,1,107.999996704102,4|2,1:1|0:2,0:2:0:0:
356,168,36769,1,8,1:2:0:0:
410,309,37013,1,2,0:2:0:0:
288,112,37257,1,0,1:2:0:0:
288,112,37379,1,0,0:0:0:0:
288,112,37501,2,0,L|180:124,1,107.999996704102,2|8,0:2|1:2,2:0:0:0:
23,62,37989,1,2,0:2:0:0:
81,265,38233,6,0,P|71:312|14:348,1,107.999996704102,0|2,1:2|0:2,0:2:0:0:
11,187,38720,1,8,1:2:0:0:
189,231,38964,1,2,0:2:0:0:
189,231,39086,1,0,1:2:0:0:
189,231,39208,1,0,1:2:0:0:
247,48,39452,1,2,0:2:0:0:
288,274,39696,2,0,B|300:357|300:357|315:333,1,107.999996704102,8|2,1:2|0:2,0:2:0:0:
350,225,40184,6,0,P|275:197|211:245,1,161.999995056153,0|0,1:2|0:2,0:2:0:0:
159,295,40672,2,0,P|130:301|97:291,1,53.9999983520508,8|0,1:2|0:2,0:2:0:0:
129,187,40916,1,2,0:2:0:0:
215,352,41159,1,0,1:2:0:0:
245,129,41403,2,0,L|298:120,1,53.9999983520508,2|0,0:2|0:2,0:2:0:0:
368,144,41647,2,0,P|393:192|378:251,1,107.999996704102,8|2,1:2|0:2,0:2:0:0:
298,120,42135,6,0,P|296:64|320:14,1,107.999996704102,0|2,1:2|0:2,0:2:0:0:
242,167,42623,2,0,P|188:184|123:160,1,107.999996704102,8|2,1:2|0:2,0:2:0:0:
188,44,43111,1,0,1:2:0:0:
188,44,43233,1,0,1:2:0:0:
188,44,43355,1,2,0:2:0:0:
248,249,43599,1,8,1:2:0:0:
103,146,43842,2,0,L|48:154,1,53.9999983520508,2|0,0:2|0:2,0:2:0:0:
12,216,44086,6,0,B|22:295|22:295|44:316,1,107.999996704102,4|2,1:1|0:2,0:2:0:0:
171,208,44574,1,8,1:2:0:0:
290,359,44818,1,2,0:2:0:0:
290,359,44940,1,0,1:2:0:0:
290,359,45062,2,0,L|359:349,1,53.9999983520508,0|0,1:2|0:2,0:2:0:0:
415,362,45306,1,2,0:2:0:0:
282,286,45550,2,0,P|234:297|174:287,1,107.999996704102,8|2,1:2|0:2,0:2:0:0:
15,233,46038,6,0,P|68:224|120:237,1,107.999996704102,0|2,1:2|0:2,0:2:0:0:
123,368,46525,1,8,1:2:0:0:
176,181,46769,1,2,0:2:0:0:
176,181,46891,1,0,1:2:0:0:
176,181,47013,2,0,L|229:173,1,53.9999983520508,0|0,1:2|0:2,0:2:0:0:
350,227,47257,2,0,L|296:219,1,53.9999983520508,2|0,0:2|0:2,0:2:0:0:
285,121,47501,2,0,P|316:69|371:60,1,107.999996704102,8|2,1:2|0:2,0:2:0:0:
435,215,47989,6,0,L|419:322,1,107.999996704102,0|2,1:2|0:2,0:2:0:0:
322,365,48477,1,8,1:2:0:0:
177,236,48720,1,2,0:2:0:0:
177,236,48842,1,0,1:2:0:0:
177,236,48964,2,0,P|116:251|96:307,1,107.999996704102,0|2,1:2|0:2,0:2:0:0:
114,148,49452,2,0,L|96:37,1,107.999996704102,8|2,1:2|0:2,0:2:0:0:
26,184,49940,5,0,1:2:0:0:
173,44,50184,1,2,0:2:0:0:
252,270,50428,2,0,B|331:281|331:281|357:258,1,107.999996704102,8|2,1:2|0:2,0:2:0:0:
360,241,50794,1,8,0:2:0:0:
367,218,50916,1,0,0:2:0:0:
288,35,51159,1,10,0:2:0:0:
177,199,51403,2,0,L|189:310,1,107.999996704102,4|2,0:2|0:2,0:2:0:0:
202,329,51769,1,0,0:2:0:0:
225,341,51891,6,0,P|283:354|350:336,1,107.999996704102,4|2,1:1|0:2,0:2:0:0:
399,242,52379,1,8,1:2:0:0:
464,353,52623,1,2,0:2:0:0:
410,134,52867,1,0,1:2:0:0:
410,134,52989,1,0,0:0:0:0:
410,134,53112,2,0,L|398:250,1,107.999996704102,2|8,0:2|1:2,0:2:0:0:
288,120,53599,1,2,0:2:0:0:
398,241,53842,6,0,B|472:256|472:256|501:230,1,107.999996704102,0|2,1:2|0:2,0:2:0:0:
452,72,54330,1,8,1:2:0:0:
328,232,54574,1,2,0:2:0:0:
328,232,54696,1,0,1:2:0:0:
328,232,54818,1,0,1:2:0:0:
236,48,55062,1,2,0:2:0:0:
105,198,55306,2,0,B|99:270|99:270|115:304,1,107.999996704102,8|2,1:2|0:2,0:2:0:0:
170,165,55794,6,0,P|104:124|39:166,1,161.999995056153,0|0,1:2|0:2,0:2:0:0:
12,235,56282,2,0,L|17:293,1,53.9999983520508,8|0,1:2|0:2,0:2:0:0:
92,366,56526,1,2,0:2:0:0:
205,240,56769,1,0,1:2:0:0:
346,360,57013,2,0,L|399:351,1,53.9999983520508,2|0,0:2|0:2,0:2:0:0:
433,288,57257,2,0,L|423:181,1,107.999996704102,8|2,1:2|0:2,0:2:0:0:
266,24,57745,6,0,L|253:135,1,107.999996704102,0|2,1:2|0:2,0:2:0:0:
334,289,58233,2,0,P|392:306|442:281,1,107.999996704102,8|2,1:2|0:2,0:2:0:0:
382,114,58721,1,0,1:2:0:0:
382,114,58842,1,0,1:2:0:0:
382,114,58965,1,2,0:2:0:0:
260,291,59209,1,8,1:2:0:0:
145,178,59452,2,0,L|138:120,1,53.9999983520508,2|0,0:2|0:2,0:2:0:0:
210,109,59696,6,0,B|220:188|220:188|206:213,1,107.999996704102,4|2,1:1|0:2,0:2:0:0:
112,287,60184,1,8,1:2:0:0:
298,211,60428,1,2,0:2:0:0:
298,211,60550,1,0,1:2:0:0:
298,211,60672,2,0,L|367:201,1,53.9999983520508,0|0,1:2|0:2,0:2:0:0:
347,337,60916,1,2,0:2:0:0:
317,118,61160,2,0,L|209:108,1,107.999996704102,8|2,1:2|0:2,0:2:0:0:
28,221,61648,6,0,L|137:207,1,107.999996704102,0|2,1:2|0:2,0:2:0:0:
243,310,62135,1,8,1:2:0:0:
322,122,62379,1,2,0:2:0:0:
322,122,62501,1,0,1:2:0:0:
322,122,62623,2,0,L|315:68,1,53.9999983520508,0|0,1:2|0:2,0:2:0:0:
391,3,62867,2,0,L|388:58,1,53.9999983520508,2|0,0:2|0:2,0:2:0:0:
371,178,63111,2,0,P|322:198|271:175,1,107.999996704102,8|2,1:2|0:2,0:2:0:0:
436,130,63599,6,0,P|451:189|425:241,1,107.999996704102,0|2,1:2|0:2,0:2:0:0:
301,318,64087,1,8,1:2:0:0:
121,234,64330,1,2,0:2:0:0:
121,234,64452,1,0,1:2:0:0:
121,234,64574,2,0,B|40:245|40:245|73:264,1,107.999996704102,0|2,1:2|0:2,0:2:0:0:
178,285,65062,2,0,P|196:242|167:173,1,107.999996704102,8|2,1:2|0:2,0:2:0:0:
83,90,65550,5,0,1:2:0:0:
41,245,65794,1,2,0:2:0:0:
225,125,66038,2,0,L|332:132,1,107.999996704102,8|2,0:2|0:2,0:2:0:0:
362,157,66403,2,0,P|370:207|339:270,1,107.999996704102,8|8,0:2|0:0,0:0:0:0:
248,313,66769,1,8,0:2:0:0:
225,125,67013,6,0,B|236:21|236:21|249:58|262:72,1,161.999995056153,12|0,0:2|0:2,0:2:0:0:
352,192,67493,6,0,L|486:177,1,107.999996704102,4|2,1:1|0:2,0:2:0:0:
484,191,67859,1,0,0:2:0:0:
508,201,67981,2,0,L|499:279,1,53.9999983520508,8|0,1:2|0:2,0:2:0:0:
456,361,68225,2,0,L|452:308,1,53.9999983520508,2|0,0:2|0:2,0:2:0:0:
391,264,68469,2,0,B|316:256|316:256|278:270,1,107.999996704102,0|2,1:2|0:2,0:2:0:0:
265,285,68834,1,0,0:2:0:0:
243,301,68956,2,0,L|186:296,1,53.9999983520508,8|0,1:2|0:2,0:2:0:0:
74,265,69200,2,0,L|141:258,1,53.9999983520508,2|0,0:2|0:2,0:2:0:0:
171,166,69444,6,0,L|161:58,1,107.999996704102,4|2,1:1|0:2,0:2:0:0:
177,36,69810,1,0,0:2:0:0:
194,15,69932,2,0,L|247:17,1,53.9999983520508,8|0,1:2|0:2,0:2:0:0:
366,49,70176,2,0,L|311:53,1,53.9999983520508,2|0,0:2|0:2,0:2:0:0:
268,109,70420,2,0,B|277:191|277:191|297:210,1,107.999996704102,0|2,1:2|0:2,0:2:0:0:
319,221,70786,1,0,0:2:0:0:
342,234,70908,2,0,L|416:222,1,53.9999983520508,8|0,1:2|0:2,0:2:0:0:
506,276,71151,2,0,L|451:268,1,53.9999983520508,2|0,0:2|0:2,0:2:0:0:
441,172,71395,6,0,B|449:96|449:96|433:61,1,107.999996704102,4|2,1:1|0:2,0:2:0:0:
412,53,71761,1,0,0:2:0:0:
389,38,71883,2,0,L|335:45,1,53.9999983520508,8|0,1:2|0:2,0:2:0:0:
234,89,72127,2,0,L|288:97,1,53.9999983520508,2|0,0:2|0:2,0:2:0:0:
330,154,72371,2,0,B|324:227|324:227|301:256,1,107.999996704102,0|2,1:2|0:2,0:2:0:0:
277,264,72737,1,0,0:2:0:0:
251,274,72859,2,0,L|196:270,1,53.9999983520508,8|0,1:2|0:2,0:2:0:0:
90,228,73103,2,0,L|145:224,1,53.9999983520508,2|0,0:2|0:2,0:2:0:0:
214,151,73347,6,0,B|223:81|223:81|202:40,1,107.999996704102,4|2,1:1|0:2,0:2:0:0:
194,23,73712,1,0,0:2:0:0:
177,1,73834,2,0,L|112:10,1,53.9999983520508,8|0,1:2|0:2,0:2:0:0:
33,62,74078,2,0,L|94:68,1,53.9999983520508,2|0,0:2|0:2,0:2:0:0:
132,123,74322,2,0,L|116:242,1,107.999996704102,0|2,1:2|0:2,0:2:0:0:
129,254,74688,1,0,0:2:0:0:
143,276,74810,2,0,L|206:269,1,53.9999983520508,8|0,1:2|0:2,0:2:0:0:
317,304,75054,2,0,L|264:299,1,53.9999983520508,2|0,0:2|0:2,0:2:0:0:
216,200,75298,6,0,P|197:145|218:89,1,107.999996704102,4|2,1:1|0:2,0:2:0:0:
230,80,75664,1,0,0:2:0:0:
251,63,75786,2,0,L|325:67,1,53.9999983520508,8|0,1:2|0:2,0:2:0:0:
417,103,76030,2,0,L|364:107,1,53.9999983520508,2|0,0:2|0:2,0:2:0:0:
317,161,76274,2,0,B|318:236|318:236|298:273,1,107.999996704102,0|2,1:2|0:2,0:2:0:0:
281,281,76639,1,0,0:2:0:0:
256,293,76761,2,0,L|202:288,1,53.9999983520508,8|0,1:2|0:2,0:2:0:0:
86,257,77005,2,0,L|139:251,1,53.9999983520508,2|0,0:2|0:2,0:2:0:0:
216,188,77249,6,0,B|234:168|234:168|229:81,1,107.999996704102,4|2,1:1|0:2,0:2:0:0:
211,66,77615,1,0,0:2:0:0:
188,51,77737,2,0,L|135:49,1,53.9999983520508,8|0,1:2|0:2,0:2:0:0:
20,93,77981,2,0,L|73:89,1,53.9999983520508,2|0,0:2|0:2,0:2:0:0:
126,141,78225,2,0,B|114:252,1,107.999996704102,0|2,1:2|0:2,0:2:0:0:
127,272,78591,1,0,0:2:0:0:
144,292,78713,2,0,L|218:280,1,53.9999983520508,8|0,1:2|0:2,0:2:0:0:
317,314,78956,2,0,L|263:306,1,53.9999983520508,2|0,0:2|0:2,0:2:0:0:
228,212,79200,6,0,B|244:106,1,107.999996704102,4|2,1:1|0:2,0:2:0:0:
257,81,79566,1,0,0:2:0:0:
271,57,79688,2,0,L|328:51,1,53.9999983520508,8|0,1:2|0:2,0:2:0:0:
440,96,79932,2,0,L|385:88,1,53.9999983520508,2|0,0:2|0:2,0:2:0:0:
341,143,80176,2,0,B|331:217|331:217|348:251,1,107.999996704102,0|2,1:2|0:2,0:2:0:0:
369,261,80542,1,0,0:2:0:0:
393,273,80664,2,0,L|465:264,1,53.9999983520508,8|0,1:2|0:2,0:2:0:0:
479,202,80908,2,0,L|469:138,1,53.9999983520508,2|0,0:2|0:2,0:2:0:0:
436,64,81151,6,0,P|388:48|328:64,1,107.999996704102,4|2,1:1|0:2,0:2:0:0:
316,84,81517,1,0,0:2:0:0:
296,104,81639,2,0,P|264:112|232:106,1,53.9999983520508,8|0,0:2|0:2,0:2:0:0:
184,64,81883,2,0,L|180:8,1,53.9999983520508,2|8,0:2|0:2,0:2:0:0:
124,112,82127,2,0,L|113:219,1,107.999996704102,0|10,0:2|0:2,0:2:0:0:
127,236,82493,1,0,0:2:0:0:
147,252,82615,2,0,L|200:259,1,53.9999983520508,12|0,0:2|0:2,0:2:0:0:
297,310,82859,2,0,L|240:316,1,53.9999983520508,2|0,0:2|0:2,0:2:0:0:
256,192,83103,12,12,86517,0:2:0:0:
244,160,87005,6,0,P|254:211|253:270,1,99.0000030212403,4|2,1:1|0:2,0:2:0:0:
180,374,87493,1,8,1:2:0:0:
326,288,87737,2,0,P|350:284|375:285,1,49.5000015106202,2|0,0:2|0:2,0:2:0:0:
442,310,87981,1,0,0:2:0:0:
317,213,88225,1,2,0:2:0:0:
281,378,88469,1,8,1:2:0:0:
392,215,88712,2,0,B|421:200|421:200|488:209,1,99.0000030212403,2|0,0:2|1:2,0:2:0:0:
402,119,89200,5,2,0:2:0:0:
258,230,89444,2,0,P|195:222|170:138,1,148.50000453186,8|0,1:2|0:2,0:2:0:0:
178,115,89932,2,0,B|193:71|187:32|187:32|202:67|236:78,1,148.50000453186,0|0,1:2|0:2,0:2:0:0:
262,77,90420,2,0,B|326:86|356:34|356:34|358:91|393:118,1,198.000006042481,8|0,1:2|1:2,0:2:0:0:
482,214,91151,5,2,0:2:0:0:
443,44,91395,1,8,1:2:0:0:
390,256,91639,1,2,0:2:0:0:
390,256,91761,1,0,0:2:0:0:
390,256,91883,1,0,1:2:0:0:
216,204,92127,1,2,0:2:0:0:
387,113,92371,1,8,1:2:0:0:
340,319,92615,2,0,B|269:333|269:333|245:320,1,99.0000030212403,2|0,0:2|1:2,0:2:0:0:
257,182,93103,5,2,0:2:0:0:
147,308,93347,2,0,B|90:326|40:304|40:304|63:294|87:297,1,148.50000453186,8|0,1:2|0:2,0:2:0:0:
95,272,93834,2,0,P|100:215|89:170,1,99.0000030212403,0|2,1:2|0:2,0:2:0:0:
0,35,94322,2,0,P|0:84|39:148,1,99.0000030212403,8|2,1:2|0:2,0:2:0:0:
199,256,94810,6,0,P|219:211|219:162,1,99.0000030212403,0|2,1:2|0:2,0:2:0:0:
178,46,95298,1,8,1:2:0:0:
294,191,95542,2,0,L|343:185,1,49.5000015106202,2|0,0:2|0:2,0:2:0:0:
370,162,95786,2,0,P|390:121|377:63,1,99.0000030212403,0|2,1:2|0:2,0:2:0:0:
237,0,96273,1,8,1:2:0:0:
233,203,96517,1,2,0:2:0:0:
381,69,96761,6,0,L|493:77,1,99.0000030212403,0|2,1:2|0:2,0:2:0:0:
492,97,97127,1,0,0:2:0:0:
502,119,97249,2,0,L|488:222,1,99.0000030212403,8|2,0:2|0:2,0:2:0:0:
483,241,97615,1,8,0:2:0:0:
476,264,97737,1,0,0:2:0:0:
365,350,97981,1,10,0:2:0:0:
279,144,98225,1,12,0:2:0:0:
441,330,98469,1,2,0:2:0:0:
187,225,98712,6,0,B|147:229|123:210|123:210|133:227|132:245,1,99.0000030212403,4|2,1:1|1:2,0:2:0:0:
123,360,99200,1,8,1:2:0:0:
170,154,99444,1,2,0:2:0:0:
50,300,99688,1,0,1:2:0:0:
285,224,99932,1,2,0:2:0:0:
285,224,100054,1,0,0:2:0:0:
285,224,100176,2,0,B|354:215|354:215|383:234,1,99.0000030212403,8|2,1:2|0:2,0:2:0:0:
330,357,100664,5,0,1:2:0:0:
325,145,100908,2,0,L|319:88,1,49.5000015106202,2|0,0:2|0:2,0:2:0:0:
303,65,101151,2,0,P|251:51|198:71,1,99.0000030212403,8|2,1:2|0:2,0:2:0:0:
107,188,101639,2,0,P|56:199|12:184,1,99.0000030212403,0|2,1:2|0:2,0:2:0:0:
64,22,102127,2,0,B|54:90|54:90|62:122,1,99.0000030212403,8|2,1:2|0:2,0:2:0:0:
257,227,102615,6,0,B|264:163|264:163|253:125,1,99.0000030212403,0|2,1:2|0:2,0:2:0:0:
162,11,103103,2,0,L|63:21,1,99.0000030212403,8|2,1:2|0:2,0:2:0:0:
53,44,103469,1,0,0:2:0:0:
45,67,103591,1,0,1:2:0:0:
146,192,103834,1,2,0:2:0:0:
225,60,104078,1,8,1:2:0:0:
309,257,104322,2,0,P|355:272|410:250,1,99.0000030212403,2|0,0:2|1:2,0:2:0:0:
351,112,104810,5,2,0:2:0:0:
250,302,105054,2,0,B|144:323|144:323|101:312,1,148.50000453186,8|0,1:2|0:2,0:2:0:0:
88,284,105542,2,0,P|78:214|134:164,1,148.50000453186,0|0,1:2|0:2,0:2:0:0:
162,152,106030,2,0,B|224:130|226:42|226:42|230:80|265:111,1,198.000006042481,12|4,1:2|1:1,0:2:0:0:
329,202,106761,5,2,0:2:0:0:
308,42,107005,1,8,1:2:0:0:
308,42,107127,1,0,0:2:0:0:
308,42,107249,1,2,0:2:0:0:
384,249,107493,2,0,P|436:265|485:244,1,99.0000030212403,0|2,1:2|0:2,0:2:0:0:
436,115,107981,1,8,1:2:0:0:
320,288,108225,2,0,L|221:299,1,99.0000030212403,2|0,0:2|1:2,0:2:0:0:
110,245,108712,5,2,0:2:0:0:
281,167,108956,2,0,L|389:173,1,99.0000030212403,8|2,1:2|0:2,0:2:0:0:
269,364,109444,2,0,L|154:373,1,99.0000030212403,0|2,1:2|0:2,0:2:0:0:
50,225,109932,2,0,P|35:183|48:129,1,99.0000030212403,12|2,1:2|0:2,0:2:0:0:
281,167,110420,6,0,P|293:223|274:265,1,99.0000030212403,0|2,1:2|0:2,0:2:0:0:
170,371,110908,1,8,1:2:0:0:
108,173,111151,1,2,0:2:0:0:
248,335,111395,1,0,1:2:0:0:
351,154,111639,2,0,L|357:103,1,49.5000015106202,2|0,0:2|0:2,0:2:0:0:
292,68,111883,2,0,L|278:185,1,99.0000030212403,8|2,1:2|0:2,0:2:0:0:
334,284,112371,5,0,1:2:0:0:
211,112,112615,1,2,0:2:0:0:
185,112,112737,1,0,0:2:0:0:
161,120,112859,1,8,1:2:0:0:
263,314,113103,1,2,0:2:0:0:
287,316,113225,1,8,0:2:0:0:
310,310,113347,1,0,1:2:0:0:
265,139,113591,1,10,0:2:0:0:
404,320,113834,2,0,P|478:281|479:173,1,198.000006042481,12|0,1:2|0:2,0:2:0:0:
256,192,114444,12,4,117737,0:2:0:0:
256,192,118224,6,0,P|202:209|152:192,1,107.999996704102,4|2,1:1|0:2,0:2:0:0:
207,92,118713,1,8,1:2:0:0:
161,287,118957,1,2,0:2:0:0:
332,184,119200,1,0,1:2:0:0:
332,184,119322,1,0,0:0:0:0:
332,184,119444,2,0,P|382:166|433:182,1,107.999996704102,2|8,0:2|1:2,0:2:0:0:
480,364,119933,1,2,0:2:0:0:
332,284,120175,6,0,B|308:272|308:272|216:288,1,107.999996704102,0|2,1:2|0:2,0:2:0:0:
100,352,120664,1,8,1:2:0:0:
169,151,120908,1,2,0:2:0:0:
169,151,121030,1,0,0:2:0:0:
169,151,121152,1,0,1:2:0:0:
200,352,121396,1,2,0:2:0:0:
87,145,121639,2,0,B|8:162|8:162|37:174,1,107.999996704102,8|2,1:2|0:2,0:2:0:0:
214,221,122127,6,0,P|248:138|210:79,1,161.999995056153,0|0,1:2|0:2,0:2:0:0:
143,67,122615,2,0,L|64:78,1,53.9999983520508,8|0,1:2|0:2,0:2:0:0:
135,205,122858,1,2,0:2:0:0:
192,16,123103,1,0,1:2:0:0:
314,195,123347,2,0,L|306:250,1,53.9999983520508,2|0,0:2|0:2,0:2:0:0:
276,314,123591,2,0,P|228:333|169:311,1,107.999996704102,8|2,1:2|0:2,0:2:0:0:
314,195,124078,6,0,P|366:177|423:201,1,107.999996704102,0|2,1:2|0:2,0:2:0:0:
226,259,124566,2,0,B|213:146,1,107.999996704102,8|2,1:2|0:2,0:2:0:0:
300,22,125054,1,0,1:2:0:0:
300,22,125175,1,0,1:2:0:0:
300,22,125298,1,2,0:2:0:0:
365,176,125542,1,8,1:2:0:0:
258,89,125786,2,0,L|204:96,1,53.9999983520508,2|0,0:2|0:2,0:2:0:0:
153,147,126030,6,0,B|151:224|151:224|178:266,1,107.999996704102,4|2,1:1|0:2,0:2:0:0:
308,344,126517,1,8,1:2:0:0:
371,156,126761,1,2,0:2:0:0:
371,156,126883,1,0,1:2:0:0:
371,156,127005,2,0,L|376:97,1,53.9999983520508,0|0,1:2|0:2,0:2:0:0:
342,38,127249,1,2,0:2:0:0:
366,225,127492,2,0,P|414:214|441:156,1,107.999996704102,8|2,1:2|0:2,0:2:0:0:
291,59,127980,6,0,P|238:68|211:128,1,107.999996704102,0|2,1:2|0:2,0:2:0:0:
315,295,128468,1,8,1:2:0:0:
127,172,128712,1,2,0:2:0:0:
127,172,128835,1,0,1:2:0:0:
127,172,128957,2,0,L|74:180,1,53.9999983520508,0|0,1:2|0:2,0:2:0:0:
10,100,129201,2,0,L|64:108,1,53.9999983520508,2|0,0:2|0:2,0:2:0:0:
90,260,129445,2,0,P|59:312|4:321,1,107.999996704102,8|2,1:2|0:2,0:2:0:0:
163,238,129933,6,0,L|282:245,1,107.999996704102,0|2,1:2|0:2,0:2:0:0:
401,328,130419,1,8,1:2:0:0:
382,142,130663,1,2,0:2:0:0:
382,142,130785,1,0,1:2:0:0:
382,142,130907,2,0,L|394:34,1,107.999996704102,0|2,1:2|0:2,0:2:0:0:
172,94,131395,2,0,L|186:206,1,107.999996704102,8|2,1:2|0:2,0:2:0:0:
315,334,131884,5,0,1:2:0:0:
281,116,132128,1,2,0:2:0:0:
233,344,132371,2,0,L|123:333,1,107.999996704102,8|2,1:2|0:2,0:2:0:0:
95,302,132736,2,0,B|78:250|78:241|109:185,1,107.999996704102,8|0,0:2|0:2,0:0:0:0:
172,94,133103,1,10,0:2:0:0:
279,286,133347,2,0,B|348:298|348:298|390:279,1,107.999996704102,12|2,0:2|0:2,0:2:0:0:
399,261,133712,1,0,0:2:0:0:
405,234,133834,6,0,L|395:120,1,107.999996704102,4|2,1:1|0:2,0:2:0:0:
456,8,134322,1,8,1:2:0:0:
512,160,134566,1,2,0:2:0:0:
328,84,134810,1,0,1:2:0:0:
328,84,134932,1,0,0:0:0:0:
328,84,135054,2,0,L|220:96,1,107.999996704102,2|8,0:2|1:2,0:2:0:0:
96,12,135542,1,2,0:2:0:0:
144,208,135786,6,0,B|133:284|133:284|107:300,1,107.999996704102,0|2,1:2|0:2,0:2:0:0:
16,188,136273,1,8,1:2:0:0:
184,125,136517,1,2,0:2:0:0:
184,125,136639,1,0,1:2:0:0:
184,125,136761,1,0,1:2:0:0:
284,270,137005,1,2,0:2:0:0:
433,152,137249,2,0,P|428:95|390:63,1,107.999996704102,8|2,1:2|0:2,0:2:0:0:
353,215,137737,6,0,P|376:294|454:299,1,161.999995056153,0|0,1:2|0:2,0:2:0:0:
501,254,138225,2,0,L|496:196,1,53.9999983520508,8|0,1:2|0:2,0:2:0:0:
470,136,138469,1,2,0:2:0:0:
353,215,138712,1,0,1:2:0:0:
200,120,138956,2,0,L|147:129,1,53.9999983520508,2|0,0:2|0:2,0:2:0:0:
113,192,139200,2,0,B|120:273|120:273|145:299,1,107.999996704102,8|2,1:2|0:2,0:2:0:0:
339,175,139688,6,0,B|336:107|336:107|310:69,1,107.999996704102,0|2,1:2|0:2,0:2:0:0:
301,282,140176,2,0,P|360:288|405:261,1,107.999996704102,8|2,1:2|0:2,0:2:0:0:
252,145,140664,1,0,1:2:0:0:
252,145,140785,1,0,1:2:0:0:
252,145,140908,1,2,0:2:0:0:
410,191,141151,1,8,1:2:0:0:
210,77,141395,2,0,L|157:78,1,53.9999983520508,2|0,0:2|0:2,0:2:0:0:
100,121,141639,6,0,B|90:188|90:188|103:225,1,107.999996704102,4|2,1:1|0:2,0:2:0:0:
183,380,142127,1,8,1:2:0:0:
55,303,142371,1,2,0:2:0:0:
55,303,142493,1,0,1:2:0:0:
55,303,142615,2,0,L|-14:313,1,53.9999983520508,0|0,1:2|0:2,0:2:0:0:
15,149,142859,1,2,0:2:0:0:
165,264,143103,2,0,P|216:281|269:263,1,107.999996704102,8|2,1:2|0:2,0:2:0:0:
354,129,143591,6,0,P|300:113|247:134,1,107.999996704102,0|2,1:2|0:2,0:2:0:0:
309,322,144078,1,8,1:2:0:0:
182,179,144322,1,2,0:2:0:0:
182,179,144444,1,0,1:2:0:0:
182,179,144566,2,0,L|107:186,1,53.9999983520508,0|0,1:2|0:2,0:2:0:0:
70,257,144810,2,0,L|136:257,1,53.9999983520508,2|0,0:2|0:2,0:2:0:0:
128,184,145054,2,0,P|121:127|77:93,1,107.999996704102,8|2,1:2|0:2,0:2:0:0:
0,230,145542,6,0,P|-1:282|34:325,1,107.999996704102,0|2,1:2|0:2,0:2:0:0:
171,274,146030,1,8,1:2:0:0:
222,105,146273,1,2,0:2:0:0:
222,105,146395,1,0,1:2:0:0:
222,105,146517,2,0,B|215:23|215:23|194:55,1,107.999996704102,0|2,1:2|0:2,0:2:0:0:
175,163,147005,2,0,P|229:179|288:146,1,107.999996704102,8|2,1:2|0:2,0:2:0:0:
215,26,147492,5,0,1:2:0:0:
161,246,147736,1,2,0:2:0:0:
363,161,147980,2,0,L|470:168,1,107.999996704102,8|2,0:2|0:2,0:2:0:0:
497,147,148346,2,0,B|484:65|484:65|477:100,1,107.999996704102,8|0,0:2|0:2,0:2:0:0:
413,237,148712,1,10,0:2:0:0:
335,94,148956,6,0,P|256:79|202:142,1,161.999995056153,12|0,0:2|0:2,0:2:0:0:
160,192,149444,6,0,L|26:177,1,107.999996704102,4|2,1:1|0:2,0:2:0:0:
28,191,149810,1,0,0:2:0:0:
4,201,149932,2,0,L|13:279,1,53.9999983520508,8|0,1:2|0:2,0:2:0:0:
56,361,150176,2,0,L|60:308,1,53.9999983520508,2|0,0:2|0:2,0:2:0:0:
121,264,150420,2,0,B|196:256|196:256|234:270,1,107.999996704102,0|2,1:2|0:2,0:2:0:0:
247,285,150785,1,0,0:2:0:0:
269,301,150908,2,0,L|326:296,1,53.9999983520508,8|0,1:2|0:2,0:2:0:0:
438,265,151151,2,0,L|371:258,1,53.9999983520508,2|0,0:2|0:2,0:2:0:0:
341,166,151395,6,0,L|351:58,1,107.999996704102,4|2,1:1|0:2,0:2:0:0:
335,36,151761,1,0,0:2:0:0:
318,15,151883,2,0,L|265:17,1,53.9999983520508,8|0,1:2|0:2,0:2:0:0:
146,49,152127,2,0,L|201:53,1,53.9999983520508,2|0,0:2|0:2,0:2:0:0:
244,109,152371,2,0,B|235:191|235:191|215:210,1,107.999996704102,0|2,1:2|0:2,0:2:0:0:
193,221,152737,1,0,0:2:0:0:
170,234,152859,2,0,L|96:222,1,53.9999983520508,8|0,1:2|0:2,0:2:0:0:
6,276,153103,2,0,L|61:268,1,53.9999983520508,2|0,0:2|0:2,0:2:0:0:
71,172,153347,6,0,B|63:96|63:96|79:61,1,107.999996704102,4|2,1:1|0:2,0:2:0:0:
100,53,153712,1,0,0:2:0:0:
123,38,153834,2,0,L|177:45,1,53.9999983520508,8|0,1:2|0:2,0:2:0:0:
278,89,154078,2,0,L|224:97,1,53.9999983520508,2|0,0:2|0:2,0:2:0:0:
182,154,154322,2,0,B|188:227|188:227|211:256,1,107.999996704102,0|2,1:2|0:2,0:2:0:0:
235,264,154688,1,0,0:2:0:0:
261,274,154810,2,0,L|316:270,1,53.9999983520508,8|0,1:2|0:2,0:2:0:0:
422,228,155054,2,0,L|367:224,1,53.9999983520508,2|0,0:2|0:2,0:2:0:0:
298,151,155298,6,0,B|289:81|289:81|310:40,1,107.999996704102,4|2,1:1|0:2,0:2:0:0:
318,23,155663,1,0,0:2:0:0:
335,1,155786,2,0,L|400:10,1,53.9999983520508,8|0,1:2|0:2,0:2:0:0:
479,62,156029,2,0,L|418:68,1,53.9999983520508,2|0,0:2|0:2,0:2:0:0:
380,123,156273,2,0,L|396:242,1,107.999996704102,0|2,1:2|0:2,0:2:0:0:
383,254,156639,5,0,0:2:0:0:
369,276,156761,2,0,L|306:269,1,53.9999983520508,8|0,1:2|0:2,0:2:0:0:
195,304,157005,2,0,L|248:299,1,53.9999983520508,2|0,0:2|0:2,0:2:0:0:
296,200,157249,6,0,P|315:145|294:89,1,107.999996704102,4|2,1:1|0:2,0:2:0:0:
282,80,157615,1,0,0:2:0:0:
261,63,157737,2,0,L|187:67,1,53.9999983520508,8|0,1:2|0:2,0:2:0:0:
95,103,157981,2,0,L|148:107,1,53.9999983520508,2|0,0:2|0:2,0:2:0:0:
195,161,158225,2,0,B|194:236|194:236|214:273,1,107.999996704102,0|2,1:2|0:2,0:2:0:0:
231,281,158590,1,0,0:2:0:0:
256,293,158712,2,0,L|310:288,1,53.9999983520508,8|0,1:2|0:2,0:2:0:0:
426,257,158956,2,0,L|373:251,1,53.9999983520508,2|0,0:2|0:2,0:2:0:0:
296,188,159200,6,0,B|278:168|278:168|283:81,1,107.999996704102,4|2,1:1|0:2,0:2:0:0:
301,66,159566,1,0,0:2:0:0:
324,51,159688,2,0,L|377:49,1,53.9999983520508,8|0,1:2|0:2,0:2:0:0:
492,93,159932,2,0,L|439:89,1,53.9999983520508,2|0,0:2|0:2,0:2:0:0:
386,141,160176,2,0,B|398:252,1,107.999996704102,0|2,1:2|0:2,0:2:0:0:
385,272,160542,1,0,0:2:0:0:
368,292,160664,2,0,L|294:280,1,53.9999983520508,8|0,1:2|0:2,0:2:0:0:
195,314,160908,2,0,L|249:306,1,53.9999983520508,2|0,0:2|0:2,0:2:0:0:
284,212,161151,6,0,B|268:106,1,107.999996704102,4|2,1:1|0:2,0:2:0:0:
255,81,161517,1,0,0:2:0:0:
241,57,161639,2,0,L|184:51,1,53.9999983520508,8|0,1:2|0:2,0:2:0:0:
72,96,161883,2,0,L|127:88,1,53.9999983520508,2|0,0:2|0:2,0:2:0:0:
171,143,162127,2,0,B|181:217|181:217|164:251,1,107.999996704102,0|2,1:2|0:2,0:2:0:0:
143,261,162493,1,0,0:2:0:0:
119,273,162615,2,0,L|47:264,1,53.9999983520508,8|0,1:2|0:2,0:2:0:0:
33,202,162859,2,0,L|43:138,1,53.9999983520508,2|0,0:2|0:2,0:2:0:0:
76,64,163103,6,0,P|124:48|184:64,1,107.999996704102,4|2,1:1|0:2,0:2:0:0:
196,84,163468,1,0,0:2:0:0:
216,104,163590,2,0,P|248:112|280:106,1,53.9999983520508,8|0,0:2|0:2,0:2:0:0:
328,64,163834,2,0,L|332:8,1,53.9999983520508,2|8,0:2|0:2,0:2:0:0:
388,112,164078,2,0,L|398:219,1,107.999996704102,0|10,0:2|0:2,0:2:0:0:
385,236,164444,5,0,0:2:0:0:
365,252,164566,2,0,L|311:259,1,53.9999983520508,12|0,0:2|0:2,0:2:0:0:
215,310,164810,2,0,L|271:316,1,53.9999983520508,2|0,0:2|0:2,0:2:0:0:
256,192,165054,12,0,168712,0:2:0:0:
