osu file format v14

[General]
AudioFilename: audio.mp3
AudioLeadIn: 0
PreviewTime: 35062
Countdown: 0
SampleSet: Soft
StackLeniency: 1
Mode: 0
LetterboxInBreaks: 0
WidescreenStoryboard: 0

[Editor]
Bookmarks: 16754,36266,49925,51876,60680,67486,83096,86998,131876,133827,149437,165047
DistanceSpacing: 1.2
BeatDivisor: 4
GridSize: 4
TimelineZoom: 2.2

[Metadata]
Title:V kosmose
TitleUnicode:В космосе
Artist:SEREBRO
ArtistUnicode:SEREBRO
Creator:Marmowka
Version:Bakari's Hard
Source:
Tags:russian pop Bakari -Bakari- riffy Shmiklak ZLOdeuka- Nattu серебро Ольга Серябкина olga seryabkina Екатерина Кищук Ekaterina Kishchuk Полина Фаворская Polina Favorskaya maksim fadeev Максим Фадеев
BeatmapID:1643584
BeatmapSetID:781632

[Difficulty]
HPDrainRate:6
CircleSize:4
OverallDifficulty:7
ApproachRate:8
SliderMultiplier:1.6
SliderTickRate:1

[Events]
//Background and Video events
0,0,"4o-Q601otFg.jpg",0,0
//Break Periods
2,83059,85401
//Storyboard Layer 0 (Background)
//Storyboard Layer 1 (Fail)
//Storyboard Layer 2 (Pass)
//Storyboard Layer 3 (Foreground)
//Storyboard Sound Samples

[TimingPoints]
1160,487.80487804878,4,2,2,38,1,0
16769,-100,4,2,2,45,0,0
34330,-100,4,2,2,5,0,0
35306,-100,4,2,2,45,0,0
35794,-100,4,2,3,45,0,0
36281,-83.3333333333333,4,2,2,75,0,1
38599,-83.3333333333333,4,2,2,5,0,1
38720,-83.3333333333333,4,2,2,75,0,1
40550,-83.3333333333333,4,2,2,5,0,1
40672,-83.3333333333333,4,2,2,75,0,1
42501,-83.3333333333333,4,2,2,5,0,1
42623,-83.3333333333333,4,2,2,75,0,1
43964,-83.3333333333333,4,2,2,5,0,1
44086,-83.3333333333333,4,2,2,75,0,1
46403,-83.3333333333333,4,2,2,5,0,1
46525,-83.3333333333333,4,2,2,75,0,1
48355,-83.3333333333333,4,2,2,5,0,1
48477,-83.3333333333333,4,2,2,75,0,1
49940,-83.3333333333333,4,2,4,75,0,0
50550,-83.3333333333333,4,2,5,75,0,0
51525,-83.3333333333333,4,2,2,75,0,0
51891,-83.3333333333333,4,2,2,75,0,1
54208,-83.3333333333333,4,2,2,5,0,1
54330,-83.3333333333333,4,2,2,75,0,1
56159,-83.3333333333333,4,2,2,5,0,1
56281,-83.3333333333333,4,2,2,75,0,1
58111,-83.3333333333333,4,2,2,5,0,1
58233,-83.3333333333333,4,2,2,75,0,1
60062,-83.3333333333333,4,2,2,5,0,1
60184,-83.3333333333333,4,2,2,75,0,1
62013,-83.3333333333333,4,2,2,5,0,1
62135,-83.3333333333333,4,2,2,75,0,1
63964,-83.3333333333333,4,2,2,5,0,1
64086,-83.3333333333333,4,2,2,75,0,1
65550,-100,4,2,4,75,0,0
67493,487.80487804878,4,2,2,75,1,0
67493,-100,4,2,2,75,0,0
81151,-100,4,2,4,75,0,0
83103,-100,4,2,4,62,0,0
87005,-100,4,2,5,62,0,0
116273,-100,4,2,5,5,0,0
117249,-100,4,2,5,62,0,0
117737,-100,4,2,3,62,0,0
118224,-83.3333333333333,4,2,2,75,0,1
120541,-83.3333333333333,4,2,2,5,0,1
120663,-83.3333333333333,4,2,2,75,0,1
122492,-83.3333333333333,4,2,2,5,0,1
122614,-83.3333333333333,4,2,2,75,0,1
124444,-83.3333333333333,4,2,2,5,0,1
124566,-83.3333333333333,4,2,2,75,0,1
126395,-83.3333333333333,4,2,2,5,0,1
126517,-83.3333333333333,4,2,2,75,0,1
128346,-83.3333333333333,4,2,2,5,0,1
128468,-83.3333333333333,4,2,2,75,0,1
130297,-83.3333333333333,4,2,2,5,0,1
130419,-83.3333333333333,4,2,2,75,0,1
131883,-83.3333333333333,4,2,4,75,0,0
132493,-83.3333333333333,4,2,5,75,0,0
133469,-83.3333333333333,4,2,2,75,0,0
133834,-83.3333333333333,4,2,2,75,0,1
136151,-83.3333333333333,4,2,2,5,0,1
136273,-83.3333333333333,4,2,2,75,0,1
138102,-83.3333333333333,4,2,2,5,0,1
138224,-83.3333333333333,4,2,2,75,0,1
140053,-83.3333333333333,4,2,2,5,0,1
140175,-83.3333333333333,4,2,2,75,0,1
143956,-83.3333333333333,4,2,2,5,0,1
144078,-83.3333333333333,4,2,2,75,0,1
147492,-100,4,2,4,75,0,0
149444,-100,4,2,2,75,0,0
163103,-100,4,2,4,75,0,0
165054,-100,4,2,4,70,0,0

[Colours]
Combo1 : 111,157,124
Combo2 : 180,155,213
Combo3 : 156,97,98
Combo4 : 167,215,243
SliderBorder : 210,157,230
SliderTrackOverride : 76,55,111

[HitObjects]
96,292,1160,5,0,1:2:0:0:
220,168,1647,1,0,0:2:0:0:
280,232,1891,2,0,L|272:324,2,80,0|0|0,0:2|0:2|0:2,0:0:0:0:
360,192,2623,1,0,0:2:0:0:
296,132,2867,1,0,0:2:0:0:
444,40,3355,5,0,0:2:0:0:
500,108,3599,2,0,P|504:160|492:216,1,80,0|0,0:2|0:0,0:0:0:0:
436,248,4086,2,0,P|352:236|260:244,1,160,0|0,0:2|0:2,0:0:0:0:
140,352,5062,5,0,1:2:0:0:
20,220,5550,1,0,0:2:0:0:
72,152,5794,2,0,P|76:112|76:64,2,80,0|0|0,0:2|0:2|0:2,0:0:0:0:
144,200,6525,2,0,P|200:192|248:188,1,80,0|0,0:2|0:2,0:0:0:0:
380,272,7257,5,0,0:2:0:0:
444,212,7501,2,0,P|448:172|448:124,1,80,0|0,0:2|0:0,0:0:0:0:
384,72,7989,1,0,0:2:0:0:
248,184,8477,1,0,0:2:0:0:
108,76,8964,5,0,1:2:0:0:
16,228,9452,2,0,P|24:272|24:320,2,80,0|0|0,0:2|0:2|0:2,0:0:0:0:
64,156,10184,1,0,0:2:0:0:
120,236,10428,1,0,0:2:0:0:
192,172,10672,6,0,P|271:161|351:159,1,160,0|0,0:2|0:2,0:0:0:0:
432,108,11403,2,0,P|424:60|428:16,2,80,0|0|0,0:2|0:2|0:2,0:0:0:0:
500,344,12379,1,0,0:2:0:0:
328,316,12867,5,0,1:2:0:0:
156,352,13355,1,0,0:2:0:0:
92,292,13599,1,0,0:2:0:0:
48,216,13842,2,0,L|40:113,1,80,0|0,0:2|0:2,0:0:0:0:
74,53,14330,1,0,0:0:0:0:
165,27,14574,1,0,0:2:0:0:
384,132,15062,6,0,P|368:180|360:300,1,160,0|0,0:2|0:0,0:0:0:0:
420,352,15794,1,0,0:2:0:0:
256,288,16281,1,0,0:2:0:0:
96,360,16769,6,0,P|48:344|8:340,1,80,0|0,1:2|2:0,0:0:0:0:
36,244,17257,2,0,P|28:176|28:152,1,80,0|0,1:2|0:2,0:0:0:0:
116,128,17745,2,0,P|124:60|124:36,1,80,0|0,1:2|0:2,0:0:0:0:
32,20,18233,1,0,1:2:0:0:
24,116,18477,6,0,P|92:132|192:128,1,160,0|0,0:2|0:2,0:0:0:0:
268,168,19208,2,0,P|328:160|360:160,1,80,0|0,1:2|0:2,0:0:0:0:
392,244,19696,2,0,P|332:256|228:248,1,160,0|0,1:2|1:2,0:0:0:0:
64,156,20672,5,0,1:2:0:0:
144,332,21159,2,0,P|196:344|244:344,1,80,0|0,1:2|0:2,0:0:0:0:
268,260,21647,2,0,P|216:248|100:240,1,160,0|0,1:0|1:0,0:0:0:0:
32,184,22379,6,0,P|40:116|40:12,1,160,0|0,0:2|0:2,0:0:0:0:
128,68,23111,2,0,P|124:108|126:147,1,80,0|0,1:2|0:2,0:0:0:0:
252,196,23599,1,0,1:2:0:0:
60,172,24086,1,0,1:2:0:0:
0,356,24574,5,0,1:2:0:0:
60,172,25062,2,0,P|48:128|44:84,1,80,0|0,1:2|0:2,0:0:0:0:
100,16,25550,1,0,1:2:0:0:
180,72,25794,1,0,0:2:0:0:
272,44,26038,2,0,P|320:36|369:35,1,80,0|0,1:2|0:2,0:0:0:0:
440,68,26525,5,0,1:2:0:0:
396,152,26769,1,0,0:2:0:0:
456,224,27013,1,0,1:2:0:0:
264,216,27501,1,0,1:2:0:0:
136,360,27989,1,0,1:2:0:0:
4,224,28477,5,0,1:2:0:0:
116,68,28964,2,0,P|124:108|124:156,1,80,0|0,1:2|0:2,0:0:0:0:
84,236,29452,2,0,P|84:275|92:315,1,80,0|0,1:2|0:2,0:0:0:0:
176,364,29940,1,0,1:2:0:0:
256,312,30184,1,0,0:2:0:0:
348,344,30428,6,0,P|396:348|448:344,1,80,0|0,1:2|0:2,0:0:0:0:
492,276,30916,1,0,1:2:0:0:
312,208,31403,1,0,1:2:0:0:
124,248,31891,1,0,1:2:0:0:
256,192,32379,12,0,34330,0:0:0:0:
208,266,35306,5,2,0:2:0:0:
220,172,35550,1,2,0:2:0:0:
115,208,35794,6,0,P|122:264|121:350,1,120,4|0,0:2|0:0,0:0:0:0:
12,274,36281,6,0,L|27:166,1,95.9999970703126,4|2,1:1|0:2,0:0:0:0:
112,56,36769,1,8,1:2:0:0:
148,164,37013,1,2,0:2:0:0:
253,43,37257,1,0,1:2:0:0:
253,43,37379,1,0,0:0:0:0:
253,43,37501,1,2,0:2:0:0:
410,94,37745,2,0,P|359:109|309:111,1,95.9999970703126,8|2,1:2|0:2,0:0:0:0:
213,243,38233,6,0,P|273:233|378:230,1,143.999995605469,0|0,1:2|0:0,0:0:0:0:
424,276,38720,1,8,1:2:0:0:
452,164,38964,1,2,0:2:0:0:
509,337,39208,1,0,1:2:0:0:
509,337,39330,1,0,0:0:0:0:
509,337,39452,1,2,0:2:0:0:
339,323,39696,2,0,P|303:329|229:357,1,95.9999970703126,8|2,1:2|0:2,0:0:0:0:
116,220,40184,6,0,P|186:245|268:247,1,143.999995605469,0|0,1:2|0:2,0:0:0:0:
310,182,40672,1,8,1:2:0:0:
236,92,40916,1,2,0:2:0:0:
116,220,41159,1,0,1:2:0:0:
116,220,41281,1,0,0:0:0:0:
116,220,41403,1,2,0:2:0:0:
14,106,41647,2,0,P|37:65|73:21,1,95.9999970703126,8|2,1:2|0:2,0:0:0:0:
238,15,42135,6,0,P|218:65|168:146,1,143.999995605469,0|0,1:2|0:0,0:0:0:0:
99,179,42623,1,8,1:2:0:0:
225,228,42867,1,2,0:2:0:0:
83,316,43111,1,0,1:2:0:0:
83,316,43233,1,0,0:0:0:0:
83,316,43355,1,2,0:2:0:0:
241,356,43599,2,0,P|293:339|390:356,1,143.999995605469,8|2,1:2|0:2,0:0:0:0:
444,315,44086,5,4,1:1:0:0:
336,268,44330,1,2,0:2:0:0:
296,156,44574,1,8,1:2:0:0:
415,227,44818,1,2,0:2:0:0:
380,351,45062,1,0,1:2:0:0:
380,351,45184,1,0,0:2:0:0:
380,351,45306,1,2,0:2:0:0:
222,306,45550,2,0,P|174:298|118:294,1,95.9999970703126,8|2,1:2|0:2,0:0:0:0:
278,215,46038,6,0,P|352:216|432:196,1,143.999995605469,0|0,1:2|0:0,0:0:0:0:
465,127,46525,1,8,1:2:0:0:
416,288,46769,1,2,0:2:0:0:
278,215,47013,1,0,1:2:0:0:
278,215,47135,1,0,0:2:0:0:
278,215,47257,1,2,0:2:0:0:
161,319,47501,2,0,P|132:312|56:308,1,95.9999970703126,8|2,1:2|0:2,0:0:0:0:
40,111,47989,6,0,P|96:101|187:48,1,143.999995605469,0|2,1:2|0:2,0:0:0:0:
221,7,48477,1,8,1:2:0:0:
302,103,48720,2,0,L|367:94,1,47.9999985351563,2|0,0:2|1:2,0:0:0:0:
397,75,48964,1,0,1:2:0:0:
449,103,49086,1,0,0:0:0:0:
509,99,49208,1,2,0:2:0:0:
512,216,49452,2,0,P|516:261|509:332,1,95.9999970703126,8|2,1:2|0:2,0:0:0:0:
377,356,49940,6,0,P|298:330|216:334,1,143.999995605469,0|0,1:2|0:0,0:0:0:0:
163,365,50428,2,0,P|119:364|67:356,1,95.9999970703126,8|2,1:2|0:2,0:0:0:0:
8,261,50916,1,0,0:2:0:0:
8,261,51038,1,0,0:0:0:0:
8,261,51159,1,10,0:2:0:0:
68,160,51403,2,0,P|48:120|36:64,1,95.9999970703126,4|2,0:2|0:2,0:0:0:0:
198,139,51891,6,0,P|178:191|168:270,1,95.9999970703126,4|2,1:1|0:2,0:0:0:0:
223,364,52379,1,8,1:2:0:0:
328,264,52623,1,2,0:2:0:0:
440,332,52867,1,0,1:2:0:0:
440,332,52989,1,0,0:0:0:0:
440,332,53111,1,2,0:2:0:0:
504,184,53355,2,0,P|512:136|512:84,1,95.9999970703126,8|2,1:2|0:2,0:0:0:0:
344,28,53842,6,0,P|352:117|369:184,1,143.999995605469,0|0,1:2|0:0,0:0:0:0:
352,248,54330,1,8,1:2:0:0:
238,196,54574,1,2,0:2:0:0:
160,284,54818,1,0,1:2:0:0:
160,284,54940,1,0,0:0:0:0:
160,284,55062,1,2,0:2:0:0:
24,196,55306,2,0,P|22:150|10:90,1,95.9999970703126,8|2,1:2|0:2,0:0:0:0:
155,6,55794,6,0,P|138:66|131:151,1,143.999995605469,0|0,1:2|0:2,0:0:0:0:
175,221,56281,1,8,1:2:0:0:
312,133,56525,1,2,0:2:0:0:
400,212,56769,1,0,1:2:0:0:
400,212,56891,1,0,0:0:0:0:
400,212,57013,1,2,0:2:0:0:
304,336,57257,2,0,P|284:275|281:228,1,95.9999970703126,8|2,1:2|0:2,0:0:0:0:
184,352,57745,6,0,P|111:339|27:343,1,143.999995605469,0|0,1:2|0:0,0:0:0:0:
0,276,58233,1,8,1:2:0:0:
100,160,58477,1,2,0:2:0:0:
16,72,58720,1,0,1:2:0:0:
16,72,58842,1,0,0:0:0:0:
16,72,58964,1,2,0:2:0:0:
168,16,59208,2,0,P|213:12|270:13,1,95.9999970703126,8|2,1:2|0:2,0:0:0:0:
365,130,59696,6,0,P|298:142|198:130,1,143.999995605469,4|0,1:1|0:0,0:0:0:0:
149,89,60184,1,8,1:2:0:0:
241,219,60428,1,2,0:2:0:0:
188,324,60672,1,0,1:2:0:0:
188,324,60794,1,0,0:2:0:0:
188,324,60916,1,2,0:2:0:0:
340,364,61159,2,0,P|404:356|460:360,1,95.9999970703126,8|2,1:2|0:2,0:0:0:0:
496,232,61647,6,0,P|507:163|503:70,1,143.999995605469,0|0,1:2|0:0,0:0:0:0:
434,40,62135,1,8,1:2:0:0:
321,130,62379,1,2,0:2:0:0:
228,64,62623,1,0,1:2:0:0:
228,64,62745,1,0,0:2:0:0:
228,64,62867,1,2,0:2:0:0:
104,152,63111,2,0,P|68:160|8:160,1,95.9999970703126,8|2,1:2|0:2,0:0:0:0:
216,224,63599,6,0,P|194:275|179:391,1,143.999995605469,0|0,1:2|0:0,0:0:0:0:
94,369,64086,1,8,1:2:0:0:
20,240,64330,2,0,L|32:192,1,47.9999985351563,2|0,0:2|1:2,0:0:0:0:
76,156,64574,1,0,1:2:0:0:
48,104,64696,1,0,0:0:0:0:
40,48,64818,1,2,0:2:0:0:
192,109,65062,2,0,P|200:163|197:218,1,95.9999970703126,8|2,1:2|0:2,0:0:0:0:
147,338,65550,6,0,P|218:315|285:307,1,120,0|0,1:2|0:0,0:0:0:0:
335,352,66038,1,8,0:2:0:0:
456,294,66281,2,0,L|500:298,2,40,2|8|0,0:2|0:2|0:2,0:0:0:0:
416,219,66647,2,0,L|364:227,1,40,2|10,0:2|0:2,0:0:0:0:
490,56,67013,6,0,P|498:102|496:193,1,120,12|0,0:2|0:2,0:0:0:0:
407,126,67493,6,0,P|400:71|403:27,1,80,4|2,1:1|0:2,0:0:0:0:
376,214,67981,1,8,1:2:0:0:
340,181,68103,2,0,L|248:169,1,80,0|0,0:2|0:2,0:0:0:0:
220,197,68469,2,0,L|128:185,1,80,0|2,1:2|0:2,0:0:0:0:
120,229,68834,2,0,L|28:217,1,80,0|0,0:2|0:2,0:0:0:0:
16,176,69200,1,2,0:2:0:0:
96,331,69444,6,0,P|57:340|12:340,1,80,4|2,1:1|0:2,0:0:0:0:
182,271,69932,1,8,1:2:0:0:
224,244,70054,2,0,P|260:264|292:312,1,80,0|0,0:2|0:2,0:0:0:0:
316,256,70420,2,0,P|315:214|340:163,1,80,0|2,1:2|0:2,0:0:0:0:
280,176,70786,2,0,P|244:197|187:200,1,80,0|0,0:2|0:2,0:0:0:0:
172,168,71151,1,2,0:2:0:0:
56,69,71395,6,0,L|50:159,1,80,4|2,1:1|0:2,0:0:0:0:
15,274,71883,1,8,1:2:0:0:
52,308,72005,2,0,L|140:292,1,80,0|0,0:2|0:2,0:0:0:0:
165,328,72371,2,0,L|253:312,1,80,0|2,1:2|0:2,0:0:0:0:
278,348,72737,2,0,L|366:332,1,80,0|0,0:2|0:2,0:0:0:0:
391,368,73103,1,2,0:2:0:0:
485,284,73347,6,0,L|497:192,1,80,4|2,1:1|0:2,0:0:0:0:
410,95,73834,1,8,1:2:0:0:
364,116,73956,2,0,P|320:104|280:80,1,80,0|0,0:2|0:2,0:0:0:0:
248,112,74322,2,0,P|204:100|164:76,1,80,0|2,1:2|0:2,0:0:0:0:
128,96,74688,2,0,P|84:84|44:60,1,80,0|0,0:2|0:2,0:0:0:0:
40,20,75054,1,2,0:2:0:0:
14,156,75298,6,0,L|31:250,1,80,4|2,1:1|0:2,0:0:0:0:
8,356,75786,1,8,1:2:0:0:
44,320,75908,2,0,B|81:330|81:330|129:319,1,80,0|0,0:2|0:2,0:0:0:0:
170,320,76273,2,0,B|207:330|207:330|255:319,1,80,0|2,1:2|0:2,0:0:0:0:
297,320,76639,2,0,B|334:330|334:330|382:319,1,80,0|0,0:2|0:2,0:0:0:0:
408,284,77005,1,2,0:2:0:0:
341,143,77249,6,0,L|335:227,1,80,4|2,1:1|0:2,0:0:0:0:
401,75,77737,1,8,1:2:0:0:
356,52,77859,2,0,L|268:64,1,80,0|0,0:2|0:2,0:0:0:0:
241,97,78225,2,0,L|153:109,1,80,0|2,1:2|0:2,0:0:0:0:
126,142,78591,2,0,L|38:154,1,80,0|0,0:2|0:2,0:0:0:0:
11,187,78956,1,2,0:2:0:0:
85,329,79200,6,0,L|96:243,1,80,4|2,1:1|0:2,0:0:0:0:
199,299,79688,1,8,1:2:0:0:
244,324,79810,2,0,P|284:308|320:300,1,80,0|0,0:2|0:2,0:0:0:0:
344,256,80176,2,0,P|304:240|268:232,1,80,0|2,1:2|0:2,0:0:0:0:
240,192,80542,2,0,P|280:176|316:168,1,80,0|0,0:2|0:2,0:0:0:0:
364,172,80908,1,2,0:2:0:0:
492,212,81151,6,0,L|476:126,1,80,4|2,1:1|0:2,0:0:0:0:
510,20,81639,1,8,0:2:0:0:
464,40,81761,2,0,P|416:40|372:24,1,80,0|8,0:2|0:2,0:0:0:0:
344,60,82127,2,0,P|305:49|265:50,1,80,0|10,0:2|0:2,0:0:0:0:
220,32,82493,2,0,P|172:32|128:16,1,80,0|0,0:2|0:2,0:0:0:0:
100,48,82859,1,2,0:2:0:0:
96,292,86151,6,0,L|88:248,2,40,0|0|0,0:0|0:0|0:0,0:0:0:0:
136,320,86517,1,12,0:2:0:0:
280,188,87005,6,0,P|296:224|304:288,1,80,4|2,1:1|0:2,0:0:0:0:
204,252,87493,2,0,P|188:216|180:152,1,80,8|2,1:2|0:2,0:0:0:0:
240,96,87981,1,0,0:2:0:0:
176,20,88225,1,2,0:2:0:0:
120,100,88469,2,0,P|72:104|16:0,1,160,8|0,1:2|1:2,0:0:0:0:
21,169,89200,6,0,P|4:218|-1:266,2,80,2|8|0,0:2|1:2|0:2,0:0:0:0:
99,270,89932,2,0,P|105:305|108:370,1,80,0|0,1:2|0:2,0:0:0:0:
206,301,90420,2,0,P|244:307|356:381,1,160,8|0,1:2|1:2,0:0:0:0:
496,236,91395,5,8,1:2:0:0:
496,236,91639,2,0,L|404:228,2,80,2|0|2,0:2|1:2|0:2,0:0:0:0:
396,150,92371,1,8,1:2:0:0:
332,224,92615,2,0,P|339:266|339:308,1,80,2|0,0:2|1:2,0:0:0:0:
256,356,93103,5,2,0:2:0:0:
176,304,93347,2,0,P|132:308|80:320,1,80,8|0,1:2|0:2,0:0:0:0:
16,364,93834,1,0,1:2:0:0:
16,364,94322,1,8,1:2:0:0:
12,172,94810,6,0,P|4:132|4:84,1,80,0|2,1:2|0:2,0:0:0:0:
96,120,95298,2,0,P|104:160|104:208,1,80,8|2,1:2|0:2,0:0:0:0:
36,268,95786,1,0,1:2:0:0:
36,268,96030,1,2,0:2:0:0:
36,268,96273,1,8,1:2:0:0:
120,316,96517,1,2,0:2:0:0:
227,226,96761,6,0,P|295:218|367:298,1,160,0|8,1:2|0:2,0:0:0:0:
420,200,97493,1,2,0:2:0:0:
348,136,97737,1,0,0:2:0:0:
440,65,97981,1,10,0:2:0:0:
316,13,98225,1,12,0:2:0:0:
126,155,98712,5,4,1:1:0:0:
126,155,98956,1,2,1:2:0:0:
126,155,99200,1,8,1:2:0:0:
52,332,99688,2,0,P|88:324|144:328,1,80,0|2,1:2|0:2,0:0:0:0:
220,360,100176,1,8,1:2:0:0:
196,268,100420,1,2,0:2:0:0:
220,360,100664,5,0,1:2:0:0:
292,296,100908,2,0,P|336:292|384:296,2,80,2|8|2,0:2|1:2|0:2,0:0:0:0:
196,268,101639,1,0,1:2:0:0:
284,96,102127,1,8,1:2:0:0:
284,96,102371,1,2,0:2:0:0:
284,96,102615,6,0,L|276:192,1,80,0|2,1:2|0:2,0:0:0:0:
344,244,103103,1,8,1:2:0:0:
164,172,103591,2,0,P|144:212|128:268,2,80,0|2|8,1:2|0:2|1:2,0:0:0:0:
68,168,104322,6,0,P|48:128|32:72,1,80,2|0,0:2|1:2,0:0:0:0:
100,20,104810,1,2,0:2:0:0:
184,64,105054,2,0,L|280:52,1,80,8|0,1:2|0:2,0:0:0:0:
348,100,105542,2,0,P|372:56|412:12,1,80,0|0,1:2|0:2,0:0:0:0:
447,113,106030,2,0,P|425:159|388:189,1,80,12|0,1:2|0:0,0:0:0:0:
252,217,106517,6,0,P|288:229|356:237,1,80,4|2,1:1|0:2,0:0:0:0:
408,284,107005,1,8,1:2:0:0:
336,336,107249,1,2,0:2:0:0:
248,376,107493,2,0,P|200:356|88:376,1,160,0|8,1:2|1:2,0:0:0:0:
21,260,108225,6,0,P|9:196|13:84,1,160,2|2,0:2|0:2,0:0:0:0:
113,30,108956,2,0,P|111:77|105:131,1,80,8|2,1:2|0:2,0:0:0:0:
128,204,109444,2,0,P|124:243|122:283,1,80,0|2,1:2|0:2,0:0:0:0:
80,372,109932,1,12,1:2:0:0:
264,316,110420,5,0,1:2:0:0:
456,340,110908,1,8,1:2:0:0:
368,372,111151,1,2,0:2:0:0:
456,340,111395,2,0,P|464:288|468:247,1,80,0|2,1:2|0:2,0:0:0:0:
376,232,111883,2,0,P|368:180|364:139,1,80,8|2,1:2|0:2,0:0:0:0:
419,47,112371,5,0,1:2:0:0:
419,47,112859,2,0,P|361:44|323:23,1,80,8|2,1:2|0:2,0:0:0:0:
248,76,113347,2,0,L|160:88,1,80,0|10,1:2|0:2,0:0:0:0:
80,52,113834,1,12,1:2:0:0:
256,192,114322,12,0,116273,0:0:0:0:
137,181,117249,5,2,0:0:0:0:
43,169,117493,1,2,0:0:0:0:
79,274,117737,6,0,P|135:267|221:268,1,120,4|0,0:2|0:0,0:0:0:0:
314,243,118224,6,0,P|334:191|344:112,1,95.9999970703126,4|2,1:1|0:2,0:0:0:0:
289,18,118713,1,8,1:2:0:0:
184,118,118957,1,2,0:2:0:0:
72,50,119201,1,0,1:2:0:0:
72,50,119323,1,0,0:0:0:0:
72,50,119445,1,2,0:2:0:0:
16,150,119689,2,0,P|8:198|8:250,1,95.9999970703126,8|2,1:2|0:2,0:0:0:0:
155,320,120176,6,0,P|147:231|130:164,1,143.999995605469,0|0,1:2|0:0,0:0:0:0:
158,99,120664,1,8,1:2:0:0:
274,186,120908,1,2,0:2:0:0:
352,98,121152,1,0,1:2:0:0:
352,98,121274,1,0,0:0:0:0:
352,98,121396,1,2,0:2:0:0:
474,165,121640,2,0,P|476:211|488:271,1,95.9999970703126,8|2,1:2|0:2,0:0:0:0:
357,376,122128,6,0,P|374:316|381:231,1,143.999995605469,0|0,1:2|0:2,0:0:0:0:
337,161,122615,1,8,1:2:0:0:
200,249,122859,1,2,0:2:0:0:
112,170,123103,1,0,1:2:0:0:
112,170,123225,1,0,0:0:0:0:
112,170,123347,1,2,0:2:0:0:
190,66,123591,2,0,P|210:127|213:174,1,95.9999970703126,8|2,1:2|0:2,0:0:0:0:
169,302,124079,6,0,P|242:315|326:311,1,143.999995605469,0|0,1:2|0:0,0:0:0:0:
370,262,124567,1,8,1:2:0:0:
458,353,124811,1,2,0:2:0:0:
428,201,125054,1,0,1:2:0:0:
428,201,125176,1,0,0:0:0:0:
428,201,125298,1,2,0:2:0:0:
248,236,125542,2,0,P|200:236|152:232,1,95.9999970703126,8|2,1:2|0:2,0:0:0:0:
104,154,126030,6,0,P|171:142|271:154,1,143.999995605469,4|0,1:1|0:0,0:0:0:0:
312,199,126518,1,8,1:2:0:0:
260,64,126762,1,2,0:2:0:0:
188,214,127006,1,0,1:2:0:0:
188,214,127128,1,0,0:2:0:0:
188,214,127250,1,2,0:2:0:0:
98,122,127493,2,0,P|34:130|-22:126,1,95.9999970703126,8|2,1:2|0:2,0:0:0:0:
0,311,127981,6,0,P|69:300|162:304,1,143.999995605469,0|0,1:2|0:0,0:0:0:0:
201,367,128469,1,8,1:2:0:0:
270,238,128713,1,2,0:2:0:0:
354,322,128957,1,0,1:2:0:0:
354,322,129079,1,0,0:2:0:0:
354,322,129201,1,2,0:2:0:0:
416,224,129445,2,0,P|452:216|512:216,1,95.9999970703126,8|2,1:2|0:2,0:0:0:0:
290,174,129933,6,0,P|268:123|253:7,1,143.999995605469,0|0,1:2|0:0,0:0:0:0:
324,9,130420,1,8,1:2:0:0:
467,200,130664,2,0,L|419:188,1,47.9999985351563,2|0,0:2|1:2,0:0:0:0:
376,228,130908,1,0,1:2:0:0:
318,229,131030,1,0,0:0:0:0:
266,259,131152,1,2,0:2:0:0:
108,348,131396,2,0,P|162:356|217:353,1,95.9999970703126,8|2,1:2|0:2,0:0:0:0:
153,236,131883,6,0,P|92:250|9:246,1,143.999995605469,0|0,1:2|0:0,0:0:0:0:
5,173,132371,1,8,1:2:0:0:
127,102,132615,1,2,0:2:0:0:
216,180,132859,2,0,L|212:229,2,47.9999985351563,0|0|10,0:2|0:0|0:2,0:0:0:0:
316,120,133347,2,0,P|328:164|332:228,1,95.9999970703126,12|2,0:2|0:2,0:0:0:0:
500,274,133834,6,0,L|485:166,1,95.9999970703126,4|2,1:1|0:2,0:0:0:0:
391,258,134322,1,8,1:2:0:0:
355,366,134566,1,2,0:2:0:0:
250,245,134810,1,0,1:2:0:0:
250,245,134932,1,0,0:0:0:0:
250,245,135054,1,2,0:2:0:0:
92,303,135298,2,0,P|143:318|193:320,1,95.9999970703126,8|2,1:2|0:2,0:0:0:0:
7,353,135786,6,0,P|17:293|20:188,1,143.999995605469,0|0,1:2|0:0,0:0:0:0:
0,139,136273,1,8,1:2:0:0:
105,28,136517,1,2,0:2:0:0:
196,100,136761,1,0,1:2:0:0:
196,100,136883,1,0,0:0:0:0:
196,100,137005,1,2,0:2:0:0:
288,28,137249,2,0,P|324:34|398:62,1,95.9999970703126,8|2,1:2|0:2,0:0:0:0:
497,142,137737,6,0,P|425:140|341:155,1,143.999995605469,0|0,1:2|0:2,0:0:0:0:
293,195,138225,1,8,1:2:0:0:
360,78,138469,1,2,0:2:0:0:
425,224,138712,1,0,1:2:0:0:
425,224,138834,1,0,0:0:0:0:
425,224,138956,1,2,0:2:0:0:
383,332,139200,2,0,P|334:343|291:358,1,95.9999970703126,8|2,1:2|0:2,0:0:0:0:
211,280,139688,6,0,P|156:262|61:257,1,143.999995605469,0|0,1:2|0:0,0:0:0:0:
12,303,140176,1,8,1:2:0:0:
92,181,140420,1,2,0:2:0:0:
217,284,140664,1,0,1:2:0:0:
217,284,140786,1,0,0:0:0:0:
217,284,140908,1,2,0:2:0:0:
316,201,141152,2,0,P|319:152|320:91,1,95.9999970703126,8|2,1:2|0:2,0:0:0:0:
239,0,141639,5,4,1:1:0:0:
190,107,141883,1,2,0:2:0:0:
235,217,142127,1,8,1:2:0:0:
276,84,142371,1,2,0:2:0:0:
141,31,142615,1,0,1:2:0:0:
141,31,142737,1,0,0:2:0:0:
141,31,142859,1,2,0:2:0:0:
62,162,143103,2,0,P|31:200|-7:240,1,95.9999970703126,8|2,1:2|0:2,0:0:0:0:
165,318,143591,6,0,P|91:319|11:299,1,143.999995605469,0|0,1:2|0:0,0:0:0:0:
12,231,144078,1,8,1:2:0:0:
36,94,144322,1,2,0:2:0:0:
147,183,144566,1,0,1:2:0:0:
147,183,144688,1,0,0:2:0:0:
147,183,144810,1,2,0:2:0:0:
228,52,145054,2,0,P|257:45|333:41,1,95.9999970703126,8|2,1:2|0:2,0:0:0:0:
450,218,145542,6,0,P|407:210|351:186,1,95.9999970703126,0|2,1:2|0:2,0:0:0:0:
312,303,146030,1,8,1:2:0:0:
236,203,146273,2,0,L|245:138,1,47.9999985351563,2|0,0:2|1:2,0:0:0:0:
279,112,146517,1,0,1:2:0:0:
251,60,146639,1,0,0:0:0:0:
255,0,146761,1,2,0:2:0:0:
132,24,147005,2,0,P|87:20|19:18,1,95.9999970703126,8|2,1:2|0:2,0:0:0:0:
112,140,147492,6,0,P|160:120|248:112,1,120,0|0,1:2|0:0,0:0:0:0:
300,128,147981,1,8,0:2:0:0:
396,64,148225,2,0,L|388:16,1,40,2|8,0:2|0:2,0:0:0:0:
492,108,148591,2,0,L|484:160,1,40,2|10,0:0|0:2,0:0:0:0:
358,192,148956,2,0,L|374:276,1,80,12|0,0:2|0:0,0:0:0:0:
495,344,149444,5,4,1:1:0:0:
439,212,149688,1,2,1:2:0:0:
497,110,149932,1,8,1:2:0:0:
460,76,150054,2,0,L|372:92,1,80,0|0,0:2|0:2,0:0:0:0:
347,56,150420,2,0,L|259:72,1,80,0|2,1:2|0:2,0:0:0:0:
234,36,150786,2,0,L|146:52,1,80,0|0,0:2|0:2,0:0:0:0:
121,16,151152,1,2,0:2:0:0:
27,100,151396,6,0,L|15:192,1,80,4|2,1:1|0:2,0:0:0:0:
102,289,151883,1,8,1:2:0:0:
148,268,152005,2,0,P|192:280|232:304,1,80,0|0,0:2|0:2,0:0:0:0:
264,272,152371,2,0,P|308:284|348:308,1,80,0|2,1:2|0:2,0:0:0:0:
384,288,152737,2,0,P|428:300|468:324,1,80,0|0,0:2|0:2,0:0:0:0:
472,364,153103,1,2,0:2:0:0:
497,222,153347,6,0,L|505:141,1,80,4|2,1:1|0:2,0:0:0:0:
424,24,153834,1,8,1:2:0:0:
388,56,153956,2,0,L|304:68,1,80,0|0,0:2|0:2,0:0:0:0:
273,102,154322,2,0,L|189:114,1,80,0|2,1:2|0:2,0:0:0:0:
158,148,154688,2,0,L|74:160,1,80,0|0,0:2|0:2,0:0:0:0:
36,136,155054,1,2,0:2:0:0:
84,282,155298,6,0,P|45:291|0:291,1,80,4|2,1:1|0:2,0:0:0:0:
138,343,155786,1,8,1:2:0:0:
180,316,155908,2,0,P|216:336|248:384,1,80,0|0,0:2|0:2,0:0:0:0:
272,328,156274,2,0,P|271:286|296:235,1,80,0|2,1:2|0:2,0:0:0:0:
236,248,156640,2,0,P|200:269|143:272,1,80,0|0,0:2|0:2,0:0:0:0:
124,244,157005,1,2,0:2:0:0:
14,228,157249,6,0,L|31:134,1,80,4|2,1:1|0:2,0:0:0:0:
8,28,157737,1,8,1:2:0:0:
44,64,157859,2,0,B|81:54|81:54|129:65,1,80,0|0,0:2|0:2,0:0:0:0:
170,64,158225,2,0,B|207:54|207:54|255:65,1,80,0|2,1:2|0:2,0:0:0:0:
297,64,158590,2,0,B|334:54|334:54|382:65,1,80,0|0,0:2|0:2,0:0:0:0:
408,100,158956,1,2,0:2:0:0:
341,241,159200,6,0,L|335:157,1,80,4|2,1:1|0:2,0:0:0:0:
401,309,159688,1,8,1:2:0:0:
356,332,159810,2,0,L|268:320,1,80,0|0,0:2|0:2,0:0:0:0:
241,287,160176,2,0,L|153:275,1,80,0|2,1:2|0:2,0:0:0:0:
126,242,160542,2,0,L|38:230,1,80,0|0,0:2|0:2,0:0:0:0:
11,197,160907,1,2,0:2:0:0:
110,63,161151,6,0,L|99:142,1,80,4|2,1:1|0:2,0:0:0:0:
179,202,161639,1,8,1:2:0:0:
224,227,161761,2,0,P|264:211|300:203,1,80,0|0,0:2|0:2,0:0:0:0:
279,159,162127,2,0,P|239:143|203:135,1,80,0|2,1:2|0:2,0:0:0:0:
183,90,162493,2,0,P|223:74|259:66,1,80,0|0,0:2|0:2,0:0:0:0:
307,67,162859,1,2,0:2:0:0:
391,113,163103,6,0,L|377:207,1,80,4|2,1:1|0:2,0:0:0:0:
408,284,163591,1,8,0:2:0:0:
364,264,163712,2,0,L|280:276,1,80,0|8,0:2|0:2,0:0:0:0:
248,300,164078,2,0,L|164:312,1,80,0|10,0:2|0:2,0:0:0:0:
134,276,164444,2,0,L|50:288,1,80,0|0,0:2|0:2,0:0:0:0:
17,244,164810,1,2,0:2:0:0:
