osu file format v14

[General]
AudioFilename: audio.mp3
AudioLeadIn: 0
PreviewTime: 24252
Countdown: 0
SampleSet: Drum
StackLeniency: 0.7
Mode: 0
LetterboxInBreaks: 0
WidescreenStoryboard: 1

[Editor]
Bookmarks: 9492,24852,40212,47892,63252,76692
DistanceSpacing: 1.3
BeatDivisor: 4
GridSize: 32
TimelineZoom: 0.8

[Metadata]
Title:Song #1 (Cut Ver.)
TitleUnicode:Song #1 (Cut Ver.)
Artist:SEREBRO
ArtistUnicode:SEREBRO
Creator:wajinshu
Version:Normal
Source:Eurovision Song Contest 2007
Tags:english pop серебро максим фадеев maxim maksim fadeev mama lover esc
BeatmapID:2693897
BeatmapSetID:1298787

[Difficulty]
HPDrainRate:3
CircleSize:3.5
OverallDifficulty:3.5
ApproachRate:4.5
SliderMultiplier:1.2
SliderTickRate:1

[Events]
//Background and Video events
0,0,"olga-seryabkina-katya-kischuk-tatiana-morgunova-girls-blonde.jpg",0,0
//Break Periods
//Storyboard Layer 0 (Background)
//Storyboard Layer 1 (Fail)
//Storyboard Layer 2 (Pass)
//Storyboard Layer 3 (Foreground)
//Storyboard Layer 4 (Overlay)
//Storyboard Sound Samples

[TimingPoints]
9492,480,4,3,1,75,1,0
24852,-100,4,3,1,75,0,0
39732,-100,4,3,1,75,0,0
45252,-100,4,3,1,75,0,0
47892,-100,4,3,1,75,0,1
53652,-100,4,3,1,75,0,0
55572,-100,4,3,1,75,0,1
61332,-100,4,3,1,75,0,0

[Colours]
Combo1 : 218,82,82
Combo2 : 236,211,114
Combo3 : 233,170,255

[HitObjects]
455,102,9492,6,0,P|401:119|327:108,1,120,4|8,0:1|0:0,0:0:0:0:
273,68,10212,2,0,P|217:65|160:101,1,120
146,173,10932,2,0,L|150:240,1,60,8|0,0:0|0:0,0:0:0:0:
150,310,11412,1,0,0:1:0:0:
297,359,11892,2,0,L|363:350,1,60,8|0,0:0|0:0,0:0:0:0:
472,245,12612,2,0,L|402:231,1,60,0|8,0:0|0:0,0:0:0:0:
316,110,13332,6,0,B|241:128|262:81|190:103,1,120,0|8,0:1|0:0,0:0:0:0:
133,140,14052,1,0,0:0:0:0:
71,91,14292,2,0,L|83:15,2,60,0|0|8,0:0|0:0|0:0,0:0:0:0:
155,221,15252,2,0,P|146:258|142:290,1,60
80,329,15732,2,0,P|49:321|23:293,1,60,8|0,0:0|0:0,0:0:0:0:
169,382,16452,1,8,0:2:0:0:
169,382,16692,1,8,0:2:0:0:
297,293,17172,6,0,P|285:203|283:159,1,120,0|8,0:1|0:0,0:0:0:0:
302,98,17892,2,0,B|361:79|361:79|424:104,1,120
474,150,18612,2,0,L|466:217,1,60,8|0,0:0|0:0,0:0:0:0:
455,286,19092,1,0,0:1:0:0:
325,373,19572,2,0,L|317:313,1,60,8|0,0:0|0:0,0:0:0:0:
192,218,20292,2,0,L|184:278,1,60,0|8,0:0|0:0,0:0:0:0:
46,351,21012,6,0,B|23:290|23:290|47:219,1,120,0|8,0:1|0:0,0:0:0:0:
80,170,21732,2,0,L|71:47,1,120
144,23,22452,2,0,P|169:54|194:65,1,60,8|0,0:0|0:0,0:0:0:0:
262,81,22932,1,0,0:1:0:0:
315,137,23172,2,0,L|378:125,1,60,2|8,0:0|0:0,0:0:0:0:
404,197,23652,2,0,L|467:209,1,60,2|0,0:0|0:0,0:0:0:0:
189,359,24852,6,0,P|162:308|103:282,1,120,4|8,0:1|0:0,0:0:0:0:
21,152,25812,2,0,L|28:86,1,60,4|0,0:0|0:0,0:0:0:0:
75,30,26292,1,8,0:0:0:0:
133,81,26532,2,0,P|188:97|265:68,1,120
313,40,27252,2,0,L|380:50,2,60,8|0|4,0:0|0:0|0:0,0:0:0:0:
280,192,28212,5,8,0:0:0:0:
273,269,28452,1,0,0:0:0:0:
344,298,28692,2,0,P|382:294|423:270,2,60,4|0|8,0:0|0:0|0:0,0:0:0:0:
228,356,29652,2,0,P|178:346|105:367,1,120,4|8,0:0|0:0,0:0:0:0:
36,340,30372,1,0,0:0:0:0:
68,268,30612,2,0,L|62:140,1,120,4|8,0:0|0:0,0:0:0:0:
105,83,31332,1,0,0:0:0:0:
173,120,31572,2,0,L|178:239,1,120,4|8,0:0|0:0,0:0:0:0:
301,335,32532,6,0,B|367:356|350:306|416:324,1,120,4|8,0:0|0:0,0:0:0:0:
481,281,33252,1,0,0:0:0:0:
443,212,33492,2,0,P|438:176|441:132,1,60,4|0,0:0|0:0,0:0:0:0:
377,104,33972,1,8,0:0:0:0:
247,191,34452,2,0,B|182:205|182:205|135:177,1,120,4|8,0:0|0:0,0:0:0:0:
82,120,35172,1,0,0:0:0:0:
120,52,35412,2,0,P|169:52|242:88,1,120,4|8,0:0|0:0,0:0:0:0:
335,197,36372,6,0,L|459:174,1,120,4|8,0:0|0:0,0:0:0:0:
403,323,37332,2,0,L|285:301,1,120,4|8,0:0|0:0,0:0:0:0:
216,262,38052,1,0,0:0:0:0:
156,312,38292,2,0,P|96:321|30:300,1,120,4|8,0:0|0:0,0:0:0:0:
40,149,39252,2,0,P|97:133|156:142,1,120,4|8,0:0|0:0,0:0:0:0:
304,190,40212,6,0,P|348:197|295:103,1,240,4|4,0:1|0:0,0:0:0:0:
156,142,41652,1,8,0:0:0:0:
113,292,42132,2,0,P|48:266|-15:266,2,120,4|8|4,0:0|0:0|0:0,0:0:0:0:
253,360,43572,1,8,0:0:0:0:
396,297,44052,5,4,0:0:0:0:
362,226,44292,2,0,L|289:219,1,60,0|8,0:0|0:0,0:0:0:0:
248,163,44772,2,0,L|188:120,1,60,0|4,0:0|0:0,0:0:0:0:
121,124,45252,2,0,P|87:133|61:130,2,60,0|8|0,0:0|0:0|0:0,0:0:0:0:
162,58,45972,5,4,0:0:0:0:
130,210,46452,1,8,0:0:0:0:
233,326,46932,1,4,0:0:0:0:
388,330,47412,1,8,0:0:0:0:
479,200,47892,6,0,P|461:145|403:116,1,120,4|8,0:1|0:0,0:0:0:0:
331,125,48612,1,0,0:0:0:0:
261,160,48852,2,0,L|195:140,1,60,4|0,0:0|0:0,0:0:0:0:
144,91,49332,2,0,L|78:110,1,60,8|0,0:0|0:0,0:0:0:0:
43,173,49812,6,0,B|29:237|29:237|51:294,1,120,4|8,0:0|0:0,0:0:0:0:
88,354,50532,1,0,0:0:0:0:
158,321,50772,2,0,P|182:321|223:332,2,60,4|0|8,0:0|0:0|0:0,0:0:0:0:
270,212,51732,6,0,L|392:200,1,120,4|8,0:0|0:0,0:0:0:0:
448,149,52452,1,0,0:0:0:0:
405,83,52692,2,0,P|362:106|282:95,1,120,4|8,0:0|0:0,0:0:0:0:
230,53,53412,1,0,0:0:0:0:
173,106,53652,6,0,B|112:128|112:128|58:105,3,120,2|2|2|2,0:2|0:2|0:2|0:2,0:0:0:0:
13,254,55572,6,0,P|68:272|97:330,1,120,4|8,0:1|0:0,0:0:0:0:
160,368,56292,1,0,0:0:0:0:
216,314,56532,2,0,L|282:294,1,60,4|0,0:0|0:0,0:0:0:0:
325,237,57012,2,0,L|391:257,1,60,8|0,0:0|0:0,0:0:0:0:
450,216,57492,6,0,B|464:152|464:152|442:95,1,120,4|8,0:0|0:0,0:0:0:0:
405,35,58212,1,0,0:0:0:0:
335,68,58452,2,0,P|311:68|270:57,2,60,4|0|8,0:0|0:0|0:0,0:0:0:0:
304,221,59412,6,0,L|182:233,1,120,4|8,0:0|0:0,0:0:0:0:
115,196,60132,1,0,0:0:0:0:
146,124,60372,2,0,P|189:101|269:112,1,120,4|8,0:0|0:0,0:0:0:0:
322,150,61092,1,0,0:0:0:0:
387,106,61332,5,2,0:2:0:0:
387,262,61812,1,2,0:2:0:0:
276,372,62292,1,2,0:2:0:0:
120,372,62772,1,2,0:2:0:0:
28,245,63252,6,0,L|40:114,1,120,4|8,0:1|0:0,0:0:0:0:
181,60,64212,2,0,L|193:191,1,120,4|8,0:0|0:0,0:0:0:0:
245,236,64932,1,0,0:0:0:0:
301,182,65172,2,0,P|361:168|429:196,1,120,4|8,0:0|0:0,0:0:0:0:
471,331,66132,2,0,P|414:348|356:334,1,120,4|8,0:0|0:0,0:0:0:0:
287,297,66852,1,0,0:0:0:0:
221,254,67092,6,0,P|163:240|107:257,1,120,4|8,0:0|0:0,0:0:0:0:
3,139,68052,2,0,L|24:12,1,120,4|8,0:0|0:0,0:0:0:0:
96,47,68772,1,0,0:0:0:0:
167,77,69012,2,0,B|225:95|225:95|298:67,3,120,2|2|2|2,0:2|0:2|0:2|0:2,0:0:0:0:
434,64,70932,6,0,L|422:195,1,120,4|8,0:1|0:0,0:0:0:0:
324,305,71892,2,0,L|312:174,1,120,4|8,0:0|0:0,0:0:0:0:
258,129,72612,1,0,0:0:0:0:
208,189,72852,2,0,P|148:203|80:175,1,120,4|8,0:0|0:0,0:0:0:0:
32,41,73812,2,0,P|88:23|146:37,1,120,4|8,0:0|0:0,0:0:0:0:
208,83,74532,1,0,0:0:0:0:
269,131,74772,6,0,P|326:146|383:128,1,120,4|8,0:0|0:0,0:0:0:0:
508,35,75732,2,0,L|487:162,1,120,4|8,0:0|0:0,0:0:0:0:
458,225,76452,1,0,0:0:0:0:
406,283,76692,5,2,0:2:0:0:
258,334,77172,1,2,0:2:0:0:
112,277,77652,1,2,0:2:0:0:
68,127,78132,1,2,0:2:0:0:
