osu file format v14

[General]
AudioFilename: audio.mp3
AudioLeadIn: 0
PreviewTime: 24252
Countdown: 0
SampleSet: Drum
StackLeniency: 0.7
Mode: 0
LetterboxInBreaks: 0
WidescreenStoryboard: 1

[Editor]
Bookmarks: 9492,24852,40212,47892,63252,76692
DistanceSpacing: 1.4
BeatDivisor: 4
GridSize: 32
TimelineZoom: 1.2

[Metadata]
Title:Song #1 (Cut Ver.)
TitleUnicode:Song #1 (Cut Ver.)
Artist:SEREBRO
ArtistUnicode:SEREBRO
Creator:wajinshu
Version:Hard
Source:Eurovision Song Contest 2007
Tags:english pop серебро максим фадеев maxim maksim fadeev mama lover esc
BeatmapID:2972622
BeatmapSetID:1298787

[Difficulty]
HPDrainRate:5
CircleSize:4
OverallDifficulty:5.5
ApproachRate:6.5
SliderMultiplier:1.4
SliderTickRate:1

[Events]
//Background and Video events
0,0,"olga-seryabkina-katya-kischuk-tatiana-morgunova-girls-blonde.jpg",0,0
//Break Periods
//Storyboard Layer 0 (Background)
//Storyboard Layer 1 (Fail)
//Storyboard Layer 2 (Pass)
//Storyboard Layer 3 (Foreground)
//Storyboard Layer 4 (Overlay)
//Storyboard Sound Samples

[TimingPoints]
9492,480,4,3,1,75,1,0
24852,-100,4,3,1,75,0,0
39732,-133.333333333333,4,3,1,75,0,0
45252,-100,4,3,1,75,0,0
47892,-83.3333333333333,4,3,1,75,0,1
53652,-100,4,3,1,75,0,0
55572,-83.3333333333333,4,3,1,75,0,1
61332,-100,4,3,1,75,0,0

[Colours]
Combo1 : 218,82,82
Combo2 : 236,211,114
Combo3 : 233,170,255

[HitObjects]
443,294,8532,6,0,P|386:271|241:309,1,210
143,364,9492,6,0,P|130:304|100:230,1,140,4|8,0:1|0:0,0:0:0:0:
46,167,10212,2,0,P|53:117|71:80,1,70
117,37,10692,1,0,0:0:0:0:
170,101,10932,2,0,P|221:122|258:113,1,70,8|0,0:0|0:0,0:0:0:0:
335,92,11412,5,0,0:1:0:0:
335,92,11892,2,0,L|327:178,1,70,8|0,0:0|0:0,0:0:0:0:
357,240,12372,1,0,0:0:0:0:
421,293,12612,2,0,P|454:283|490:284,1,70,0|8,0:0|0:0,0:0:0:0:
334,352,13332,6,0,B|249:368|276:315|185:339,1,140,0|8,0:1|0:0,0:0:0:0:
117,358,14052,1,0,0:0:0:0:
52,304,14292,2,0,L|46:215,1,70
82,157,14772,2,0,P|111:164|146:212,1,70,8|0,0:0|0:0,0:0:0:0:
192,282,15252,5,0,0:1:0:0:
255,227,15492,1,0,0:0:0:0:
322,277,15732,2,0,B|392:300|392:300|475:255,1,140,8|0,0:0|0:0,0:0:0:0:
494,196,16452,1,8,0:2:0:0:
494,196,16692,1,8,0:2:0:0:
361,32,17172,6,0,B|329:50|279:29|279:29|230:30|212:60,1,140,0|8,0:1|0:0,0:0:0:0:
170,105,17892,2,0,L|168:181,1,70
200,252,18372,1,0,0:0:0:0:
239,326,18612,2,0,P|276:328|310:313,1,70,8|0,0:0|0:0,0:0:0:0:
386,245,19092,5,0,0:1:0:0:
386,245,19572,2,0,L|377:171,1,70,8|0,0:0|0:0,0:0:0:0:
411,98,20052,1,0,0:0:0:0:
485,135,20292,2,0,P|477:187|467:207,1,70,0|8,0:0|0:0,0:0:0:0:
453,34,21012,6,0,P|393:48|313:54,1,140,0|8,0:1|0:0,0:0:0:0:
238,43,21732,2,0,P|196:71|170:103,1,70
146,160,22212,1,0,0:0:0:0:
229,174,22452,2,0,P|270:210|278:247,1,70,8|0,0:0|0:0,0:0:0:0:
265,328,22932,5,0,0:1:0:0:
195,375,23172,2,0,L|111:364,1,70,2|8,0:0|0:0,0:0:0:0:
144,284,23652,2,0,L|60:295,1,70,2|0,0:0|0:0,0:0:0:0:
74,293,24852,6,0,B|83:234|83:234|79:218|79:218|90:146,1,140,4|8,0:1|0:0,0:0:0:0:
31,93,25572,1,0,0:0:0:0:
84,28,25812,2,0,L|203:15,1,105,4|0,0:0|0:0,0:0:0:0:
207,21,26292,2,0,P|194:63|189:103,1,70
262,131,26772,6,0,P|268:96|278:63,1,70,4|0,0:0|0:0,0:0:0:0:
347,13,27252,2,0,L|426:27,1,70,8|0,0:0|0:0,0:0:0:0:
483,75,27732,2,0,P|486:150|475:226,1,140,4|8,0:0|0:0,0:0:0:0:
452,294,28452,1,0,0:0:0:0:
397,230,28692,6,0,L|385:162,2,70,4|0|8,0:0|0:0|0:0,0:0:0:0:
321,267,29412,1,0,0:0:0:0:
249,222,29652,2,0,P|217:213|172:215,1,70,4|0,0:0|0:0,0:0:0:0:
106,172,30132,2,0,L|99:95,1,70,8|0,0:0|0:0,0:0:0:0:
175,65,30612,6,0,P|233:80|305:41,1,140,4|8,0:0|0:0,0:0:0:0:
373,1,31332,1,0,0:0:0:0:
370,84,31572,2,0,P|362:155|361:209,1,105,4|0,0:0|0:0,0:0:0:0:
368,210,32052,2,0,L|371:283,1,70,8|0,0:0|0:0,0:0:0:0:
428,340,32532,6,0,P|468:322|509:315,1,70,4|0,0:0|0:0,0:0:0:0:
508,230,33012,1,8,0:0:0:0:
452,167,33252,1,0,0:0:0:0:
501,97,33492,2,0,L|483:8,1,70,4|0,0:0|0:0,0:0:0:0:
407,2,33972,1,8,0:0:0:0:
341,54,34212,2,0,P|302:45|263:42,1,70,0|4,0:0|0:0,0:0:0:0:
192,68,34692,5,0,0:0:0:0:
235,139,34932,2,0,L|253:224,1,70,8|0,0:0|0:0,0:0:0:0:
208,281,35412,2,0,P|169:245|100:255,1,105,4|0,0:0|0:0,0:0:0:0:
98,264,35892,1,8,0:0:0:0:
57,337,36132,1,0,0:0:0:0:
134,368,36372,6,0,L|222:362,1,70,4|0,0:0|0:0,0:0:0:0:
286,377,36852,1,8,0:0:0:0:
345,313,37092,1,0,0:0:0:0:
297,243,37332,2,0,L|157:233,1,140,4|8,0:0|0:0,0:0:0:0:
93,178,38052,1,0,0:0:0:0:
118,98,38292,2,0,P|161:127|172:148,1,70,4|0,0:0|0:0,0:0:0:0:
194,222,38772,2,0,L|186:300,1,70,8|0,0:0|0:0,0:0:0:0:
238,357,39252,1,4,0:0:0:0:
429,295,39732,6,0,P|411:266|404:216,1,78.7500030040742,8|0,0:0|0:0,0:0:0:0:
414,192,40212,6,0,L|401:73,1,105.000004005432,4|8,0:1|0:0,0:0:0:0:
352,33,40932,1,0,0:0:0:0:
285,64,41172,2,0,L|296:168,1,105.000004005432,4|8,0:0|0:0,0:0:0:0:
257,231,41892,1,0,0:0:0:0:
197,187,42132,2,0,P|169:184|139:181,1,52.5000020027161,4|0,0:0|0:0,0:0:0:0:
93,234,42612,2,0,P|97:263|99:292,1,52.5000020027161,8|0,0:0|0:0,0:0:0:0:
61,349,43092,1,4,0:0:0:0:
17,206,43572,5,8,0:0:0:0:
49,139,43812,2,0,L|43:74,1,52.5000020027161,0|4,0:0|0:0,0:0:0:0:
99,37,44292,2,0,P|126:54|154:61,1,52.5000020027161,0|8,0:0|0:0,0:0:0:0:
212,91,44772,2,0,P|243:86|269:74,1,52.5000020027161,0|4,0:0|0:0,0:0:0:0:
337,40,45252,5,0,0:0:0:0:
404,89,45492,1,8,0:0:0:0:
374,167,45732,1,0,0:0:0:0:
423,235,45972,1,4,0:0:0:0:
365,347,46332,6,0,L|313:331,1,35,2|8,0:0|0:0,0:0:0:0:
223,349,46812,2,0,L|184:335,2,35,2|4|0,0:0|0:0|0:0,0:0:0:0:
73,350,47412,2,0,L|37:339,2,35,8|2|2,0:0|0:0|0:0,0:0:0:0:
163,246,47892,6,0,B|184:156|112:190|130:89,1,167.999994873047,4|8,0:1|0:0,0:0:0:0:
222,47,48612,1,0,0:0:0:0:
309,96,48852,1,4,0:0:0:0:
404,63,49092,1,0,0:0:0:0:
400,163,49332,2,0,P|390:196|351:241,1,83.9999974365235,8|0,0:0|0:0,0:0:0:0:
234,221,49812,6,0,L|240:120,2,83.9999974365235,4|0|8,0:0|0:0|0:0,0:0:0:0:
156,283,50532,1,0,0:0:0:0:
68,233,50772,1,4,0:0:0:0:
156,283,51012,1,0,0:0:0:0:
234,221,51252,2,0,P|287:220|330:227,1,83.9999974365235,8|0,0:0|0:0,0:0:0:0:
435,180,51732,6,0,P|392:144|375:88,1,83.9999974365235,4|0,0:0|0:0,0:0:0:0:
330,28,52212,1,8,0:0:0:0:
254,94,52452,2,0,P|183:104|157:94,1,83.9999974365235,0|4,0:0|0:0,0:0:0:0:
105,176,52932,1,0,0:0:0:0:
171,251,53172,1,8,0:0:0:0:
98,321,53412,1,0,0:0:0:0:
227,366,53652,6,0,L|321:348,1,70,2|0,0:2|0:0,0:0:0:0:
351,263,54132,2,0,L|257:245,1,70,2|0,0:2|0:0,0:0:0:0:
223,162,54612,2,0,L|317:144,1,70,2|0,0:2|0:0,0:0:0:0:
347,59,55092,2,0,L|253:41,1,70,2|0,0:2|0:0,0:0:0:0:
153,27,55572,6,0,P|66:63|53:138,1,167.999994873047,4|8,0:1|0:0,0:0:0:0:
103,214,56292,1,0,0:0:0:0:
45,296,56532,1,4,0:0:0:0:
103,214,56772,1,0,0:0:0:0:
201,192,57012,2,0,P|252:200|288:221,1,83.9999974365235,8|0,0:0|0:0,0:0:0:0:
374,298,57492,6,0,L|485:284,2,83.9999974365235,4|0|8,0:0|0:0|0:0,0:0:0:0:
285,352,58212,1,0,0:0:0:0:
202,294,58452,1,4,0:0:0:0:
117,348,58692,1,0,0:0:0:0:
45,276,58932,2,0,P|44:223|51:180,1,83.9999974365235,8|0,0:0|0:0,0:0:0:0:
96,75,59412,6,0,P|151:79|203:52,1,83.9999974365235,4|0,0:0|0:0,0:0:0:0:
269,28,59892,1,8,0:0:0:0:
345,96,60132,2,0,P|355:167|345:193,1,83.9999974365235,0|4,0:0|0:0,0:0:0:0:
297,262,60612,1,0,0:0:0:0:
366,335,60852,1,8,0:0:0:0:
297,262,61092,1,0,0:0:0:0:
174,346,61332,5,2,0:2:0:0:
174,346,61812,5,2,0:2:0:0:
174,346,62292,5,2,0:2:0:0:
174,346,62772,5,2,0:2:0:0:
74,210,63252,6,0,L|86:126,1,70,4|0,0:1|0:0,0:0:0:0:
145,83,63732,1,8,0:0:0:0:
222,115,63972,1,0,0:0:0:0:
296,76,64212,2,0,L|453:95,1,140,4|8,0:0|0:0,0:0:0:0:
434,92,64932,1,0,0:0:0:0:
466,192,65172,6,0,P|473:237|454:276,1,70,4|0,0:0|0:0,0:0:0:0:
399,311,65652,1,8,0:0:0:0:
342,248,65892,1,0,0:0:0:0:
266,285,66132,2,0,P|218:263|123:278,1,140,4|8,0:0|0:0,0:0:0:0:
133,272,66852,1,0,0:0:0:0:
30,248,67092,6,0,P|38:212|38:172,1,70,4|0,0:0|0:0,0:0:0:0:
16,97,67572,1,8,0:0:0:0:
64,28,67812,1,0,0:0:0:0:
132,76,68052,2,0,L|118:222,1,140,4|8,0:0|0:0,0:0:0:0:
56,272,68772,1,0,0:0:0:0:
171,329,69012,6,0,L|265:311,1,70,2|0,0:2|0:0,0:0:0:0:
343,298,69492,2,0,L|437:316,1,70,2|0,0:2|0:0,0:0:0:0:
485,236,69972,2,0,L|467:142,1,70,2|0,0:2|0:0,0:0:0:0:
380,114,70452,2,0,L|366:182,1,70,2|0,0:2|0:0,0:0:0:0:
274,232,70932,6,0,P|241:232|190:220,1,70,4|0,0:1|0:0,0:0:0:0:
130,184,71412,1,8,0:0:0:0:
57,226,71652,1,0,0:0:0:0:
0,170,71892,2,0,L|19:13,1,140,4|8,0:0|0:0,0:0:0:0:
16,32,72612,1,0,0:0:0:0:
118,9,72852,6,0,P|156:22|185:45,1,70,4|0,0:0|0:0,0:0:0:0:
200,121,73332,1,8,0:0:0:0:
279,148,73572,1,0,0:0:0:0:
346,98,73812,2,0,P|394:120|489:105,1,140,4|8,0:0|0:0,0:0:0:0:
479,111,74532,1,0,0:0:0:0:
434,206,74772,6,0,P|398:198|358:198,1,70,4|0,0:0|0:0,0:0:0:0:
283,220,75252,1,8,0:0:0:0:
214,172,75492,1,0,0:0:0:0:
154,230,75732,2,0,L|168:376,1,140,4|8,0:0|0:0,0:0:0:0:
86,347,76452,1,0,0:0:0:0:
69,222,76692,5,2,0:2:0:0:
69,222,77172,5,2,0:2:0:0:
69,222,77652,5,2,0:2:0:0:
69,222,78132,5,2,0:2:0:0:
