osu file format v14

[General]
AudioFilename: audio.mp3
AudioLeadIn: 0
PreviewTime: 51960
Countdown: 0
SampleSet: Soft
StackLeniency: 0.7
Mode: 0
LetterboxInBreaks: 0
WidescreenStoryboard: 1

[Editor]
Bookmarks: 37199,44114,44583,51968,66737,81506,96275,107344,125814,140583,184891
DistanceSpacing: 1.2
BeatDivisor: 4
GridSize: 4
TimelineZoom: 1.5

[Metadata]
Title:SEXY ASS
TitleUnicode:SEXY ASS
Artist:SEREBRO
ArtistUnicode:SEREBRO
Creator:M a r v o l l o
Version:Sexy Normal
Source:
Tags:сексуальная жопа wajinshu Русский Серебро Сила трех Russian Sila Tryokh MAxim Maksim Fadeev Максим Фадеев marvollo m_a_r_v_o_l_l_o shmiklak
BeatmapID:1033563
BeatmapSetID:484329

[Difficulty]
HPDrainRate:2
CircleSize:3
OverallDifficulty:3
ApproachRate:4.5
SliderMultiplier:1.35
SliderTickRate:1

[Events]
//Background and Video events
0,0,"calm down guys this is peach.jpg",0,0
//Break Periods
2,52160,65469
2,126006,139315
//Storyboard Layer 0 (Background)
//Storyboard Layer 1 (Fail)
//Storyboard Layer 2 (Pass)
//Storyboard Layer 3 (Foreground)
//Storyboard Sound Samples

[TimingPoints]
37191,461.538461538462,4,2,1,80,1,0
111037,-100,4,2,1,80,0,1
125806,-100,4,2,1,80,0,0
155344,-100,4,2,1,80,0,1
169998,-100,4,2,1,80,0,0
170114,-100,4,2,1,80,0,1
184883,-100,4,2,1,80,0,0

[Colours]
Combo1 : 0,255,0
Combo2 : 255,128,64
Combo3 : 255,170,85
Combo4 : 0,128,64

[HitObjects]
256,192,31652,12,0,35344,0:0:0:0:
388,128,37191,6,0,P|434:125|500:116,2,101.25,4|2|2,2:1|2:1|2:1,0:0:0:0:
314,92,38114,2,0,P|276:89|236:92,1,67.5,2|2,2:1|2:1,0:0:0:0:
189,148,38575,2,0,P|151:150|111:148,1,67.5,2|2,2:1|2:1,0:0:0:0:
64,206,39037,6,0,P|61:259|68:328,2,101.25,2|2|2,2:1|2:1|2:1,0:0:0:0:
121,148,39960,2,0,P|114:109|112:76,1,67.5,2|2,2:1|2:1,0:0:0:0:
180,37,40421,2,0,P|213:40|246:45,1,67.5,2|2,2:1|2:1,0:0:0:0:
304,103,40883,6,0,P|346:97|424:88,2,101.25,2|2|2,2:1|2:1|2:1,0:0:0:0:
246,45,41806,2,0,P|213:40|180:37,1,67.5,2|2,2:1|2:1,0:0:0:0:
112,81,42267,2,0,P|115:114|121:148,1,67.5,2|2,2:1|2:1,0:0:0:0:
98,226,42729,6,0,P|36:213|-24:225,2,101.25,2|2|2,2:1|2:1|2:1,0:0:0:0:
155,283,43652,2,0,P|189:282|229:275,1,67.5,2|2,2:1|2:1,0:0:0:0:
302,261,44114,2,0,P|336:262|376:269,1,67.5,2|2,2:1|2:1,0:0:0:0:
450,267,44575,6,0,P|444:199|446:116,1,135,12|8,0:0|0:0,0:0:0:0:
387,74,45267,1,0,0:0:0:0:
329,131,45498,2,0,P|295:136|241:135,2,67.5,8|0|8,0:0|0:0|0:0,0:0:0:0:
387,74,46191,1,0,0:0:0:0:
444,132,46421,6,0,P|444:199|450:267,1,135,8|8,0:0|0:0,0:0:0:0:
392,324,47114,1,0,0:0:0:0:
334,266,47344,2,0,P|334:222|342:186,2,67.5,8|0|8,0:0|0:0|0:0,0:0:0:0:
392,324,48037,1,0,0:0:0:0:
315,350,48267,6,0,P|280:332|180:332,1,135,8|8,0:0|0:0,0:0:0:0:
111,362,48960,1,0,0:0:0:0:
53,304,49191,2,0,P|45:256|49:224,2,67.5,8|0|8,0:0|0:0|0:0,0:0:0:0:
111,362,49883,1,0,0:0:0:0:
186,330,50114,6,0,P|190:264|165:202,1,135,8|8,0:0|0:0,0:0:0:0:
107,143,50806,1,0,0:0:0:0:
164,85,51037,2,0,P|203:79|240:77,1,67.5,8|8,1:0|1:0,0:0:0:0:
288,135,51498,2,0,P|327:139|364:143,1,67.5,8|8,1:0|1:0,0:0:0:0:
412,84,51960,5,4,1:0:0:0:
400,64,66729,6,0,P|397:129|396:208,1,135,8|8,3:0|3:0,0:0:0:0:
281,313,67652,2,0,P|278:247|277:169,1,135,8|8,3:0|3:0,0:0:0:0:
219,120,68344,1,2,0:0:0:0:
161,62,68575,6,0,P|95:58|16:52,1,135,8|8,3:0|3:0,0:0:0:0:
28,216,69498,2,0,P|93:209|173:206,1,135,8|8,3:0|3:0,0:0:0:0:
240,229,70191,1,2,0:0:0:0:
312,268,70421,6,0,P|384:288|452:252,1,135,8|8,3:0|3:0,0:0:0:0:
437,103,71344,2,0,P|374:80|311:101,1,135,8|8,3:0|3:0,0:0:0:0:
253,158,72037,1,2,0:0:0:0:
180,124,72267,6,0,P|117:115|33:112,1,135,8|8,3:0|3:0,0:0:0:0:
192,40,73191,2,0,P|255:31|339:28,1,135,8|8,3:0|3:0,0:0:0:0:
404,48,73883,1,2,0:0:0:0:
460,104,74114,6,0,P|458:167|455:247,1,135,8|8,3:0|3:0,0:0:0:0:
341,354,75037,2,0,P|339:291|336:208,1,135,8|8,3:0|3:0,0:0:0:0:
279,161,75729,1,2,0:0:0:0:
221,218,75960,6,0,P|156:224|88:212,1,135,8|8,3:0|3:0,0:0:0:0:
164,356,76883,2,0,P|229:362|297:350,1,135,8|8,3:0|3:0,0:0:0:0:
367,308,77575,1,2,0:0:0:0:
424,250,77806,6,0,P|425:171|428:102,1,135,8|8,3:0|3:0,0:0:0:0:
284,38,78729,2,0,P|285:116|288:186,1,135,8|8,3:0|3:0,0:0:0:0:
248,244,79421,1,2,0:0:0:0:
192,188,79652,6,0,P|128:185|54:186,1,135,8|8,3:0|3:0,0:0:0:0:
156,60,80575,2,0,P|219:57|294:58,1,135,8|8,3:0|3:0,0:0:0:0:
368,80,81267,1,2,0:0:0:0:
425,137,81498,5,4,1:0:0:0:
364,288,81960,2,0,P|312:304|284:304,1,67.5,8|0,3:0|0:0,0:0:0:0:
220,296,82421,1,8,3:0:0:0:
72,228,82883,2,0,P|68:188|72:156,1,67.5,8|2,3:0|0:0,0:0:0:0:
128,103,83344,6,0,P|168:99|200:103,1,67.5,8|0,3:0|0:0,0:0:0:0:
252,159,83806,2,0,P|256:199|252:231,1,67.5,8|2,3:0|0:0,0:0:0:0:
310,283,84267,2,0,P|377:278|452:276,1,135,8|8,3:0|3:0,0:0:0:0:
500,124,85191,5,4,1:0:0:0:
352,60,85652,2,0,P|304:56|272:56,1,67.5,8|0,3:0|0:0,0:0:0:0:
208,84,86114,1,8,3:0:0:0:
104,208,86575,2,0,P|105:242|111:275,1,67.5,8|2,3:0|0:0,0:0:0:0:
168,332,87037,6,0,P|205:324|248:316,1,67.5,8|0,3:0|0:0,0:0:0:0:
291,261,87498,2,0,P|328:261|372:262,1,67.5,8|2,3:0|0:0,0:0:0:0:
416,320,87960,2,0,P|407:253|408:180,1,135,8|8,3:0|3:0,0:0:0:0:
460,32,88883,5,4,1:0:0:0:
500,188,89344,2,0,P|496:236|488:272,1,67.5,8|0,3:0|0:0,0:0:0:0:
428,308,89806,1,8,3:0:0:0:
280,244,90267,2,0,P|240:232|200:224,1,67.5,8|2,3:0|0:0,0:0:0:0:
136,244,90729,6,0,P|104:248|48:240,1,67.5,8|2,3:0|0:0,0:0:0:0:
11,187,91191,2,0,P|7:155|15:99,1,67.5,8|2,3:0|0:0,0:0:0:0:
67,62,91652,2,0,P|129:62|215:63,1,135,8|8,3:0|3:0,0:0:0:0:
360,24,92575,5,4,1:0:0:0:
376,184,93037,2,0,P|372:220|372:252,1,67.5,8|0,3:0|0:0,0:0:0:0:
404,324,93498,1,8,3:0:0:0:
484,184,93960,2,0,P|480:136|476:100,1,67.5,8|2,3:0|0:0,0:0:0:0:
420,59,94421,6,0,P|376:44|328:32,1,67.5,8|0,3:0|0:0,0:0:0:0:
280,68,94883,2,0,P|232:72|192:64,1,67.5,8|2,3:0|0:0,0:0:0:0:
136,44,95344,2,0,P|64:48|28:112,1,135,8|8,3:0|3:0,0:0:0:0:
60,172,96037,1,2,0:0:0:0:
28,248,96267,6,0,P|68:308|152:308,1,135,4|2,0:0|0:0,0:0:0:0:
276,256,97191,2,0,P|343:256|424:256,1,135,2|0,3:0|3:0,0:0:0:0:
468,198,97883,1,4,3:0:0:0:
410,140,98114,6,0,P|343:140|262:140,1,135,4|2,3:0|3:0,0:0:0:0:
140,48,99037,2,0,P|199:37|283:53,1,135,2|2,3:0|3:0,0:0:0:0:
410,140,99960,6,0,P|404:214|398:292,1,135,12|2,3:0|3:0,0:0:0:0:
260,356,100883,2,0,P|254:281|248:204,1,135,2|2,3:0|3:0,0:0:0:0:
192,164,101575,1,12,3:0:0:0:
147,231,101806,6,0,P|77:246|1:226,1,135,12|2,3:0|3:0,0:0:0:0:
15,71,102729,2,0,P|85:56|161:76,1,135,2|2,3:0|3:0,0:0:0:0:
260,183,103652,6,0,P|326:176|396:168,1,135,8|8,0:0|0:0,0:0:0:0:
394,330,104575,2,0,P|327:323|258:315,1,135,8|8,0:0|0:0,0:0:0:0:
202,257,105267,1,8,3:0:0:0:
144,314,105498,6,0,P|76:322|9:328,1,135,8|8,0:0|0:0,0:0:0:0:
24,168,106421,2,0,P|91:176|160:168,1,135,8|8,0:0|0:0,0:0:0:0:
224,120,107114,1,8,3:0:0:0:
256,192,107344,12,0,110114,0:0:0:0:
0,68,111037,6,0,P|64:69|140:72,1,135,4|8,1:0|3:0,0:0:0:0:
249,186,111960,2,0,P|277:182|325:178,2,67.5,8|0|8,3:0|0:0|3:0,0:0:0:0:
191,243,112652,1,0,0:0:0:0:
248,300,112883,6,0,P|320:294|400:288,1,135,8|8,3:0|3:0,0:0:0:0:
454,326,113575,1,0,0:0:0:0:
488,252,113806,2,0,P|492:216|488:172,1,67.5,8|0,3:0|0:0,0:0:0:0:
432,127,114267,2,0,P|428:91|432:47,1,67.5,8|0,3:0|0:0,0:0:0:0:
356,24,114729,6,0,P|296:33|208:40,1,135,6|8,2:1|3:0,0:0:0:0:
76,108,115652,2,0,P|136:117|224:124,1,135,8|8,3:0|3:0,0:0:0:0:
356,196,116575,6,0,P|296:205|208:212,1,135,8|8,3:0|3:0,0:0:0:0:
164,268,117267,1,0,0:0:0:0:
221,325,117498,2,0,P|257:323|296:316,1,67.5,8|0,3:0|0:0,0:0:0:0:
368,300,117960,2,0,P|404:301|443:309,1,67.5,8|0,3:0|0:0,0:0:0:0:
500,356,118421,6,0,P|484:296|472:216,1,135,6|8,2:1|3:0,0:0:0:0:
408,76,119344,2,0,P|374:71|340:70,2,67.5,8|0|8,3:0|0:0|3:0,0:0:0:0:
472,124,120037,1,0,0:0:0:0:
404,168,120267,6,0,P|344:176|248:152,1,135,6|8,2:1|3:0,0:0:0:0:
212,108,120960,1,2,2:1:0:0:
136,80,121191,2,0,P|96:76|48:80,1,67.5,8|0,3:0|0:0,0:0:0:0:
20,140,121652,2,0,P|16:180|20:228,1,67.5,8|0,3:0|0:0,0:0:0:0:
74,264,122114,6,0,P|139:258|232:240,1,135,6|8,2:1|3:0,0:0:0:0:
352,168,123037,2,0,P|287:162|194:144,1,135,8|8,3:0|3:0,0:0:0:0:
164,92,123729,1,2,2:1:0:0:
234,52,123960,6,0,P|300:40|367:33,1,135,2|8,2:1|3:0,0:0:0:0:
444,60,124652,1,0,0:0:0:0:
496,124,124883,2,0,P|496:184|488:212,1,67.5,8|0,0:0|0:0,0:0:0:0:
437,248,125344,2,0,P|377:248|349:240,1,67.5,8|0,0:0|0:0,0:0:0:0:
300,204,125806,5,4,1:0:0:0:
88,56,140575,6,0,P|86:134|80:216,1,135,4|8,2:0|3:0,0:0:0:0:
197,305,141498,2,0,P|192:237|191:170,1,135,8|8,3:0|3:0,0:0:0:0:
249,112,142191,1,2,0:0:0:0:
306,54,142421,6,0,P|374:54|462:58,1,135,8|8,3:0|3:0,0:0:0:0:
499,207,143344,2,0,P|431:207|343:211,1,135,8|8,3:0|3:0,0:0:0:0:
306,267,144037,1,2,0:0:0:0:
248,324,144267,6,0,P|180:324|92:320,1,135,8|8,3:0|3:0,0:0:0:0:
49,171,145191,2,0,P|117:171|205:167,1,135,8|8,3:0|3:0,0:0:0:0:
248,116,145883,1,2,0:0:0:0:
305,58,146114,6,0,P|372:55|439:55,1,135,8|8,3:0|3:0,0:0:0:0:
490,209,147037,2,0,P|422:206|355:206,1,135,8|8,3:0|3:0,0:0:0:0:
297,263,147729,1,0,0:0:0:0:
240,320,147960,6,0,P|188:324|104:296,1,135,8|8,3:0|3:0,0:0:0:0:
16,168,148883,2,0,P|68:172|152:144,1,135,8|8,3:0|3:0,0:0:0:0:
204,92,149575,1,2,0:0:0:0:
264,40,149806,6,0,P|308:32|404:52,1,135,8|8,3:0|3:0,0:0:0:0:
444,204,150729,2,0,P|368:200|292:196,1,135,8|8,3:0|3:0,0:0:0:0:
234,227,151421,1,0,0:0:0:0:
162,188,151652,6,0,P|168:117|172:40,1,135,8|8,0:0|0:0,0:0:0:0:
57,168,152575,2,0,P|63:238|67:316,1,135,8|8,0:0|0:0,0:0:0:0:
223,344,153498,6,0,P|292:329|376:316,1,135,8|8,0:0|0:0,0:0:0:0:
272,180,154421,2,0,P|195:178|125:216,1,135,8|8,1:0|1:0,0:0:0:0:
12,300,155344,6,0,P|13:236|16:160,1,135,4|8,1:0|3:0,0:0:0:0:
130,52,156267,2,0,P|163:49|197:44,2,67.5,8|0|8,3:0|0:0|3:0,0:0:0:0:
60,92,156960,1,0,0:0:0:0:
112,156,157191,6,0,P|176:184|264:168,1,135,8|8,3:0|3:0,0:0:0:0:
316,148,157883,1,0,0:0:0:0:
372,208,158114,2,0,P|376:244|372:288,1,67.5,8|0,3:0|0:0,0:0:0:0:
316,332,158575,2,0,P|280:336|236:332,1,67.5,8|0,3:0|0:0,0:0:0:0:
191,276,159037,6,0,P|200:216|207:128,1,135,6|8,2:1|3:0,0:0:0:0:
321,27,159960,2,0,P|312:87|305:175,1,135,8|8,3:0|3:0,0:0:0:0:
280,240,160652,1,0,0:0:0:0:
212,284,160883,6,0,P|152:275|64:268,1,135,8|8,3:0|3:0,0:0:0:0:
24,208,161575,1,0,0:0:0:0:
65,138,161806,2,0,P|101:140|140:147,1,67.5,8|0,3:0|0:0,0:0:0:0:
200,192,162267,2,0,P|233:197|266:198,1,67.5,8|0,3:0|0:0,0:0:0:0:
348,212,162729,6,0,P|364:272|376:352,1,135,6|8,2:1|3:0,0:0:0:0:
448,200,163652,2,0,P|453:166|454:132,2,67.5,8|0|8,3:0|0:0|3:0,0:0:0:0:
505,257,164344,1,0,0:0:0:0:
447,314,164575,6,0,P|387:306|291:330,1,135,6|8,2:1|3:0,0:0:0:0:
236,340,165267,1,2,2:1:0:0:
168,294,165498,2,0,P|128:290|80:294,1,67.5,8|0,3:0|0:0,0:0:0:0:
43,233,165960,2,0,P|39:193|43:145,1,67.5,8|0,3:0|0:0,0:0:0:0:
97,108,166421,6,0,P|162:114|255:132,1,135,6|8,2:1|3:0,0:0:0:0:
301,275,167344,2,0,P|236:281|143:299,1,135,8|8,3:0|3:0,0:0:0:0:
100,336,168037,1,2,2:1:0:0:
42,278,168267,6,0,P|41:210|46:143,1,135,2|8,2:1|3:0,0:0:0:0:
88,72,168960,1,0,0:0:0:0:
145,129,169191,2,0,P|205:129|233:121,1,67.5,8|0,0:0|0:0,0:0:0:0:
286,94,169652,2,0,P|346:94|374:102,1,67.5,8|0,0:0|0:0,0:0:0:0:
404,156,170114,6,0,P|403:220|400:296,1,135,4|8,1:0|3:0,0:0:0:0:
508,168,171037,2,0,P|504:140|500:92,2,67.5,8|0|8,3:0|0:0|3:0,0:0:0:0:
480,244,171729,1,0,0:0:0:0:
422,301,171960,6,0,P|350:295|270:289,1,135,8|8,3:0|3:0,0:0:0:0:
230,232,172652,1,0,0:0:0:0:
287,174,172883,2,0,P|291:138|287:94,1,67.5,8|0,3:0|0:0,0:0:0:0:
231,49,173344,2,0,P|198:47|164:51,1,67.5,8|0,3:0|0:0,0:0:0:0:
106,108,173806,6,0,P|97:168|90:256,1,135,6|8,2:1|3:0,0:0:0:0:
224,336,174729,2,0,P|215:276|208:188,1,135,8|8,3:0|3:0,0:0:0:0:
240,127,175421,1,0,0:0:0:0:
199,56,175652,6,0,P|139:47|51:40,1,135,8|8,3:0|3:0,0:0:0:0:
8,100,176344,1,0,0:0:0:0:
0,180,176575,2,0,P|2:216|9:255,1,67.5,8|0,3:0|0:0,0:0:0:0:
79,283,177037,2,0,P|115:284|154:292,1,67.5,8|0,3:0|0:0,0:0:0:0:
205,344,177498,6,0,P|267:343|347:334,1,135,6|8,2:1|3:0,0:0:0:0:
454,221,178421,2,0,P|459:187|460:153,2,67.5,8|0|8,3:0|0:0|3:0,0:0:0:0:
404,288,179114,1,0,0:0:0:0:
336,244,179344,6,0,P|312:188|311:89,1,135,6|8,2:1|3:0,0:0:0:0:
249,56,180037,1,2,2:1:0:0:
191,113,180267,2,0,P|187:153|191:201,1,67.5,8|0,3:0|0:0,0:0:0:0:
144,248,180729,2,0,P|104:252|56:248,1,67.5,8|0,3:0|0:0,0:0:0:0:
19,193,181191,6,0,P|25:128|43:35,1,135,6|8,2:1|3:0,0:0:0:0:
191,113,182114,2,0,P|256:107|349:89,1,135,8|8,3:0|3:0,0:0:0:0:
392,52,182806,1,2,2:1:0:0:
448,108,183037,6,0,P|460:174|467:241,1,135,2|8,2:1|3:0,0:0:0:0:
436,316,183729,1,0,0:0:0:0:
376,260,183960,2,0,P|316:260|288:268,1,67.5,8|0,0:0|0:0,0:0:0:0:
248,312,184421,2,0,P|188:312|160:304,1,67.5,8|0,0:0|0:0,0:0:0:0:
123,252,184883,6,0,P|120:206|111:140,2,101.25,4|0|0,1:0|0:0|0:0,0:0:0:0:
180,310,185806,2,0,P|218:313|258:310,1,67.5,2|2,0:1|0:1,0:0:0:0:
304,254,186267,2,0,P|302:216|304:176,1,67.5,10|2,0:1|0:1,0:0:0:0:
360,129,186729,6,0,P|413:132|482:125,2,101.25,8|0|0,0:3|0:0|0:0,0:0:0:0:
302,71,187652,2,0,P|263:78|230:80,1,67.5,2|2,0:1|0:1,0:0:0:0:
177,137,188113,2,0,P|144:134|111:129,1,67.5,10|2,0:1|0:1,0:0:0:0:
52,186,188575,6,0,P|58:228|67:306,2,101.25,8|0|0,0:3|0:0|0:0,0:0:0:0:
110,128,189498,2,0,P|143:133|177:137,1,67.5,2|2,0:1|0:1,0:0:0:0:
234,194,189959,2,0,P|237:227|243:261,1,67.5,10|2,0:1|0:1,0:0:0:0:
300,318,190421,6,0,P|362:305|422:317,2,101.25,8|0|0,0:3|0:0|0:0,0:0:0:0:
242,260,191344,2,0,P|237:227|234:194,1,67.5,2|2,0:1|0:1,0:0:0:0:
272,122,191806,2,0,P|306:123|346:130,1,67.5,10|2,0:1|0:1,0:0:0:0:
404,174,192267,6,0,P|398:242|400:325,1,135,8|8,0:3|0:1,0:0:0:0:
464,356,192959,1,0,0:0:0:0:
504,288,193190,2,0,P|509:254|508:200,2,67.5,2|2|10,0:1|0:1|0:1,0:0:0:0:
464,356,193883,1,2,0:1:0:0:
398,308,194113,6,0,P|326:306|256:295,1,135,8|8,0:3|0:1,0:0:0:0:
206,239,194806,1,0,0:0:0:0:
148,181,195036,2,0,P|104:181|68:189,2,67.5,2|2|10,0:1|0:1|0:1,0:0:0:0:
206,239,195729,1,2,0:1:0:0:
263,181,195959,6,0,P|281:146|344:64,1,135,8|8,0:3|0:1,0:0:0:0:
412,36,196652,1,0,0:0:0:0:
464,100,196883,2,0,P|472:148|480:192,2,67.5,2|2|10,0:1|0:1|0:1,0:0:0:0:
412,36,197575,1,2,0:1:0:0:
338,69,197806,6,0,P|272:73|210:48,1,135,8|8,0:3|0:1,0:0:0:0:
151,104,198498,1,0,0:0:0:0:
208,161,198729,2,0,L|284:153,1,67.5,2|8,0:1|0:1,0:0:0:0:
332,211,199190,2,0,L|408:219,1,67.5,8|0,0:1|0:0,0:0:0:0:
456,160,199652,6,0,P|453:114|444:48,2,101.25,4|0|0,1:0|0:0|0:0,0:0:0:0:
399,218,200575,2,0,L|332:211,1,67.5,2|2,0:1|0:1,0:0:0:0:
274,153,201036,2,0,P|272:115|274:75,1,67.5,10|2,0:1|0:1,0:0:0:0:
330,28,201498,6,0,P|383:31|452:24,2,101.25,8|0|0,0:3|0:0|0:0,0:0:0:0:
273,85,202421,2,0,P|234:92|201:94,1,67.5,2|2,0:1|0:1,0:0:0:0:
148,151,202882,2,0,P|115:148|82:143,1,67.5,10|2,0:1|0:1,0:0:0:0:
23,200,203344,6,0,P|29:242|38:320,2,101.25,8|0|0,0:3|0:0|0:0,0:0:0:0:
81,142,204267,2,0,P|114:147|147:150,1,67.5,2|2,0:1|0:1,0:0:0:0:
205,207,204728,2,0,P|208:240|214:274,1,67.5,10|2,0:1|0:1,0:0:0:0:
271,331,205190,6,0,P|333:318|393:330,2,101.25,8|0|0,0:3|0:0|0:0,0:0:0:0:
213,273,206113,2,0,P|207:239|204:206,1,67.5,2|2,0:1|0:1,0:0:0:0:
232,130,206575,2,0,P|266:131|306:138,1,67.5,10|2,0:1|0:1,0:0:0:0:
356,193,207037,6,0,P|405:187|484:180,2,101.25,8|0|0,0:3|0:0|0:0,0:0:0:0:
298,250,207960,2,0,P|263:248|224:246,1,67.5,2|2,0:1|0:1,0:0:0:0:
160,204,208421,2,0,P|125:205|86:208,1,67.5,10|2,0:1|0:1,0:0:0:0:
68,128,208883,6,0,P|135:120|168:108,2,101.25,8|0|0,0:3|0:0|0:0,0:0:0:0:
10,185,209806,2,0,P|11:233|20:264,1,67.5,2|2,0:1|0:1,0:0:0:0:
72,309,210267,2,0,P|120:308|151:299,1,67.5,10|2,0:1|0:1,0:0:0:0:
196,245,210729,6,0,P|248:236|304:244,2,101.25,8|0|0,0:3|0:0|0:0,0:0:0:0:
138,187,211652,2,0,P|140:149|144:108,1,67.5,2|2,0:1|0:1,0:0:0:0:
200,62,212114,2,0,P|237:64|279:68,1,67.5,10|2,0:1|0:1,0:0:0:0:
256,192,212575,12,2,214421,0:0:0:0:
