osu file format v14

[General]
AudioFilename: audio.mp3
AudioLeadIn: 0
PreviewTime: 68172
Countdown: 0
SampleSet: Soft
StackLeniency: 0.4
Mode: 2
LetterboxInBreaks: 0
WidescreenStoryboard: 1

[Editor]
Bookmarks: 1559,16502,29786,43070,56353,69637,82920,96204,109487,122563,122771,135847,136054,149130,149338,162621,162933
DistanceSpacing: 1.1
BeatDivisor: 6
GridSize: 32
TimelineZoom: 2.2

[Metadata]
Title:Mi Mi Mi (Sped Up Ver.)
TitleUnicode:Mi Mi Mi (Sped Up Ver.)
Artist:SEREBRO
ArtistUnicode:SEREBRO
Creator:Imai Lisa
Version:Platter
Source:
Tags:ayyri eiri- xetopia afb alienflybot dapuluous Speed Nightcore English SILA TROKH Сила трёх Power of Three серебро EGO indie pop dance electro house
BeatmapID:2126866
BeatmapSetID:1016210

[Difficulty]
HPDrainRate:4
CircleSize:3
OverallDifficulty:8
ApproachRate:8
SliderMultiplier:1.9
SliderTickRate:2

[Events]
//Background and Video events
0,0,"bg.jpg",0,0
//Break Periods
//Storyboard Layer 0 (Background)
//Storyboard Layer 1 (Fail)
//Storyboard Layer 2 (Pass)
//Storyboard Layer 3 (Foreground)
//Storyboard Layer 4 (Overlay)
//Storyboard Sound Samples

[TimingPoints]
1127,415.107132232377,4,2,1,75,1,0
16070,-100,4,2,1,75,0,1
29354,-100,4,2,1,50,0,0
32674,-86.9565217391304,4,2,1,50,0,0
33504,-100,4,2,1,50,0,0
42637,-86.9565217391304,4,2,1,60,0,0
43467,-100,4,2,1,60,0,0
44297,-86.9565217391304,4,2,1,60,0,0
45127,-100,4,2,1,60,0,0
55920,-111.111111111111,4,2,1,40,0,0
68166,-100,4,2,1,50,0,0
69204,-100,4,2,1,75,0,1
82487,-100,4,2,1,50,0,0
95771,-86.9565217391304,4,2,1,60,0,0
96601,-100,4,2,1,60,0,0
97431,-86.9565217391304,4,2,1,60,0,0
98261,-100,4,2,1,60,0,0
100752,-90.9090909090909,4,2,1,60,0,0
101582,-100,4,2,1,60,0,0
105733,-111.111111111111,4,2,1,45,0,0
108224,-100,4,2,1,50,0,0
109054,-100,4,2,1,75,0,1
122130,-100,4,2,1,75,0,0
122338,-100,4,2,1,80,0,1
123583,-80,4,2,1,80,0,1
123791,-100,4,2,1,80,0,1
125243,-80,4,2,1,80,0,1
125451,-100,4,2,1,80,0,1
126904,-80,4,2,1,80,0,1
127111,-100,4,2,1,80,0,1
130225,-80,4,2,1,80,0,1
130432,-100,4,2,1,80,0,1
131885,-80,4,2,1,80,0,1
132093,-100,4,2,1,80,0,1
133546,-80,4,2,1,80,0,1
133753,-100,4,2,1,80,0,1
133961,-86.9565217391304,4,2,1,80,0,1
135414,-100,4,2,1,80,0,0
135621,-95.2380952380952,4,2,1,85,0,1
148697,-95.2380952380952,4,2,1,85,0,0
148905,-95.2380952380952,4,2,1,90,0,1
158867,-90.9090909090909,4,2,1,90,0,1
162188,-95.2380952380951,4,2,1,50,0,0

[Colours]
Combo1 : 247,179,36
Combo2 : 243,213,133
Combo3 : 132,66,66
Combo4 : 247,74,70

[HitObjects]
94,231,15033,5,0,0:0:0:0:
92,207,15084,1,0,0:0:0:0:
91,183,15136,1,0,0:0:0:0:
150,319,15240,2,0,L|262:314,1,95,0|0,0:0|0:0,0:0:0:0:
131,75,15655,2,0,L|33:78,1,95
354,49,16070,6,0,P|403:132|343:187,1,190,4|8,3:1|0:0,0:0:0:0:
236,255,16693,2,0,L|233:307,1,47.5,0|0,0:0|0:0,0:0:0:0:
292,344,16901,2,0,L|400:347,1,95,0|0,3:0|0:0,0:0:0:0:
199,210,17316,2,0,L|310:211,1,95,8|0,0:0|0:0,0:0:0:0:
476,50,17731,6,0,L|482:243,1,190,0|8,3:0|0:0,0:0:0:0:
376,291,18353,1,0,0:0:0:0:
201,162,18561,2,0,L|303:157,1,95,0|0,3:0|0:0,0:0:0:0:
477,43,18976,2,0,L|381:46,1,95,8|0,0:0|0:0,0:0:0:0:
68,335,19391,5,0,3:0:0:0:
62,233,19599,1,0,0:0:0:0:
100,205,19703,1,0,0:0:0:0:
145,190,19806,1,8,0:0:0:0:
241,155,20014,1,0,0:0:0:0:
415,49,20221,6,0,L|420:158,1,95,0|0,3:0|0:0,0:0:0:0:
226,275,20637,2,0,L|123:281,1,95,8|0,0:0|0:0,0:0:0:0:
332,179,21052,6,0,L|491:173,1,142.5,0|0,3:0|0:0,0:0:0:0:
423,120,21467,1,8,0:0:0:0:
325,122,21674,1,0,0:0:0:0:
134,34,21882,2,0,L|127:139,1,95,0|0,3:0|0:0,0:0:0:0:
312,266,22297,2,0,L|424:270,1,95,8|0,0:0|0:0,0:0:0:0:
102,345,22712,6,0,P|66:312|130:201,1,190,0|8,3:0|0:0,0:0:0:0:
232,175,23335,2,0,L|300:172,1,47.5,0|0,0:0|0:0,0:0:0:0:
230,106,23542,2,0,L|127:111,1,95,0|0,3:0|0:0,0:0:0:0:
312,99,23957,2,0,L|412:95,1,95,8|0,0:0|0:0,0:0:0:0:
211,309,24372,6,0,P|264:262|381:208,1,190,0|8,3:0|0:0,0:0:0:0:
467,181,24995,1,0,0:0:0:0:
293,32,25203,2,0,L|284:136,1,95,0|0,3:0|0:0,0:0:0:0:
110,229,25618,2,0,L|4:236,1,95,8|0,0:0|0:0,0:0:0:0:
311,334,26033,6,0,L|507:328,1,190,0|8,3:0|0:0,0:0:0:0:
403,227,26656,1,0,0:0:0:0:
227,58,26863,2,0,L|221:157,1,95,0|0,3:0|0:0,0:0:0:0:
397,80,27278,2,0,L|507:84,1,95,8|0,0:0|0:0,0:0:0:0:
290,220,27693,5,0,3:0:0:0:
395,350,27901,1,0,0:0:0:0:
356,322,28005,1,0,0:0:0:0:
313,303,28108,1,8,0:0:0:0:
210,269,28316,1,0,0:0:0:0:
493,38,28524,6,0,L|495:140,1,95,0|8,3:0|0:0,0:0:0:0:
320,37,28939,2,0,L|431:36,1,95,0|8,0:0|0:0,0:0:0:0:
132,62,29354,6,0,P|92:97|166:206,1,190,0|0,3:0|3:0,0:0:0:0:
243,222,29976,1,0,0:0:0:0:
67,330,30184,1,0,3:0:0:0:
164,279,30392,1,0,0:0:0:0:
207,259,30495,1,0,0:0:0:0:
252,244,30599,1,0,3:0:0:0:
348,216,30807,1,0,0:0:0:0:
163,107,31014,6,0,L|57:110,1,95,0|0,3:0|0:0,0:0:0:0:
182,107,31429,2,0,L|297:103,1,95,0|0,3:0|0:0,0:0:0:0:
392,180,31844,2,0,L|282:186,1,95,0|0,3:0|0:0,0:0:0:0:
88,340,32260,2,0,L|84:238,1,95,0|0,3:0|0:0,0:0:0:0:
386,338,32675,6,0,L|497:334,1,109.250002083778,0|0,3:0|0:0,0:0:0:0:
303,238,33090,2,0,L|176:242,1,109.250002083778,0|0,3:0|0:0,0:0:0:0:
398,52,33505,1,0,3:0:0:0:
302,147,33712,1,0,0:0:0:0:
345,128,33816,1,0,0:0:0:0:
391,117,33920,1,0,3:0:0:0:
491,103,34128,1,0,0:0:0:0:
185,326,34335,6,0,L|83:332,2,95,0|0|0,3:0|0:0|3:0,0:0:0:0:
384,216,34958,2,0,L|188:227,1,190,0|0,0:0|0:0,0:0:0:0:
75,232,35580,2,0,L|69:131,1,95,0|0,3:0|0:0,0:0:0:0:
379,60,35995,6,0,L|480:57,1,95,0|0,3:0|0:0,0:0:0:0:
350,150,36411,2,0,L|253:154,1,95,0|0,3:0|0:0,0:0:0:0:
452,222,36826,2,0,L|348:226,1,95,0|0,3:0|0:0,0:0:0:0:
244,307,37241,2,0,L|351:304,1,95,0|0,3:0|0:0,0:0:0:0:
55,242,37656,6,0,L|50:137,1,95,0|0,3:0|0:0,0:0:0:0:
146,76,38071,1,0,3:0:0:0:
336,86,38279,2,0,P|266:136|124:178,1,190,0|0,0:0|0:0,0:0:0:0:
47,258,38901,2,0,P|92:253|159:256,1,95,0|0,3:0|0:0,0:0:0:0:
346,333,39316,5,0,3:0:0:0:
453,263,39524,1,0,0:0:0:0:
419,229,39628,1,0,0:0:0:0:
380,202,39731,1,0,3:0:0:0:
282,162,39939,1,0,0:0:0:0:
390,55,40147,2,0,L|290:53,1,95,0|0,3:0|0:0,0:0:0:0:
97,180,40562,2,0,L|91:81,1,95,0|0,3:0|0:0,0:0:0:0:
394,325,40977,6,0,L|495:324,2,95,0|0|0,3:0|0:0|3:0,0:0:0:0:
197,290,41599,2,0,P|210:272|346:167,1,190,0|8,0:0|0:0,0:0:0:0:
389,151,42118,1,8,0:0:0:0:
454,129,42222,2,0,L|456:24,1,95,0|8,3:0|0:0,0:0:0:0:
163,325,42637,6,0,L|51:329,1,109.250002083778,0|0,3:0|0:0,0:0:0:0:
243,321,43052,2,0,L|363:318,1,109.250002083778,8|0,0:0|0:0,0:0:0:0:
158,212,43467,1,0,3:0:0:0:
57,165,43675,1,0,0:0:0:0:
54,117,43779,1,0,0:0:0:0:
52,70,43883,1,8,0:0:0:0:
156,45,44090,1,0,0:0:0:0:
460,48,44298,6,0,L|466:165,1,109.250002083778,0|0,3:0|0:0,0:0:0:0:
275,271,44713,2,0,L|162:279,1,109.250002083778,8|0,0:0|0:0,0:0:0:0:
356,338,45128,1,0,3:0:0:0:
251,181,45335,1,0,0:0:0:0:
288,151,45439,1,0,0:0:0:0:
330,130,45543,1,8,0:0:0:0:
433,88,45751,1,0,0:0:0:0:
237,22,45958,6,0,L|230:137,1,95,0|0,3:0|0:0,0:0:0:0:
357,187,46373,2,0,L|350:302,1,95,8|0,0:0|0:0,0:0:0:0:
231,342,46788,2,0,L|116:348,1,95,0|0,3:0|0:0,0:0:0:0:
332,245,47203,2,0,L|442:241,1,95,8|0,0:0|0:0,0:0:0:0:
141,38,47618,6,0,L|136:148,1,95,0|0,3:0|0:0,0:0:0:0:
304,136,48034,2,0,L|179:131,2,95,8|0|0,0:0|0:0|3:0,0:0:0:0:
113,227,48656,1,0,0:0:0:0:
216,230,48864,2,0,L|328:232,1,95,8|0,0:0|0:0,0:0:0:0:
32,328,49279,6,0,L|29:221,1,95,0|0,3:0|0:0,0:0:0:0:
202,177,49694,2,0,L|102:178,1,95,8|0,0:0|0:0,0:0:0:0:
303,57,50109,2,0,L|194:56,1,95,0|0,3:0|0:0,0:0:0:0:
29,57,50524,2,0,L|141:56,1,95,8|0,0:0|0:0,0:0:0:0:
420,352,50939,6,0,L|427:245,1,95,0|0,3:0|0:0,0:0:0:0:
330,168,51354,1,8,0:0:0:0:
132,26,51562,2,0,P|205:69|314:98,1,190,0|0,0:0|0:0,0:0:0:0:
435,196,52185,2,0,L|441:294,1,95,8|0,0:0|0:0,0:0:0:0:
142,347,52600,5,0,3:0:0:0:
40,279,52807,1,0,0:0:0:0:
80,253,52911,1,0,0:0:0:0:
123,234,53015,1,8,0:0:0:0:
221,206,53222,1,0,0:0:0:0:
401,105,53430,2,0,L|297:105,2,95,0|0|8,3:0|0:0|0:0,0:0:0:0:
109,37,54053,6,0,L|12:37,1,95,0|0,0:0|3:0,0:0:0:0:
217,335,54468,2,0,P|262:295|201:195,1,190
10,149,55090,1,0,3:0:0:0:
108,93,55298,2,0,L|190:91,1,63.3333333333333,8|8,0:0|0:0,0:0:0:0:
198,87,55506,1,0,3:0:0:0:
293,48,55713,1,8,0:0:0:0:
477,65,55921,6,0,L|481:207,1,128.249996086121,2|2,0:0|0:0,0:0:0:0:
324,320,56543,1,2,0:0:0:0:
201,233,56751,6,0,L|296:231,1,85.4999973907472,2|2,0:0|0:0,0:0:0:0:
401,123,57166,2,0,L|314:123,1,85.4999973907472,2|2,0:0|0:0,0:0:0:0:
137,42,57581,6,0,L|130:180,1,128.249996086121,2|2,0:0|0:0,0:0:0:0:
279,333,58204,1,2,0:0:0:0:
173,326,58411,2,0,L|79:326,1,85.4999973907472,2|2,0:0|0:0,0:0:0:0:
200,230,58826,2,0,L|296:232,1,85.4999973907472,2|2,0:0|0:0,0:0:0:0:
470,129,59241,6,0,L|336:127,1,128.249996086121,2|2,0:0|0:0,0:0:0:0:
179,134,59864,1,2,0:0:0:0:
295,48,60072,2,0,L|298:146,1,85.4999973907472,2|2,0:0|0:0,0:0:0:0:
189,269,60487,2,0,L|88:275,1,85.4999973907472,2|2,0:0|0:0,0:0:0:0:
285,346,60902,6,0,L|434:339,1,128.249996086121,2|0,0:0|0:0,0:0:0:0:
255,195,61525,1,2,0:0:0:0:
366,98,61732,2,0,L|265:100,1,85.4999973907472,2|2,0:0|0:0,0:0:0:0:
176,99,62147,2,0,L|264:100,1,85.4999973907472,2|2,0:0|0:0,0:0:0:0:
78,295,62562,6,0,L|74:157,1,128.249996086121,2|2,0:0|0:0,0:0:0:0:
243,295,63185,1,2,0:0:0:0:
356,213,63393,2,0,L|361:125,1,85.4999973907472,2|2,0:0|0:0,0:0:0:0:
236,150,63808,2,0,L|147:148,1,85.4999973907472,2|2,0:0|0:0,0:0:0:0:
342,37,64223,6,0,L|484:39,1,128.249996086121,2|2,0:0|0:0,0:0:0:0:
305,255,64845,1,2,0:0:0:0:
198,321,65053,2,0,L|291:318,1,85.4999973907472,2|2,0:0|0:0,0:0:0:0:
406,264,65468,2,0,L|410:170,1,85.4999973907472,2|2,0:0|0:0,0:0:0:0:
218,174,65883,6,0,L|84:170,1,128.249996086121,2|2,0:0|0:0,0:0:0:0:
250,62,66506,1,2,0:0:0:0:
135,190,66713,2,0,L|226:192,1,85.4999973907472,2|2,0:0|0:0,0:0:0:0:
332,308,67129,2,0,L|240:307,1,85.4999973907472,2|2,0:0|0:0,0:0:0:0:
56,323,67544,6,0,L|52:182,1,128.249996086121,2|0,0:0|0:0,0:0:0:0:
309,221,68166,6,0,L|212:219,1,95,2|8,0:0|0:0,0:0:0:0:
8,138,68581,2,0,L|91:137,1,63.3333333333333,8|8,0:0|0:0,0:0:0:0:
104,134,68789,1,8,0:0:0:0:
201,132,68997,1,8,0:0:0:0:
478,346,69204,6,0,L|485:141,1,190,4|8,3:1|0:0,0:0:0:0:
306,206,69827,2,0,L|258:207,1,47.5
210,296,70034,2,0,P|243:276|310:253,1,95,0|0,3:0|0:0,0:0:0:0:
498,122,70449,2,0,P|465:102|398:79,1,95,8|0,0:0|0:0,0:0:0:0:
199,43,70864,6,0,P|151:86|227:173,1,190,0|8,3:0|0:0,0:0:0:0:
308,175,71487,1,0,0:0:0:0:
113,340,71695,2,0,L|109:243,1,95,0|0,3:0|0:0,0:0:0:0:
230,288,72110,2,0,L|129:290,1,95,8|0,0:0|0:0,0:0:0:0:
409,47,72525,5,0,3:0:0:0:
505,136,72732,1,0,0:0:0:0:
465,110,72836,1,0,0:0:0:0:
421,92,72940,1,8,0:0:0:0:
326,69,73148,1,0,0:0:0:0:
144,262,73355,2,0,L|139:153,1,95,0|0,3:0|0:0,0:0:0:0:
344,325,73770,2,0,L|440:320,1,95,8|0,0:0|0:0,0:0:0:0:
252,172,74185,6,0,L|104:176,1,142.5,0|0,3:0|0:0,0:0:0:0:
158,233,74600,1,8,0:0:0:0:
270,226,74808,1,0,0:0:0:0:
479,341,75016,2,0,L|486:240,1,95,0|0,3:0|0:0,0:0:0:0:
307,331,75431,2,0,L|407:333,1,95,8|0,0:0|0:0,0:0:0:0:
116,50,75846,5,0,3:0:0:0:
18,183,76053,1,0,0:0:0:0:
57,156,76157,1,0,0:0:0:0:
100,138,76261,1,8,0:0:0:0:
279,104,76468,1,0,0:0:0:0:
281,151,76572,1,0,0:0:0:0:
283,198,76676,1,0,3:0:0:0:
188,258,76884,1,0,0:0:0:0:
381,190,77091,2,0,L|492:189,1,95,8|0,0:0|0:0,0:0:0:0:
277,322,77506,6,0,L|81:330,1,190,0|8,3:0|0:0,0:0:0:0:
85,224,78129,1,0,0:0:0:0:
258,207,78336,2,0,L|371:205,1,95,0|0,3:0|0:0,0:0:0:0:
162,92,78752,2,0,L|68:91,1,95,8|0,0:0|0:0,0:0:0:0:
351,88,79167,5,0,3:0:0:0:
463,207,79374,1,0,0:0:0:0:
423,180,79478,1,0,0:0:0:0:
379,162,79582,1,8,0:0:0:0:
285,129,79789,1,0,0:0:0:0:
94,320,79997,2,0,L|86:206,1,95,0|0,3:0|0:0,0:0:0:0:
234,343,80412,2,0,L|343:339,1,95,8|0,0:0|0:0,0:0:0:0:
128,147,80827,6,0,P|188:105|306:57,1,190,0|8,3:0|0:0,0:0:0:0:
394,37,81450,1,0,0:0:0:0:
222,240,81657,2,0,L|124:243,1,95,0|8,3:0|0:0,0:0:0:0:
335,336,82072,2,0,L|437:333,1,95,0|8,0:0|0:0,0:0:0:0:
130,240,82487,5,0,3:0:0:0:
30,182,82695,1,0,0:0:0:0:
28,134,82799,1,0,0:0:0:0:
26,87,82903,1,8,0:0:0:0:
215,62,83110,2,0,L|406:61,1,190
225,160,83733,2,0,L|125:163,1,95,8|0,0:0|0:0,0:0:0:0:
324,319,84148,6,0,L|422:317,2,95,0|0|8,3:0|0:0|0:0,0:0:0:0:
131,304,84771,2,0,L|123:109,1,190,0|0,0:0|0:0,0:0:0:0:
268,191,85393,2,0,L|376:187,1,95,8|0,0:0|0:0,0:0:0:0:
168,34,85808,5,0,3:0:0:0:
268,122,86016,1,0,0:0:0:0:
225,101,86120,1,0,0:0:0:0:
179,87,86223,1,8,0:0:0:0:
76,72,86431,1,0,0:0:0:0:
203,230,86639,6,0,L|312:235,1,95,0|0,3:0|0:0,0:0:0:0:
476,329,87054,2,0,L|372:325,1,95,8|0,0:0|0:0,0:0:0:0:
94,328,87469,6,0,L|88:219,1,95,0|0,3:0|0:0,0:0:0:0:
184,152,87884,1,8,0:0:0:0:
385,42,88091,2,0,P|332:90|221:154,1,190
51,102,88714,2,0,P|106:79|145:71,1,95,8|0,0:0|0:0,0:0:0:0:
474,341,89129,6,0,L|477:238,1,95,0|0,3:0|0:0,0:0:0:0:
301,256,89544,2,0,L|405:257,1,95,8|0,0:0|0:0,0:0:0:0:
209,139,89959,2,0,L|309:140,1,95,0|0,3:0|0:0,0:0:0:0:
505,57,90375,2,0,L|407:58,1,95,8|0,0:0|0:0,0:0:0:0:
130,327,90790,6,0,L|28:333,2,95,0|0|8,3:0|0:0|0:0,0:0:0:0:
330,268,91412,2,0,P|312:250|164:158,1,190,0|0,0:0|0:0,0:0:0:0:
352,96,92035,2,0,L|455:95,1,95,8|0,0:0|0:0,0:0:0:0:
131,58,92450,5,0,3:0:0:0:
35,222,92658,1,0,0:0:0:0:
33,174,92761,1,0,0:0:0:0:
31,127,92865,1,8,0:0:0:0:
131,58,93073,1,0,0:0:0:0:
313,152,93280,2,0,L|205:157,1,95,0|0,3:0|0:0,0:0:0:0:
26,303,93695,2,0,L|137:300,1,95,8|0,0:0|0:0,0:0:0:0:
400,344,94110,6,0,L|406:248,1,95,0|0,3:0|0:0,0:0:0:0:
307,186,94526,1,8,0:0:0:0:
492,68,94733,2,0,P|432:104|307:129,1,190,0|8,0:0|0:0,0:0:0:0:
268,125,95252,1,8,0:0:0:0:
315,129,95356,1,0,3:0:0:0:
422,267,95563,1,8,0:0:0:0:
120,339,95771,6,0,L|115:227,1,109.250002083778,0|0,3:0|0:0,0:0:0:0:
303,316,96186,2,0,L|192:315,1,109.250002083778,8|0,0:0|0:0,0:0:0:0:
14,199,96601,1,0,3:0:0:0:
122,72,96809,1,0,0:0:0:0:
123,119,96912,1,0,0:0:0:0:
125,166,97016,1,8,0:0:0:0:
9,204,97224,1,0,0:0:0:0:
309,317,97431,6,0,L|432:319,1,109.250002083778,0|0,3:0|0:0,0:0:0:0:
228,233,97846,2,0,L|116:231,1,109.250002083778,8|0,0:0|0:0,0:0:0:0:
315,129,98262,1,0,3:0:0:0:
208,83,98469,1,0,0:0:0:0:
250,62,98573,1,0,0:0:0:0:
296,48,98677,1,8,0:0:0:0:
400,26,98884,1,0,0:0:0:0:
205,208,99092,6,0,L|200:315,1,95,0|0,3:0|0:0,0:0:0:0:
328,325,99507,2,0,L|429:330,1,95,8|0,0:0|0:0,0:0:0:0:
295,214,99922,2,0,L|187:212,1,95,0|0,3:0|0:0,0:0:0:0:
4,95,100337,2,0,L|107:97,1,95,8|0,0:0|0:0,0:0:0:0:
395,34,100752,6,0,L|399:151,1,104.500003189087,0|0,3:0|0:0,0:0:0:0:
213,265,101167,2,0,L|334:261,2,104.500003189087,8|0|0,0:0|0:0|3:0,0:0:0:0:
407,335,101790,1,0,0:0:0:0:
293,340,101998,2,0,L|400:335,1,95,8|0,0:0|0:0,0:0:0:0:
96,252,102413,6,0,L|88:147,1,95,0|0,3:0|0:0,0:0:0:0:
263,184,102828,2,0,L|371:177,1,95,8|0,0:0|0:0,0:0:0:0:
154,82,103243,2,0,L|267:78,1,95,0|0,3:0|0:0,0:0:0:0:
447,69,103658,2,0,L|349:73,1,95,8|0,0:0|0:0,0:0:0:0:
30,314,104073,6,0,L|26:213,1,95,0|0,3:0|0:0,0:0:0:0:
131,162,104488,1,8,0:0:0:0:
316,44,104696,2,0,P|358:86|299:185,1,190,0|0,0:0|0:0,0:0:0:0:
162,315,105318,2,0,L|158:208,1,95,8|0,0:0|0:0,0:0:0:0:
334,329,105733,5,2,3:2:0:0:
420,281,105941,1,2,0:0:0:0:
388,251,106045,1,0,0:0:0:0:
351,230,106149,1,2,0:0:0:0:
264,191,106356,1,2,0:0:0:0:
161,106,106564,6,0,L|254:103,2,85.4999973907472,2|2|2,0:0|0:0|0:0,0:0:0:0:
333,99,107186,6,0,L|428:94,1,85.4999973907472,2|0,0:0|0:0,0:0:0:0:
210,207,107601,2,0,L|21:223,1,170.999994781494,2|0,0:0|0:0,0:0:0:0:
255,104,108224,5,0,3:0:0:0:
154,56,108432,2,0,L|236:55,1,63.3333333333333,8|8,0:0|0:0,0:0:0:0:
251,53,108639,1,8,0:0:0:0:
352,54,108847,1,8,0:0:0:0:
36,335,109054,6,0,L|27:140,1,190,4|8,3:1|0:0,0:0:0:0:
130,86,109677,1,0,0:0:0:0:
320,271,109885,2,0,L|324:174,1,95,0|0,3:0|0:0,0:0:0:0:
121,311,110300,2,0,L|15:317,1,95,8|0,0:0|0:0,0:0:0:0:
308,197,110715,6,0,L|469:193,1,142.5,0|0,3:0|0:0,0:0:0:0:
502,115,111130,2,0,L|397:116,1,95,8|0,0:0|0:0,0:0:0:0:
218,119,111545,1,0,3:0:0:0:
116,193,111753,1,0,0:0:0:0:
157,170,111856,1,0,0:0:0:0:
202,153,111960,1,8,0:0:0:0:
310,129,112168,1,0,0:0:0:0:
31,326,112375,6,0,L|25:170,1,142.5,0|0,3:0|0:0,0:0:0:0:
90,140,112790,1,8,0:0:0:0:
277,49,112998,1,0,0:0:0:0:
374,106,113205,2,0,L|271:111,1,95,0|0,3:0|0:0,0:0:0:0:
89,258,113621,2,0,L|191:252,1,95,8|0,0:0|0:0,0:0:0:0:
389,321,114036,5,0,3:0:0:0:
492,255,114243,1,0,0:0:0:0:
493,207,114347,1,0,0:0:0:0:
495,160,114451,1,8,0:0:0:0:
389,321,114658,1,0,0:0:0:0:
201,323,114866,2,0,L|309:321,1,95,0|0,3:0|0:0,0:0:0:0:
490,196,115281,2,0,L|385:196,1,95,8|0,0:0|0:0,0:0:0:0:
81,37,115696,6,0,P|31:112|118:181,1,190,0|8,3:0|0:0,0:0:0:0:
186,194,116319,1,0,0:0:0:0:
361,309,116526,2,0,L|367:205,1,95,0|0,3:0|0:0,0:0:0:0:
155,309,116941,2,0,L|50:309,1,95,8|0,0:0|0:0,0:0:0:0:
338,292,117356,6,0,L|350:103,1,190,0|8,3:0|0:0,0:0:0:0:
448,47,117979,1,0,0:0:0:0:
259,42,118187,2,0,L|154:40,1,95,0|0,3:0|0:0,0:0:0:0:
364,148,118602,2,0,L|471:152,1,95,8|0,0:0|0:0,0:0:0:0:
166,351,119017,5,0,3:0:0:0:
67,297,119224,1,0,0:0:0:0:
65,249,119328,1,0,0:0:0:0:
63,202,119432,1,8,0:0:0:0:
166,351,119640,1,0,0:0:0:0:
320,269,119847,2,0,L|325:171,1,95,0|0,3:0|0:0,0:0:0:0:
142,126,120262,2,0,L|45:123,1,95,8|0,0:0|0:0,0:0:0:0:
339,36,120677,5,0,3:0:0:0:
378,60,120781,1,0,0:0:0:0:
391,105,120885,1,0,3:0:0:0:
372,147,120989,1,0,0:0:0:0:
329,166,121092,5,8,0:0:0:0:
289,190,121196,1,0,0:0:0:0:
276,235,121300,1,0,3:0:0:0:
295,277,121404,1,0,0:0:0:0:
338,296,121508,6,0,L|396:298,2,47.5,0|0|8,3:0|0:0|0:0,0:0:0:0:
141,295,121923,2,0,L|39:295,1,95,8|8,0:0|0:0,0:0:0:0:
332,60,122338,6,0,L|488:63,1,142.5,4|0,3:1|0:0,0:0:0:0:
427,141,122753,1,8,0:0:0:0:
234,288,122960,1,0,0:0:0:0:
127,199,123168,2,0,L|234:195,1,95,0|0,3:0|0:0,0:0:0:0:
438,334,123583,2,0,L|317:329,1,118.75,8|0,0:0|0:0,0:0:0:0:
25,235,123998,6,0,L|22:133,1,95,0|0,3:0|0:0,0:0:0:0:
196,178,124413,2,0,L|300:172,1,95,8|0,0:0|0:0,0:0:0:0:
71,89,124828,2,0,L|170:85,1,95,0|0,3:0|0:0,0:0:0:0:
378,71,125244,2,0,L|506:67,1,118.75,8|0,0:0|0:0,0:0:0:0:
196,314,125659,5,0,3:0:0:0:
99,263,125866,1,0,0:0:0:0:
96,215,125970,1,0,0:0:0:0:
93,168,126074,1,8,0:0:0:0:
196,314,126281,1,0,0:0:0:0:
394,315,126489,2,0,L|399:212,1,95,0|0,3:0|0:0,0:0:0:0:
187,129,126904,2,0,L|56:126,1,118.75,8|0,0:0|0:0,0:0:0:0:
355,42,127319,5,0,3:0:0:0:
452,108,127527,1,0,0:0:0:0:
453,155,127630,1,0,0:0:0:0:
455,202,127734,1,8,0:0:0:0:
257,273,127942,1,0,0:0:0:0:
146,322,128149,2,0,L|254:320,1,95,0|0,3:0|0:0,0:0:0:0:
437,348,128564,2,0,L|441:249,1,95,8|0,0:0|0:0,0:0:0:0:
162,179,128979,5,0,3:0:0:0:
58,138,129187,1,0,0:0:0:0:
96,110,129291,1,0,0:0:0:0:
139,90,129395,1,8,0:0:0:0:
242,61,129602,1,0,0:0:0:0:
43,283,129810,2,0,L|40:182,1,95,0|0,3:0|0:0,0:0:0:0:
246,350,130225,2,0,L|375:345,1,118.75,8|0,0:0|0:0,0:0:0:0:
81,211,130640,5,0,3:0:0:0:
182,274,130847,1,0,0:0:0:0:
184,226,130951,1,0,0:0:0:0:
186,179,131055,1,8,0:0:0:0:
81,211,131263,1,0,0:0:0:0:
279,95,131470,2,0,L|382:93,1,95,0|0,3:0|0:0,0:0:0:0:
165,39,131885,2,0,L|43:43,1,118.75,8|0,0:0|0:0,0:0:0:0:
354,336,132300,5,0,3:0:0:0:
451,295,132508,1,0,0:0:0:0:
452,247,132612,1,0,0:0:0:0:
454,200,132715,1,8,0:0:0:0:
354,336,132923,1,0,0:0:0:0:
163,300,133131,2,0,L|278:297,1,95,0|0,3:0|0:0,0:0:0:0:
476,117,133546,2,0,L|354:116,1,118.75,8|0,0:0|0:0,0:0:0:0:
85,302,133961,5,0,3:0:0:0:
43,267,134065,1,0,0:0:0:0:
21,217,134168,1,0,3:0:0:0:
23,163,134272,1,0,0:0:0:0:
48,115,134376,1,8,0:0:0:0:
91,83,134480,1,0,0:0:0:0:
145,74,134583,1,0,3:0:0:0:
440,37,134791,5,0,3:0:0:0:
444,91,134895,1,0,0:0:0:0:
448,145,134999,1,0,3:0:0:0:
256,161,135206,1,8,0:0:0:0:
201,164,135310,1,0,0:0:0:0:
146,167,135414,1,0,3:0:0:0:
463,345,135621,6,0,L|468:237,1,99.7499969558717,4|0,3:1|0:0,0:0:0:0:
288,315,136036,2,0,L|405:318,1,99.7499969558717,8|0,0:0|0:0,0:0:0:0:
194,210,136451,2,0,L|302:212,1,99.7499969558717,0|0,3:0|0:0,0:0:0:0:
500,105,136867,2,0,L|395:103,1,99.7499969558717,8|0,0:0|3:0,0:0:0:0:
112,93,137282,5,0,3:0:0:0:
11,209,137489,1,0,0:0:0:0:
8,159,137593,1,0,0:0:0:0:
6,109,137697,1,8,0:0:0:0:
112,93,137904,1,0,0:0:0:0:
304,286,138112,2,0,L|193:281,1,99.7499969558717,0|0,3:0|0:0,0:0:0:0:
5,168,138527,2,0,L|112:160,1,99.7499969558717,8|0,0:0|3:0,0:0:0:0:
403,46,138942,5,0,3:0:0:0:
503,144,139150,1,0,0:0:0:0:
459,119,139253,1,0,0:0:0:0:
412,102,139357,1,8,0:0:0:0:
311,72,139565,1,0,0:0:0:0:
112,237,139772,2,0,L|107:129,1,99.7499969558717,0|0,3:0|0:0,0:0:0:0:
289,335,140187,2,0,L|403:332,1,99.7499969558717,8|0,0:0|3:0,0:0:0:0:
86,256,140602,5,0,3:0:0:0:
194,197,140810,1,0,0:0:0:0:
194,147,140914,1,0,0:0:0:0:
195,97,141018,1,8,0:0:0:0:
86,256,141225,1,0,0:0:0:0:
286,76,141433,2,0,L|409:73,1,99.7499969558717,0|0,3:0|0:0,0:0:0:0:
186,32,141848,2,0,L|75:36,1,99.7499969558717,8|0,0:0|3:0,0:0:0:0:
426,288,142263,6,0,P|478:224|407:140,1,199.499993911743,0|8,3:0|0:0,0:0:0:0:
314,126,142886,1,0,0:0:0:0:
124,245,143093,2,0,L|118:136,1,99.7499969558717,0|0,3:0|0:0,0:0:0:0:
323,229,143508,2,0,L|423:226,1,99.7499969558717,8|0,0:0|3:0,0:0:0:0:
137,330,143923,5,0,3:0:0:0:
241,268,144131,2,0,L|245:216,1,49.8749984779358
154,182,144338,2,0,L|162:70,1,99.7499969558717,8|0,0:0|0:0,0:0:0:0:
357,142,144754,2,0,L|365:36,1,99.7499969558717,0|0,3:0|0:0,0:0:0:0:
160,44,145169,2,0,L|51:44,1,99.7499969558717,8|0,0:0|3:0,0:0:0:0:
355,255,145584,6,0,L|525:255,1,149.624995433808,0|0,3:0|0:0,0:0:0:0:
450,183,145999,1,8,0:0:0:0:
244,179,146206,1,0,0:0:0:0:
132,86,146414,2,0,L|127:195,1,99.7499969558717,0|0,3:0|0:0,0:0:0:0:
321,330,146829,2,0,L|428:333,1,99.7499969558717,8|0,0:0|3:0,0:0:0:0:
117,321,147244,5,0,3:0:0:0:
91,279,147348,1,0,0:0:0:0:
99,231,147452,1,0,3:0:0:0:
137,201,147556,1,0,3:0:0:0:
209,174,147659,1,8,0:0:0:0:
235,132,147763,1,0,0:0:0:0:
227,84,147867,1,0,0:0:0:0:
189,54,147971,1,0,0:0:0:0:
137,201,148074,6,0,L|71:204,2,49.8749984779358,0|0|8,3:0|0:0|0:0,0:0:0:0:
418,322,148490,2,0,L|478:320,2,49.8749984779358,8|0|8,0:0|0:0|0:0,0:0:0:0:
95,331,148905,6,0,P|53:299|124:191,1,199.499993911743,4|8,3:1|0:0,0:0:0:0:
307,119,149527,2,0,L|309:68,1,49.8749984779358
227,87,149735,2,0,L|114:89,1,99.7499969558717,0|0,3:0|0:0,0:0:0:0:
327,219,150150,2,0,L|427:217,1,99.7499969558717,8|0,0:0|0:0,0:0:0:0:
128,326,150565,5,0,3:0:0:0:
26,250,150773,1,0,0:0:0:0:
24,200,150876,1,0,0:0:0:0:
22,150,150980,1,8,0:0:0:0:
227,104,151188,1,0,0:0:0:0:
338,190,151395,2,0,L|232:185,1,99.7499969558717,0|0,3:0|0:0,0:0:0:0:
37,46,151810,2,0,L|156:40,1,99.7499969558717,8|0,0:0|0:0,0:0:0:0:
464,46,152225,6,0,L|471:215,1,149.624995433808,0|0,3:0|0:0,0:0:0:0:
395,231,152641,1,8,0:0:0:0:
194,311,152848,1,0,0:0:0:0:
91,273,153056,2,0,L|87:158,1,99.7499969558717,0|0,3:0|0:0,0:0:0:0:
285,268,153471,2,0,L|386:263,1,99.7499969558717,8|0,0:0|0:0,0:0:0:0:
91,53,153886,5,0,3:0:0:0:
193,121,154093,1,0,0:0:0:0:
194,170,154197,1,0,0:0:0:0:
196,220,154301,1,8,0:0:0:0:
91,53,154509,1,0,0:0:0:0:
292,312,154716,2,0,L|400:321,1,99.7499969558717,0|0,3:0|0:0,0:0:0:0:
187,155,155131,2,0,L|80:147,1,99.7499969558717,8|0,0:0|0:0,0:0:0:0:
401,42,155546,6,0,P|444:79|371:190,1,199.499993911743,0|8,3:0|0:0,0:0:0:0:
203,304,156169,2,0,P|214:293|246:275,1,49.8749984779358,0|0,0:0|0:0,0:0:0:0:
301,334,156377,2,0,L|192:337,1,99.7499969558717,0|0,3:0|0:0,0:0:0:0:
13,246,156792,2,0,L|120:242,1,99.7499969558717,8|0,0:0|0:0,0:0:0:0:
411,193,157207,5,0,3:0:0:0:
511,69,157414,1,0,0:0:0:0:
468,95,157518,1,0,0:0:0:0:
421,109,157622,1,8,0:0:0:0:
219,211,157829,1,0,0:0:0:0:
340,312,158037,2,0,L|450:323,1,99.7499969558717,0|0,3:0|0:0,0:0:0:0:
139,50,158452,2,0,L|29:54,1,99.7499969558717,8|0,0:0|0:0,0:0:0:0:
360,310,158867,5,0,3:0:0:0:
402,281,158971,1,0,3:0:0:0:
417,232,159075,1,0,3:0:0:0:
397,185,159179,1,0,3:0:0:0:
352,161,159282,1,8,3:2:0:0:
229,140,159490,1,0,3:0:0:0:
31,37,159697,5,0,3:0:0:0:
30,89,159801,1,0,3:0:0:0:
29,141,159905,1,0,3:0:0:0:
348,320,160113,2,0,L|469:325,1,104.500003189087,8|0,3:2|3:0,0:0:0:0:
175,282,160528,5,0,3:0:0:0:
132,252,160631,1,0,3:0:0:0:
118,203,160735,1,0,3:0:0:0:
137,156,160839,1,0,3:0:0:0:
182,131,160943,1,8,3:2:0:0:
299,111,161150,1,0,3:0:0:0:
21,330,161358,5,0,3:0:0:0:
19,277,161462,1,0,0:0:0:0:
17,225,161565,1,8,0:0:0:0:
321,341,161773,1,8,0:0:0:0:
373,339,161877,1,0,0:0:0:0:
425,337,161981,1,8,0:0:0:0:
245,236,162188,6,0,L|80:238,1,149.624995433808,2|2,3:2|0:0,0:0:0:0:
