osu file format v14

[General]
AudioFilename: audio.mp3
AudioLeadIn: 0
PreviewTime: 31573
Countdown: 0
SampleSet: Soft
StackLeniency: 0.7
Mode: 3
LetterboxInBreaks: 0
SpecialStyle: 0
WidescreenStoryboard: 0

[Editor]
DistanceSpacing: 1.3
BeatDivisor: 4
GridSize: 16
TimelineZoom: 1.8

[Metadata]
Title:MALO TEBYA (Sped Up Ver.)
TitleUnicode:МАЛО ТЕБЯ (Sped Up Ver.)
Artist:SEREBRO
ArtistUnicode:SEREBRO
Creator:Sillot
Version:HARD
Source:
Tags:russian русский electronic электроник nightcore поп pop dance speed mix silver сила трёх the power of three Monolit Records mонолит pекордс maksim fadeev Максим Фадеев sila trokh ольга серябкина olga seryabkina елена темникова elena temnikova даша шашина dasha shashina keksikosu
BeatmapID:4074171
BeatmapSetID:1964831

[Difficulty]
HPDrainRate:7.5
CircleSize:4
OverallDifficulty:7.5
ApproachRate:5
SliderMultiplier:1.4
SliderTickRate:1

[Events]
//Background and Video events
0,0,"BG.jpg",0,0
//Break Periods
//Storyboard Layer 0 (Background)
//Storyboard Layer 1 (Fail)
//Storyboard Layer 2 (Pass)
//Storyboard Layer 3 (Foreground)
//Storyboard Layer 4 (Overlay)
//Storyboard Sound Samples

[TimingPoints]
58,342.563516985441,4,2,1,50,1,0
31573,-100,4,2,1,50,0,1
64459,-100,4,2,1,50,0,0
86384,-100,4,2,1,50,0,1
119270,-100,4,2,1,50,0,0
132972,-100,4,2,1,50,0,1
165687,-100,4,2,1,50,0,0

[HitObjects]
64,192,4168,5,0,0:0:0:0:
448,192,4168,1,0,0:0:0:0:
192,192,4340,1,0,0:0:0:0:
448,192,4511,1,0,0:0:0:0:
320,192,4682,1,0,0:0:0:0:
64,192,4853,1,0,0:0:0:0:
320,192,5025,1,0,0:0:0:0:
192,192,5196,1,0,0:0:0:0:
320,192,5367,1,0,0:0:0:0:
64,192,5539,1,0,0:0:0:0:
448,192,5710,1,0,0:0:0:0:
64,192,5881,1,0,0:0:0:0:
320,192,6052,1,0,0:0:0:0:
192,192,6224,1,0,0:0:0:0:
448,192,6395,1,0,0:0:0:0:
192,192,6566,1,0,0:0:0:0:
320,192,6737,1,0,0:0:0:0:
64,192,6909,1,0,0:0:0:0:
320,192,7080,1,0,0:0:0:0:
192,192,7251,1,0,0:0:0:0:
448,192,7423,1,0,0:0:0:0:
64,192,7594,1,0,0:0:0:0:
320,192,7765,1,0,0:0:0:0:
448,192,7936,1,0,0:0:0:0:
192,192,8108,1,0,0:0:0:0:
64,192,8279,1,0,0:0:0:0:
448,192,8450,1,0,0:0:0:0:
64,192,8622,1,0,0:0:0:0:
192,192,8793,1,0,0:0:0:0:
448,192,8964,1,0,0:0:0:0:
192,192,9135,1,0,0:0:0:0:
448,192,9307,1,0,0:0:0:0:
64,192,9478,1,0,0:0:0:0:
320,192,9649,1,0,0:0:0:0:
192,192,9649,1,0,0:0:0:0:
448,192,9821,1,0,0:0:0:0:
64,192,9992,1,0,0:0:0:0:
192,192,10163,1,0,0:0:0:0:
448,192,10334,1,0,0:0:0:0:
320,192,10506,1,0,0:0:0:0:
192,192,10677,1,0,0:0:0:0:
320,192,10848,1,0,0:0:0:0:
64,192,11020,1,0,0:0:0:0:
448,192,11191,1,0,0:0:0:0:
192,192,11362,1,0,0:0:0:0:
320,192,11533,1,0,0:0:0:0:
64,192,11705,1,0,0:0:0:0:
320,192,11876,1,0,0:0:0:0:
448,192,12047,1,0,0:0:0:0:
192,192,12219,1,0,0:0:0:0:
320,192,12390,1,0,0:0:0:0:
64,192,12561,1,0,0:0:0:0:
448,192,12732,1,0,0:0:0:0:
192,192,12904,1,0,0:0:0:0:
320,192,13075,1,0,0:0:0:0:
64,192,13246,1,0,0:0:0:0:
448,192,13417,1,0,0:0:0:0:
64,192,13589,1,0,0:0:0:0:
320,192,13760,1,0,0:0:0:0:
192,192,13931,1,0,0:0:0:0:
448,192,14103,1,0,0:0:0:0:
64,192,14274,1,0,0:0:0:0:
320,192,14445,1,0,0:0:0:0:
192,192,14616,1,0,0:0:0:0:
448,192,14788,1,0,0:0:0:0:
192,192,14959,1,0,0:0:0:0:
320,192,15130,1,0,0:0:0:0:
64,192,15130,1,0,0:0:0:0:
448,192,15302,1,0,0:0:0:0:
192,192,15473,1,0,0:0:0:0:
320,192,15644,1,0,0:0:0:0:
64,192,15815,1,0,0:0:0:0:
192,192,15987,1,0,0:0:0:0:
448,192,16158,1,0,0:0:0:0:
192,192,16329,1,0,0:0:0:0:
64,192,16501,1,0,0:0:0:0:
320,192,16672,1,0,0:0:0:0:
192,192,16843,1,0,0:0:0:0:
448,192,17014,1,0,0:0:0:0:
192,192,17186,1,0,0:0:0:0:
64,192,17357,1,0,0:0:0:0:
320,192,17528,1,0,0:0:0:0:
448,192,17700,1,0,0:0:0:0:
192,192,17871,1,0,0:0:0:0:
64,192,18042,1,0,0:0:0:0:
448,192,18213,1,0,0:0:0:0:
192,192,18385,1,0,0:0:0:0:
320,192,18556,1,0,0:0:0:0:
64,192,18727,1,0,0:0:0:0:
320,192,18898,1,0,0:0:0:0:
192,192,19070,1,0,0:0:0:0:
64,192,19241,1,0,0:0:0:0:
192,192,19412,1,0,0:0:0:0:
448,192,19584,1,0,0:0:0:0:
320,192,19755,1,0,0:0:0:0:
64,192,19926,1,0,0:0:0:0:
192,192,20097,1,0,0:0:0:0:
320,192,20269,1,0,0:0:0:0:
192,192,20440,1,0,0:0:0:0:
64,192,20611,1,0,0:0:0:0:
448,192,20611,1,0,0:0:0:0:
320,192,20783,1,0,0:0:0:0:
192,192,20954,1,0,0:0:0:0:
448,192,21125,1,0,0:0:0:0:
192,192,21296,128,0,21639:0:0:0:0:
448,192,21468,1,0,0:0:0:0:
64,192,21639,1,0,0:0:0:0:
320,192,21810,1,0,0:0:0:0:
448,192,21982,1,0,0:0:0:0:
64,192,21982,1,0,0:0:0:0:
320,192,22153,1,0,0:0:0:0:
192,192,22324,1,0,0:0:0:0:
448,192,22495,1,0,0:0:0:0:
64,192,22667,128,0,23009:0:0:0:0:
320,192,22838,1,0,0:0:0:0:
192,192,23009,1,0,0:0:0:0:
448,192,23181,1,0,0:0:0:0:
64,192,23352,1,0,0:0:0:0:
192,192,23352,1,0,0:0:0:0:
320,192,23523,1,0,0:0:0:0:
64,192,23694,1,0,0:0:0:0:
320,192,23866,1,0,0:0:0:0:
448,192,24037,1,0,0:0:0:0:
192,192,24208,1,0,0:0:0:0:
320,192,24380,1,0,0:0:0:0:
64,192,24551,128,0,24893:0:0:0:0:
320,192,24722,1,0,0:0:0:0:
448,192,24722,1,0,0:0:0:0:
192,192,24893,1,0,0:0:0:0:
448,192,25065,1,0,0:0:0:0:
64,192,25236,1,0,0:0:0:0:
192,192,25407,1,0,0:0:0:0:
448,192,25578,1,0,0:0:0:0:
64,192,25750,1,0,0:0:0:0:
320,192,25921,1,0,0:0:0:0:
448,192,26092,1,0,0:0:0:0:
192,192,26092,1,0,0:0:0:0:
64,192,26264,1,0,0:0:0:0:
192,192,26435,1,0,0:0:0:0:
320,192,26435,1,0,0:0:0:0:
448,192,26606,1,0,0:0:0:0:
64,192,26777,1,0,0:0:0:0:
320,192,26777,1,0,0:0:0:0:
192,192,26949,1,0,0:0:0:0:
448,192,27120,1,0,0:0:0:0:
320,192,27120,1,0,0:0:0:0:
192,192,27291,1,0,0:0:0:0:
64,192,27463,1,0,0:0:0:0:
448,192,27463,1,0,0:0:0:0:
320,192,27634,1,0,0:0:0:0:
192,192,27805,1,0,0:0:0:0:
64,192,27805,1,0,0:0:0:0:
448,192,27976,1,0,0:0:0:0:
64,192,28148,1,0,0:0:0:0:
320,192,28148,1,0,0:0:0:0:
192,192,28319,1,0,0:0:0:0:
448,192,28490,1,0,0:0:0:0:
320,192,28490,1,0,0:0:0:0:
192,192,28662,1,0,0:0:0:0:
448,192,28833,1,0,0:0:0:0:
64,192,28833,1,0,0:0:0:0:
448,192,29004,1,0,0:0:0:0:
64,192,29175,1,0,0:0:0:0:
320,192,29175,1,0,0:0:0:0:
320,192,29347,1,0,0:0:0:0:
192,192,29518,1,0,0:0:0:0:
448,192,29518,1,0,0:0:0:0:
192,192,29689,1,0,0:0:0:0:
320,192,29861,1,0,0:0:0:0:
64,192,29861,1,0,0:0:0:0:
320,192,30032,1,0,0:0:0:0:
64,192,30203,1,0,0:0:0:0:
448,192,30203,1,0,0:0:0:0:
192,192,30289,1,0,0:0:0:0:
320,192,30374,1,0,0:0:0:0:
448,192,30460,1,0,0:0:0:0:
192,192,30546,1,0,0:0:0:0:
320,192,30631,1,0,0:0:0:0:
64,192,30717,1,0,0:0:0:0:
192,192,30803,1,0,0:0:0:0:
320,192,30888,1,0,0:0:0:0:
448,192,30974,1,0,0:0:0:0:
192,192,31059,1,0,0:0:0:0:
320,192,31145,1,0,0:0:0:0:
448,192,31231,1,0,0:0:0:0:
64,192,31231,1,0,0:0:0:0:
64,192,31573,1,0,0:0:0:0:
320,192,31573,1,0,0:0:0:0:
448,192,31573,1,0,0:0:0:0:
192,192,31745,1,0,0:0:0:0:
320,192,31830,1,0,0:0:0:0:
64,192,31916,1,0,0:0:0:0:
448,192,31916,1,0,0:0:0:0:
320,192,32087,128,0,32258:0:0:0:0:
192,192,32258,1,0,0:0:0:0:
64,192,32258,1,0,0:0:0:0:
320,192,32430,1,0,0:0:0:0:
192,192,32515,1,0,0:0:0:0:
448,192,32601,1,0,0:0:0:0:
64,192,32601,1,0,0:0:0:0:
320,192,32772,1,0,0:0:0:0:
192,192,32772,1,0,0:0:0:0:
64,192,32944,1,0,0:0:0:0:
448,192,32944,1,0,0:0:0:0:
448,192,33115,1,0,0:0:0:0:
192,192,33286,1,0,0:0:0:0:
320,192,33286,1,0,0:0:0:0:
64,192,33457,1,0,0:0:0:0:
192,192,33543,1,0,0:0:0:0:
320,192,33629,1,0,0:0:0:0:
448,192,33629,1,0,0:0:0:0:
64,192,33800,1,0,0:0:0:0:
192,192,33800,1,0,0:0:0:0:
320,192,33971,1,0,0:0:0:0:
448,192,33971,1,0,0:0:0:0:
192,192,34143,128,0,34314:0:0:0:0:
64,192,34143,1,0,0:0:0:0:
448,192,34314,1,0,0:0:0:0:
320,192,34314,1,0,0:0:0:0:
64,192,34485,1,0,0:0:0:0:
192,192,34485,1,0,0:0:0:0:
64,192,34656,1,0,0:0:0:0:
192,192,34656,1,0,0:0:0:0:
320,192,34828,1,0,0:0:0:0:
448,192,34828,1,0,0:0:0:0:
320,192,34999,1,0,0:0:0:0:
448,192,34999,1,0,0:0:0:0:
192,192,35170,1,0,0:0:0:0:
320,192,35256,1,0,0:0:0:0:
64,192,35342,1,0,0:0:0:0:
192,192,35342,1,0,0:0:0:0:
320,192,35513,128,0,35684:0:0:0:0:
448,192,35513,1,0,0:0:0:0:
64,192,35684,1,0,0:0:0:0:
192,192,35684,1,0,0:0:0:0:
448,192,35855,1,0,0:0:0:0:
320,192,35855,1,0,0:0:0:0:
448,192,36027,1,0,0:0:0:0:
320,192,36027,1,0,0:0:0:0:
192,192,36198,1,0,0:0:0:0:
320,192,36284,1,0,0:0:0:0:
448,192,36369,1,0,0:0:0:0:
64,192,36369,1,0,0:0:0:0:
320,192,36541,1,0,0:0:0:0:
448,192,36712,1,0,0:0:0:0:
192,192,36712,1,0,0:0:0:0:
192,192,36883,1,0,0:0:0:0:
320,192,36883,1,0,0:0:0:0:
448,192,37054,1,0,0:0:0:0:
64,192,37054,1,0,0:0:0:0:
320,192,37226,1,0,0:0:0:0:
192,192,37311,1,0,0:0:0:0:
448,192,37397,1,0,0:0:0:0:
64,192,37397,1,0,0:0:0:0:
320,192,37568,128,0,37739:0:0:0:0:
448,192,37739,1,0,0:0:0:0:
192,192,37739,1,0,0:0:0:0:
64,192,37911,1,0,0:0:0:0:
192,192,37996,1,0,0:0:0:0:
448,192,38082,1,0,0:0:0:0:
320,192,38082,1,0,0:0:0:0:
64,192,38253,1,0,0:0:0:0:
192,192,38253,1,0,0:0:0:0:
448,192,38425,1,0,0:0:0:0:
320,192,38425,1,0,0:0:0:0:
448,192,38596,1,0,0:0:0:0:
192,192,38767,1,0,0:0:0:0:
64,192,38767,1,0,0:0:0:0:
320,192,38938,1,0,0:0:0:0:
192,192,39024,1,0,0:0:0:0:
64,192,39110,1,0,0:0:0:0:
448,192,39110,1,0,0:0:0:0:
192,192,39281,1,0,0:0:0:0:
320,192,39281,1,0,0:0:0:0:
64,192,39452,1,0,0:0:0:0:
448,192,39452,1,0,0:0:0:0:
192,192,39624,128,0,39795:0:0:0:0:
320,192,39624,1,0,0:0:0:0:
64,192,39795,1,0,0:0:0:0:
448,192,39795,1,0,0:0:0:0:
320,192,39966,1,0,0:0:0:0:
192,192,39966,1,0,0:0:0:0:
192,192,40137,1,0,0:0:0:0:
320,192,40137,1,0,0:0:0:0:
448,192,40309,1,0,0:0:0:0:
64,192,40309,1,0,0:0:0:0:
64,192,40480,1,0,0:0:0:0:
448,192,40480,1,0,0:0:0:0:
320,192,40651,1,0,0:0:0:0:
448,192,40737,1,0,0:0:0:0:
192,192,40823,1,0,0:0:0:0:
64,192,40823,1,0,0:0:0:0:
320,192,40994,128,0,41165:0:0:0:0:
448,192,40994,1,0,0:0:0:0:
64,192,41165,1,0,0:0:0:0:
192,192,41165,1,0,0:0:0:0:
320,192,41336,1,0,0:0:0:0:
448,192,41336,1,0,0:0:0:0:
320,192,41508,1,0,0:0:0:0:
448,192,41508,1,0,0:0:0:0:
64,192,41679,1,0,0:0:0:0:
448,192,41765,1,0,0:0:0:0:
192,192,41850,1,0,0:0:0:0:
320,192,41850,1,0,0:0:0:0:
64,192,42022,1,0,0:0:0:0:
448,192,42193,1,0,0:0:0:0:
192,192,42193,1,0,0:0:0:0:
320,192,42364,1,0,0:0:0:0:
192,192,42364,1,0,0:0:0:0:
320,192,42535,1,0,0:0:0:0:
64,192,42535,1,0,0:0:0:0:
448,192,42535,1,0,0:0:0:0:
192,192,42707,1,0,0:0:0:0:
320,192,42792,1,0,0:0:0:0:
64,192,42878,1,0,0:0:0:0:
448,192,42878,1,0,0:0:0:0:
320,192,43049,128,0,43221:0:0:0:0:
448,192,43221,1,0,0:0:0:0:
64,192,43221,1,0,0:0:0:0:
320,192,43392,1,0,0:0:0:0:
448,192,43477,1,0,0:0:0:0:
64,192,43563,1,0,0:0:0:0:
192,192,43563,1,0,0:0:0:0:
448,192,43734,1,0,0:0:0:0:
64,192,43734,1,0,0:0:0:0:
192,192,43906,1,0,0:0:0:0:
320,192,43906,1,0,0:0:0:0:
320,192,44077,1,0,0:0:0:0:
448,192,44248,1,0,0:0:0:0:
64,192,44248,1,0,0:0:0:0:
192,192,44419,1,0,0:0:0:0:
320,192,44505,1,0,0:0:0:0:
448,192,44591,1,0,0:0:0:0:
192,192,44591,1,0,0:0:0:0:
64,192,44762,1,0,0:0:0:0:
320,192,44762,1,0,0:0:0:0:
448,192,44933,1,0,0:0:0:0:
320,192,44933,1,0,0:0:0:0:
192,192,45105,128,0,45276:0:0:0:0:
64,192,45105,1,0,0:0:0:0:
448,192,45276,1,0,0:0:0:0:
320,192,45276,1,0,0:0:0:0:
64,192,45447,1,0,0:0:0:0:
192,192,45447,1,0,0:0:0:0:
64,192,45618,1,0,0:0:0:0:
192,192,45618,1,0,0:0:0:0:
320,192,45790,1,0,0:0:0:0:
448,192,45790,1,0,0:0:0:0:
320,192,45961,1,0,0:0:0:0:
448,192,45961,1,0,0:0:0:0:
192,192,46132,1,0,0:0:0:0:
320,192,46218,1,0,0:0:0:0:
64,192,46304,1,0,0:0:0:0:
192,192,46304,1,0,0:0:0:0:
320,192,46475,128,0,46646:0:0:0:0:
448,192,46475,1,0,0:0:0:0:
64,192,46646,1,0,0:0:0:0:
192,192,46646,1,0,0:0:0:0:
448,192,46817,1,0,0:0:0:0:
320,192,46817,1,0,0:0:0:0:
448,192,46989,1,0,0:0:0:0:
320,192,46989,1,0,0:0:0:0:
192,192,47160,1,0,0:0:0:0:
320,192,47246,1,0,0:0:0:0:
448,192,47331,1,0,0:0:0:0:
64,192,47331,1,0,0:0:0:0:
320,192,47503,1,0,0:0:0:0:
64,192,47674,1,0,0:0:0:0:
192,192,47674,1,0,0:0:0:0:
64,192,47845,1,0,0:0:0:0:
448,192,47845,1,0,0:0:0:0:
192,192,48016,1,0,0:0:0:0:
320,192,48016,1,0,0:0:0:0:
64,192,48188,1,0,0:0:0:0:
192,192,48273,1,0,0:0:0:0:
320,192,48359,1,0,0:0:0:0:
448,192,48359,1,0,0:0:0:0:
192,192,48530,128,0,48702:0:0:0:0:
320,192,48702,1,0,0:0:0:0:
448,192,48702,1,0,0:0:0:0:
320,192,48873,1,0,0:0:0:0:
192,192,48958,1,0,0:0:0:0:
448,192,49044,1,0,0:0:0:0:
64,192,49044,1,0,0:0:0:0:
320,192,49215,1,0,0:0:0:0:
192,192,49215,1,0,0:0:0:0:
448,192,49387,1,0,0:0:0:0:
64,192,49387,1,0,0:0:0:0:
448,192,49558,1,0,0:0:0:0:
192,192,49729,1,0,0:0:0:0:
64,192,49729,1,0,0:0:0:0:
320,192,49900,1,0,0:0:0:0:
192,192,49986,1,0,0:0:0:0:
64,192,50072,1,0,0:0:0:0:
448,192,50072,1,0,0:0:0:0:
192,192,50243,1,0,0:0:0:0:
320,192,50243,1,0,0:0:0:0:
64,192,50414,1,0,0:0:0:0:
448,192,50414,1,0,0:0:0:0:
320,192,50586,128,0,50757:0:0:0:0:
192,192,50586,1,0,0:0:0:0:
448,192,50757,1,0,0:0:0:0:
64,192,50757,1,0,0:0:0:0:
192,192,50928,1,0,0:0:0:0:
320,192,50928,1,0,0:0:0:0:
192,192,51099,1,0,0:0:0:0:
320,192,51099,1,0,0:0:0:0:
64,192,51271,1,0,0:0:0:0:
448,192,51271,1,0,0:0:0:0:
64,192,51442,1,0,0:0:0:0:
448,192,51442,1,0,0:0:0:0:
320,192,51613,1,0,0:0:0:0:
192,192,51699,1,0,0:0:0:0:
448,192,51785,1,0,0:0:0:0:
320,192,51785,1,0,0:0:0:0:
192,192,51956,128,0,52127:0:0:0:0:
64,192,51956,1,0,0:0:0:0:
448,192,52127,1,0,0:0:0:0:
320,192,52127,1,0,0:0:0:0:
64,192,52298,1,0,0:0:0:0:
192,192,52298,1,0,0:0:0:0:
64,192,52470,1,0,0:0:0:0:
192,192,52470,1,0,0:0:0:0:
320,192,52641,1,0,0:0:0:0:
192,192,52727,1,0,0:0:0:0:
64,192,52812,1,0,0:0:0:0:
448,192,52812,1,0,0:0:0:0:
192,192,52984,1,0,0:0:0:0:
320,192,53155,1,0,0:0:0:0:
64,192,53155,1,0,0:0:0:0:
64,192,53326,1,0,0:0:0:0:
448,192,53326,1,0,0:0:0:0:
192,192,53497,1,0,0:0:0:0:
448,192,53497,1,0,0:0:0:0:
320,192,53497,1,0,0:0:0:0:
320,192,53669,1,0,0:0:0:0:
64,192,53840,1,0,0:0:0:0:
192,192,53840,1,0,0:0:0:0:
64,192,54011,1,0,0:0:0:0:
448,192,54183,1,0,0:0:0:0:
320,192,54268,1,0,0:0:0:0:
448,192,54354,1,0,0:0:0:0:
320,192,54439,1,0,0:0:0:0:
64,192,54525,1,0,0:0:0:0:
192,192,54525,1,0,0:0:0:0:
320,192,54696,128,0,54868:0:0:0:0:
448,192,54868,128,0,55039:0:0:0:0:
192,192,54868,1,0,0:0:0:0:
64,192,55039,128,0,55210:0:0:0:0:
320,192,55210,128,0,55382:0:0:0:0:
448,192,55210,1,0,0:0:0:0:
64,192,55382,1,0,0:0:0:0:
192,192,55467,1,0,0:0:0:0:
448,192,55553,128,0,55724:0:0:0:0:
320,192,55553,1,0,0:0:0:0:
192,192,55724,128,0,55895:0:0:0:0:
320,192,55895,128,0,56067:0:0:0:0:
64,192,55895,1,0,0:0:0:0:
64,192,56067,128,0,56238:0:0:0:0:
192,192,56238,1,0,0:0:0:0:
448,192,56238,1,0,0:0:0:0:
448,192,56409,1,0,0:0:0:0:
320,192,56580,1,0,0:0:0:0:
192,192,56580,1,0,0:0:0:0:
320,192,56752,1,0,0:0:0:0:
64,192,56923,1,0,0:0:0:0:
192,192,57009,1,0,0:0:0:0:
64,192,57094,1,0,0:0:0:0:
192,192,57180,1,0,0:0:0:0:
448,192,57266,1,0,0:0:0:0:
320,192,57266,1,0,0:0:0:0:
64,192,57437,128,0,57608:0:0:0:0:
192,192,57608,128,0,57779:0:0:0:0:
320,192,57608,1,0,0:0:0:0:
448,192,57779,128,0,57951:0:0:0:0:
64,192,57951,128,0,58122:0:0:0:0:
192,192,57951,1,0,0:0:0:0:
320,192,58122,1,0,0:0:0:0:
192,192,58208,1,0,0:0:0:0:
448,192,58293,128,0,58465:0:0:0:0:
64,192,58293,1,0,0:0:0:0:
192,192,58465,128,0,58636:0:0:0:0:
320,192,58636,128,0,58807:0:0:0:0:
448,192,58636,1,0,0:0:0:0:
448,192,58807,128,0,58978:0:0:0:0:
64,192,58978,1,0,0:0:0:0:
192,192,58978,1,0,0:0:0:0:
64,192,59150,1,0,0:0:0:0:
448,192,59321,1,0,0:0:0:0:
320,192,59321,1,0,0:0:0:0:
320,192,59492,1,0,0:0:0:0:
64,192,59664,1,0,0:0:0:0:
192,192,59749,1,0,0:0:0:0:
64,192,59835,1,0,0:0:0:0:
192,192,59920,1,0,0:0:0:0:
320,192,60006,1,0,0:0:0:0:
448,192,60006,1,0,0:0:0:0:
192,192,60177,128,0,60349:0:0:0:0:
448,192,60349,1,0,0:0:0:0:
64,192,60349,128,0,60520:0:0:0:0:
320,192,60520,128,0,60691:0:0:0:0:
64,192,60691,1,0,0:0:0:0:
192,192,60691,128,0,60863:0:0:0:0:
448,192,60863,1,0,0:0:0:0:
320,192,60948,1,0,0:0:0:0:
64,192,61034,128,0,61205:0:0:0:0:
192,192,61034,1,0,0:0:0:0:
320,192,61205,128,0,61376:0:0:0:0:
448,192,61376,128,0,61548:0:0:0:0:
192,192,61376,1,0,0:0:0:0:
192,192,61548,128,0,61719:0:0:0:0:
320,192,61719,1,0,0:0:0:0:
64,192,61719,1,0,0:0:0:0:
320,192,61890,1,0,0:0:0:0:
64,192,62061,1,0,0:0:0:0:
192,192,62061,1,0,0:0:0:0:
192,192,62233,1,0,0:0:0:0:
448,192,62404,1,0,0:0:0:0:
320,192,62490,1,0,0:0:0:0:
448,192,62575,1,0,0:0:0:0:
320,192,62661,1,0,0:0:0:0:
64,192,62747,1,0,0:0:0:0:
192,192,62747,1,0,0:0:0:0:
320,192,62918,128,0,63089:0:0:0:0:
192,192,63089,1,0,0:0:0:0:
448,192,63089,128,0,63260:0:0:0:0:
64,192,63260,128,0,63432:0:0:0:0:
448,192,63432,1,0,0:0:0:0:
320,192,63432,128,0,63603:0:0:0:0:
192,192,63603,1,0,0:0:0:0:
448,192,63689,1,0,0:0:0:0:
192,192,63774,128,0,63946:0:0:0:0:
64,192,63774,1,0,0:0:0:0:
448,192,63946,128,0,64117:0:0:0:0:
64,192,64117,1,0,0:0:0:0:
192,192,64117,128,0,64459:0:0:0:0:
320,192,64288,1,0,0:0:0:0:
448,192,64459,1,0,0:0:0:0:
64,192,64459,1,0,0:0:0:0:
192,192,64631,1,0,0:0:0:0:
448,192,64802,1,0,0:0:0:0:
192,192,64973,1,0,0:0:0:0:
320,192,65145,1,0,0:0:0:0:
64,192,65316,1,0,0:0:0:0:
192,192,65487,1,0,0:0:0:0:
320,192,65658,128,0,65830:0:0:0:0:
64,192,65830,1,0,0:0:0:0:
320,192,66001,1,0,0:0:0:0:
448,192,66172,1,0,0:0:0:0:
192,192,66344,1,0,0:0:0:0:
320,192,66515,1,0,0:0:0:0:
64,192,66686,1,0,0:0:0:0:
448,192,66857,1,0,0:0:0:0:
320,192,67029,1,0,0:0:0:0:
64,192,67200,1,0,0:0:0:0:
192,192,67200,1,0,0:0:0:0:
320,192,67371,1,0,0:0:0:0:
192,192,67543,1,0,0:0:0:0:
448,192,67543,1,0,0:0:0:0:
64,192,67714,1,0,0:0:0:0:
320,192,67885,1,0,0:0:0:0:
448,192,67885,1,0,0:0:0:0:
64,192,68056,1,0,0:0:0:0:
448,192,68228,1,0,0:0:0:0:
320,192,68228,1,0,0:0:0:0:
192,192,68399,1,0,0:0:0:0:
64,192,68570,1,0,0:0:0:0:
320,192,68570,1,0,0:0:0:0:
448,192,68741,1,0,0:0:0:0:
192,192,68913,1,0,0:0:0:0:
320,192,68913,1,0,0:0:0:0:
64,192,69084,1,0,0:0:0:0:
192,192,69255,1,0,0:0:0:0:
448,192,69255,1,0,0:0:0:0:
320,192,69427,1,0,0:0:0:0:
64,192,69598,1,0,0:0:0:0:
448,192,69598,1,0,0:0:0:0:
192,192,69769,1,0,0:0:0:0:
320,192,69940,1,0,0:0:0:0:
448,192,69940,1,0,0:0:0:0:
64,192,70112,1,0,0:0:0:0:
320,192,70283,1,0,0:0:0:0:
192,192,70283,1,0,0:0:0:0:
448,192,70454,1,0,0:0:0:0:
320,192,70626,1,0,0:0:0:0:
64,192,70626,1,0,0:0:0:0:
192,192,70797,1,0,0:0:0:0:
320,192,70968,1,0,0:0:0:0:
448,192,70968,1,0,0:0:0:0:
64,192,71139,1,0,0:0:0:0:
320,192,71311,1,0,0:0:0:0:
448,192,71311,1,0,0:0:0:0:
192,192,71482,1,0,0:0:0:0:
64,192,71653,1,0,0:0:0:0:
320,192,71653,1,0,0:0:0:0:
448,192,71825,1,0,0:0:0:0:
64,192,71996,1,0,0:0:0:0:
192,192,71996,1,0,0:0:0:0:
320,192,72167,1,0,0:0:0:0:
64,192,72338,1,0,0:0:0:0:
448,192,72338,1,0,0:0:0:0:
448,192,72510,1,0,0:0:0:0:
64,192,72681,1,0,0:0:0:0:
192,192,72681,1,0,0:0:0:0:
448,192,72852,1,0,0:0:0:0:
320,192,73024,1,0,0:0:0:0:
64,192,73024,1,0,0:0:0:0:
192,192,73195,1,0,0:0:0:0:
448,192,73366,1,0,0:0:0:0:
64,192,73366,1,0,0:0:0:0:
320,192,73537,1,0,0:0:0:0:
192,192,73709,1,0,0:0:0:0:
448,192,73709,1,0,0:0:0:0:
64,192,73880,1,0,0:0:0:0:
192,192,74051,1,0,0:0:0:0:
320,192,74051,1,0,0:0:0:0:
448,192,74223,1,0,0:0:0:0:
64,192,74394,1,0,0:0:0:0:
320,192,74394,1,0,0:0:0:0:
192,192,74565,1,0,0:0:0:0:
448,192,74736,1,0,0:0:0:0:
64,192,74908,1,0,0:0:0:0:
320,192,75079,1,0,0:0:0:0:
192,192,75250,128,0,75421:0:0:0:0:
320,192,75421,1,0,0:0:0:0:
448,192,75421,1,0,0:0:0:0:
64,192,75593,1,0,0:0:0:0:
192,192,75764,1,0,0:0:0:0:
448,192,75764,1,0,0:0:0:0:
64,192,75935,1,0,0:0:0:0:
192,192,76107,1,0,0:0:0:0:
320,192,76107,1,0,0:0:0:0:
448,192,76278,1,0,0:0:0:0:
192,192,76449,1,0,0:0:0:0:
64,192,76449,1,0,0:0:0:0:
320,192,76620,1,0,0:0:0:0:
448,192,76792,1,0,0:0:0:0:
64,192,76792,1,0,0:0:0:0:
192,192,76963,1,0,0:0:0:0:
320,192,77134,1,0,0:0:0:0:
448,192,77134,1,0,0:0:0:0:
192,192,77306,1,0,0:0:0:0:
64,192,77477,1,0,0:0:0:0:
448,192,77477,1,0,0:0:0:0:
320,192,77648,1,0,0:0:0:0:
192,192,77819,1,0,0:0:0:0:
448,192,77819,1,0,0:0:0:0:
64,192,77991,1,0,0:0:0:0:
192,192,78162,1,0,0:0:0:0:
320,192,78162,1,0,0:0:0:0:
448,192,78333,1,0,0:0:0:0:
192,192,78505,1,0,0:0:0:0:
64,192,78505,1,0,0:0:0:0:
320,192,78676,1,0,0:0:0:0:
448,192,78847,1,0,0:0:0:0:
64,192,78847,1,0,0:0:0:0:
192,192,79018,1,0,0:0:0:0:
448,192,79190,1,0,0:0:0:0:
320,192,79190,1,0,0:0:0:0:
64,192,79361,1,0,0:0:0:0:
192,192,79532,1,0,0:0:0:0:
320,192,79532,1,0,0:0:0:0:
64,192,79704,1,0,0:0:0:0:
448,192,79875,1,0,0:0:0:0:
320,192,79875,1,0,0:0:0:0:
192,192,80046,1,0,0:0:0:0:
64,192,80217,1,0,0:0:0:0:
448,192,80217,1,0,0:0:0:0:
320,192,80389,1,0,0:0:0:0:
64,192,80560,1,0,0:0:0:0:
192,192,80560,1,0,0:0:0:0:
320,192,80731,1,0,0:0:0:0:
448,192,80902,1,0,0:0:0:0:
192,192,80902,1,0,0:0:0:0:
64,192,81074,1,0,0:0:0:0:
320,192,81245,1,0,0:0:0:0:
448,192,81245,1,0,0:0:0:0:
192,192,81416,1,0,0:0:0:0:
64,192,81588,1,0,0:0:0:0:
448,192,81588,1,0,0:0:0:0:
320,192,81759,1,0,0:0:0:0:
64,192,81930,1,0,0:0:0:0:
192,192,81930,1,0,0:0:0:0:
448,192,82101,1,0,0:0:0:0:
320,192,82273,1,0,0:0:0:0:
192,192,82273,1,0,0:0:0:0:
64,192,82444,1,0,0:0:0:0:
448,192,82615,1,0,0:0:0:0:
320,192,82615,1,0,0:0:0:0:
192,192,82787,1,0,0:0:0:0:
64,192,82958,1,0,0:0:0:0:
448,192,82958,1,0,0:0:0:0:
192,192,83129,1,0,0:0:0:0:
320,192,83300,1,0,0:0:0:0:
64,192,83300,1,0,0:0:0:0:
448,192,83472,1,0,0:0:0:0:
64,192,83643,1,0,0:0:0:0:
192,192,83643,1,0,0:0:0:0:
64,192,83814,1,0,0:0:0:0:
320,192,83986,1,0,0:0:0:0:
448,192,83986,1,0,0:0:0:0:
320,192,84157,1,0,0:0:0:0:
64,192,84328,1,0,0:0:0:0:
448,192,84328,1,0,0:0:0:0:
448,192,84499,1,0,0:0:0:0:
64,192,84671,1,0,0:0:0:0:
320,192,84671,1,0,0:0:0:0:
64,192,84842,1,0,0:0:0:0:
448,192,85013,1,0,0:0:0:0:
320,192,85099,1,0,0:0:0:0:
192,192,85185,1,0,0:0:0:0:
64,192,85270,1,0,0:0:0:0:
320,192,85356,1,0,0:0:0:0:
448,192,85441,1,0,0:0:0:0:
64,192,85527,1,0,0:0:0:0:
192,192,85613,1,0,0:0:0:0:
320,192,85698,1,0,0:0:0:0:
448,192,85784,1,0,0:0:0:0:
192,192,85870,1,0,0:0:0:0:
64,192,85955,1,0,0:0:0:0:
448,192,86041,1,0,0:0:0:0:
320,192,86041,1,0,0:0:0:0:
64,192,86384,1,0,0:0:0:0:
320,192,86384,1,0,0:0:0:0:
448,192,86384,1,0,0:0:0:0:
192,192,86555,1,0,0:0:0:0:
320,192,86640,1,0,0:0:0:0:
448,192,86726,1,0,0:0:0:0:
64,192,86726,1,0,0:0:0:0:
320,192,86897,128,0,87069:0:0:0:0:
64,192,87069,1,0,0:0:0:0:
192,192,87069,1,0,0:0:0:0:
448,192,87240,1,0,0:0:0:0:
192,192,87326,1,0,0:0:0:0:
64,192,87411,1,0,0:0:0:0:
320,192,87411,1,0,0:0:0:0:
192,192,87582,1,0,0:0:0:0:
320,192,87582,1,0,0:0:0:0:
64,192,87754,1,0,0:0:0:0:
448,192,87754,1,0,0:0:0:0:
64,192,87925,1,0,0:0:0:0:
320,192,88096,1,0,0:0:0:0:
192,192,88096,1,0,0:0:0:0:
64,192,88268,1,0,0:0:0:0:
192,192,88353,1,0,0:0:0:0:
448,192,88439,1,0,0:0:0:0:
320,192,88439,1,0,0:0:0:0:
192,192,88610,1,0,0:0:0:0:
448,192,88610,1,0,0:0:0:0:
64,192,88781,1,0,0:0:0:0:
320,192,88781,1,0,0:0:0:0:
192,192,88953,128,0,89124:0:0:0:0:
448,192,88953,1,0,0:0:0:0:
320,192,89124,1,0,0:0:0:0:
64,192,89124,1,0,0:0:0:0:
192,192,89295,1,0,0:0:0:0:
448,192,89295,1,0,0:0:0:0:
192,192,89467,1,0,0:0:0:0:
448,192,89467,1,0,0:0:0:0:
64,192,89638,1,0,0:0:0:0:
320,192,89638,1,0,0:0:0:0:
320,192,89809,1,0,0:0:0:0:
64,192,89809,1,0,0:0:0:0:
448,192,89980,1,0,0:0:0:0:
320,192,90066,1,0,0:0:0:0:
64,192,90152,1,0,0:0:0:0:
192,192,90152,1,0,0:0:0:0:
320,192,90323,128,0,90494:0:0:0:0:
192,192,90494,1,0,0:0:0:0:
448,192,90494,1,0,0:0:0:0:
64,192,90666,1,0,0:0:0:0:
320,192,90666,1,0,0:0:0:0:
320,192,90837,1,0,0:0:0:0:
64,192,90837,1,0,0:0:0:0:
448,192,91008,1,0,0:0:0:0:
320,192,91094,1,0,0:0:0:0:
64,192,91179,1,0,0:0:0:0:
192,192,91179,1,0,0:0:0:0:
320,192,91351,1,0,0:0:0:0:
192,192,91522,1,0,0:0:0:0:
64,192,91522,1,0,0:0:0:0:
192,192,91693,1,0,0:0:0:0:
320,192,91693,1,0,0:0:0:0:
64,192,91865,1,0,0:0:0:0:
448,192,91865,1,0,0:0:0:0:
320,192,92036,1,0,0:0:0:0:
64,192,92121,1,0,0:0:0:0:
448,192,92207,1,0,0:0:0:0:
192,192,92207,1,0,0:0:0:0:
320,192,92378,128,0,92550:0:0:0:0:
64,192,92550,1,0,0:0:0:0:
192,192,92550,1,0,0:0:0:0:
448,192,92721,1,0,0:0:0:0:
64,192,92807,1,0,0:0:0:0:
192,192,92892,1,0,0:0:0:0:
320,192,92892,1,0,0:0:0:0:
64,192,93063,1,0,0:0:0:0:
192,192,93063,1,0,0:0:0:0:
448,192,93235,1,0,0:0:0:0:
320,192,93235,1,0,0:0:0:0:
448,192,93406,1,0,0:0:0:0:
192,192,93577,1,0,0:0:0:0:
64,192,93577,1,0,0:0:0:0:
448,192,93749,1,0,0:0:0:0:
192,192,93834,1,0,0:0:0:0:
448,192,93920,1,0,0:0:0:0:
320,192,93920,1,0,0:0:0:0:
64,192,94091,1,0,0:0:0:0:
192,192,94091,1,0,0:0:0:0:
320,192,94262,1,0,0:0:0:0:
448,192,94262,1,0,0:0:0:0:
192,192,94434,128,0,94605:0:0:0:0:
64,192,94434,1,0,0:0:0:0:
448,192,94605,1,0,0:0:0:0:
320,192,94605,1,0,0:0:0:0:
192,192,94776,1,0,0:0:0:0:
64,192,94776,1,0,0:0:0:0:
64,192,94948,1,0,0:0:0:0:
192,192,94948,1,0,0:0:0:0:
448,192,95119,1,0,0:0:0:0:
320,192,95119,1,0,0:0:0:0:
448,192,95290,1,0,0:0:0:0:
320,192,95290,1,0,0:0:0:0:
64,192,95461,1,0,0:0:0:0:
448,192,95547,1,0,0:0:0:0:
320,192,95633,1,0,0:0:0:0:
192,192,95633,1,0,0:0:0:0:
64,192,95804,1,0,0:0:0:0:
320,192,95804,128,0,95975:0:0:0:0:
192,192,95975,1,0,0:0:0:0:
448,192,95975,1,0,0:0:0:0:
320,192,96147,1,0,0:0:0:0:
64,192,96147,1,0,0:0:0:0:
320,192,96318,1,0,0:0:0:0:
64,192,96318,1,0,0:0:0:0:
448,192,96489,1,0,0:0:0:0:
320,192,96575,1,0,0:0:0:0:
192,192,96660,1,0,0:0:0:0:
64,192,96660,1,0,0:0:0:0:
320,192,96832,1,0,0:0:0:0:
64,192,97003,1,0,0:0:0:0:
448,192,97003,1,0,0:0:0:0:
320,192,97174,1,0,0:0:0:0:
192,192,97174,1,0,0:0:0:0:
64,192,97346,1,0,0:0:0:0:
448,192,97346,1,0,0:0:0:0:
320,192,97346,1,0,0:0:0:0:
192,192,97517,1,0,0:0:0:0:
320,192,97602,1,0,0:0:0:0:
64,192,97688,1,0,0:0:0:0:
448,192,97688,1,0,0:0:0:0:
320,192,97859,128,0,98031:0:0:0:0:
448,192,98031,1,0,0:0:0:0:
64,192,98031,1,0,0:0:0:0:
320,192,98202,1,0,0:0:0:0:
448,192,98288,1,0,0:0:0:0:
192,192,98373,1,0,0:0:0:0:
64,192,98373,1,0,0:0:0:0:
448,192,98545,1,0,0:0:0:0:
64,192,98545,1,0,0:0:0:0:
320,192,98716,1,0,0:0:0:0:
192,192,98716,1,0,0:0:0:0:
320,192,98887,1,0,0:0:0:0:
64,192,99058,1,0,0:0:0:0:
448,192,99058,1,0,0:0:0:0:
192,192,99230,1,0,0:0:0:0:
64,192,99315,1,0,0:0:0:0:
448,192,99401,1,0,0:0:0:0:
320,192,99401,1,0,0:0:0:0:
192,192,99572,1,0,0:0:0:0:
64,192,99572,1,0,0:0:0:0:
320,192,99743,1,0,0:0:0:0:
448,192,99743,1,0,0:0:0:0:
192,192,99915,128,0,100086:0:0:0:0:
64,192,99915,1,0,0:0:0:0:
448,192,100086,1,0,0:0:0:0:
320,192,100086,1,0,0:0:0:0:
64,192,100257,1,0,0:0:0:0:
192,192,100257,1,0,0:0:0:0:
64,192,100429,1,0,0:0:0:0:
192,192,100429,1,0,0:0:0:0:
320,192,100600,1,0,0:0:0:0:
448,192,100600,1,0,0:0:0:0:
320,192,100771,1,0,0:0:0:0:
448,192,100771,1,0,0:0:0:0:
64,192,100942,1,0,0:0:0:0:
448,192,101028,1,0,0:0:0:0:
320,192,101114,1,0,0:0:0:0:
192,192,101114,1,0,0:0:0:0:
448,192,101285,1,0,0:0:0:0:
320,192,101285,128,0,101456:0:0:0:0:
64,192,101456,1,0,0:0:0:0:
192,192,101456,1,0,0:0:0:0:
448,192,101628,1,0,0:0:0:0:
320,192,101628,1,0,0:0:0:0:
448,192,101799,1,0,0:0:0:0:
320,192,101799,1,0,0:0:0:0:
192,192,101970,1,0,0:0:0:0:
320,192,102056,1,0,0:0:0:0:
64,192,102141,1,0,0:0:0:0:
448,192,102141,1,0,0:0:0:0:
320,192,102313,1,0,0:0:0:0:
64,192,102484,1,0,0:0:0:0:
192,192,102484,1,0,0:0:0:0:
64,192,102655,1,0,0:0:0:0:
448,192,102655,1,0,0:0:0:0:
192,192,102827,1,0,0:0:0:0:
320,192,102827,1,0,0:0:0:0:
448,192,102998,1,0,0:0:0:0:
192,192,103083,1,0,0:0:0:0:
64,192,103169,1,0,0:0:0:0:
320,192,103169,1,0,0:0:0:0:
192,192,103340,128,0,103512:0:0:0:0:
320,192,103512,1,0,0:0:0:0:
448,192,103512,1,0,0:0:0:0:
64,192,103683,1,0,0:0:0:0:
320,192,103769,1,0,0:0:0:0:
192,192,103854,1,0,0:0:0:0:
448,192,103854,1,0,0:0:0:0:
64,192,104026,1,0,0:0:0:0:
320,192,104026,1,0,0:0:0:0:
448,192,104197,1,0,0:0:0:0:
192,192,104197,1,0,0:0:0:0:
448,192,104368,1,0,0:0:0:0:
320,192,104539,1,0,0:0:0:0:
64,192,104539,1,0,0:0:0:0:
448,192,104711,1,0,0:0:0:0:
320,192,104796,1,0,0:0:0:0:
64,192,104882,1,0,0:0:0:0:
192,192,104882,1,0,0:0:0:0:
320,192,105053,1,0,0:0:0:0:
192,192,105053,1,0,0:0:0:0:
64,192,105224,1,0,0:0:0:0:
448,192,105224,1,0,0:0:0:0:
320,192,105396,128,0,105567:0:0:0:0:
192,192,105396,1,0,0:0:0:0:
448,192,105567,1,0,0:0:0:0:
64,192,105567,1,0,0:0:0:0:
192,192,105738,1,0,0:0:0:0:
320,192,105738,1,0,0:0:0:0:
192,192,105910,1,0,0:0:0:0:
320,192,105910,1,0,0:0:0:0:
64,192,106081,1,0,0:0:0:0:
448,192,106081,1,0,0:0:0:0:
64,192,106252,1,0,0:0:0:0:
448,192,106252,1,0,0:0:0:0:
192,192,106423,1,0,0:0:0:0:
64,192,106509,1,0,0:0:0:0:
320,192,106595,1,0,0:0:0:0:
448,192,106595,1,0,0:0:0:0:
64,192,106766,1,0,0:0:0:0:
192,192,106766,128,0,106937:0:0:0:0:
448,192,106937,1,0,0:0:0:0:
320,192,106937,1,0,0:0:0:0:
64,192,107109,1,0,0:0:0:0:
192,192,107109,1,0,0:0:0:0:
64,192,107280,1,0,0:0:0:0:
192,192,107280,1,0,0:0:0:0:
320,192,107451,1,0,0:0:0:0:
192,192,107537,1,0,0:0:0:0:
64,192,107622,1,0,0:0:0:0:
448,192,107622,1,0,0:0:0:0:
192,192,107794,1,0,0:0:0:0:
64,192,107965,1,0,0:0:0:0:
320,192,107965,1,0,0:0:0:0:
64,192,108136,1,0,0:0:0:0:
448,192,108136,1,0,0:0:0:0:
448,192,108308,1,0,0:0:0:0:
320,192,108308,1,0,0:0:0:0:
192,192,108308,1,0,0:0:0:0:
320,192,108479,1,0,0:0:0:0:
64,192,108650,1,0,0:0:0:0:
192,192,108650,1,0,0:0:0:0:
192,192,108821,1,0,0:0:0:0:
448,192,108993,1,0,0:0:0:0:
320,192,109078,1,0,0:0:0:0:
448,192,109164,1,0,0:0:0:0:
320,192,109250,1,0,0:0:0:0:
64,192,109335,1,0,0:0:0:0:
192,192,109335,1,0,0:0:0:0:
320,192,109507,128,0,109678:0:0:0:0:
192,192,109678,128,0,109849:0:0:0:0:
448,192,109678,1,0,0:0:0:0:
64,192,109849,128,0,110020:0:0:0:0:
320,192,110020,1,0,0:0:0:0:
448,192,110020,128,0,110192:0:0:0:0:
64,192,110192,1,0,0:0:0:0:
192,192,110277,1,0,0:0:0:0:
448,192,110363,128,0,110534:0:0:0:0:
320,192,110363,1,0,0:0:0:0:
192,192,110534,128,0,110706:0:0:0:0:
320,192,110706,128,0,110877:0:0:0:0:
64,192,110706,1,0,0:0:0:0:
64,192,110877,128,0,111048:0:0:0:0:
192,192,111048,1,0,0:0:0:0:
448,192,111048,1,0,0:0:0:0:
448,192,111219,1,0,0:0:0:0:
320,192,111391,1,0,0:0:0:0:
192,192,111391,1,0,0:0:0:0:
320,192,111562,1,0,0:0:0:0:
64,192,111733,1,0,0:0:0:0:
192,192,111819,1,0,0:0:0:0:
64,192,111904,1,0,0:0:0:0:
192,192,111990,1,0,0:0:0:0:
320,192,112076,1,0,0:0:0:0:
448,192,112076,1,0,0:0:0:0:
64,192,112247,128,0,112418:0:0:0:0:
192,192,112418,128,0,112590:0:0:0:0:
320,192,112418,1,0,0:0:0:0:
448,192,112590,128,0,112761:0:0:0:0:
64,192,112761,128,0,112932:0:0:0:0:
320,192,112761,1,0,0:0:0:0:
320,192,112932,1,0,0:0:0:0:
192,192,113018,1,0,0:0:0:0:
448,192,113103,128,0,113275:0:0:0:0:
64,192,113103,1,0,0:0:0:0:
192,192,113275,128,0,113446:0:0:0:0:
320,192,113446,128,0,113617:0:0:0:0:
448,192,113446,1,0,0:0:0:0:
448,192,113617,128,0,113789:0:0:0:0:
64,192,113789,1,0,0:0:0:0:
192,192,113789,1,0,0:0:0:0:
64,192,113960,1,0,0:0:0:0:
448,192,114131,1,0,0:0:0:0:
320,192,114131,1,0,0:0:0:0:
448,192,114302,1,0,0:0:0:0:
64,192,114474,1,0,0:0:0:0:
192,192,114559,1,0,0:0:0:0:
64,192,114645,1,0,0:0:0:0:
192,192,114731,1,0,0:0:0:0:
320,192,114816,1,0,0:0:0:0:
448,192,114816,1,0,0:0:0:0:
192,192,114988,128,0,115159:0:0:0:0:
448,192,115159,1,0,0:0:0:0:
64,192,115159,128,0,115330:0:0:0:0:
320,192,115330,128,0,115501:0:0:0:0:
448,192,115501,1,0,0:0:0:0:
192,192,115501,128,0,115673:0:0:0:0:
448,192,115673,1,0,0:0:0:0:
320,192,115758,1,0,0:0:0:0:
64,192,115844,128,0,116015:0:0:0:0:
192,192,115844,1,0,0:0:0:0:
320,192,116015,128,0,116187:0:0:0:0:
448,192,116187,128,0,116358:0:0:0:0:
192,192,116187,1,0,0:0:0:0:
192,192,116358,128,0,116529:0:0:0:0:
320,192,116529,1,0,0:0:0:0:
64,192,116529,1,0,0:0:0:0:
320,192,116700,1,0,0:0:0:0:
64,192,116872,1,0,0:0:0:0:
192,192,116872,1,0,0:0:0:0:
192,192,117043,1,0,0:0:0:0:
448,192,117214,1,0,0:0:0:0:
320,192,117300,1,0,0:0:0:0:
448,192,117386,1,0,0:0:0:0:
320,192,117471,1,0,0:0:0:0:
64,192,117557,1,0,0:0:0:0:
192,192,117557,1,0,0:0:0:0:
448,192,117728,128,0,117899:0:0:0:0:
320,192,117899,128,0,118071:0:0:0:0:
192,192,117899,1,0,0:0:0:0:
64,192,118071,128,0,118242:0:0:0:0:
320,192,118242,1,0,0:0:0:0:
448,192,118242,128,0,118413:0:0:0:0:
192,192,118413,1,0,0:0:0:0:
320,192,118499,1,0,0:0:0:0:
192,192,118584,128,0,118756:0:0:0:0:
64,192,118584,1,0,0:0:0:0:
448,192,118756,128,0,118927:0:0:0:0:
320,192,118927,1,0,0:0:0:0:
64,192,118927,128,0,119098:0:0:0:0:
320,192,119098,128,0,119270:0:0:0:0:
448,192,119270,1,0,0:0:0:0:
64,192,119270,1,0,0:0:0:0:
192,192,119441,1,0,0:0:0:0:
320,192,119612,1,0,0:0:0:0:
64,192,119783,1,0,0:0:0:0:
320,192,119955,1,0,0:0:0:0:
192,192,120126,1,0,0:0:0:0:
448,192,120297,1,0,0:0:0:0:
320,192,120469,128,0,124751:0:0:0:0:
192,192,120640,1,0,0:0:0:0:
448,192,120811,1,0,0:0:0:0:
64,192,120982,1,0,0:0:0:0:
192,192,121154,1,0,0:0:0:0:
448,192,121325,1,0,0:0:0:0:
64,192,121496,1,0,0:0:0:0:
192,192,121668,1,0,0:0:0:0:
448,192,121839,1,0,0:0:0:0:
64,192,122010,1,0,0:0:0:0:
448,192,122181,1,0,0:0:0:0:
192,192,122353,1,0,0:0:0:0:
64,192,122524,1,0,0:0:0:0:
448,192,122695,1,0,0:0:0:0:
192,192,122867,1,0,0:0:0:0:
64,192,123038,1,0,0:0:0:0:
448,192,123209,1,0,0:0:0:0:
192,192,123380,1,0,0:0:0:0:
448,192,123552,1,0,0:0:0:0:
64,192,123723,1,0,0:0:0:0:
192,192,123894,1,0,0:0:0:0:
64,192,124065,1,0,0:0:0:0:
448,192,124237,1,0,0:0:0:0:
192,192,124408,1,0,0:0:0:0:
64,192,124579,1,0,0:0:0:0:
448,192,124751,1,0,0:0:0:0:
192,192,124922,1,0,0:0:0:0:
320,192,125093,1,0,0:0:0:0:
64,192,125264,1,0,0:0:0:0:
448,192,125436,1,0,0:0:0:0:
192,192,125607,1,0,0:0:0:0:
320,192,125778,1,0,0:0:0:0:
64,192,125950,128,0,127149:0:0:0:0:
320,192,126121,1,0,0:0:0:0:
448,192,126292,1,0,0:0:0:0:
192,192,126463,1,0,0:0:0:0:
320,192,126635,1,0,0:0:0:0:
448,192,126806,1,0,0:0:0:0:
192,192,126977,1,0,0:0:0:0:
448,192,127149,1,0,0:0:0:0:
320,192,127320,1,0,0:0:0:0:
64,192,127491,1,0,0:0:0:0:
448,192,127491,1,0,0:0:0:0:
192,192,127662,1,0,0:0:0:0:
320,192,127662,1,0,0:0:0:0:
448,192,127834,1,0,0:0:0:0:
64,192,127834,1,0,0:0:0:0:
192,192,128005,1,0,0:0:0:0:
320,192,128005,1,0,0:0:0:0:
448,192,128176,1,0,0:0:0:0:
64,192,128176,1,0,0:0:0:0:
192,192,128348,1,0,0:0:0:0:
320,192,128348,1,0,0:0:0:0:
64,192,128519,1,0,0:0:0:0:
192,192,128690,128,0,128861:0:0:0:0:
448,192,128861,1,0,0:0:0:0:
320,192,128861,1,0,0:0:0:0:
192,192,129033,1,0,0:0:0:0:
64,192,129033,1,0,0:0:0:0:
320,192,129204,1,0,0:0:0:0:
448,192,129204,1,0,0:0:0:0:
192,192,129375,1,0,0:0:0:0:
64,192,129375,1,0,0:0:0:0:
320,192,129547,1,0,0:0:0:0:
448,192,129547,1,0,0:0:0:0:
192,192,129718,1,0,0:0:0:0:
64,192,129718,1,0,0:0:0:0:
448,192,129889,1,0,0:0:0:0:
320,192,130060,1,0,0:0:0:0:
448,192,130232,1,0,0:0:0:0:
64,192,130232,1,0,0:0:0:0:
448,192,130403,1,0,0:0:0:0:
64,192,130574,1,0,0:0:0:0:
192,192,130574,1,0,0:0:0:0:
64,192,130745,1,0,0:0:0:0:
192,192,130917,1,0,0:0:0:0:
320,192,130917,1,0,0:0:0:0:
320,192,131088,1,0,0:0:0:0:
64,192,131259,1,0,0:0:0:0:
448,192,131259,1,0,0:0:0:0:
320,192,131431,1,0,0:0:0:0:
192,192,131431,1,0,0:0:0:0:
448,192,131773,1,0,0:0:0:0:
192,192,131944,1,0,0:0:0:0:
320,192,131944,1,0,0:0:0:0:
448,192,132116,1,0,0:0:0:0:
64,192,132287,1,0,0:0:0:0:
192,192,132287,1,0,0:0:0:0:
320,192,132458,1,0,0:0:0:0:
64,192,132630,1,0,0:0:0:0:
192,192,132630,1,0,0:0:0:0:
448,192,132630,1,0,0:0:0:0:
320,192,132801,1,0,0:0:0:0:
64,192,132972,1,0,0:0:0:0:
448,192,132972,1,0,0:0:0:0:
448,192,133143,1,0,0:0:0:0:
192,192,133315,1,0,0:0:0:0:
64,192,133315,1,0,0:0:0:0:
192,192,133486,1,0,0:0:0:0:
64,192,133657,1,0,0:0:0:0:
448,192,133657,1,0,0:0:0:0:
192,192,133743,1,0,0:0:0:0:
320,192,133829,1,0,0:0:0:0:
192,192,133914,1,0,0:0:0:0:
64,192,134000,1,0,0:0:0:0:
448,192,134085,1,0,0:0:0:0:
320,192,134171,1,0,0:0:0:0:
192,192,134257,1,0,0:0:0:0:
64,192,134342,1,0,0:0:0:0:
448,192,134428,1,0,0:0:0:0:
64,192,134514,1,0,0:0:0:0:
448,192,134599,1,0,0:0:0:0:
64,192,134685,1,0,0:0:0:0:
320,192,134856,1,0,0:0:0:0:
192,192,134942,1,0,0:0:0:0:
320,192,135028,1,0,0:0:0:0:
192,192,135113,1,0,0:0:0:0:
320,192,135199,1,0,0:0:0:0:
192,192,135370,1,0,0:0:0:0:
448,192,135370,1,0,0:0:0:0:
320,192,135456,1,0,0:0:0:0:
64,192,135541,1,0,0:0:0:0:
192,192,135627,1,0,0:0:0:0:
448,192,135713,1,0,0:0:0:0:
320,192,135713,1,0,0:0:0:0:
320,192,135884,1,0,0:0:0:0:
64,192,136055,1,0,0:0:0:0:
192,192,136055,1,0,0:0:0:0:
192,192,136226,1,0,0:0:0:0:
64,192,136398,1,0,0:0:0:0:
448,192,136398,1,0,0:0:0:0:
192,192,136483,1,0,0:0:0:0:
320,192,136569,1,0,0:0:0:0:
192,192,136655,1,0,0:0:0:0:
64,192,136740,1,0,0:0:0:0:
448,192,136826,1,0,0:0:0:0:
320,192,136912,1,0,0:0:0:0:
192,192,136997,1,0,0:0:0:0:
64,192,137083,1,0,0:0:0:0:
448,192,137169,1,0,0:0:0:0:
64,192,137254,1,0,0:0:0:0:
448,192,137340,1,0,0:0:0:0:
64,192,137425,1,0,0:0:0:0:
192,192,137597,1,0,0:0:0:0:
448,192,137682,1,0,0:0:0:0:
192,192,137768,1,0,0:0:0:0:
448,192,137854,1,0,0:0:0:0:
192,192,137939,1,0,0:0:0:0:
448,192,138111,1,0,0:0:0:0:
64,192,138111,1,0,0:0:0:0:
320,192,138196,1,0,0:0:0:0:
192,192,138282,1,0,0:0:0:0:
64,192,138368,1,0,0:0:0:0:
320,192,138453,1,0,0:0:0:0:
448,192,138453,1,0,0:0:0:0:
448,192,138624,1,0,0:0:0:0:
320,192,138710,1,0,0:0:0:0:
64,192,138796,1,0,0:0:0:0:
192,192,138796,1,0,0:0:0:0:
192,192,138967,1,0,0:0:0:0:
448,192,139138,1,0,0:0:0:0:
320,192,139138,1,0,0:0:0:0:
64,192,139224,1,0,0:0:0:0:
192,192,139310,1,0,0:0:0:0:
320,192,139395,1,0,0:0:0:0:
448,192,139481,1,0,0:0:0:0:
192,192,139566,1,0,0:0:0:0:
320,192,139652,1,0,0:0:0:0:
64,192,139738,1,0,0:0:0:0:
448,192,139823,1,0,0:0:0:0:
192,192,139909,1,0,0:0:0:0:
448,192,139995,1,0,0:0:0:0:
192,192,140080,1,0,0:0:0:0:
448,192,140166,1,0,0:0:0:0:
64,192,140337,1,0,0:0:0:0:
320,192,140423,1,0,0:0:0:0:
64,192,140509,1,0,0:0:0:0:
320,192,140594,1,0,0:0:0:0:
64,192,140680,1,0,0:0:0:0:
448,192,140851,1,0,0:0:0:0:
320,192,140851,1,0,0:0:0:0:
64,192,140937,1,0,0:0:0:0:
192,192,141022,1,0,0:0:0:0:
320,192,141108,1,0,0:0:0:0:
64,192,141194,1,0,0:0:0:0:
448,192,141194,1,0,0:0:0:0:
64,192,141365,1,0,0:0:0:0:
448,192,141536,1,0,0:0:0:0:
320,192,141536,1,0,0:0:0:0:
448,192,141708,1,0,0:0:0:0:
64,192,141879,1,0,0:0:0:0:
320,192,141879,1,0,0:0:0:0:
448,192,142050,1,0,0:0:0:0:
320,192,142136,1,0,0:0:0:0:
192,192,142221,1,0,0:0:0:0:
64,192,142221,1,0,0:0:0:0:
320,192,142393,1,0,0:0:0:0:
448,192,142393,1,0,0:0:0:0:
192,192,142564,1,0,0:0:0:0:
64,192,142564,1,0,0:0:0:0:
320,192,142735,1,0,0:0:0:0:
448,192,142735,1,0,0:0:0:0:
448,192,142906,1,0,0:0:0:0:
320,192,142906,1,0,0:0:0:0:
64,192,142992,1,0,0:0:0:0:
192,192,143078,1,0,0:0:0:0:
320,192,143163,1,0,0:0:0:0:
64,192,143249,1,0,0:0:0:0:
448,192,143249,1,0,0:0:0:0:
320,192,143420,1,0,0:0:0:0:
448,192,143420,1,0,0:0:0:0:
192,192,143506,1,0,0:0:0:0:
64,192,143592,1,0,0:0:0:0:
448,192,143677,1,0,0:0:0:0:
320,192,143763,1,0,0:0:0:0:
192,192,143763,1,0,0:0:0:0:
448,192,143934,1,0,0:0:0:0:
192,192,143934,1,0,0:0:0:0:
64,192,143934,1,0,0:0:0:0:
320,192,144105,1,0,0:0:0:0:
192,192,144191,1,0,0:0:0:0:
64,192,144277,1,0,0:0:0:0:
448,192,144277,1,0,0:0:0:0:
320,192,144448,128,0,144619:0:0:0:0:
448,192,144619,1,0,0:0:0:0:
64,192,144619,1,0,0:0:0:0:
192,192,144791,1,0,0:0:0:0:
448,192,144876,1,0,0:0:0:0:
64,192,144962,1,0,0:0:0:0:
192,192,144962,1,0,0:0:0:0:
320,192,145133,1,0,0:0:0:0:
64,192,145133,1,0,0:0:0:0:
192,192,145304,1,0,0:0:0:0:
448,192,145304,1,0,0:0:0:0:
448,192,145476,1,0,0:0:0:0:
320,192,145647,1,0,0:0:0:0:
192,192,145647,1,0,0:0:0:0:
448,192,145818,1,0,0:0:0:0:
320,192,145904,1,0,0:0:0:0:
192,192,145990,1,0,0:0:0:0:
64,192,145990,1,0,0:0:0:0:
320,192,146161,1,0,0:0:0:0:
448,192,146161,1,0,0:0:0:0:
448,192,146332,1,0,0:0:0:0:
64,192,146332,1,0,0:0:0:0:
192,192,146503,1,0,0:0:0:0:
320,192,146503,128,0,146675:0:0:0:0:
64,192,146675,1,0,0:0:0:0:
448,192,146675,1,0,0:0:0:0:
320,192,146846,1,0,0:0:0:0:
192,192,146846,1,0,0:0:0:0:
320,192,147017,1,0,0:0:0:0:
192,192,147017,1,0,0:0:0:0:
448,192,147189,1,0,0:0:0:0:
64,192,147189,1,0,0:0:0:0:
64,192,147360,1,0,0:0:0:0:
448,192,147360,1,0,0:0:0:0:
192,192,147531,1,0,0:0:0:0:
448,192,147617,1,0,0:0:0:0:
64,192,147702,1,0,0:0:0:0:
320,192,147702,1,0,0:0:0:0:
192,192,147874,128,0,148045:0:0:0:0:
448,192,147874,1,0,0:0:0:0:
320,192,148045,1,0,0:0:0:0:
64,192,148045,1,0,0:0:0:0:
448,192,148216,1,0,0:0:0:0:
192,192,148216,1,0,0:0:0:0:
192,192,148388,1,0,0:0:0:0:
448,192,148388,1,0,0:0:0:0:
64,192,148559,1,0,0:0:0:0:
192,192,148644,1,0,0:0:0:0:
448,192,148730,1,0,0:0:0:0:
320,192,148730,1,0,0:0:0:0:
64,192,148901,1,0,0:0:0:0:
192,192,148901,1,0,0:0:0:0:
448,192,149073,1,0,0:0:0:0:
320,192,149073,1,0,0:0:0:0:
320,192,149244,1,0,0:0:0:0:
192,192,149244,1,0,0:0:0:0:
448,192,149415,1,0,0:0:0:0:
64,192,149415,1,0,0:0:0:0:
192,192,149586,1,0,0:0:0:0:
320,192,149672,1,0,0:0:0:0:
64,192,149758,1,0,0:0:0:0:
448,192,149758,1,0,0:0:0:0:
192,192,149929,128,0,150100:0:0:0:0:
448,192,150100,1,0,0:0:0:0:
320,192,150100,1,0,0:0:0:0:
192,192,150272,1,0,0:0:0:0:
320,192,150357,1,0,0:0:0:0:
64,192,150443,1,0,0:0:0:0:
192,192,150443,1,0,0:0:0:0:
448,192,150614,1,0,0:0:0:0:
320,192,150614,1,0,0:0:0:0:
448,192,150785,1,0,0:0:0:0:
64,192,150785,1,0,0:0:0:0:
320,192,150957,1,0,0:0:0:0:
192,192,151128,1,0,0:0:0:0:
448,192,151128,1,0,0:0:0:0:
320,192,151299,1,0,0:0:0:0:
64,192,151385,1,0,0:0:0:0:
320,192,151471,1,0,0:0:0:0:
192,192,151471,1,0,0:0:0:0:
448,192,151642,1,0,0:0:0:0:
64,192,151642,1,0,0:0:0:0:
192,192,151813,1,0,0:0:0:0:
320,192,151813,1,0,0:0:0:0:
448,192,151984,1,0,0:0:0:0:
320,192,151984,128,0,152156:0:0:0:0:
64,192,152156,1,0,0:0:0:0:
192,192,152156,1,0,0:0:0:0:
320,192,152327,1,0,0:0:0:0:
448,192,152327,1,0,0:0:0:0:
448,192,152498,1,0,0:0:0:0:
320,192,152498,1,0,0:0:0:0:
64,192,152670,1,0,0:0:0:0:
192,192,152670,1,0,0:0:0:0:
64,192,152841,1,0,0:0:0:0:
192,192,152841,1,0,0:0:0:0:
320,192,153012,1,0,0:0:0:0:
192,192,153098,1,0,0:0:0:0:
320,192,153183,1,0,0:0:0:0:
64,192,153183,1,0,0:0:0:0:
192,192,153355,128,0,153526:0:0:0:0:
448,192,153355,1,0,0:0:0:0:
320,192,153526,1,0,0:0:0:0:
64,192,153526,1,0,0:0:0:0:
192,192,153697,1,0,0:0:0:0:
448,192,153697,1,0,0:0:0:0:
192,192,153869,1,0,0:0:0:0:
448,192,153869,1,0,0:0:0:0:
64,192,154040,1,0,0:0:0:0:
192,192,154125,1,0,0:0:0:0:
448,192,154211,1,0,0:0:0:0:
320,192,154211,1,0,0:0:0:0:
192,192,154382,1,0,0:0:0:0:
448,192,154382,1,0,0:0:0:0:
64,192,154554,1,0,0:0:0:0:
320,192,154554,1,0,0:0:0:0:
192,192,154725,1,0,0:0:0:0:
320,192,154725,1,0,0:0:0:0:
64,192,154896,1,0,0:0:0:0:
448,192,154896,1,0,0:0:0:0:
192,192,154896,1,0,0:0:0:0:
320,192,155067,1,0,0:0:0:0:
192,192,155153,1,0,0:0:0:0:
448,192,155239,1,0,0:0:0:0:
64,192,155239,1,0,0:0:0:0:
192,192,155410,128,0,155581:0:0:0:0:
64,192,155581,1,0,0:0:0:0:
448,192,155581,1,0,0:0:0:0:
192,192,155753,1,0,0:0:0:0:
448,192,155838,1,0,0:0:0:0:
64,192,155924,1,0,0:0:0:0:
320,192,155924,1,0,0:0:0:0:
448,192,156095,1,0,0:0:0:0:
192,192,156095,1,0,0:0:0:0:
64,192,156266,1,0,0:0:0:0:
320,192,156266,1,0,0:0:0:0:
320,192,156438,1,0,0:0:0:0:
448,192,156609,1,0,0:0:0:0:
64,192,156609,1,0,0:0:0:0:
320,192,156780,1,0,0:0:0:0:
192,192,156866,1,0,0:0:0:0:
448,192,156952,1,0,0:0:0:0:
64,192,156952,1,0,0:0:0:0:
320,192,157123,1,0,0:0:0:0:
448,192,157123,1,0,0:0:0:0:
192,192,157294,1,0,0:0:0:0:
64,192,157294,1,0,0:0:0:0:
448,192,157465,1,0,0:0:0:0:
320,192,157465,128,0,157637:0:0:0:0:
64,192,157637,1,0,0:0:0:0:
192,192,157637,1,0,0:0:0:0:
448,192,157808,1,0,0:0:0:0:
320,192,157808,1,0,0:0:0:0:
448,192,157979,1,0,0:0:0:0:
320,192,157979,1,0,0:0:0:0:
192,192,158151,1,0,0:0:0:0:
64,192,158151,1,0,0:0:0:0:
192,192,158322,1,0,0:0:0:0:
64,192,158322,1,0,0:0:0:0:
448,192,158493,1,0,0:0:0:0:
64,192,158579,1,0,0:0:0:0:
192,192,158664,1,0,0:0:0:0:
320,192,158664,1,0,0:0:0:0:
192,192,158836,128,0,159007:0:0:0:0:
64,192,158836,1,0,0:0:0:0:
448,192,159007,1,0,0:0:0:0:
320,192,159007,1,0,0:0:0:0:
64,192,159178,1,0,0:0:0:0:
192,192,159178,1,0,0:0:0:0:
64,192,159350,1,0,0:0:0:0:
192,192,159350,1,0,0:0:0:0:
320,192,159521,1,0,0:0:0:0:
192,192,159606,1,0,0:0:0:0:
64,192,159692,1,0,0:0:0:0:
448,192,159692,1,0,0:0:0:0:
192,192,159863,1,0,0:0:0:0:
320,192,159863,1,0,0:0:0:0:
448,192,160035,1,0,0:0:0:0:
320,192,160035,1,0,0:0:0:0:
64,192,160206,1,0,0:0:0:0:
192,192,160206,1,0,0:0:0:0:
320,192,160377,1,0,0:0:0:0:
192,192,160377,1,0,0:0:0:0:
448,192,160549,1,0,0:0:0:0:
320,192,160634,1,0,0:0:0:0:
64,192,160720,1,0,0:0:0:0:
192,192,160720,1,0,0:0:0:0:
320,192,160891,128,0,161062:0:0:0:0:
448,192,161062,1,0,0:0:0:0:
192,192,161062,1,0,0:0:0:0:
320,192,161234,1,0,0:0:0:0:
448,192,161319,1,0,0:0:0:0:
64,192,161405,1,0,0:0:0:0:
192,192,161405,1,0,0:0:0:0:
448,192,161576,1,0,0:0:0:0:
320,192,161576,1,0,0:0:0:0:
320,192,161747,1,0,0:0:0:0:
192,192,161747,1,0,0:0:0:0:
192,192,161919,1,0,0:0:0:0:
448,192,162090,1,0,0:0:0:0:
64,192,162090,1,0,0:0:0:0:
192,192,162261,1,0,0:0:0:0:
64,192,162347,1,0,0:0:0:0:
320,192,162433,1,0,0:0:0:0:
448,192,162433,1,0,0:0:0:0:
192,192,162604,1,0,0:0:0:0:
320,192,162604,1,0,0:0:0:0:
64,192,162775,1,0,0:0:0:0:
448,192,162775,1,0,0:0:0:0:
320,192,162946,1,0,0:0:0:0:
192,192,162946,128,0,163118:0:0:0:0:
64,192,163118,1,0,0:0:0:0:
448,192,163118,1,0,0:0:0:0:
320,192,163289,1,0,0:0:0:0:
192,192,163289,1,0,0:0:0:0:
320,192,163460,1,0,0:0:0:0:
192,192,163460,1,0,0:0:0:0:
448,192,163632,1,0,0:0:0:0:
64,192,163632,1,0,0:0:0:0:
448,192,163803,1,0,0:0:0:0:
64,192,163803,1,0,0:0:0:0:
192,192,163974,1,0,0:0:0:0:
448,192,164060,1,0,0:0:0:0:
192,192,164145,1,0,0:0:0:0:
64,192,164145,1,0,0:0:0:0:
320,192,164317,128,0,164488:0:0:0:0:
448,192,164317,1,0,0:0:0:0:
64,192,164488,1,0,0:0:0:0:
192,192,164488,1,0,0:0:0:0:
448,192,164659,1,0,0:0:0:0:
320,192,164659,1,0,0:0:0:0:
448,192,164831,1,0,0:0:0:0:
320,192,164831,1,0,0:0:0:0:
192,192,165002,1,0,0:0:0:0:
320,192,165087,1,0,0:0:0:0:
448,192,165173,1,0,0:0:0:0:
64,192,165173,1,0,0:0:0:0:
320,192,165344,1,0,0:0:0:0:
192,192,165344,1,0,0:0:0:0:
448,192,165516,1,0,0:0:0:0:
192,192,165516,1,0,0:0:0:0:
64,192,165687,1,0,0:0:0:0:
320,192,165687,1,0,0:0:0:0:
