osu file format v14

[General]
AudioFilename: audio.mp3
AudioLeadIn: 0
PreviewTime: 31489
Countdown: 0
SampleSet: Soft
StackLeniency: 0.4
Mode: 0
LetterboxInBreaks: 0
WidescreenStoryboard: 1

[Editor]
Bookmarks: 9651,20613,26094,31575,53499,64461,67201,75423,80904,86385,108309,119271,119356,119442,119528,119613,119699,119785,119870,119956,120042,120127,120213,120299,120384,120470,120555,120641,120727,120812,120898,120984,121069,121155,121241,121326,121412,121498,121583,121669,121754,121840,121926,122011,122097,122183,122268,122354,122440,122525,122611,122696,122782,122868,122953,123039,123125,123210,123296,123382,123467,123553,123639,123724,123810,123895,123981,124067,124152,124238,124324,124409,124495,124581,124666,124752,124837,124923,125009,125094,125180,125266,125351,125437,125523,125608,125694,125780,125865,125951,126036,126122,126208,126293,126379,126465,126550,126636,126722,126807,126893,126979,127064,127150,127235,127321,127407,127492,132973,143935,165688
DistanceSpacing: 1.3
BeatDivisor: 4
GridSize: 16
TimelineZoom: 1.5

[Metadata]
Title:MALO TEBYA (Sped Up Ver.)
TitleUnicode:МАЛО ТЕБЯ (Sped Up Ver.)
Artist:SEREBRO
ArtistUnicode:SEREBRO
Creator:Basensorex
Version:ZYZZBASS
Source:
Tags:supav nachmark original3s visionary russian electronic русский speed version nightcore mix pop поп серебро Silver Olga Seryabkina Elena Temnikova Dasha Shashina
BeatmapID:3856244
BeatmapSetID:1874064

[Difficulty]
HPDrainRate:5
CircleSize:4.2
OverallDifficulty:9
ApproachRate:9.5
SliderMultiplier:1.8
SliderTickRate:1

[Events]
//Background and Video events
0,0,"bg.jpg",0,0
//Break Periods
2,119471,126968
//Storyboard Layer 0 (Background)
//Storyboard Layer 1 (Fail)
//Storyboard Layer 2 (Pass)
//Storyboard Layer 3 (Foreground)
//Storyboard Layer 4 (Overlay)
//Storyboard Sound Samples

[TimingPoints]
4170,342.563516985441,4,2,1,40,1,0
9651,-133.333333333333,4,2,1,50,0,0
20613,-133.333333333333,4,2,1,55,0,0
21298,-114.285714285714,4,2,1,55,0,0
26094,-114.285714285714,4,2,1,60,0,0
27464,-114.285714285714,4,2,1,62,0,0
28149,-114.285714285714,4,2,1,64,0,0
28834,-114.285714285714,4,2,1,66,0,0
29519,-114.285714285714,4,2,1,68,0,0
30204,-114.285714285714,4,2,1,70,0,0
30547,-114.285714285714,4,2,1,73,0,0
30889,-114.285714285714,4,2,1,77,0,0
31232,-266.666666666667,4,2,1,81,0,0
31488,-266.666666666667,4,2,99,5,0,0
31575,-44.4444444444445,4,2,2,85,0,1
31831,-44.4444444444445,4,2,99,5,0,1
31917,-50,4,2,1,85,0,1
32002,-50,4,2,99,5,0,1
32088,-50,4,2,1,85,0,1
32173,-50,4,2,99,5,0,1
32260,-44.4444444444445,4,2,2,85,0,1
32602,-50,4,2,1,85,0,1
32687,-50,4,2,99,5,0,1
32774,-50,4,2,2,85,0,1
33116,-44.4444444444445,4,2,2,85,0,1
33287,-44.4444444444445,4,2,1,85,0,1
33373,-50,4,2,1,85,0,1
33458,-50,4,2,1,85,0,1
33630,-50,4,2,2,85,0,1
33715,-50,4,2,99,5,0,1
33801,-50,4,2,2,85,0,1
33886,-50,4,2,99,5,0,1
33973,-50,4,2,1,85,0,1
34144,-44.4444444444445,4,2,2,85,0,1
34400,-44.4444444444445,4,2,99,5,0,1
34486,-44.4444444444445,4,2,1,85,0,1
34572,-44.4444444444445,4,2,1,85,0,1
34658,-50,4,2,1,85,0,1
34743,-50,4,2,99,5,0,1
34829,-50,4,2,1,85,0,1
34914,-50,4,2,99,5,0,1
35000,-50,4,2,2,85,0,1
35085,-50,4,2,99,5,0,1
35171,-50,4,2,2,85,0,1
35256,-50,4,2,3,85,0,1
35343,-50,4,2,1,85,0,1
35514,-44.4444444444445,4,2,2,85,0,1
35770,-44.4444444444445,4,2,99,5,0,1
35857,-44.4444444444445,4,2,2,85,0,1
35943,-44.4444444444445,4,2,2,85,0,1
36028,-50,4,2,1,85,0,1
36113,-50,4,2,99,5,0,1
36199,-50,4,2,1,85,0,1
36284,-50,4,2,3,85,0,1
36370,-44.4444444444445,4,2,2,85,0,1
36455,-44.4444444444445,4,2,99,5,0,1
36542,-44.4444444444445,4,2,2,85,0,1
36627,-44.4444444444445,4,2,99,5,0,1
36713,-50,4,2,1,85,0,1
36798,-50,4,2,99,5,0,1
36884,-50,4,2,2,85,0,1
36969,-50,4,2,99,5,0,1
37056,-44.4444444444445,4,2,2,85,0,1
37312,-44.4444444444445,4,2,99,5,0,1
37398,-50,4,2,1,85,0,1
37655,-50,4,2,1,85,0,1
37741,-44.4444444444445,4,2,2,85,0,1
38083,-50,4,2,1,85,0,1
38168,-50,4,2,99,5,0,1
38255,-50,4,2,2,85,0,1
38597,-44.4444444444445,4,2,2,85,0,1
38768,-44.4444444444445,4,2,1,85,0,1
38854,-50,4,2,1,85,0,1
38939,-50,4,2,1,85,0,1
39111,-50,4,2,2,85,0,1
39196,-50,4,2,99,5,0,1
39282,-50,4,2,2,85,0,1
39367,-50,4,2,99,5,0,1
39454,-50,4,2,1,85,0,1
39625,-44.4444444444445,4,2,2,85,0,1
39881,-44.4444444444445,4,2,99,5,0,1
39967,-44.4444444444445,4,2,1,85,0,1
40053,-44.4444444444445,4,2,1,85,0,1
40139,-50,4,2,1,85,0,1
40224,-50,4,2,99,5,0,1
40310,-50,4,2,1,85,0,1
40395,-50,4,2,99,5,0,1
40481,-50,4,2,2,85,0,1
40566,-50,4,2,99,5,0,1
40652,-50,4,2,2,85,0,1
40737,-50,4,2,3,85,0,1
40824,-50,4,2,1,85,0,1
40995,-44.4444444444445,4,2,2,85,0,1
41251,-44.4444444444445,4,2,99,5,0,1
41338,-44.4444444444445,4,2,2,85,0,1
41424,-44.4444444444445,4,2,2,85,0,1
41509,-50,4,2,1,85,0,1
41594,-50,4,2,99,5,0,1
41680,-50,4,2,1,85,0,1
41765,-50,4,2,3,85,0,1
41851,-44.4444444444445,4,2,2,85,0,1
41936,-44.4444444444445,4,2,99,5,0,1
42023,-44.4444444444445,4,2,2,85,0,1
42108,-44.4444444444445,4,2,99,5,0,1
42194,-50,4,2,1,85,0,1
42279,-50,4,2,3,85,0,1
42365,-50,4,2,2,85,0,1
42450,-50,4,2,3,85,0,1
42537,-44.4444444444445,4,2,2,85,0,1
42793,-44.4444444444445,4,2,99,5,0,1
42879,-50,4,2,1,85,0,1
42964,-50,4,2,99,5,0,1
43050,-50,4,2,1,85,0,1
43135,-50,4,2,99,5,0,1
43222,-44.4444444444445,4,2,2,85,0,1
43564,-50,4,2,1,85,0,1
43649,-50,4,2,99,5,0,1
43736,-50,4,2,2,85,0,1
44078,-44.4444444444445,4,2,2,85,0,1
44249,-44.4444444444445,4,2,1,85,0,1
44335,-50,4,2,1,85,0,1
44420,-50,4,2,1,85,0,1
44592,-50,4,2,2,85,0,1
44677,-50,4,2,99,5,0,1
44763,-50,4,2,2,85,0,1
44848,-50,4,2,99,5,0,1
44935,-50,4,2,1,85,0,1
45106,-44.4444444444445,4,2,2,85,0,1
45362,-44.4444444444445,4,2,99,5,0,1
45448,-44.4444444444445,4,2,1,85,0,1
45534,-44.4444444444445,4,2,1,85,0,1
45620,-50,4,2,1,85,0,1
45705,-50,4,2,99,5,0,1
45791,-50,4,2,1,85,0,1
45876,-50,4,2,99,5,0,1
45962,-50,4,2,2,85,0,1
46047,-50,4,2,99,5,0,1
46133,-50,4,2,2,85,0,1
46218,-50,4,2,3,85,0,1
46305,-50,4,2,1,85,0,1
46476,-44.4444444444445,4,2,2,85,0,1
46732,-44.4444444444445,4,2,99,5,0,1
46819,-44.4444444444445,4,2,2,85,0,1
46905,-44.4444444444445,4,2,2,85,0,1
46990,-50,4,2,1,85,0,1
47075,-50,4,2,99,5,0,1
47161,-50,4,2,1,85,0,1
47246,-50,4,2,3,85,0,1
47333,-44.4444444444445,4,2,2,85,0,1
47418,-44.4444444444445,4,2,99,5,0,1
47505,-44.4444444444445,4,2,2,85,0,1
47590,-44.4444444444445,4,2,99,5,0,1
47676,-50,4,2,1,85,0,1
47761,-50,4,2,99,5,0,1
47847,-50,4,2,2,85,0,1
47932,-50,4,2,99,5,0,1
48018,-44.4444444444445,4,2,2,85,0,1
48274,-44.4444444444445,4,2,99,5,0,1
48360,-50,4,2,1,85,0,1
48617,-50,4,2,1,85,0,1
48703,-44.4444444444445,4,2,2,85,0,1
49045,-50,4,2,1,85,0,1
49130,-50,4,2,99,5,0,1
49217,-50,4,2,2,85,0,1
49559,-44.4444444444445,4,2,2,85,0,1
49730,-44.4444444444445,4,2,1,85,0,1
49816,-50,4,2,1,85,0,1
49901,-50,4,2,1,85,0,1
50073,-50,4,2,2,85,0,1
50158,-50,4,2,99,5,0,1
50244,-50,4,2,2,85,0,1
50329,-50,4,2,99,5,0,1
50416,-50,4,2,1,85,0,1
50587,-44.4444444444445,4,2,2,85,0,1
50843,-44.4444444444445,4,2,99,5,0,1
50929,-44.4444444444445,4,2,1,85,0,1
51015,-44.4444444444445,4,2,1,85,0,1
51101,-50,4,2,1,85,0,1
51186,-50,4,2,99,5,0,1
51272,-50,4,2,1,85,0,1
51357,-50,4,2,99,5,0,1
51443,-50,4,2,2,85,0,1
51528,-50,4,2,99,5,0,1
51614,-50,4,2,2,85,0,1
51699,-50,4,2,3,85,0,1
51786,-50,4,2,1,85,0,1
51957,-44.4444444444445,4,2,2,85,0,1
52213,-44.4444444444445,4,2,99,5,0,1
52300,-44.4444444444445,4,2,2,85,0,1
52386,-44.4444444444445,4,2,2,85,0,1
52471,-50,4,2,1,85,0,1
52556,-50,4,2,99,5,0,1
52642,-50,4,2,1,85,0,1
52727,-50,4,2,3,85,0,1
52814,-44.4444444444445,4,2,2,85,0,1
52899,-44.4444444444445,4,2,99,5,0,1
52986,-44.4444444444445,4,2,2,85,0,1
53071,-44.4444444444445,4,2,99,5,0,1
53156,-50,4,2,1,85,0,1
53241,-50,4,2,3,85,0,1
53327,-50,4,2,2,85,0,1
53412,-50,4,2,3,85,0,1
53499,-50,4,2,2,85,0,0
53755,-50,4,2,3,85,0,0
53841,-50,4,2,1,85,0,0
54097,-50,4,2,3,85,0,0
54184,-50,4,2,2,85,0,0
54355,-50,4,2,4,85,0,0
54526,-50,4,2,1,85,0,0
54611,-50,4,2,99,5,0,0
54698,-66.6666666666667,4,2,2,85,0,0
55040,-50,4,2,4,85,0,0
55126,-50,4,2,3,85,0,0
55211,-80,4,2,1,85,0,0
55296,-80,4,2,99,5,0,0
55383,-57.1428571428571,4,2,4,85,0,0
55468,-57.1428571428571,4,2,3,85,0,0
55554,-44.4444444444445,4,2,2,85,0,0
55639,-44.4444444444445,4,2,99,5,0,0
55725,-36.3636363636364,4,2,4,85,0,0
55810,-36.3636363636364,4,2,3,85,0,0
55897,-42.1052631578947,4,2,1,85,0,0
55982,-42.1052631578947,4,2,99,5,0,0
56068,-50,4,2,4,85,0,0
56153,-50,4,2,3,85,0,0
56239,-50,4,2,2,85,0,0
56495,-50,4,2,3,85,0,0
56582,-50,4,2,1,85,0,0
56838,-50,4,2,3,85,0,0
56924,-50,4,2,2,85,0,0
57095,-50,4,2,4,85,0,0
57267,-50,4,2,1,85,0,0
57352,-50,4,2,99,5,0,0
57438,-66.6666666666667,4,2,2,85,0,0
57781,-50,4,2,4,85,0,0
57867,-50,4,2,3,85,0,0
57952,-80,4,2,1,85,0,0
58037,-80,4,2,99,5,0,0
58123,-57.1428571428571,4,2,4,85,0,0
58208,-57.1428571428571,4,2,3,85,0,0
58295,-44.4444444444445,4,2,2,85,0,0
58380,-44.4444444444445,4,2,99,5,0,0
58466,-36.3636363636364,4,2,4,85,0,0
58551,-36.3636363636364,4,2,3,85,0,0
58637,-42.1052631578947,4,2,1,85,0,0
58722,-42.1052631578947,4,2,99,5,0,0
58808,-50,4,2,4,85,0,0
58893,-50,4,2,3,85,0,0
58980,-50,4,2,2,85,0,0
59236,-50,4,2,3,85,0,0
59322,-50,4,2,1,85,0,0
59578,-50,4,2,3,85,0,0
59665,-50,4,2,2,85,0,0
59836,-50,4,2,4,85,0,0
60007,-50,4,2,1,85,0,0
60092,-50,4,2,99,5,0,0
60179,-66.6666666666667,4,2,2,85,0,0
60521,-50,4,2,4,85,0,0
60607,-50,4,2,3,85,0,0
60692,-80,4,2,1,85,0,0
60777,-80,4,2,99,5,0,0
60864,-57.1428571428571,4,2,4,85,0,0
60949,-57.1428571428571,4,2,3,85,0,0
61035,-44.4444444444445,4,2,2,85,0,0
61120,-44.4444444444445,4,2,99,5,0,0
61206,-36.3636363636364,4,2,4,85,0,0
61291,-36.3636363636364,4,2,3,85,0,0
61378,-42.1052631578947,4,2,1,85,0,0
61463,-42.1052631578947,4,2,99,5,0,0
61549,-50,4,2,4,85,0,0
61634,-50,4,2,3,85,0,0
61720,-50,4,2,2,85,0,0
61976,-50,4,2,3,85,0,0
62063,-50,4,2,1,85,0,0
62319,-50,4,2,3,85,0,0
62405,-50,4,2,2,85,0,0
62576,-50,4,2,4,85,0,0
62747,-50,4,2,1,85,0,0
62832,-50,4,2,99,5,0,0
62919,-66.6666666666667,4,2,2,85,0,0
63262,-50,4,2,4,85,0,0
63348,-50,4,2,3,85,0,0
63433,-80,4,2,1,85,0,0
63518,-80,4,2,99,5,0,0
63604,-57.1428571428571,4,2,4,85,0,0
63689,-57.1428571428571,4,2,3,85,0,0
63776,-44.4444444444445,4,2,2,85,0,0
63861,-44.4444444444445,4,2,99,5,0,0
63947,-36.3636363636364,4,2,4,85,0,0
64032,-36.3636363636364,4,2,3,85,0,0
64118,-36.3636363636364,4,2,1,85,0,0
64289,-36.3636363636364,4,2,3,85,0,0
64461,-133.333333333333,4,2,2,50,0,0
75423,-133.333333333333,4,2,2,55,0,0
76108,-114.285714285714,4,2,1,55,0,0
80904,-114.285714285714,4,2,1,60,0,0
82274,-114.285714285714,4,2,1,62,0,0
82959,-114.285714285714,4,2,1,64,0,0
83644,-114.285714285714,4,2,1,66,0,0
84329,-114.285714285714,4,2,1,68,0,0
85014,-114.285714285714,4,2,1,70,0,0
85357,-114.285714285714,4,2,1,73,0,0
85699,-114.285714285714,4,2,1,77,0,0
86042,-266.666666666667,4,2,1,81,0,0
86298,-266.666666666667,4,2,99,5,0,0
86385,-44.4444444444445,4,2,2,85,0,1
86641,-44.4444444444445,4,2,99,5,0,1
86727,-50,4,2,1,85,0,1
86812,-50,4,2,99,5,0,1
86899,-50,4,2,1,85,0,1
86984,-50,4,2,99,5,0,1
87070,-44.4444444444445,4,2,2,85,0,1
87412,-50,4,2,1,85,0,1
87497,-50,4,2,99,5,0,1
87584,-50,4,2,2,85,0,1
87926,-44.4444444444445,4,2,2,85,0,1
88097,-44.4444444444445,4,2,1,85,0,1
88183,-50,4,2,1,85,0,1
88268,-50,4,2,1,85,0,1
88440,-50,4,2,2,85,0,1
88525,-50,4,2,99,5,0,1
88611,-50,4,2,2,85,0,1
88696,-50,4,2,99,5,0,1
88783,-50,4,2,1,85,0,1
88954,-44.4444444444445,4,2,2,85,0,1
89210,-44.4444444444445,4,2,99,5,0,1
89297,-44.4444444444445,4,2,1,85,0,1
89383,-44.4444444444445,4,2,1,85,0,1
89468,-50,4,2,1,85,0,1
89553,-50,4,2,99,5,0,1
89639,-50,4,2,1,85,0,1
89724,-50,4,2,99,5,0,1
89810,-50,4,2,2,85,0,1
89895,-50,4,2,99,5,0,1
89981,-50,4,2,2,85,0,1
90066,-50,4,2,3,85,0,1
90153,-50,4,2,1,85,0,1
90324,-44.4444444444445,4,2,2,85,0,1
90580,-44.4444444444445,4,2,99,5,0,1
90667,-44.4444444444445,4,2,2,85,0,1
90752,-44.4444444444445,4,2,2,85,0,1
90838,-50,4,2,1,85,0,1
90923,-50,4,2,99,5,0,1
91009,-50,4,2,1,85,0,1
91094,-50,4,2,3,85,0,1
91181,-44.4444444444445,4,2,2,85,0,1
91266,-44.4444444444445,4,2,99,5,0,1
91353,-44.4444444444445,4,2,2,85,0,1
91438,-44.4444444444445,4,2,99,5,0,1
91524,-50,4,2,1,85,0,1
91609,-50,4,2,99,5,0,1
91695,-50,4,2,2,85,0,1
91780,-50,4,2,99,5,0,1
91866,-44.4444444444445,4,2,2,85,0,1
92122,-44.4444444444445,4,2,99,5,0,1
92208,-50,4,2,1,85,0,1
92465,-50,4,2,1,85,0,1
92551,-44.4444444444445,4,2,2,85,0,1
92893,-50,4,2,1,85,0,1
92978,-50,4,2,99,5,0,1
93065,-50,4,2,2,85,0,1
93407,-44.4444444444445,4,2,2,85,0,1
93578,-44.4444444444445,4,2,1,85,0,1
93664,-50,4,2,1,85,0,1
93749,-50,4,2,1,85,0,1
93922,-50,4,2,2,85,0,1
94007,-50,4,2,99,5,0,1
94092,-50,4,2,2,85,0,1
94177,-50,4,2,99,5,0,1
94264,-50,4,2,1,85,0,1
94435,-44.4444444444445,4,2,2,85,0,1
94691,-44.4444444444445,4,2,99,5,0,1
94778,-44.4444444444445,4,2,1,85,0,1
94863,-44.4444444444445,4,2,1,85,0,1
94949,-50,4,2,1,85,0,1
95034,-50,4,2,99,5,0,1
95120,-50,4,2,1,85,0,1
95205,-50,4,2,99,5,0,1
95291,-50,4,2,2,85,0,1
95376,-50,4,2,99,5,0,1
95462,-50,4,2,2,85,0,1
95547,-50,4,2,3,85,0,1
95634,-50,4,2,1,85,0,1
95805,-44.4444444444445,4,2,2,85,0,1
96061,-44.4444444444445,4,2,99,5,0,1
96148,-44.4444444444445,4,2,2,85,0,1
96233,-44.4444444444445,4,2,2,85,0,1
96319,-50,4,2,1,85,0,1
96404,-50,4,2,99,5,0,1
96490,-50,4,2,1,85,0,1
96575,-50,4,2,3,85,0,1
96662,-44.4444444444445,4,2,2,85,0,1
96747,-44.4444444444445,4,2,99,5,0,1
96834,-44.4444444444445,4,2,2,85,0,1
96919,-44.4444444444445,4,2,99,5,0,1
97005,-50,4,2,1,85,0,1
97090,-50,4,2,3,85,0,1
97176,-50,4,2,2,85,0,1
97261,-50,4,2,3,85,0,1
97347,-44.4444444444445,4,2,2,85,0,1
97603,-44.4444444444445,4,2,99,5,0,1
97689,-50,4,2,1,85,0,1
97774,-50,4,2,99,5,0,1
97861,-50,4,2,1,85,0,1
97946,-50,4,2,99,5,0,1
98032,-44.4444444444445,4,2,2,85,0,1
98374,-50,4,2,1,85,0,1
98459,-50,4,2,99,5,0,1
98546,-50,4,2,2,85,0,1
98888,-44.4444444444445,4,2,2,85,0,1
99059,-44.4444444444445,4,2,1,85,0,1
99145,-50,4,2,1,85,0,1
99230,-50,4,2,1,85,0,1
99403,-50,4,2,2,85,0,1
99488,-50,4,2,99,5,0,1
99573,-50,4,2,2,85,0,1
99658,-50,4,2,99,5,0,1
99745,-50,4,2,1,85,0,1
99916,-44.4444444444445,4,2,2,85,0,1
100172,-44.4444444444445,4,2,99,5,0,1
100259,-44.4444444444445,4,2,1,85,0,1
100344,-44.4444444444445,4,2,1,85,0,1
100430,-50,4,2,1,85,0,1
100515,-50,4,2,99,5,0,1
100601,-50,4,2,1,85,0,1
100686,-50,4,2,99,5,0,1
100772,-50,4,2,2,85,0,1
100857,-50,4,2,99,5,0,1
100944,-50,4,2,2,85,0,1
101029,-50,4,2,3,85,0,1
101115,-50,4,2,1,85,0,1
101286,-44.4444444444445,4,2,2,85,0,1
101542,-44.4444444444445,4,2,99,5,0,1
101629,-44.4444444444445,4,2,2,85,0,1
101714,-44.4444444444445,4,2,2,85,0,1
101800,-50,4,2,1,85,0,1
101885,-50,4,2,99,5,0,1
101971,-50,4,2,1,85,0,1
102056,-50,4,2,3,85,0,1
102143,-44.4444444444445,4,2,2,85,0,1
102228,-44.4444444444445,4,2,99,5,0,1
102315,-44.4444444444445,4,2,2,85,0,1
102400,-44.4444444444445,4,2,99,5,0,1
102485,-50,4,2,1,85,0,1
102570,-50,4,2,99,5,0,1
102656,-50,4,2,2,85,0,1
102741,-50,4,2,99,5,0,1
102828,-44.4444444444445,4,2,2,85,0,1
103084,-44.4444444444445,4,2,99,5,0,1
103170,-50,4,2,1,85,0,1
103427,-50,4,2,1,85,0,1
103513,-44.4444444444445,4,2,2,85,0,1
103855,-50,4,2,1,85,0,1
103940,-50,4,2,99,5,0,1
104027,-50,4,2,2,85,0,1
104369,-44.4444444444445,4,2,2,85,0,1
104540,-44.4444444444445,4,2,1,85,0,1
104626,-50,4,2,1,85,0,1
104711,-50,4,2,1,85,0,1
104884,-50,4,2,2,85,0,1
104969,-50,4,2,99,5,0,1
105054,-50,4,2,2,85,0,1
105139,-50,4,2,99,5,0,1
105226,-50,4,2,1,85,0,1
105397,-44.4444444444445,4,2,2,85,0,1
105653,-44.4444444444445,4,2,99,5,0,1
105740,-44.4444444444445,4,2,1,85,0,1
105825,-44.4444444444445,4,2,1,85,0,1
105911,-50,4,2,1,85,0,1
105996,-50,4,2,99,5,0,1
106082,-50,4,2,1,85,0,1
106167,-50,4,2,99,5,0,1
106253,-50,4,2,2,85,0,1
106338,-50,4,2,99,5,0,1
106424,-50,4,2,2,85,0,1
106509,-50,4,2,3,85,0,1
106596,-50,4,2,1,85,0,1
106767,-44.4444444444445,4,2,2,85,0,1
107023,-44.4444444444445,4,2,99,5,0,1
107110,-44.4444444444445,4,2,2,85,0,1
107195,-44.4444444444445,4,2,2,85,0,1
107281,-50,4,2,1,85,0,1
107366,-50,4,2,99,5,0,1
107452,-50,4,2,1,85,0,1
107537,-50,4,2,3,85,0,1
107624,-44.4444444444445,4,2,2,85,0,1
107709,-44.4444444444445,4,2,99,5,0,1
107796,-44.4444444444445,4,2,2,85,0,1
107881,-44.4444444444445,4,2,99,5,0,1
107966,-50,4,2,1,85,0,1
108051,-50,4,2,3,85,0,1
108137,-50,4,2,2,85,0,1
108222,-50,4,2,3,85,0,1
108309,-50,4,2,2,85,0,0
108565,-50,4,2,3,85,0,0
108651,-50,4,2,1,85,0,0
108907,-50,4,2,3,85,0,0
108994,-50,4,2,2,85,0,0
109165,-50,4,2,4,85,0,0
109336,-50,4,2,1,85,0,0
109421,-50,4,2,99,5,0,0
109508,-66.6666666666667,4,2,2,85,0,0
109850,-50,4,2,4,85,0,0
109936,-50,4,2,3,85,0,0
110022,-80,4,2,1,85,0,0
110107,-80,4,2,99,5,0,0
110193,-57.1428571428571,4,2,4,85,0,0
110278,-57.1428571428571,4,2,3,85,0,0
110364,-44.4444444444445,4,2,2,85,0,0
110449,-44.4444444444445,4,2,99,5,0,0
110535,-36.3636363636364,4,2,4,85,0,0
110620,-36.3636363636364,4,2,3,85,0,0
110707,-42.1052631578947,4,2,1,85,0,0
110792,-42.1052631578947,4,2,99,5,0,0
110878,-50,4,2,4,85,0,0
110963,-50,4,2,3,85,0,0
111049,-50,4,2,2,85,0,0
111305,-50,4,2,3,85,0,0
111392,-50,4,2,1,85,0,0
111648,-50,4,2,3,85,0,0
111734,-50,4,2,2,85,0,0
111905,-50,4,2,4,85,0,0
112077,-50,4,2,1,85,0,0
112162,-50,4,2,99,5,0,0
112248,-50,4,2,2,85,0,0
112504,-50,4,2,99,5,0,0
112591,-50,4,2,5,85,0,0
112676,-50,4,2,3,85,0,0
112762,-80,4,2,6,85,0,0
112847,-80,4,2,99,5,0,0
112933,-57.1428571428571,4,2,5,85,0,0
113018,-57.1428571428571,4,2,3,85,0,0
113105,-44.4444444444445,4,2,5,85,0,0
113190,-44.4444444444445,4,2,99,5,0,0
113276,-36.3636363636364,4,2,5,85,0,0
113361,-36.3636363636364,4,2,3,85,0,0
113447,-42.1052631578947,4,2,6,85,0,0
113532,-42.1052631578947,4,2,99,5,0,0
113618,-50,4,2,5,85,0,0
113703,-50,4,2,3,85,0,0
113790,-50,4,2,2,85,0,0
114046,-50,4,2,3,85,0,0
114132,-50,4,2,1,85,0,0
114388,-50,4,2,3,85,0,0
114475,-50,4,2,2,85,0,0
114646,-50,4,2,4,85,0,0
114818,-50,4,2,1,85,0,0
114903,-50,4,2,99,5,0,0
114989,-66.6666666666667,4,2,2,85,0,0
115331,-50,4,2,4,85,0,0
115417,-50,4,2,3,85,0,0
115502,-80,4,2,1,85,0,0
115587,-80,4,2,99,5,0,0
115674,-57.1428571428571,4,2,4,85,0,0
115759,-57.1428571428571,4,2,3,85,0,0
115845,-44.4444444444445,4,2,2,85,0,0
115930,-44.4444444444445,4,2,99,5,0,0
116016,-36.3636363636364,4,2,4,85,0,0
116101,-36.3636363636364,4,2,3,85,0,0
116188,-42.1052631578947,4,2,1,85,0,0
116273,-42.1052631578947,4,2,99,5,0,0
116359,-50,4,2,4,85,0,0
116444,-50,4,2,3,85,0,0
116530,-50,4,2,2,85,0,0
116786,-50,4,2,3,85,0,0
116873,-50,4,2,1,85,0,0
117129,-50,4,2,3,85,0,0
117215,-50,4,2,2,85,0,0
117386,-50,4,2,4,85,0,0
117558,-50,4,2,1,85,0,0
117643,-50,4,2,99,5,0,0
117729,-66.6666666666667,4,2,2,85,0,0
118072,-50,4,2,4,85,0,0
118158,-50,4,2,3,85,0,0
118244,-80,4,2,1,85,0,0
118329,-80,4,2,99,5,0,0
118414,-57.1428571428571,4,2,4,85,0,0
118499,-57.1428571428571,4,2,3,85,0,0
118586,-44.4444444444445,4,2,2,85,0,0
118671,-44.4444444444445,4,2,99,5,0,0
118757,-36.3636363636364,4,2,4,85,0,0
118842,-36.3636363636364,4,2,3,85,0,0
118928,-36.3636363636364,4,2,1,85,0,0
119100,-36.3636363636364,4,2,3,85,0,0
119271,-36.3636363636364,4,2,2,35,0,0
127492,-36.3636363636364,4,2,1,40,0,0
128863,-36.3636363636364,4,2,1,45,0,0
130233,-36.3636363636364,4,2,1,50,0,0
130918,-36.3636363636364,4,2,1,55,0,0
131603,-36.3636363636364,4,2,1,60,0,0
132288,-36.3636363636364,4,2,1,70,0,0
132631,-200,4,2,3,80,0,0
132887,-200,4,2,99,5,0,0
132973,-36.3636363636364,4,2,2,90,0,1
133229,-36.3636363636364,4,2,3,90,0,1
133316,-36.3636363636364,4,2,1,90,0,1
133572,-36.3636363636364,4,2,3,90,0,1
133659,-44.4444444444445,4,2,2,90,0,1
133830,-44.4444444444445,4,2,4,90,0,1
134001,-40,4,2,1,90,0,1
134086,-40,4,2,99,5,0,1
134172,-36.3636363636364,4,2,4,90,0,1
134344,-36.3636363636364,4,2,2,90,0,1
134515,-36.3636363636364,4,2,4,90,0,1
134686,-36.3636363636364,4,2,1,90,0,1
134857,-36.3636363636364,4,2,4,90,0,1
135028,-36.3636363636364,4,2,2,90,0,1
135199,-36.3636363636364,4,2,4,90,0,1
135371,-57.1428571428571,4,2,1,90,0,1
135543,-44.4444444444445,4,2,4,90,0,1
135714,-36.3636363636364,4,2,2,90,0,1
135970,-36.3636363636364,4,2,3,90,0,1
136056,-36.3636363636364,4,2,1,90,0,1
136312,-36.3636363636364,4,2,3,90,0,1
136399,-44.4444444444445,4,2,2,90,0,1
136570,-44.4444444444445,4,2,4,90,0,1
136742,-40,4,2,1,90,0,1
136827,-40,4,2,99,5,0,1
136913,-36.3636363636364,4,2,4,90,0,1
137084,-36.3636363636364,4,2,2,90,0,1
137255,-36.3636363636364,4,2,4,90,0,1
137427,-36.3636363636364,4,2,1,90,0,1
137598,-36.3636363636364,4,2,4,90,0,1
137769,-36.3636363636364,4,2,2,90,0,1
137941,-36.3636363636364,4,2,4,90,0,1
138112,-57.1428571428571,4,2,1,90,0,1
138283,-44.4444444444445,4,2,4,90,0,1
138454,-36.3636363636364,4,2,2,90,0,1
138710,-36.3636363636364,4,2,3,90,0,1
138797,-36.3636363636364,4,2,1,90,0,1
139053,-36.3636363636364,4,2,3,90,0,1
139140,-44.4444444444445,4,2,2,90,0,1
139311,-44.4444444444445,4,2,4,90,0,1
139482,-40,4,2,1,90,0,1
139567,-40,4,2,99,5,0,1
139653,-36.3636363636364,4,2,4,90,0,1
139825,-36.3636363636364,4,2,2,90,0,1
139910,-36.3636363636364,4,2,3,90,0,1
139996,-36.3636363636364,4,2,4,90,0,1
140082,-36.3636363636364,4,2,3,90,0,1
140167,-36.3636363636364,4,2,1,90,0,1
140338,-36.3636363636364,4,2,4,90,0,1
140423,-36.3636363636364,4,2,3,90,0,1
140509,-36.3636363636364,4,2,2,90,0,1
140595,-36.3636363636364,4,2,3,90,0,1
140680,-36.3636363636364,4,2,4,90,0,1
140852,-57.1428571428571,4,2,1,90,0,1
140937,-57.1428571428571,4,2,3,90,0,1
141024,-44.4444444444445,4,2,4,90,0,1
141109,-44.4444444444445,4,2,3,90,0,1
141195,-36.3636363636364,4,2,2,90,0,1
141451,-36.3636363636364,4,2,3,90,0,1
141537,-36.3636363636364,4,2,1,90,0,1
141793,-36.3636363636364,4,2,3,90,0,1
141880,-44.4444444444445,4,2,2,90,0,1
142051,-44.4444444444445,4,2,4,90,0,1
142223,-50,4,2,1,90,0,1
142308,-50,4,2,99,5,0,1
142394,-44.4444444444445,4,2,4,90,0,1
142565,-40,4,2,2,90,0,1
142650,-40,4,2,3,90,0,1
142736,-36.3636363636364,4,2,4,90,0,1
142821,-36.3636363636364,4,2,3,90,0,1
142908,-44.4444444444445,4,2,1,90,0,1
143079,-44.4444444444445,4,2,4,90,0,1
143165,-44.4444444444445,4,2,3,90,0,1
143250,-40,4,2,2,90,0,1
143335,-40,4,2,3,90,0,1
143422,-36.3636363636364,4,2,4,90,0,1
143507,-36.3636363636364,4,2,3,90,0,1
143593,-33.3333333333333,4,2,1,90,0,1
143678,-33.3333333333333,4,2,3,90,0,1
143764,-30.7692307692308,4,2,3,90,0,0
143935,-40,4,2,2,90,0,1
144191,-40,4,2,3,90,0,1
144278,-44.4444444444445,4,2,6,90,0,1
144363,-44.4444444444445,4,2,99,5,0,1
144449,-44.4444444444445,4,2,2,90,0,1
144534,-44.4444444444445,4,2,3,90,0,1
144621,-40,4,2,5,90,0,1
144792,-40,4,2,4,90,0,1
144963,-44.4444444444445,4,2,6,90,0,1
145048,-44.4444444444445,4,2,99,5,0,1
145135,-44.4444444444445,4,2,5,90,0,1
145306,-44.4444444444445,4,2,2,90,0,1
145477,-40,4,2,4,90,0,1
145648,-40,4,2,1,90,0,1
145734,-44.4444444444445,4,2,1,90,0,1
145819,-44.4444444444445,4,2,4,90,0,1
145991,-40,4,2,2,90,0,1
146162,-44.4444444444445,4,2,4,90,0,1
146247,-44.4444444444445,4,2,3,90,0,1
146333,-44.4444444444445,4,2,6,90,0,1
146505,-40,4,2,5,90,0,1
146761,-40,4,2,99,5,0,1
146847,-40,4,2,2,90,0,1
146933,-40,4,2,3,90,0,1
147018,-44.4444444444445,4,2,6,90,0,1
147103,-44.4444444444445,4,2,99,5,0,1
147190,-44.4444444444445,4,2,2,90,0,1
147275,-44.4444444444445,4,2,3,90,0,1
147361,-44.4444444444445,4,2,5,90,0,1
147446,-44.4444444444445,4,2,1,90,0,1
147533,-44.4444444444445,4,2,5,90,0,1
147618,-44.4444444444445,4,2,4,90,0,1
147704,-44.4444444444445,4,2,6,90,0,1
147875,-40,4,2,5,90,0,1
148131,-40,4,2,2,90,0,1
148217,-40,4,2,5,90,0,1
148303,-40,4,2,4,90,0,1
148389,-50,4,2,6,90,0,1
148474,-50,4,2,99,5,0,1
148560,-44.4444444444445,4,2,5,90,0,1
148645,-44.4444444444445,4,2,4,90,0,1
148731,-40,4,2,5,90,0,1
148816,-40,4,2,1,90,0,1
148903,-36.3636363636364,4,2,5,90,0,1
148988,-36.3636363636364,4,2,3,90,0,1
149074,-33.3333333333333,4,2,6,90,0,1
149159,-33.3333333333333,4,2,1,90,0,1
149246,-36.3636363636364,4,2,5,90,0,1
149331,-36.3636363636364,4,2,4,90,0,1
149416,-40,4,2,2,90,0,1
149672,-40,4,2,3,90,0,1
149759,-44.4444444444445,4,2,6,90,0,1
149930,-44.4444444444445,4,2,2,90,0,1
150016,-44.4444444444445,4,2,3,90,0,1
150102,-40,4,2,5,90,0,1
150273,-40,4,2,4,90,0,1
150444,-44.4444444444445,4,2,6,90,0,1
150529,-44.4444444444445,4,2,99,5,0,1
150615,-44.4444444444445,4,2,5,90,0,1
150787,-44.4444444444445,4,2,2,90,0,1
150958,-40,4,2,4,90,0,1
151129,-40,4,2,1,90,0,1
151215,-44.4444444444445,4,2,1,90,0,1
151300,-44.4444444444445,4,2,4,90,0,1
151386,-44.4444444444445,4,2,3,90,0,1
151472,-40,4,2,2,90,0,1
151557,-40,4,2,3,90,0,1
151643,-44.4444444444445,4,2,4,90,0,1
151728,-44.4444444444445,4,2,3,90,0,1
151814,-44.4444444444445,4,2,6,90,0,1
151986,-40,4,2,5,90,0,1
152242,-40,4,2,99,5,0,1
152328,-40,4,2,2,90,0,1
152414,-40,4,2,3,90,0,1
152499,-44.4444444444445,4,2,6,90,0,1
152584,-44.4444444444445,4,2,99,5,0,1
152671,-44.4444444444445,4,2,2,90,0,1
152756,-44.4444444444445,4,2,3,90,0,1
152842,-44.4444444444445,4,2,5,90,0,1
152927,-44.4444444444445,4,2,1,90,0,1
153014,-44.4444444444445,4,2,5,90,0,1
153099,-44.4444444444445,4,2,4,90,0,1
153185,-44.4444444444445,4,2,6,90,0,1
153356,-40,4,2,5,90,0,1
153612,-40,4,2,3,90,0,1
153698,-40,4,2,5,90,0,1
153784,-40,4,2,3,90,0,1
153870,-50,4,2,6,90,0,1
153955,-50,4,2,99,5,0,1
154041,-44.4444444444445,4,2,5,90,0,1
154126,-44.4444444444445,4,2,3,90,0,1
154212,-40,4,2,5,90,0,1
154297,-40,4,2,3,90,0,1
154384,-36.3636363636364,4,2,5,90,0,1
154469,-36.3636363636364,4,2,3,90,0,1
154555,-33.3333333333333,4,2,6,90,0,1
154640,-33.3333333333333,4,2,3,90,0,1
154727,-36.3636363636364,4,2,7,90,0,1
154812,-36.3636363636364,4,2,3,90,0,1
154897,-40,4,2,2,90,0,1
155153,-40,4,2,3,90,0,1
155240,-44.4444444444445,4,2,6,90,0,1
155325,-44.4444444444445,4,2,99,5,0,1
155411,-44.4444444444445,4,2,2,90,0,1
155496,-44.4444444444445,4,2,3,90,0,1
155583,-40,4,2,5,90,0,1
155754,-40,4,2,4,90,0,1
155925,-44.4444444444445,4,2,6,90,0,1
156010,-44.4444444444445,4,2,99,5,0,1
156096,-44.4444444444445,4,2,5,90,0,1
156268,-44.4444444444445,4,2,2,90,0,1
156439,-40,4,2,4,90,0,1
156610,-40,4,2,1,90,0,1
156696,-44.4444444444445,4,2,1,90,0,1
156781,-44.4444444444445,4,2,4,90,0,1
156953,-40,4,2,2,90,0,1
157124,-44.4444444444445,4,2,4,90,0,1
157209,-44.4444444444445,4,2,3,90,0,1
157295,-44.4444444444445,4,2,6,90,0,1
157467,-40,4,2,5,90,0,1
157723,-40,4,2,99,5,0,1
157809,-40,4,2,2,90,0,1
157895,-40,4,2,3,90,0,1
157981,-44.4444444444445,4,2,6,90,0,1
158066,-44.4444444444445,4,2,99,5,0,1
158152,-44.4444444444445,4,2,2,90,0,1
158237,-44.4444444444445,4,2,3,90,0,1
158323,-44.4444444444445,4,2,5,90,0,1
158408,-44.4444444444445,4,2,1,90,0,1
158494,-44.4444444444445,4,2,5,90,0,1
158579,-44.4444444444445,4,2,4,90,0,1
158666,-44.4444444444445,4,2,6,90,0,1
158837,-40,4,2,5,90,0,1
159093,-40,4,2,2,90,0,1
159179,-40,4,2,5,90,0,1
159265,-40,4,2,4,90,0,1
159351,-50,4,2,6,90,0,1
159436,-50,4,2,99,5,0,1
159522,-44.4444444444445,4,2,5,90,0,1
159607,-44.4444444444445,4,2,4,90,0,1
159693,-40,4,2,5,90,0,1
159778,-40,4,2,1,90,0,1
159865,-36.3636363636364,4,2,5,90,0,1
159950,-36.3636363636364,4,2,3,90,0,1
160036,-33.3333333333333,4,2,6,90,0,1
160121,-33.3333333333333,4,2,1,90,0,1
160208,-36.3636363636364,4,2,5,90,0,1
160293,-36.3636363636364,4,2,4,90,0,1
160378,-40,4,2,2,90,0,1
160634,-40,4,2,3,90,0,1
160721,-44.4444444444445,4,2,6,90,0,1
160892,-44.4444444444445,4,2,2,90,0,1
160978,-44.4444444444445,4,2,3,90,0,1
161064,-40,4,2,5,90,0,1
161235,-40,4,2,4,90,0,1
161407,-44.4444444444445,4,2,6,90,0,1
161492,-44.4444444444445,4,2,99,5,0,1
161577,-44.4444444444445,4,2,5,90,0,1
161749,-44.4444444444445,4,2,2,90,0,1
161920,-40,4,2,4,90,0,1
162091,-40,4,2,1,90,0,1
162177,-44.4444444444445,4,2,1,90,0,1
162262,-44.4444444444445,4,2,4,90,0,1
162348,-44.4444444444445,4,2,3,90,0,1
162434,-40,4,2,2,90,0,1
162519,-40,4,2,3,90,0,1
162605,-44.4444444444445,4,2,4,90,0,1
162690,-44.4444444444445,4,2,3,90,0,1
162776,-44.4444444444445,4,2,6,90,0,1
162948,-40,4,2,5,90,0,1
163204,-40,4,2,99,5,0,1
163290,-40,4,2,2,90,0,1
163376,-40,4,2,3,90,0,1
163461,-44.4444444444445,4,2,6,90,0,1
163546,-44.4444444444445,4,2,99,5,0,1
163633,-44.4444444444445,4,2,2,90,0,1
163718,-44.4444444444445,4,2,3,90,0,1
163804,-44.4444444444445,4,2,5,90,0,1
163889,-44.4444444444445,4,2,1,90,0,1
163976,-44.4444444444445,4,2,5,90,0,1
164061,-44.4444444444445,4,2,4,90,0,1
164147,-44.4444444444445,4,2,6,90,0,1
164318,-40,4,2,5,90,0,1
164574,-40,4,2,3,90,0,1
164661,-40,4,2,5,90,0,1
164746,-40,4,2,3,90,0,1
164832,-50,4,2,6,90,0,1
164917,-50,4,2,99,5,0,1
165003,-44.4444444444445,4,2,5,90,0,1
165088,-44.4444444444445,4,2,3,90,0,1
165174,-40,4,2,5,90,0,1
165259,-40,4,2,3,90,0,1
165346,-36.3636363636364,4,2,5,90,0,1
165431,-36.3636363636364,4,2,3,90,0,1
165517,-33.3333333333333,4,2,6,90,0,1
165602,-33.3333333333333,4,2,3,90,0,1
165688,-33.3333333333333,4,2,7,90,0,0

[Colours]
Combo1 : 155,155,255
Combo2 : 177,100,255
Combo3 : 255,128,191
Combo4 : 240,219,155

[HitObjects]
66,24,9651,6,1,P|79:54|87:90,1,67.5000025749208,0|2,2:2|2:3,0:0:0:0:
159,135,9993,2,1,P|145:165|138:198,1,67.5000025749208,2|2,2:3|2:3,0:0:0:0:
74,259,10336,2,1,P|44:273|11:268,2,67.5000025749208,2|2|2,2:3|2:3|2:3,0:0:0:0:
139,198,10849,2,1,P|204:196|247:245,1,135.000005149842,2|2,2:3|2:3,0:0:0:0:
277,332,11363,1,2,2:3:0:0:
277,332,11535,1,2,2:3:0:0:
364,339,11706,2,1,P|377:308|385:272,1,67.5000025749208,2|2,2:3|2:3,0:0:0:0:
465,242,12048,2,1,P|457:209|444:178,1,67.5000025749208,2|0,2:3|2:2,0:0:0:0:
486,100,12391,5,0,2:2:0:0:
486,100,12734,2,1,P|456:86|423:91,1,67.5000025749208,2|2,2:3|2:3,0:0:0:0:
370,20,13076,2,1,P|342:38|330:70,1,67.5000025749208,2|2,2:3|2:3,0:0:0:0:
357,154,13419,1,2,2:3:0:0:
270,142,13590,2,1,P|248:205|240:279,1,135.000005149842,2|2,2:3|2:3,0:0:0:0:
214,356,14104,2,1,P|182:345|162:318,1,67.5000025749208,2|2,2:3|2:3,0:0:0:0:
82,354,14446,2,1,P|67:324|71:291,1,67.5000025749208,2|2,2:3|2:3,0:0:0:0:
141,237,14789,1,2,2:3:0:0:
141,237,14960,1,2,2:3:0:0:
0,242,15132,5,0,2:2:0:0:
0,242,15474,2,1,P|13:211|21:175,1,67.5000025749208,2|2,2:3|2:3,0:0:0:0:
88,122,15817,2,1,P|75:91|67:55,2,67.5000025749208,2|2|2,2:3|2:3|2:3,0:0:0:0:
169,156,16331,2,1,P|234:157|277:108,1,135.000005149842,2|2,2:3|2:3,0:0:0:0:
340,47,16844,2,1,P|353:77|361:113,1,67.5000025749208,2|2,2:3|2:3,0:0:0:0:
437,162,17187,1,2,2:3:0:0:
437,162,17359,1,2,2:3:0:0:
511,206,17529,2,1,P|497:236|489:272,1,67.5000025749208,2|0,2:3|2:2,0:0:0:0:
421,326,17873,5,0,2:2:0:0:
421,326,18215,2,1,P|391:312|358:317,1,67.5000025749208,2|2,2:3|2:3,0:0:0:0:
311,242,18557,2,1,P|283:260|271:292,1,67.5000025749208,2|2,2:3|2:3,0:0:0:0:
207,352,18900,1,2,2:3:0:0:
130,309,19071,2,1,P|121:242|99:178,1,135.000005149842,2|2,2:3|2:3,0:0:0:0:
126,94,19585,2,1,P|157:105|176:132,1,67.5000025749208,2|2,2:3|2:3,0:0:0:0:
256,93,19927,1,2,2:3:0:0:
256,93,20099,2,1,P|270:123|264:156,1,67.5000025749208,2|0,2:3|2:2,0:0:0:0:
201,217,20441,1,2,2:3:0:0:
362,111,20613,5,0,2:2:0:0:
362,111,20955,1,2,2:3:0:0:
427,52,21126,1,2,2:3:0:0:
505,98,21298,2,1,P|479:172|468:250,1,157.500001502037,2|2,2:3|2:3,0:0:0:0:
504,333,21812,1,2,2:3:0:0:
368,250,21983,5,0,2:2:0:0:
368,250,22325,1,2,2:3:0:0:
319,326,22497,1,2,2:3:0:0:
238,285,22668,2,1,P|162:287|120:352,1,157.500001502037,2|2,2:3|2:3,0:0:0:0:
207,374,23182,1,2,2:3:0:0:
34,376,23353,5,0,2:2:0:0:
34,376,23696,2,1,P|24:336|7:299,1,78.7500007510185,2|2,2:3|2:3,0:0:0:0:
100,164,24038,2,1,P|84:199|75:238,2,78.7500007510185,2|2|2,2:3|2:3|2:3,0:0:0:0:
32,103,24552,1,2,2:3:0:0:
173,233,24723,5,0,2:2:0:0:
173,233,25066,2,1,P|211:238|246:221,1,78.7500007510185,2|2,2:3|2:3,0:0:0:0:
355,120,25408,2,1,P|317:115|282:132,2,78.7500007510185,2|2|2,2:3|2:3|2:3,0:0:0:0:
426,176,25922,1,2,2:3:0:0:
345,330,26094,5,0,1:1:0:0:
340,345,26436,1,2,1:3:0:0:
336,360,26779,1,2,1:3:0:0:
332,376,27121,1,2,1:3:0:0:
268,277,27464,5,0,1:1:0:0:
260,307,27806,1,2,1:3:0:0:
252,338,28149,1,2,1:3:0:0:
244,369,28491,1,2,1:3:0:0:
270,106,28834,5,0,1:1:0:0:
246,196,29005,1,0,2:2:0:0:
336,220,29177,1,2,1:3:0:0:
360,130,29348,1,2,2:3:0:0:
252,79,29519,5,2,1:3:0:0:
216,214,29690,1,2,2:3:0:0:
351,250,29862,1,2,1:3:0:0:
387,115,30033,1,2,2:3:0:0:
193,135,30204,5,0,1:1:0:0:
185,132,30290,1,0,2:2:0:0:
177,130,30376,1,2,2:3:0:0:
169,128,30461,1,0,2:2:0:0:
136,201,30547,5,2,1:3:0:0:
120,205,30633,1,0,2:2:0:0:
105,209,30718,1,2,2:3:0:0:
89,213,30804,1,0,2:2:0:0:
32,162,30889,5,2,1:3:0:0:
16,145,30975,1,0,2:2:0:0:
25,128,31061,1,2,2:3:0:0:
43,132,31146,1,0,2:2:0:0:
46,148,31232,6,1,P|55:126|53:101,1,50.6250019311906,2|0,1:3|0:0,0:0:0:0:
6,38,31575,6,1,B|109:65|109:65|138:166|138:166|227:189,1,303.750011587143,6|0,1:2|0:0,0:0:0:0:
221,20,31917,2,1,B|180:30|180:30|177:35|177:35|136:46,1,90,14|0,2:3|0:0,0:0:0:0:
30,215,32088,2,1,B|71:205|71:205|74:200|74:200|115:189,1,90,2|0,2:3|0:0,0:0:0:0:
315,160,32260,6,1,B|385:232|385:232|288:260,1,202.500007724762,2|0,1:3|2:2,0:0:0:0:
227,190,32517,1,0,1:1:0:0:
212,199,32602,2,1,L|188:285,1,90,14|0,2:3|0:0,0:0:0:0:
258,353,32774,1,10,2:3:0:0:
443,145,32945,5,0,1:1:0:0:
460,344,33116,6,1,B|463:389|463:389|354:360|354:360|379:322,1,202.500007724762,8|12,2:3|2:2,0:0:0:0:
403,234,33373,2,1,L|489:258,1,90,0|0,0:0|2:2,0:0:0:0:
349,158,33544,1,8,2:2:0:0:
336,170,33630,6,1,B|302:202|302:202|313:255,1,90,0|0,1:1|0:0,0:0:0:0:
240,135,33801,2,1,B|273:102|273:102|262:49,1,90,0|0,1:1|0:0,0:0:0:0:
173,68,33973,1,14,2:3:0:0:
45,210,34144,6,1,B|13:227|13:227|-6:115|-6:115|143:155,1,303.750011587143,10|0,2:3|0:0,0:0:0:0:
207,219,34486,1,2,2:3:0:0:
203,236,34572,1,0,0:0:0:0:
199,253,34658,6,1,B|158:263|158:263|155:268|155:268|111:280,1,90,14|0,2:3|0:0,0:0:0:0:
168,356,34829,2,1,B|209:345|209:345|212:340|212:340|253:330,1,90,2|0,2:3|0:0,0:0:0:0:
371,176,35000,6,1,B|412:186|412:186|415:191|415:191|459:203,1,90,2|0,1:3|0:0,0:0:0:0:
401,279,35171,2,1,B|361:268|361:268|358:263|358:263|317:253,1,90,2|0,2:3|1:1,0:0:0:0:
280,162,35343,1,14,2:3:0:0:
512,71,35514,6,1,B|471:106|471:106|398:87|398:87|376:50|376:50|303:30|303:30|262:66,1,303.750011587143,10|0,2:3|0:0,0:0:0:0:
179,122,35857,1,10,2:3:0:0:
162,118,35943,1,0,0:0:0:0:
145,114,36028,6,1,B|155:73|155:73|160:70|160:70|172:26,1,90,14|0,2:3|0:0,0:0:0:0:
65,54,36199,2,1,B|55:95|55:95|50:98|50:98|38:142,1,90,2|8,2:3|2:2,0:0:0:0:
140,361,36370,6,1,B|92:371|92:371|56:334,1,101.250003862381,2|0,1:3|0:0,0:0:0:0:
94,220,36542,2,1,B|142:210|142:210|179:248,1,101.250003862381,2|0,1:3|0:0,0:0:0:0:
333,158,36713,6,1,B|287:148|287:148|257:180,1,90,14|0,2:3|0:0,0:0:0:0:
282,269,36884,2,1,B|327:278|327:278|357:246,1,90,10|0,2:3|0:0,0:0:0:0:
480,36,37056,6,1,B|525:114|525:114|432:89|432:89|423:91|423:91|319:63,1,303.750011587143,6|0,1:2|0:0,0:0:0:0:
398,3,37398,2,1,B|310:26|310:26|308:29|308:29|226:51,1,180,14|2,2:3|2:3,0:0:0:0:
152,5,37655,1,0,0:0:0:0:
137,19,37741,6,1,B|67:91|67:91|165:119,1,202.500007724762,2|0,1:3|2:2,0:0:0:0:
225,52,37998,1,0,1:1:0:0:
240,61,38083,2,1,L|264:147,1,90,14|0,2:3|0:0,0:0:0:0:
189,216,38255,1,10,2:3:0:0:
27,0,38426,5,0,1:1:0:0:
191,306,38597,6,1,B|163:343|163:343|54:314|54:314|52:271,1,202.500007724762,8|12,2:3|2:2,0:0:0:0:
103,192,38854,2,1,L|189:216,1,90,0|0,0:0|2:2,0:0:0:0:
322,216,39025,1,8,2:2:0:0:
308,227,39111,6,1,B|274:259|274:259|285:312,1,90,0|0,1:1|0:0,0:0:0:0:
352,384,39282,2,1,B|386:352|386:352|375:299,1,90,0|0,1:1|0:0,0:0:0:0:
457,258,39454,1,14,2:3:0:0:
211,56,39625,6,1,B|339:27|339:27|374:50|374:50|381:78|381:78|358:113|358:113|300:126,1,303.750011587143,10|0,2:3|0:0,0:0:0:0:
215,147,39967,1,2,2:3:0:0:
198,154,40053,1,0,0:0:0:0:
181,160,40139,6,1,B|171:201|171:201|166:204|166:204|154:248,1,90,14|0,2:3|0:0,0:0:0:0:
51,270,40310,2,1,B|61:229|61:229|66:226|66:226|78:182,1,90,2|0,2:3|0:0,0:0:0:0:
252,274,40481,6,1,B|262:315|262:315|267:318|267:318|279:362,1,90,2|0,1:3|0:0,0:0:0:0:
382,384,40652,2,1,B|372:343|372:343|367:340|367:340|355:296,1,90,2|0,2:3|1:1,0:0:0:0:
414,221,40824,1,14,2:3:0:0:
351,5,40995,6,1,B|383:126|383:126|285:184|285:184|303:122,1,303.750011587143,10|0,2:3|0:0,0:0:0:0:
264,40,41338,1,10,2:3:0:0:
246,45,41424,1,0,0:0:0:0:
228,50,41509,6,1,B|187:40|187:40|184:35|184:35|140:23,1,90,14|0,2:3|0:0,0:0:0:0:
41,91,41680,2,1,B|82:101|82:101|85:106|85:106|129:118,1,90,2|8,2:3|2:2,0:0:0:0:
37,348,41851,6,1,B|27:300|27:300|64:264,1,101.250003862381,2|0,1:3|0:0,0:0:0:0:
179,300,42023,2,1,B|189:348|189:348|151:385,1,101.250003862381,2|0,1:3|0:0,0:0:0:0:
324,197,42194,6,1,B|334:151|334:151|302:121,1,90,14|4,2:3|2:3,0:0:0:0:
214,148,42365,2,1,B|205:193|205:193|237:223,1,90,10|4,2:3|2:3,0:0:0:0:
512,141,42537,6,1,B|423:164|423:164|394:265|394:265|291:292,1,303.750011587143,6|0,1:2|0:0,0:0:0:0:
495,235,42879,2,1,B|483:275|483:275|485:280|485:280|475:321,1,90,14|0,2:3|0:0,0:0:0:0:
324,197,43050,2,1,B|335:156|335:156|333:151|333:151|343:110,1,90,2|0,2:3|0:0,0:0:0:0:
208,323,43222,6,1,B|138:251|138:251|237:223,1,202.500007724762,2|0,1:3|2:2,0:0:0:0:
290,292,43479,1,0,1:1:0:0:
299,307,43564,2,1,L|385:331,1,90,14|0,2:3|0:0,0:0:0:0:
475,321,43736,1,10,2:3:0:0:
147,214,43907,5,0,1:1:0:0:
389,88,44078,6,1,B|427:63|427:63|456:172|456:172|411:169,1,202.500007724762,8|12,2:3|2:2,0:0:0:0:
324,197,44335,2,1,L|300:111,1,90,0|0,0:0|2:2,0:0:0:0:
223,66,44506,1,8,2:2:0:0:
235,53,44592,6,1,B|267:19|267:19|320:30,1,90,0|0,1:1|0:0,0:0:0:0:
160,0,44763,2,1,B|128:34|128:34|75:23,1,90,0|0,1:1|0:0,0:0:0:0:
146,120,44935,1,14,2:3:0:0:
50,270,45106,6,1,B|18:287|18:287|-1:175|-1:175|148:215,1,303.750011587143,10|0,2:3|0:0,0:0:0:0:
229,164,45448,1,2,2:3:0:0:
246,168,45534,1,0,0:0:0:0:
263,172,45620,6,1,B|251:212|251:212|246:215|246:215|236:256,1,90,14|0,2:3|0:0,0:0:0:0:
308,338,45791,2,1,B|319:297|319:297|324:294|324:294|334:253,1,90,2|0,2:3|0:0,0:0:0:0:
460,37,45962,6,1,B|471:77|471:77|476:80|476:80|486:121,1,90,2|0,1:3|0:0,0:0:0:0:
415,203,46133,2,1,B|403:162|403:162|398:159|398:159|388:118,1,90,2|0,2:3|1:1,0:0:0:0:
512,214,46305,1,14,2:3:0:0:
344,31,46476,6,1,B|302:67|302:67|229:47|229:47|207:10|207:10|134:-8|134:-8|93:26,1,303.750011587143,10|0,2:3|0:0,0:0:0:0:
42,103,46819,1,10,2:3:0:0:
52,117,46905,1,0,0:0:0:0:
62,131,46990,6,1,B|103:121|103:121|106:116|106:116|146:104,1,90,14|0,2:3|0:0,0:0:0:0:
84,222,47161,2,1,B|43:232|43:232|40:237|40:237|0:248,1,90,2|8,2:3|2:2,0:0:0:0:
299,334,47333,6,1,B|309:286|309:286|272:250,1,101.250003862381,2|0,1:3|0:0,0:0:0:0:
158,288,47505,2,1,B|148:336|148:336|186:373,1,101.250003862381,2|0,1:3|0:0,0:0:0:0:
462,145,47676,6,1,B|472:191|472:191|440:221,1,90,14|0,2:3|0:0,0:0:0:0:
351,196,47847,2,1,B|342:151|342:151|374:121,1,90,10|0,2:3|0:0,0:0:0:0:
72,59,48018,6,1,B|27:-19|27:-19|120:6|120:6|129:4|129:4|233:32,1,303.750011587143,6|0,1:2|0:0,0:0:0:0:
331,42,48360,2,1,B|249:64|249:64|247:67|247:67|159:90,1,180,14|2,2:3|2:3,0:0:0:0:
116,164,48617,1,0,0:0:0:0:
99,159,48703,6,1,B|1:131|1:131|71:59,1,202.500007724762,2|0,1:3|2:2,0:0:0:0:
158,90,48960,1,0,1:1:0:0:
175,85,49045,2,1,L|261:109,1,90,14|0,2:3|0:0,0:0:0:0:
331,42,49217,1,10,2:3:0:0:
143,243,49388,5,0,1:1:0:0:
457,246,49559,6,1,B|500:244|500:244|529:135|529:135|492:107,1,202.500007724762,8|12,2:3|2:2,0:0:0:0:
402,109,49816,2,1,L|378:195,1,90,0|0,0:0|2:2,0:0:0:0:
326,274,49987,1,8,2:2:0:0:
312,263,50073,6,1,B|278:231|278:231|289:178,1,90,0|0,1:1|0:0,0:0:0:0:
217,303,50244,2,1,B|251:335|251:335|240:388,1,90,0|0,1:1|0:0,0:0:0:0:
340,364,50416,1,14,2:3:0:0:
56,173,50587,6,1,B|-2:185|-2:185|-25:220|-25:220|-19:249|-19:249|16:272|16:272|145:243,1,303.750011587143,10|0,2:3|0:0,0:0:0:0:
149,150,50929,1,2,2:3:0:0:
166,146,51015,1,0,0:0:0:0:
183,143,51101,6,1,B|193:102|193:102|197:99|197:99|210:55,1,90,14|0,2:3|0:0,0:0:0:0:
319,29,51272,2,1,B|309:70|309:70|305:73|305:73|292:117,1,90,2|0,2:3|0:0,0:0:0:0:
512,279,51443,6,1,B|502:238|502:238|498:235|498:235|485:191,1,90,2|0,1:3|0:0,0:0:0:0:
376,165,51614,2,1,B|386:206|386:206|390:209|390:209|403:253,1,90,2|0,2:3|1:1,0:0:0:0:
453,101,51786,1,14,2:3:0:0:
370,344,51957,6,1,B|249:376|249:376|191:278|191:278|253:296,1,303.750011587143,10|0,2:3|0:0,0:0:0:0:
225,193,52300,1,10,2:3:0:0:
207,188,52386,1,0,0:0:0:0:
189,183,52471,6,1,B|148:193|148:193|145:198|145:198|101:210,1,90,14|0,2:3|0:0,0:0:0:0:
12,138,52642,2,1,B|53:128|53:128|56:123|56:123|100:111,1,90,2|8,2:3|2:2,0:0:0:0:
328,133,52814,6,1,B|365:97|365:97|355:49,1,101.250003862381,2|0,1:3|0:0,0:0:0:0:
242,10,52986,2,1,B|204:47|204:47|214:95,1,101.250003862381,2|0,1:3|0:0,0:0:0:0:
425,269,53156,6,1,B|393:239|393:239|402:194,1,90,14|4,2:3|2:3,0:0:0:0:
490,167,53327,2,1,B|522:197|522:197|512:243,1,90,10|4,2:3|2:3,0:0:0:0:
146,373,53499,6,1,B|107:380|107:380|83:338|33:324|33:324|83:338|125:313|125:313|154:339,1,270,6|4,1:2|2:3,0:0:0:0:
182,245,53841,2,1,B|211:270|211:270|253:246|303:259|303:259|253:246|228:203|228:203|190:211,1,270,14|4,2:2|2:3,0:0:0:0:
69,241,54184,5,2,1:2:0:0:
66,233,54269,1,2,2:2:0:0:
118,164,54355,5,10,2:3:0:0:
121,156,54440,1,6,2:3:0:0:
69,87,54526,6,1,L|45:0,1,90,14|0,2:2|0:0,0:0:0:0:
223,53,54698,2,1,L|205:118,1,67.5000025749208,8|4,2:3|2:3,0:0:0:0:
349,153,54869,5,0,1:1:0:0:
422,97,55040,1,10,2:3:0:0:
437,100,55126,1,4,2:3:0:0:
452,104,55211,6,1,B|474:125|474:125|467:157,1,56.25,14|0,2:2|0:0,0:0:0:0:
300,201,55383,2,1,B|312:162|312:162|349:153,1,78.7500007510185,10|4,2:3|2:3,0:0:0:0:
493,278,55554,2,1,B|442:288|442:288|408:251,1,101.250003862381,2|0,1:2|0:0,0:0:0:0:
234,0,55725,6,1,B|218:54|218:54|221:61|221:61|206:118,1,123.750001180172,10|4,2:3|2:3,0:0:0:0:
56,143,55897,2,1,B|69:190|69:190|66:196|66:196|79:245,1,106.875001019239,14|0,2:2|0:0,0:0:0:0:
178,273,56068,2,1,B|166:312|166:312|169:317|169:317|158:359,1,90,10|4,2:3|2:3,0:0:0:0:
366,39,56239,6,1,B|402:-24|482:21|482:21|436:101|372:64,1,270,6|4,1:2|2:3,0:0:0:0:
316,129,56582,2,1,B|252:92|205:172|205:172|285:218|322:154,1,270,14|4,2:2|2:3,0:0:0:0:
407,161,56924,5,2,1:2:0:0:
404,169,57009,1,2,2:2:0:0:
359,243,57095,5,10,2:3:0:0:
362,251,57180,1,6,2:3:0:0:
441,288,57267,6,1,L|465:375,1,90,14|0,2:2|0:0,0:0:0:0:
247,310,57438,2,1,L|264:244,1,67.5000025749208,8|4,2:3|2:3,0:0:0:0:
104,155,57609,5,0,1:1:0:0:
92,253,57781,1,10,2:3:0:0:
106,248,57867,1,4,2:3:0:0:
120,243,57952,6,1,B|144:237|144:237|146:234|146:234|172:227,1,56.25,14|0,2:2|0:0,0:0:0:0:
21,114,58123,2,1,B|10:148|10:148|13:152|13:152|3:189,1,78.7500007510185,10|4,2:3|2:3,0:0:0:0:
194,114,58295,2,1,B|162:80|162:80|156:80|156:80|121:46,1,101.250003862381,2|0,1:2|0:0,0:0:0:0:
444,4,58466,6,1,B|488:43|488:43|472:105,1,123.750001180172,10|4,2:3|2:3,0:0:0:0:
337,156,58637,2,1,B|296:187|296:187|307:241,1,106.875001019239,14|0,2:2|0:0,0:0:0:0:
405,286,58808,2,1,B|437:314|437:314|425:359,1,90,10|4,2:3|2:3,0:0:0:0:
3,188,58980,6,1,B|-4:149|-4:149|38:125|52:75|52:75|38:125|63:167|63:167|37:196,1,270,6|4,1:2|2:3,0:0:0:0:
131,224,59322,2,1,B|106:253|106:253|130:295|117:345|117:345|130:295|173:270|173:270|165:232,1,270,14|4,2:2|2:3,0:0:0:0:
138,112,59665,5,2,1:2:0:0:
146,109,59750,1,2,2:2:0:0:
217,157,59836,5,10,2:3:0:0:
225,160,59921,1,6,2:3:0:0:
296,110,60007,6,1,L|383:86,1,90,14|0,2:2|0:0,0:0:0:0:
329,264,60179,2,1,L|263:246,1,67.5000025749208,8|4,2:3|2:3,0:0:0:0:
228,383,60350,5,0,1:1:0:0:
145,352,60521,1,10,2:3:0:0:
130,349,60607,1,4,2:3:0:0:
115,345,60692,6,1,B|93:324|93:324|100:292,1,56.25,14|0,2:2|0:0,0:0:0:0:
264,247,60864,2,1,B|254:285|254:285|213:298,1,78.7500007510185,10|4,2:3|2:3,0:0:0:0:
73,173,61035,2,1,B|122:158|122:158|163:195,1,101.250003862381,2|0,1:2|0:0,0:0:0:0:
512,374,61206,6,1,B|496:320|496:320|499:313|499:313|484:256,1,123.750001180172,10|4,2:3|2:3,0:0:0:0:
351,212,61378,2,1,B|364:165|364:165|361:159|361:159|374:110,1,106.875001019239,14|0,2:2|0:0,0:0:0:0:
468,85,61549,2,1,B|456:46|456:46|459:41|459:41|448:-1,1,90,10|4,2:3|2:3,0:0:0:0:
351,212,61720,6,1,B|414:248|369:328|369:328|289:282|326:218,1,270,6|4,1:2|2:3,0:0:0:0:
261,162,62063,2,1,B|298:98|218:51|218:51|172:131|236:168,1,270,14|4,2:2|2:3,0:0:0:0:
233,298,62405,5,2,1:2:0:0:
225,295,62490,1,2,2:2:0:0:
163,233,62576,5,10,2:3:0:0:
155,236,62661,1,6,2:3:0:0:
92,296,62747,6,1,L|5:320,1,90,14|0,2:2|0:0,0:0:0:0:
46,138,62919,2,1,L|111:155,1,67.5000025749208,8|4,2:3|2:3,0:0:0:0:
146,18,63090,5,0,1:1:0:0:
223,67,63262,1,10,2:3:0:0:
237,62,63348,1,4,2:3:0:0:
251,57,63433,6,1,B|275:51|275:51|277:48|277:48|303:41,1,56.25,14|0,2:2|0:0,0:0:0:0:
376,223,63604,2,1,B|352:196|352:196|347:197|347:197|320:169,1,78.7500007510185,10|4,2:3|2:3,0:0:0:0:
455,0,63776,2,1,B|441:44|441:44|444:49|444:49|432:97,1,101.250003862381,2|0,1:2|0:0,0:0:0:0:
140,365,63947,6,1,B|123:304|123:304|166:261,1,123.750001180172,10|4,2:3|2:3,0:0:0:0:
462,184,64118,1,14,2:2:0:0:
512,269,64289,1,4,2:3:0:0:
448,339,64461,6,1,P|415:344|384:330,1,67.5000025749208,4|2,2:2|2:3,0:0:0:0:
315,384,64803,2,1,P|293:358|290:325,1,67.5000025749208,2|2,2:3|2:3,0:0:0:0:
235,256,65146,2,1,P|249:225|256:192,2,67.5000025749208,2|2|2,2:3|2:3|2:3,0:0:0:0:
194,334,65660,2,1,P|130:356|63:364,1,135.000005149842,2|2,2:3|2:3,0:0:0:0:
10,300,66173,1,2,2:3:0:0:
10,300,66345,1,2,2:3:0:0:
69,235,66516,2,1,P|82:204|77:171,1,67.5000025749208,2|2,2:3|2:3,0:0:0:0:
161,144,66859,2,1,P|149:112|122:93,1,67.5000025749208,2|2,2:3|2:3,0:0:0:0:
34,93,67201,5,4,1:1:0:0:
34,93,67544,2,1,L|41:160,1,67.5000025749208,2|2,1:3|2:3,0:0:0:0:
110,214,67886,2,1,L|102:281,1,67.5000025749208,2|2,1:3|2:3,0:0:0:0:
32,334,68229,1,2,1:3:0:0:
202,271,68400,6,1,L|335:287,1,135.000005149842,2|2,2:3|2:3,0:0:0:0:
409,336,68914,2,1,P|424:303|419:266,1,67.5000025749208,2|2,1:3|2:3,0:0:0:0:
507,251,69257,2,1,P|495:217|464:194,1,67.5000025749208,2|2,1:3|2:3,0:0:0:0:
387,192,69599,1,2,1:3:0:0:
387,192,69770,1,2,2:3:0:0:
505,118,69942,5,0,1:1:0:0:
505,118,70284,2,1,L|497:50,1,67.5000025749208,2|2,1:3|2:3,0:0:0:0:
416,0,70627,1,2,1:3:0:0:
416,0,70798,2,1,L|408:67,1,67.5000025749208,2|0,2:3|1:1,0:0:0:0:
387,192,71141,6,1,P|352:136|287:126,1,135.000005149842,2|2,2:3|2:3,0:0:0:0:
242,202,71655,2,1,P|209:217|172:212,1,67.5000025749208,2|2,1:3|2:3,0:0:0:0:
120,157,71997,1,2,1:3:0:0:
120,157,72168,1,2,2:3:0:0:
160,77,72340,2,1,P|192:61|229:66,1,67.5000025749208,2|0,1:3|2:2,0:0:0:0:
288,126,72682,5,0,1:1:0:0:
288,126,73025,2,1,L|355:133,1,67.5000025749208,2|2,1:3|2:3,0:0:0:0:
409,64,73367,2,1,L|476:56,2,67.5000025749208,2|2|2,1:3|2:3|1:3,0:0:0:0:
355,133,73881,2,1,L|371:266,1,135.000005149842,2|2,2:3|2:3,0:0:0:0:
315,334,74395,1,2,1:3:0:0:
315,334,74566,1,2,2:3:0:0:
237,292,74738,6,1,P|203:289|173:305,1,67.5000025749208,2|2,2:3|2:3,0:0:0:0:
174,305,75251,1,2,2:3:0:0:
2,160,75423,5,4,1:1:0:0:
2,160,75765,1,2,1:3:0:0:
62,92,75937,1,2,2:3:0:0:
140,137,76108,2,1,B|203:129|203:129|232:151|232:151|290:144,1,157.500001502037,2|2,1:3|1:3,0:0:0:0:
354,80,76622,1,2,2:3:0:0:
342,227,76793,5,0,1:1:0:0:
342,227,77136,1,2,1:3:0:0:
436,267,77307,1,2,2:3:0:0:
410,365,77478,2,1,B|312:377|312:377|270:335,1,157.500001502037,2|2,1:3|1:3,0:0:0:0:
238,242,77992,1,2,2:3:0:0:
180,372,78163,5,0,1:1:0:0:
180,372,78506,2,1,B|144:382|144:382|106:360,1,78.7500007510185,2|2,1:3|2:3,0:0:0:0:
0,266,78848,2,1,B|34:255|34:255|70:277,2,78.7500007510185,2|2|2,1:3|2:3|1:3,0:0:0:0:
136,214,79362,1,2,2:3:0:0:
25,84,79533,5,0,1:1:0:0:
25,84,79876,2,1,L|15:5,1,78.7500007510185,2|2,1:3|2:3,0:0:0:0:
118,119,80219,2,1,L|108:197,2,78.7500007510185,2|2|2,1:3|2:3|1:3,0:0:0:0:
192,59,80732,1,2,2:3:0:0:
280,218,80904,5,0,1:1:0:0:
265,213,81246,1,2,1:3:0:0:
250,209,81589,1,2,1:3:0:0:
234,205,81931,1,2,1:3:0:0:
285,315,82274,5,0,1:1:0:0:
254,307,82616,1,2,1:3:0:0:
223,299,82959,1,2,1:3:0:0:
193,291,83301,1,2,1:3:0:0:
378,346,83644,5,0,1:1:0:0:
354,256,83815,1,0,2:2:0:0:
444,232,83987,1,2,1:3:0:0:
468,322,84158,1,2,2:3:0:0:
360,373,84329,5,2,1:3:0:0:
324,238,84500,1,2,2:3:0:0:
459,202,84672,1,2,1:3:0:0:
495,337,84843,1,2,2:3:0:0:
381,185,85014,5,0,1:1:0:0:
383,177,85100,1,0,2:2:0:0:
385,169,85186,1,0,2:2:0:0:
387,161,85271,1,0,2:2:0:0:
305,131,85357,5,2,1:3:0:0:
301,115,85443,1,0,2:2:0:0:
297,100,85528,1,2,2:3:0:0:
293,84,85614,1,0,2:2:0:0:
361,16,85699,5,2,1:3:0:0:
378,0,85785,1,0,2:2:0:0:
395,9,85871,1,0,2:2:0:0:
391,27,85956,1,0,2:2:0:0:
372,34,86042,6,1,P|368:58|377:82,1,50.6250019311906,2|0,1:3|0:0,0:0:0:0:
435,140,86385,6,1,B|394:105|394:105|321:124|321:124|299:161|299:161|226:181|226:181|185:145,1,303.750011587143,6|0,1:2|0:0,0:0:0:0:
350,284,86727,2,1,B|360:243|360:243|365:240|365:240|376:199,1,90,14|0,2:3|0:0,0:0:0:0:
272,4,86899,2,1,B|262:45|262:45|257:48|257:48|246:89,1,90,2|0,2:3|0:0,0:0:0:0:
67,267,87070,6,1,B|-3:195|-3:195|94:167,1,202.500007724762,2|0,1:3|2:2,0:0:0:0:
154,236,87327,1,0,1:1:0:0:
166,248,87412,2,1,L|142:334,1,90,14|0,2:3|0:0,0:0:0:0:
50,359,87584,1,10,2:3:0:0:
375,199,87755,5,0,1:1:0:0:
74,79,87926,6,1,B|49:41|49:41|158:12|158:12|155:57,1,202.500007724762,8|12,2:3|2:2,0:0:0:0:
182,143,88183,2,1,L|96:167,1,90,0|0,0:0|2:2,0:0:0:0:
260,109,88354,1,8,2:2:0:0:
273,121,88440,6,1,B|285:167|285:167|254:199,1,90,0|0,1:1|0:0,0:0:0:0:
368,106,88611,2,1,B|356:60|356:60|387:28,1,90,0|0,1:1|0:0,0:0:0:0:
464,87,88783,1,14,2:3:0:0:
431,365,88954,6,1,B|463:382|463:382|482:270|482:270|333:310,1,303.750011587143,10|0,2:3|0:0,0:0:0:0:
243,339,89297,1,2,2:3:0:0:
225,343,89383,1,0,0:0:0:0:
209,346,89468,6,1,B|199:305|199:305|194:302|194:302|182:258,1,90,14|0,2:3|0:0,0:0:0:0:
78,233,89639,2,1,B|88:274|88:274|93:277|93:277|105:321,1,90,2|0,2:3|0:0,0:0:0:0:
279,229,89810,6,1,B|289:188|289:188|294:185|294:185|306:141,1,90,2|0,1:3|0:0,0:0:0:0:
410,116,89981,2,1,B|400:157|400:157|395:160|395:160|383:204,1,90,2|0,2:3|1:1,0:0:0:0:
338,50,90153,1,14,2:3:0:0:
32,151,90324,6,1,B|135:124|135:124|164:23|164:23|253:0,1,303.750011587143,10|0,2:3|0:0,0:0:0:0:
338,50,90667,1,10,2:3:0:0:
355,45,90752,1,0,0:0:0:0:
372,40,90838,6,1,B|412:28|412:28|415:23|415:23|456:13,1,90,14|0,2:3|0:0,0:0:0:0:
512,97,91009,2,1,B|471:108|471:108|468:113|468:113|427:123,1,90,2|8,2:3|2:2,0:0:0:0:
471,303,91181,6,1,B|481:255|481:255|444:219,1,101.250003862381,2|0,1:3|0:0,0:0:0:0:
330,257,91353,2,1,B|320:305|320:305|358:342,1,101.250003862381,2|0,1:3|0:0,0:0:0:0:
110,352,91524,6,1,B|100:306|100:306|132:276,1,90,14|0,2:3|0:0,0:0:0:0:
221,301,91695,2,1,B|230:346|230:346|198:376,1,90,10|0,2:3|0:0,0:0:0:0:
152,15,91866,6,1,B|184:136|184:136|86:194|86:194|104:132,1,303.750011587143,6|0,1:2|0:0,0:0:0:0:
43,82,92208,2,1,B|125:104|125:104|127:107|127:107|215:130,1,180,14|2,2:3|2:3,0:0:0:0:
262,50,92465,1,0,0:0:0:0:
278,39,92551,6,1,B|376:67|376:67|306:139,1,202.500007724762,2|0,1:3|2:2,0:0:0:0:
215,130,92808,1,0,1:1:0:0:
204,144,92893,2,1,L|228:230,1,90,14|0,2:3|0:0,0:0:0:0:
325,242,93065,1,10,2:3:0:0:
152,15,93236,5,0,1:1:0:0:
49,351,93407,6,1,B|77:388|77:388|186:359|186:359|188:316,1,202.500007724762,8|12,2:3|2:2,0:0:0:0:
137,237,93664,2,1,L|51:261,1,90,0|0,0:0|2:2,0:0:0:0:
188,316,93836,1,8,2:2:0:0:
202,305,93922,6,1,B|236:273|236:273|225:220,1,90,0|0,1:1|0:0,0:0:0:0:
350,167,94092,2,1,B|316:199|316:199|327:252,1,90,0|0,1:1|0:0,0:0:0:0:
344,337,94264,1,14,2:3:0:0:
323,27,94435,6,1,B|451:-2|451:-2|486:21|486:21|493:49|493:49|470:84|470:84|412:97,1,303.750011587143,10|0,2:3|0:0,0:0:0:0:
350,167,94778,1,2,2:3:0:0:
331,162,94863,1,0,0:0:0:0:
312,157,94949,6,1,B|301:197|301:197|304:202|304:202|292:243,1,90,14|0,2:3|0:0,0:0:0:0:
188,277,95120,2,1,B|198:236|198:236|195:231|195:231|207:190,1,90,2|0,2:3|0:0,0:0:0:0:
388,264,95291,6,1,B|398:304|398:304|395:309|395:309|407:350,1,90,2|0,1:3|0:0,0:0:0:0:
512,384,95462,2,1,B|501:343|501:343|504:338|504:338|492:297,1,90,2|0,2:3|1:1,0:0:0:0:
465,203,95634,1,14,2:3:0:0:
27,250,95805,6,1,B|-18:328|-18:328|75:303|75:303|84:305|84:305|188:277,1,303.750011587143,10|0,2:3|0:0,0:0:0:0:
292,242,96148,1,10,2:3:0:0:
297,223,96233,1,0,0:0:0:0:
302,204,96319,6,1,B|262:193|262:193|257:196|257:196|216:184,1,90,14|0,2:3|0:0,0:0:0:0:
309,108,96490,2,1,B|348:118|348:118|353:115|353:115|395:127,1,90,2|8,2:3|2:2,0:0:0:0:
70,36,96662,6,1,B|60:84|60:84|97:120,1,101.250003862381,2|0,1:3|0:0,0:0:0:0:
212,84,96834,2,1,B|222:36|222:36|184:-1,1,101.250003862381,2|0,1:3|0:0,0:0:0:0:
7,261,97005,6,1,B|-3:215|-3:215|29:185,1,90,14|4,2:3|2:3,0:0:0:0:
117,212,97176,2,1,B|126:257|126:257|94:287,1,90,10|4,2:3|2:3,0:0:0:0:
466,179,97347,6,1,B|425:144|425:144|352:163|352:163|330:200|330:200|257:220|257:220|216:184,1,303.750011587143,6|0,1:2|0:0,0:0:0:0:
324,75,97689,2,1,B|365:65|365:65|368:60|368:60|409:49,1,90,14|0,2:3|0:0,0:0:0:0:
358,290,97861,2,1,B|317:300|317:300|314:305|314:305|273:316,1,90,2|0,2:3|0:0,0:0:0:0:
95,65,98032,6,1,B|167:-5|167:-5|195:92,1,202.500007724762,2|0,1:3|2:2,0:0:0:0:
126,152,98289,1,0,1:1:0:0:
114,164,98374,2,1,L|28:140,1,90,14|0,2:3|0:0,0:0:0:0:
4,48,98546,1,10,2:3:0:0:
302,204,98717,5,0,1:1:0:0:
67,364,98888,6,1,B|29:389|29:389|0:280|0:280|45:283,1,202.500007724762,8|12,2:3|2:2,0:0:0:0:
131,256,99145,2,1,L|155:342,1,90,0|0,0:0|2:2,0:0:0:0:
202,195,99317,1,8,2:2:0:0:
190,181,99403,6,1,B|159:151|159:151|113:163,1,90,0|0,1:1|0:0,0:0:0:0:
227,91,99573,2,1,B|257:120|257:120|303:108,1,90,0|0,1:1|0:0,0:0:0:0:
286,17,99745,1,14,2:3:0:0:
461,336,99916,6,1,B|493:353|493:353|512:241|512:241|363:281,1,303.750011587143,10|0,2:3|0:0,0:0:0:0:
274,346,100259,1,2,2:3:0:0:
257,342,100344,1,0,0:0:0:0:
240,338,100430,6,1,B|252:298|252:298|257:295|257:295|267:254,1,90,14|0,2:3|0:0,0:0:0:0:
164,274,100601,2,1,B|152:314|152:314|147:317|147:317|137:358,1,90,2|0,2:3|0:0,0:0:0:0:
335,185,100772,6,1,B|323:145|323:145|318:142|318:142|308:101,1,90,2|0,1:3|0:0,0:0:0:0:
411,121,100944,2,1,B|423:161|423:161|428:164|428:164|438:205,1,90,2|0,2:3|1:1,0:0:0:0:
363,280,101115,1,14,2:3:0:0:
320,0,101286,6,1,B|231:23|231:23|202:124|202:124|99:151,1,303.750011587143,10|0,2:3|0:0,0:0:0:0:
15,81,101629,1,10,2:3:0:0:
32,76,101714,1,0,0:0:0:0:
49,71,101800,6,1,B|89:59|89:59|92:54|92:54|133:44,1,90,14|0,2:3|0:0,0:0:0:0:
99,151,101971,2,1,B|59:163|59:163|56:168|56:168|15:178,1,90,2|8,2:3|2:2,0:0:0:0:
164,321,102143,6,1,B|174:273|174:273|137:237,1,101.250003862381,2|0,1:3|0:0,0:0:0:0:
22,273,102315,2,1,B|12:321|12:321|50:358,1,101.250003862381,2|0,1:3|0:0,0:0:0:0:
276,358,102485,6,1,B|266:312|266:312|298:282,1,90,14|0,2:3|0:0,0:0:0:0:
386,309,102656,2,1,B|395:354|395:354|363:384,1,90,10|0,2:3|0:0,0:0:0:0:
299,36,102828,6,1,B|267:157|267:157|365:215|365:215|347:153,1,303.750011587143,6|0,1:2|0:0,0:0:0:0:
408,103,103170,2,1,B|326:125|326:125|324:128|324:128|236:151,1,180,14|2,2:3|2:3,0:0:0:0:
190,72,103427,1,0,0:0:0:0:
174,61,103513,6,1,B|76:89|76:89|146:161,1,202.500007724762,2|0,1:3|2:2,0:0:0:0:
235,151,103770,1,0,1:1:0:0:
246,165,103855,2,1,L|222:251,1,90,14|0,2:3|0:0,0:0:0:0:
123,259,104027,1,10,2:3:0:0:
387,5,104198,5,0,1:1:0:0:
512,289,104369,6,1,B|484:326|484:326|375:297|375:297|373:254,1,202.500007724762,8|12,2:3|2:2,0:0:0:0:
424,175,104626,2,1,L|510:199,1,90,0|0,0:0|2:2,0:0:0:0:
375,95,104798,1,8,2:2:0:0:
357,95,104884,6,1,B|323:127|323:127|334:180,1,90,0|0,1:1|0:0,0:0:0:0:
209,225,105054,2,1,B|243:193|243:193|232:140,1,90,0|0,1:1|0:0,0:0:0:0:
253,59,105226,1,14,2:3:0:0:
72,249,105397,6,1,B|43:121|43:121|66:86|66:86|94:79|94:79|129:102|129:102|142:160,1,303.750011587143,10|0,2:3|0:0,0:0:0:0:
209,225,105740,1,2,2:3:0:0:
204,240,105825,1,0,0:0:0:0:
200,255,105911,6,1,B|189:295|189:295|191:299|191:299|180:341,1,90,14|0,2:3|0:0,0:0:0:0:
287,305,106082,2,1,B|298:264|298:264|295:260|295:260|306:218,1,90,2|0,2:3|0:0,0:0:0:0:
470,106,106253,6,1,B|481:146|481:146|478:150|478:150|489:192,1,90,2|0,1:3|0:0,0:0:0:0:
383,156,106424,2,1,B|372:115|372:115|375:111|375:111|363:69,1,90,2|0,2:3|1:1,0:0:0:0:
440,14,106596,1,14,2:3:0:0:
145,192,106767,6,1,B|100:270|100:270|193:245|193:245|202:247|202:247|306:219,1,303.750011587143,10|0,2:3|0:0,0:0:0:0:
378,278,107110,1,10,2:3:0:0:
394,282,107195,1,0,0:0:0:0:
410,286,107281,6,1,B|450:295|450:295|455:292|455:292|496:304,1,90,14|0,2:3|0:0,0:0:0:0:
421,384,107452,2,1,B|380:374|380:374|375:377|375:377|334:365,1,90,2|8,2:3|2:2,0:0:0:0:
145,192,107624,6,1,B|97:182|97:182|61:219,1,101.250003862381,2|0,1:3|0:0,0:0:0:0:
99,333,107796,2,1,B|147:343|147:343|184:305,1,101.250003862381,2|0,1:3|0:0,0:0:0:0:
230,27,107966,6,1,B|276:17|276:17|306:49,1,90,14|4,2:3|2:3,0:0:0:0:
279,137,108137,2,1,B|234:146|234:146|204:114,1,90,10|4,2:3|2:3,0:0:0:0:
509,195,108309,6,1,B|516:156|516:156|474:132|460:82|460:82|474:132|449:174|449:174|475:203,1,270,6|4,1:2|2:3,0:0:0:0:
377,229,108651,2,1,B|402:258|402:258|378:300|391:350|391:350|378:300|335:275|335:275|343:237,1,270,14|4,2:2|2:3,0:0:0:0:
374,117,108994,5,2,1:2:0:0:
330,104,109080,1,2,2:2:0:0:
267,174,109165,5,10,2:3:0:0:
223,187,109251,1,6,2:3:0:0:
156,122,109336,6,1,L|179:35,1,90,14|0,2:2|0:0,0:0:0:0:
17,199,109508,2,1,L|0:133,1,67.5000025749208,8|4,2:3|2:3,0:0:0:0:
210,277,109679,5,0,1:1:0:0:
134,325,109850,1,10,2:3:0:0:
119,328,109936,1,4,2:3:0:0:
104,331,110022,6,1,B|80:325|80:325|78:322|78:322|52:315,1,56.25,14|0,2:2|0:0,0:0:0:0:
210,277,110193,2,1,B|246:267|246:267|249:263|249:263|289:252,1,78.7500007510185,10|4,2:3|2:3,0:0:0:0:
95,164,110364,2,1,B|48:152|48:152|44:146|44:146|-6:132,1,101.250003862381,2|0,1:2|0:0,0:0:0:0:
420,16,110535,6,1,B|464:55|464:55|448:117,1,123.750001180172,10|4,2:3|2:3,0:0:0:0:
313,168,110707,2,1,B|272:199|272:199|283:253,1,106.875001019239,14|0,2:2|0:0,0:0:0:0:
381,298,110878,2,1,B|413:326|413:326|401:371,1,90,10|4,2:3|2:3,0:0:0:0:
95,164,111049,6,1,B|58:100|138:55|138:55|184:135|120:172,1,270,6|4,1:2|2:3,0:0:0:0:
163,252,111392,2,1,B|99:289|145:369|145:369|225:324|188:260,1,270,14|4,2:2|2:3,0:0:0:0:
238,185,111734,5,2,1:2:0:0:
282,198,111820,1,2,2:2:0:0:
344,134,111905,5,10,2:3:0:0:
388,121,111991,1,6,2:3:0:0:
465,167,112077,6,1,L|488:254,1,90,14|0,2:2|0:0,0:0:0:0:
416,326,112248,2,1,B|451:194|451:194|448:189|448:189|481:65,1,270,10|0,2:3|0:0,0:0:0:0:
411,7,112591,1,10,2:3:0:0:
395,11,112676,1,4,2:3:0:0:
380,15,112762,6,1,B|356:9|356:9|354:6|354:6|328:-1,1,56.25,14|0,2:3|0:0,0:0:0:0:
241,68,112933,2,1,B|276:76|276:76|279:81|279:81|318:91,1,78.7500007510185,10|4,2:3|2:3,0:0:0:0:
48,195,113105,6,1,B|8:165|8:165|19:112,1,101.250003862381,2|0,1:3|0:0,0:0:0:0:
101,74,113276,2,1,B|150:111|150:111|137:176,1,123.750001180172,10|4,2:3|2:3,0:0:0:0:
170,373,113447,6,1,B|213:339|213:339|201:282,1,106.875001019239,14|0,2:3|0:0,0:0:0:0:
117,263,113618,2,1,B|79:291|79:291|89:340,1,90,10|4,2:3|2:3,0:0:0:0:
368,358,113790,6,1,B|398:383|398:383|440:359|490:372|490:372|440:359|416:316|416:316|378:324,1,270,6|4,1:2|2:3,0:0:0:0:
350,239,114132,2,1,B|312:246|312:246|288:204|238:190|238:190|288:204|331:179|331:179|360:205,1,270,14|4,2:2|2:3,0:0:0:0:
509,265,114475,5,2,1:2:0:0:
496,221,114561,1,2,2:2:0:0:
437,147,114646,5,10,2:3:0:0:
450,103,114732,1,6,2:3:0:0:
392,26,114818,6,1,L|305:3,1,90,14|0,2:2|0:0,0:0:0:0:
239,190,114989,2,1,L|173:207,1,67.5000025749208,8|4,2:3|2:3,0:0:0:0:
6,67,115160,5,0,1:1:0:0:
87,21,115331,1,10,2:3:0:0:
102,24,115417,1,4,2:3:0:0:
117,28,115502,6,1,B|139:49|139:49|132:81,1,56.25,14|0,2:2|0:0,0:0:0:0:
16,195,115674,2,1,B|25:156|25:156|66:143,1,78.7500007510185,10|4,2:3|2:3,0:0:0:0:
239,190,115845,2,1,B|189:204|189:204|149:167,1,101.250003862381,2|0,1:2|0:0,0:0:0:0:
507,0,116016,6,1,B|490:57|490:57|484:61|484:61|470:115,1,123.750001180172,10|4,2:3|2:3,0:0:0:0:
334,165,116188,2,1,B|348:216|348:216|354:220|354:220|367:269,1,106.875001019239,14|0,2:2|0:0,0:0:0:0:
464,300,116359,2,1,B|451:343|451:343|446:347|446:347|437:384,1,90,10|4,2:3|2:3,0:0:0:0:
87,373,116530,6,1,B|23:410|-22:330|-22:330|58:284|95:348,1,270,6|4,1:2|2:3,0:0:0:0:
155,272,116873,2,1,B|192:336|272:290|272:290|227:210|163:247,1,270,14|4,2:2|2:3,0:0:0:0:
71,227,117215,5,2,1:2:0:0:
58,183,117301,1,2,2:2:0:0:
146,150,117386,5,10,2:3:0:0:
158,106,117472,1,6,2:3:0:0:
108,23,117558,6,1,L|21:0,1,90,14|0,2:2|0:0,0:0:0:0:
212,133,117729,2,1,L|146:150,1,67.5000025749208,8|4,2:3|2:3,0:0:0:0:
337,13,117901,5,0,1:1:0:0:
417,55,118072,1,10,2:3:0:0:
422,70,118158,1,4,2:3:0:0:
426,84,118244,6,1,B|432:108|432:108|434:110|434:110|441:136,1,56.25,14|0,2:2|0:0,0:0:0:0:
282,217,118414,2,1,B|308:190|308:190|308:185|308:185|337:155,1,78.7500007510185,10|4,2:3|2:3,0:0:0:0:
503,261,118586,2,1,B|458:249|458:249|453:251|453:251|404:239,1,101.250003862381,2|0,1:2|0:0,0:0:0:0:
50,154,118757,6,1,B|7:197|7:197|24:258,1,123.750001180172,10|4,2:3|2:3,0:0:0:0:
356,333,118928,1,14,2:2:0:0:
406,239,119100,1,4,2:3:0:0:
334,159,119271,5,4,0:0:0:0:
31,322,127493,5,0,1:1:0:0:
26,337,127835,1,2,1:3:0:0:
22,352,128178,1,2,1:3:0:0:
18,368,128520,1,2,1:3:0:0:
113,246,128863,5,0,1:1:0:0:
121,276,129205,1,2,1:3:0:0:
129,307,129548,1,2,1:3:0:0:
137,338,129890,1,2,1:3:0:0:
309,186,130233,5,0,1:1:0:0:
333,276,130404,1,2,1:3:0:0:
243,300,130576,1,2,1:3:0:0:
219,210,130747,1,2,1:3:0:0:
345,51,130918,5,2,1:3:0:0:
309,186,131089,1,2,1:3:0:0:
444,222,131261,1,2,1:3:0:0:
480,87,131432,1,2,1:3:0:0:
431,349,132631,6,1,P|453:362|444:337,1,67.5,8|0,2:2|0:0,0:0:0:0:
398,259,132973,6,1,B|366:276|352:307|352:307|313:279|266:276|266:276|246:289|246:289|270:290|270:290|309:264|329:220|329:220|355:241|395:234,1,371.250003540516,6|4,1:2|2:3,0:0:0:0:
379,146,133316,2,1,B|419:139|444:159|444:159|464:115|503:89|503:89|527:90|527:90|507:103|507:103|460:100|421:72|421:72|408:104|372:121,1,371.250003540516,14|4,2:2|2:3,0:0:0:0:
319,17,133659,6,1,B|273:0|242:19|231:55|236:59|241:62|235:98|208:123|157:108,1,202.500007724762,2|10,1:2|2:3,0:0:0:0:
44,182,133915,1,6,2:3:0:0:
92,117,134001,2,1,P|143:133|155:185,1,112.5,14|0,2:2|0:0,0:0:0:0:
193,327,134172,2,1,P|157:374|97:374,1,123.750001180172,10|4,2:3|2:3,0:0:0:0:
232,205,134344,5,2,1:2:0:0:
289,188,134429,1,2,2:2:0:0:
304,248,134515,1,10,2:3:0:0:
246,262,134601,1,6,2:3:0:0:
268,225,134686,1,14,2:2:0:0:
512,295,134857,5,10,2:3:0:0:
455,278,134942,1,6,2:3:0:0:
440,338,135028,1,2,1:2:0:0:
498,352,135114,1,2,2:2:0:0:
476,315,135199,1,10,2:3:0:0:
364,160,135371,6,1,L|385:236,1,78.7500007510185,14|2,2:2|2:2,0:0:0:0:
486,36,135543,2,1,L|512:133,1,101.250003862381,10|6,2:3|2:3,0:0:0:0:
148,39,135714,6,1,B|127:30|117:11|117:11|65:-22|9:33|9:33|-6:18|-6:18|14:14|14:14|35:90|96:86|96:86|117:75|141:78,1,371.250003540516,6|4,1:2|2:3,0:0:0:0:
139,164,136056,2,1,B|161:166|181:155|181:155|243:151|263:227|263:227|285:223|285:223|268:208|268:208|213:265|161:230|161:230|151:211|130:203,1,371.250003540516,14|4,2:2|2:3,0:0:0:0:
28,335,136399,6,1,B|1:334|-13:348|-13:348|-32:285|52:231|114:307,1,202.500007724762,2|10,1:2|2:3,0:0:0:0:
284,379,136656,1,6,2:3:0:0:
216,338,136742,2,1,P|160:344|109:368,1,112.5,14|0,2:2|0:0,0:0:0:0:
370,309,136913,2,1,P|335:257|284:223,1,123.750001180172,10|4,2:3|2:3,0:0:0:0:
60,102,137084,5,2,1:2:0:0:
58,177,137170,1,2,2:2:0:0:
130,203,137255,1,10,2:3:0:0:
174,142,137341,1,6,2:3:0:0:
130,81,137427,1,14,2:2:0:0:
391,21,137598,5,10,2:3:0:0:
393,96,137684,1,6,2:3:0:0:
321,122,137769,1,2,1:2:0:0:
277,61,137855,1,2,2:2:0:0:
321,0,137941,1,10,2:3:0:0:
231,243,138112,6,1,L|252:167,1,78.7500007510185,14|2,2:2|2:2,0:0:0:0:
387,354,138283,2,1,L|413:257,1,101.250003862381,10|6,2:3|2:3,0:0:0:0:
7,186,138454,6,1,B|8:149|-11:122|-11:122|32:102|58:63|58:63|57:39|57:39|44:59|44:59|47:106|75:145|75:145|44:157|30:195,1,371.250003540516,6|4,1:2|2:3,0:0:0:0:
115,226,138797,2,1,B|101:264|71:275|71:275|99:315|102:361|102:361|89:382|89:382|88:358|88:358|114:319|158:299|158:299|136:272|140:232,1,371.250003540516,14|4,2:2|2:3,0:0:0:0:
176,144,139140,6,1,B|222:127|253:146|264:182|259:186|254:189|260:225|287:250|338:235,1,202.500007724762,2|10,1:2|2:3,0:0:0:0:
456,313,139396,1,6,2:3:0:0:
408,248,139482,2,1,P|357:264|345:316,1,112.5,14|0,2:2|0:0,0:0:0:0:
512,203,139653,2,1,P|487:148|428:135,1,123.750001180172,10|4,2:3|2:3,0:0:0:0:
256,17,139825,5,2,1:2:0:0:
269,74,139910,1,2,2:2:0:0:
329,57,139996,1,10,2:3:0:0:
312,0,140082,1,6,2:3:0:0:
291,38,140167,1,14,2:2:0:0:
98,162,140338,5,10,2:3:0:0:
85,219,140423,1,6,2:3:0:0:
25,202,140509,1,2,1:2:0:0:
42,145,140595,1,2,2:2:0:0:
63,183,140680,1,10,2:3:0:0:
295,226,140852,6,1,L|274:150,1,78.7500007510185,14|2,2:2|2:2,0:0:0:0:
173,371,141024,2,1,L|147:274,1,101.250003862381,10|6,2:3|2:3,0:0:0:0:
512,217,141195,6,1,B|509:239|520:257|520:257|523:319|447:340|447:340|453:360|453:360|466:345|466:345|411:289|445:238|445:238|465:225|474:203,1,371.250003540516,6|4,1:2|2:3,0:0:0:0:
399,163,141537,2,1,B|408:142|427:131|427:131|462:79|406:24|406:24|420:7|420:7|425:29|425:29|348:48|352:110|352:110|364:129|360:151,1,371.250003540516,14|4,2:2|2:3,0:0:0:0:
214,202,141880,6,1,B|187:201|173:215|173:215|154:152|238:98|300:174,1,202.500007724762,2|10,1:2|2:3,0:0:0:0:
332,320,142137,1,6,2:3:0:0:
378,255,142223,2,1,P|337:234|294:225,1,90,14|0,2:2|0:0,0:0:0:0:
232,55,142394,2,1,P|182:63|139:90,1,101.250003862381,10|4,2:3|2:3,0:0:0:0:
162,355,142565,6,1,P|213:339|225:287,1,112.5,2|2,1:2|2:2,0:0:0:0:
48,67,142736,2,1,P|35:124|78:164,1,123.750001180172,10|6,2:3|2:3,0:0:0:0:
355,166,142908,6,1,B|399:182|430:163|441:127|436:123|431:120|437:84|464:59|503:71,1,202.500007724762,14|10,2:2|2:3,0:0:0:0:
273,149,143165,1,6,2:3:0:0:
293,225,143250,6,1,P|318:275|329:330,1,112.5,2|2,1:2|2:2,0:0:0:0:
199,116,143422,2,1,P|208:55|234:0,1,123.750001180172,10|4,2:3|2:3,0:0:0:0:
490,194,143593,6,1,P|461:251|397:251,1,135.000005149842,14|2,2:2|2:2,0:0:0:0:
25,100,143764,2,1,P|58:38|128:37,1,146.250004184246,6|2,2:3|2:2,0:0:0:0:
220,350,143935,6,1,B|263:188|263:188|267:186|267:186|310:26,1,337.5,6|4,1:2|2:3,0:0:0:0:
166,208,144278,2,1,B|154:253|154:253|148:256|148:256|136:304,1,101.250003862381,14|0,2:3|0:0,0:0:0:0:
364,168,144449,2,1,B|376:123|376:123|382:120|382:120|393:73,1,101.250003862381,10|4,2:3|2:3,0:0:0:0:
118,0,144621,6,1,B|60:15|44:75|44:75|88:120|148:104,1,225,2|10,1:3|2:3,0:0:0:0:
200,30,144878,1,6,2:3:0:0:
225,47,144963,2,1,P|235:97|252:145,1,101.250003862381,14|0,2:3|0:0,0:0:0:0:
166,208,145135,1,10,2:3:0:0:
476,25,145306,5,2,1:2:0:0:
422,330,145477,6,1,B|414:352|423:377|423:377|364:350|300:344|300:344|320:327|327:305,1,225,10|14,2:3|2:2,0:0:0:0:
354,207,145734,2,1,P|401:223|451:234,1,101.250003862381,0|10,0:0|2:3,0:0:0:0:
307,115,145905,1,6,2:3:0:0:
289,143,145991,6,1,B|273:167|247:182|247:182|260:207|260:234,1,112.5,2|2,1:2|2:2,0:0:0:0:
140,290,146162,2,1,B|153:267|177:254|177:254|165:232|165:208,1,101.250003862381,10|4,2:3|2:3,0:0:0:0:
217,338,146333,1,14,2:3:0:0:
85,54,146505,6,1,B|64:51|49:35|49:35|37:99|37:99|39:102|39:102|28:159|28:159|136:163|94:111|193:119,1,337.5,10|0,2:3|0:0,0:0:0:0:
267,66,146847,1,10,2:3:0:0:
297,80,146933,1,4,2:3:0:0:
327,94,147018,6,1,B|339:49|339:49|345:46|345:46|356:-1,1,101.250003862381,14|0,2:3|0:0,0:0:0:0:
436,52,147190,2,1,B|424:97|424:97|418:100|418:100|407:147,1,101.250003862381,10|4,2:3|2:3,0:0:0:0:
217,213,147361,6,1,B|205:168|205:168|199:165|199:165|188:118,1,101.250003862381,2|2,1:3|2:2,0:0:0:0:
108,171,147533,2,1,B|120:216|120:216|126:219|126:219|137:266,1,101.250003862381,10|6,2:3|2:3,0:0:0:0:
63,321,147704,1,14,2:3:0:0:
495,293,147875,6,1,B|467:284|450:254|450:254|411:264|411:264|406:261|406:261|366:272|366:272|344:316|344:316|305:326|305:326|302:331|302:331|262:342|262:342|249:317|225:306,1,337.5,10|2,2:3|2:2,0:0:0:0:
217,213,148217,1,10,2:3:0:0:
249,203,148303,1,6,2:3:0:0:
275,195,148389,6,1,B|315:184|315:184|318:178|318:178|359:168,1,90,14|0,2:3|0:0,0:0:0:0:
376,68,148560,2,1,B|331:80|331:80|327:87|327:87|280:98,1,101.250003862381,10|6,2:3|2:3,0:0:0:0:
48,150,148731,6,1,B|31:125|7:110|7:110|19:85|18:55,1,112.5,2|2,1:3|2:2,0:0:0:0:
105,24,148903,2,1,B|123:51|149:67|149:67|136:94|137:127,1,123.750001180172,10|4,2:3|2:3,0:0:0:0:
271,346,149074,6,1,B|291:316|319:298|319:298|305:268|306:234,1,135.000005149842,14|2,2:3|2:2,0:0:0:0:
217,213,149246,2,1,B|198:240|172:256|172:256|185:283|184:316,1,123.750001180172,10|6,2:3|2:3,0:0:0:0:
459,77,149416,6,1,B|512:71|527:11|527:11|469:-29|418:9|418:9|407:7|407:7|361:46|376:101,1,337.5,6|4,1:2|2:3,0:0:0:0:
445,158,149759,2,1,B|345:132|345:132|343:128|343:128|251:103,1,202.500007724762,14|10,2:3|2:3,0:0:0:0:
227,15,150016,1,4,2:3:0:0:
197,30,150102,6,1,B|137:14|93:59|93:59|109:119|167:134,1,225,2|10,1:3|2:3,0:0:0:0:
251,103,150358,1,6,2:3:0:0:
271,131,150444,2,1,P|287:178|298:228,1,101.250003862381,14|0,2:3|0:0,0:0:0:0:
387,259,150615,1,10,2:3:0:0:
107,7,150787,5,2,1:2:0:0:
165,351,150958,6,1,B|139:361|124:387|124:387|72:373|72:373|69:368|69:368|18:355|18:355|18:327|0:302,1,225,10|14,2:3|2:2,0:0:0:0:
58,226,151215,2,1,P|106:243|155:256,1,101.250003862381,0|10,0:0|2:3,0:0:0:0:
298,228,151386,1,6,2:3:0:0:
280,256,151472,6,1,B|264:280|238:295|238:295|251:320|251:347,1,112.5,2|2,1:2|2:2,0:0:0:0:
365,295,151643,2,1,B|378:272|402:259|402:259|390:237|390:213,1,101.250003862381,10|4,2:3|2:3,0:0:0:0:
330,136,151814,1,14,2:3:0:0:
71,46,151986,6,1,B|141:29|141:29|144:31|144:31|213:14|213:14|227:33|252:39|252:39|264:53|260:71|260:71|242:85|238:110|238:110|213:134|179:128,1,337.5,10|0,2:3|0:0,0:0:0:0:
99,166,152328,1,10,2:3:0:0:
69,152,152414,1,4,2:3:0:0:
39,138,152499,6,1,B|27:183|27:183|21:186|21:186|10:233,1,101.250003862381,14|0,2:3|0:0,0:0:0:0:
72,345,152671,2,1,B|84:300|84:300|90:297|90:297|101:250,1,101.250003862381,10|4,2:3|2:3,0:0:0:0:
259,105,152842,6,1,B|271:150|271:150|277:153|277:153|288:200,1,101.250003862381,2|2,1:3|2:2,0:0:0:0:
226,312,153014,2,1,B|214:267|214:267|208:264|208:264|197:217,1,101.250003862381,10|6,2:3|2:3,0:0:0:0:
325,292,153185,1,14,2:3:0:0:
504,84,153356,6,1,B|423:69|359:107|359:107|346:60|346:60|347:55|347:55|330:-3|330:-3|348:47|374:57,1,337.5,10|2,2:3|2:2,0:0:0:0:
430,126,153698,1,10,2:3:0:0:
439,156,153784,1,6,2:3:0:0:
446,185,153870,6,1,B|456:225|456:225|462:227|462:227|471:269,1,90,14|0,2:3|0:0,0:0:0:0:
405,361,154041,2,1,B|393:316|393:316|387:313|387:313|376:266,1,101.250003862381,10|6,2:3|2:3,0:0:0:0:
248,77,154212,6,1,B|217:74|192:61|192:61|177:84|150:98,1,112.5,2|2,1:3|2:2,0:0:0:0:
168,188,154384,2,1,B|200:190|227:204|227:204|244:179|273:164,1,123.750001180172,10|4,2:3|2:3,0:0:0:0:
115,366,154555,6,1,B|79:368|49:383|49:383|30:356|0:340,1,135.000005149842,14|2,2:3|2:2,0:0:0:0:
27,252,154727,2,1,B|59:249|86:234|86:234|103:259|132:274,1,123.750001180172,6|2,2:3|2:2,0:0:0:0:
512,327,154897,6,1,B|469:288|411:297|411:297|391:241|391:241|394:242|394:242|379:191|379:191|320:201|273:164,1,337.5,6|4,1:2|2:3,0:0:0:0:
484,211,155240,2,1,B|473:165|473:165|467:162|467:162|455:117,1,101.250003862381,14|0,2:3|0:0,0:0:0:0:
303,278,155411,2,1,B|315:325|315:325|321:328|321:328|333:373,1,101.250003862381,10|4,2:3|2:3,0:0:0:0:
222,90,155583,6,1,B|162:74|118:119|118:119|134:179|192:194,1,225,2|10,1:3|2:3,0:0:0:0:
274,164,155840,1,6,2:3:0:0:
299,147,155925,2,1,P|309:97|326:49,1,101.250003862381,14|0,2:3|0:0,0:0:0:0:
246,0,156096,1,10,2:3:0:0:
132,274,156268,5,2,1:2:0:0:
498,201,156439,6,1,B|502:177|522:160|522:160|457:154|399:127|399:127|408:152|403:175,1,225,10|14,2:3|2:2,0:0:0:0:
375,270,156696,2,1,P|423:281|471:298,1,101.250003862381,0|10,0:0|2:3,0:0:0:0:
294,322,156867,1,6,2:3:0:0:
277,295,156953,6,1,B|276:266|263:239|263:239|287:225|302:202,1,112.5,2|2,1:2|2:2,0:0:0:0:
231,90,157124,2,1,B|229:116|242:140|242:140|220:152|207:172,1,101.250003862381,10|4,2:3|2:3,0:0:0:0:
322,91,157295,1,14,2:3:0:0:
43,267,157467,6,1,B|40:288|24:303|24:303|88:315|88:315|91:313|91:313|148:324|148:324|152:216|100:258|108:159,1,337.5,10|0,2:3|0:0,0:0:0:0:
58,90,157809,1,10,2:3:0:0:
66,59,157895,1,4,2:3:0:0:
74,28,157981,6,1,B|119:16|119:16|122:10|122:10|169:-1,1,101.250003862381,14|0,2:3|0:0,0:0:0:0:
263,65,158152,2,1,B|218:77|218:77|215:83|215:83|168:94,1,101.250003862381,10|4,2:3|2:3,0:0:0:0:
318,224,158323,6,1,B|363:236|363:236|366:242|366:242|413:253,1,101.250003862381,2|2,1:3|2:2,0:0:0:0:
507,187,158494,2,1,B|462:175|462:175|459:169|459:169|412:158,1,101.250003862381,10|6,2:3|2:3,0:0:0:0:
367,76,158666,1,14,2:3:0:0:
61,309,158837,6,1,B|89:300|106:270|106:270|145:280|145:280|150:277|150:277|190:288|190:288|212:332|212:332|251:342|251:342|254:347|254:347|294:358|294:358|307:333|331:322,1,337.5,10|2,2:3|2:2,0:0:0:0:
318,224,159179,1,10,2:3:0:0:
286,214,159265,1,6,2:3:0:0:
260,206,159351,6,1,B|220:195|220:195|217:189|217:189|176:179,1,90,14|0,2:3|0:0,0:0:0:0:
144,71,159522,2,1,B|189:83|189:83|193:90|193:90|240:101,1,101.250003862381,10|6,2:3|2:3,0:0:0:0:
479,132,159693,6,1,B|496:107|520:92|520:92|508:67|509:37,1,112.5,2|2,1:3|2:2,0:0:0:0:
422,6,159865,2,1,B|404:33|378:49|378:49|391:76|390:109,1,123.750001180172,10|4,2:3|2:3,0:0:0:0:
353,336,160036,6,1,B|333:306|305:288|305:288|319:258|318:224,1,135.000005149842,14|2,2:3|2:2,0:0:0:0:
407,203,160208,2,1,B|426:230|452:246|452:246|439:273|440:306,1,123.750001180172,10|6,2:3|2:3,0:0:0:0:
100,283,160378,6,1,B|47:277|32:217|32:217|90:177|141:215|141:215|152:213|152:213|198:252|183:307,1,337.5,6|4,1:2|2:3,0:0:0:0:
121,372,160721,2,1,B|146:280|146:280|150:278|150:278|176:178,1,202.500007724762,14|10,2:3|2:3,0:0:0:0:
266,155,160978,1,4,2:3:0:0:
252,124,161064,6,1,B|267:63|223:19|223:19|163:36|148:93,1,225,2|10,1:3|2:3,0:0:0:0:
175,178,161321,1,6,2:3:0:0:
147,198,161407,2,1,P|100:214|50:225,1,101.250003862381,14|0,2:3|0:0,0:0:0:0:
49,125,161577,1,10,2:3:0:0:
250,376,161749,5,2,1:2:0:0:
512,150,161920,6,1,B|494:128|494:98|494:98|442:84|442:84|437:87|437:87|386:73|386:73|372:97|344:109,1,225,10|14,2:3|2:2,0:0:0:0:
356,204,162177,2,1,P|406:213|455:226,1,101.250003862381,0|10,0:0|2:3,0:0:0:0:
307,302,162348,1,6,2:3:0:0:
289,274,162434,6,1,B|273:250|247:235|247:235|260:210|260:183,1,112.5,2|2,1:2|2:2,0:0:0:0:
150,95,162605,2,1,B|163:118|187:131|187:131|175:153|175:177,1,101.250003862381,10|4,2:3|2:3,0:0:0:0:
259,62,162776,1,14,2:3:0:0:
0,353,162948,6,1,B|70:370|70:370|73:368|73:368|142:385|142:385|156:366|181:360|181:360|193:346|189:328|189:328|171:314|167:289|167:289|142:265|108:271,1,337.5,10|0,2:3|0:0,0:0:0:0:
16,253,163290,1,10,2:3:0:0:
8,222,163376,1,4,2:3:0:0:
0,191,163461,6,1,B|45:179|45:179|48:173|48:173|95:162,1,101.250003862381,14|0,2:3|0:0,0:0:0:0:
127,55,163633,2,1,B|82:67|82:67|79:73|79:73|32:84,1,101.250003862381,10|4,2:3|2:3,0:0:0:0:
189,197,163804,6,1,B|234:209|234:209|237:215|237:215|284:226,1,101.250003862381,2|2,1:3|2:2,0:0:0:0:
316,333,163976,2,1,B|271:321|271:321|268:315|268:315|221:304,1,101.250003862381,10|6,2:3|2:3,0:0:0:0:
146,358,164147,1,14,2:3:0:0:
357,173,164318,6,1,B|350:90|297:38|297:38|339:14|339:14|344:13|344:13|396:-17|396:-17|352:12|349:40,1,337.5,10|2,2:3|2:2,0:0:0:0:
427,84,164661,1,10,2:3:0:0:
457,92,164746,1,6,2:3:0:0:
488,100,164832,6,1,B|498:140|498:140|504:142|504:142|513:184,1,90,14|0,2:3|0:0,0:0:0:0:
463,319,165003,2,1,B|451:274|451:274|445:271|445:271|434:224,1,101.250003862381,10|6,2:3|2:3,0:0:0:0:
169,165,165174,6,1,B|194:183|209:206|209:206|233:194|264:195,1,112.5,2|2,1:3|2:2,0:0:0:0:
293,108,165346,2,1,B|266:90|249:64|249:64|222:77|190:76,1,123.750001180172,10|4,2:3|2:3,0:0:0:0:
112,256,165517,6,1,B|82:275|64:303|64:303|34:289|-1:291,1,135.000005149842,14|2,2:3|2:2,0:0:0:0:
22,161,165688,5,6,2:3:0:0:
