osu file format v14

[General]
AudioFilename: audio.mp3
AudioLeadIn: 0
PreviewTime: 31489
Countdown: 0
SampleSet: Soft
StackLeniency: 0
Mode: 0
LetterboxInBreaks: 0
WidescreenStoryboard: 1

[Editor]
Bookmarks: 9651,20613,26094,31575,53499,63947,64461,67201,75423,80904,86385,108309,119271,119356,119442,119528,119613,119699,119785,119870,119956,120042,120127,120213,120299,120384,120470,120555,120641,120727,120812,120898,120984,121069,121155,121241,121326,121412,121498,121583,121669,121754,121840,121926,122011,122097,122183,122268,122354,122440,122525,122611,122696,122782,122868,122953,123039,123125,123210,123296,123382,123467,123553,123639,123724,123810,123895,123981,124067,124152,124238,124324,124409,124495,124581,124666,124752,124837,124923,125009,125094,125180,125266,125351,125437,125523,125608,125694,125780,125865,125951,126036,126122,126208,126293,126379,126465,126550,126636,126722,126807,126893,126979,127064,127150,127235,127321,127407,127492,132973,143935,165688
DistanceSpacing: 1.3
BeatDivisor: 4
GridSize: 16
TimelineZoom: 2.599999

[Metadata]
Title:MALO TEBYA (Sped Up Ver.)
TitleUnicode:МАЛО ТЕБЯ (Sped Up Ver.)
Artist:SEREBRO
ArtistUnicode:SEREBRO
Creator:Basensorex
Version:ORI'S EXTRA
Source:
Tags:supav nachmark original3s visionary russian electronic русский speed version nightcore mix pop поп серебро Silver Olga Seryabkina Elena Temnikova Dasha Shashina
BeatmapID:4009857
BeatmapSetID:1874064

[Difficulty]
HPDrainRate:5
CircleSize:4
OverallDifficulty:8.8
ApproachRate:9.3
SliderMultiplier:2.32
SliderTickRate:1

[Events]
//Background and Video events
0,0,"bg.jpg",0,0
//Break Periods
2,64660,66647
2,119470,126938
//Storyboard Layer 0 (Background)
//Storyboard Layer 1 (Fail)
//Storyboard Layer 2 (Pass)
//Storyboard Layer 3 (Foreground)
//Storyboard Layer 4 (Overlay)
//Storyboard Sound Samples

[TimingPoints]
4170,342.563516985441,4,2,1,40,1,0
9651,-100,4,2,1,50,0,0
9993,-125,4,2,1,50,0,0
20613,-125,4,2,1,55,0,0
26094,-125,4,2,1,60,0,0
27464,-125,4,2,1,62,0,0
28149,-125,4,2,1,64,0,0
28834,-125,4,2,1,66,0,0
29519,-125,4,2,1,68,0,0
30204,-125,4,2,1,70,0,0
30547,-125,4,2,1,73,0,0
30632,-125,4,2,99,5,0,0
30718,-125,4,2,1,73,0,0
30803,-125,4,2,99,5,0,0
30889,-125,4,2,1,77,0,0
31145,-125,4,2,99,5,0,0
31232,-200,4,2,1,81,0,0
31488,-200,4,2,99,5,0,0
31575,-50,4,2,2,85,0,0
31831,-50,4,2,99,5,0,0
31917,-50,4,2,1,85,0,0
32002,-50,4,2,99,5,0,0
32088,-100,4,2,1,85,0,0
32173,-100,4,2,99,5,0,0
32260,-66.6666666666667,4,2,2,85,0,0
32602,-50,4,2,1,85,0,0
32687,-50,4,2,99,5,0,0
32774,-250,4,2,2,85,0,0
32859,-250,4,2,99,5,0,0
32945,-66.6666666666667,4,2,2,85,0,0
33287,-50,4,2,1,85,0,0
33630,-100,4,2,2,85,0,0
33973,-250,4,2,1,85,0,0
34058,-250,4,2,99,5,0,0
34144,-100,4,2,2,85,0,0
34229,-100,4,2,99,5,0,0
34315,-66.6666666666667,4,2,3,85,0,0
34571,-66.6666666666667,4,2,99,5,0,0
34658,-50,4,2,1,85,0,0
34914,-50,4,2,99,5,0,0
35000,-125,4,2,2,85,0,0
35085,-125,4,2,99,5,0,0
35171,-125,4,2,2,85,0,0
35257,-125,4,2,3,85,0,0
35343,-125,4,2,1,85,0,0
35514,-333.333333333333,4,2,2,85,0,0
35599,-333.333333333333,4,2,99,5,0,0
35685,-66.6666666666667,4,2,3,85,0,0
35941,-66.6666666666667,4,2,99,5,0,0
36028,-50,4,2,1,85,0,0
36285,-50,4,2,3,85,0,0
36370,-66.6666666666667,4,2,2,85,0,0
36455,-66.6666666666667,4,2,99,5,0,0
36542,-200,4,2,2,85,0,0
36627,-200,4,2,99,5,0,0
36713,-100,4,2,1,85,0,0
36798,-100,4,2,99,5,0,0
36884,-66.6666666666667,4,2,2,85,0,0
36969,-66.6666666666667,4,2,99,5,0,0
37056,-50,4,2,2,85,0,0
37312,-50,4,2,99,5,0,0
37398,-66.6666666666667,4,2,1,85,0,0
37654,-66.6666666666667,4,2,99,5,0,0
37741,-50,4,2,2,85,0,0
38083,-250,4,2,1,85,0,0
38168,-250,4,2,99,5,0,0
38255,-66.6666666666667,4,2,2,85,0,0
38511,-66.6666666666667,4,2,99,5,0,0
38597,-250,4,2,2,85,0,0
38682,-250,4,2,99,5,0,0
38768,-50,4,2,1,85,0,0
39111,-66.6666666666667,4,2,2,85,0,0
39196,-66.6666666666667,4,2,99,5,0,0
39282,-250,4,2,2,85,0,0
39367,-250,4,2,99,5,0,0
39454,-250,4,2,1,85,0,0
39625,-66.6666666666667,4,2,2,85,0,0
39710,-66.6666666666667,4,2,99,5,0,0
39796,-66.6666666666667,4,2,3,85,0,0
40052,-66.6666666666667,4,2,99,5,0,0
40139,-50,4,2,1,85,0,0
40481,-66.6666666666667,4,2,2,85,0,0
40738,-66.6666666666667,4,2,3,85,0,0
40824,-66.6666666666667,4,2,1,85,0,0
40909,-66.6666666666667,4,2,99,5,0,0
40995,-100,4,2,2,85,0,0
41509,-50,4,2,1,85,0,0
41766,-50,4,2,3,85,0,0
41851,-66.6666666666667,4,2,2,85,0,0
41936,-66.6666666666667,4,2,99,5,0,0
42023,-200,4,2,2,85,0,0
42108,-200,4,2,99,5,0,0
42194,-100,4,2,1,85,0,0
42279,-100,4,2,3,85,0,0
42365,-66.6666666666667,4,2,2,85,0,0
42450,-66.6666666666667,4,2,3,85,0,0
42537,-50,4,2,2,85,0,0
42793,-50,4,2,99,5,0,0
42879,-66.6666666666667,4,2,1,85,0,0
42964,-66.6666666666667,4,2,99,5,0,0
43050,-100,4,2,1,85,0,0
43135,-100,4,2,99,5,0,0
43222,-66.6666666666667,4,2,2,85,0,0
43564,-50,4,2,1,85,0,0
43649,-50,4,2,99,5,0,0
43736,-200,4,2,2,85,0,0
43821,-200,4,2,99,5,0,0
43907,-66.6666666666667,4,2,2,85,0,0
44249,-50,4,2,1,85,0,0
44592,-100,4,2,2,85,0,0
44935,-66.6666666666667,4,2,1,85,0,0
45020,-66.6666666666667,4,2,99,5,0,0
45106,-200,4,2,2,85,0,0
45191,-200,4,2,99,5,0,0
45277,-66.6666666666667,4,2,3,85,0,0
45448,-66.6666666666667,4,2,1,85,0,0
45620,-50,4,2,1,85,0,0
45876,-50,4,2,99,5,0,0
45962,-250,4,2,2,85,0,0
46047,-250,4,2,99,5,0,0
46134,-250,4,2,2,85,0,0
46219,-250,4,2,3,85,0,0
46305,-250,4,2,1,85,0,0
46476,-250,4,2,2,85,0,0
46561,-250,4,2,99,5,0,0
46647,-66.6666666666667,4,2,3,85,0,0
46903,-66.6666666666667,4,2,99,5,0,0
46990,-50,4,2,1,85,0,0
47247,-50,4,2,3,85,0,0
47333,-66.6666666666667,4,2,2,85,0,0
47418,-66.6666666666667,4,2,99,5,0,0
47504,-100,4,2,2,85,0,0
47589,-100,4,2,99,5,0,0
47675,-50,4,2,1,85,0,0
47760,-50,4,2,99,5,0,0
47846,-200,4,2,2,85,0,0
47931,-200,4,2,99,5,0,0
48018,-66.6666666666667,4,2,2,85,0,0
48274,-66.6666666666667,4,2,99,5,0,0
48360,-100,4,2,1,85,0,0
48616,-100,4,2,99,5,0,0
48703,-66.6666666666667,4,2,2,85,0,0
49045,-200,4,2,1,85,0,0
49130,-200,4,2,99,5,0,0
49217,-66.6666666666667,4,2,2,85,0,0
49473,-66.6666666666667,4,2,99,5,0,0
49559,-200,4,2,2,85,0,0
49644,-200,4,2,99,5,0,0
49730,-50,4,2,1,85,0,0
50073,-50,4,2,2,85,0,0
50158,-50,4,2,99,5,0,0
50244,-142.857142857143,4,2,2,85,0,0
50329,-142.857142857143,4,2,99,5,0,0
50416,-142.857142857143,4,2,1,85,0,0
50587,-100,4,2,2,85,0,0
50672,-100,4,2,99,5,0,0
50758,-66.6666666666667,4,2,3,85,0,0
51014,-66.6666666666667,4,2,99,5,0,0
51101,-50,4,2,1,85,0,0
51357,-50,4,2,99,5,0,0
51443,-100,4,2,2,85,0,0
51700,-100,4,2,3,85,0,0
51786,-100,4,2,1,85,0,0
51871,-100,4,2,99,5,0,0
51957,-66.6666666666667,4,2,2,85,0,0
52471,-71.4285714285714,4,2,1,85,0,0
52728,-71.4285714285714,4,2,3,85,0,0
52814,-50,4,2,2,85,0,0
52899,-50,4,2,99,5,0,0
52985,-66.6666666666667,4,2,2,85,0,0
53070,-66.6666666666667,4,2,99,5,0,0
53156,-100,4,2,1,85,0,0
53241,-100,4,2,3,85,0,0
53327,-200,4,2,2,85,0,0
53412,-200,4,2,3,85,0,0
53499,-50,4,2,2,85,0,0
53755,-50,4,2,3,85,0,0
53841,-50,4,2,1,85,0,0
54097,-50,4,2,3,85,0,0
54184,-50,4,2,2,85,0,0
54226,-50,4,2,99,5,0,0
54269,-50,4,2,2,85,0,0
54311,-50,4,2,99,5,0,0
54355,-50,4,2,4,85,0,0
54397,-50,4,2,99,5,0,0
54526,-50,4,2,1,85,0,0
54611,-50,4,2,99,5,0,0
54698,-100,4,2,2,85,0,0
55040,-100,4,2,4,85,0,0
55126,-100,4,2,3,85,0,0
55211,-66.6666666666667,4,2,1,85,0,0
55296,-66.6666666666667,4,2,99,5,0,0
55383,-66.6666666666667,4,2,4,85,0,0
55468,-66.6666666666667,4,2,3,85,0,0
55554,-55.5555555555556,4,2,2,85,0,0
55725,-55.5555555555556,4,2,4,85,0,0
55811,-55.5555555555556,4,2,3,85,0,0
55897,-55.5555555555556,4,2,1,85,0,0
55982,-55.5555555555556,4,2,99,5,0,0
56068,-166.666666666667,4,2,4,85,0,0
56153,-166.666666666667,4,2,3,85,0,0
56239,-50,4,2,2,85,0,0
56495,-50,4,2,3,85,0,0
56582,-66.6666666666667,4,2,1,85,0,0
56838,-66.6666666666667,4,2,3,85,0,0
56924,-66.6666666666667,4,2,2,85,0,0
56966,-66.6666666666667,4,2,99,5,0,0
57010,-66.6666666666667,4,2,2,85,0,0
57052,-66.6666666666667,4,2,99,5,0,0
57096,-66.6666666666667,4,2,4,85,0,0
57138,-66.6666666666667,4,2,99,5,0,0
57267,-50,4,2,1,85,0,0
57352,-50,4,2,99,5,0,0
57438,-100,4,2,2,85,0,0
57609,-66.6666666666667,4,2,2,85,0,0
57780,-66.6666666666667,4,2,4,85,0,0
57866,-66.6666666666667,4,2,3,85,0,0
57952,-66.6666666666667,4,2,1,85,0,0
58037,-66.6666666666667,4,2,99,5,0,0
58123,-100,4,2,4,85,0,0
58208,-100,4,2,3,85,0,0
58295,-66.6666666666667,4,2,2,85,0,0
58466,-66.6666666666667,4,2,4,85,0,0
58551,-66.6666666666667,4,2,3,85,0,0
58637,-66.6666666666667,4,2,1,85,0,0
58722,-66.6666666666667,4,2,99,5,0,0
58808,-100,4,2,4,85,0,0
58893,-100,4,2,3,85,0,0
58980,-50,4,2,2,85,0,0
59236,-50,4,2,3,85,0,0
59322,-66.6666666666667,4,2,1,85,0,0
59578,-66.6666666666667,4,2,3,85,0,0
59665,-66.6666666666667,4,2,2,85,0,0
59707,-66.6666666666667,4,2,99,5,0,0
59750,-66.6666666666667,4,2,2,85,0,0
59792,-66.6666666666667,4,2,99,5,0,0
59836,-66.6666666666667,4,2,4,85,0,0
59878,-66.6666666666667,4,2,99,5,0,0
60007,-50,4,2,1,85,0,0
60092,-50,4,2,99,5,0,0
60179,-100,4,2,2,85,0,0
60350,-66.6666666666667,4,2,2,85,0,0
60521,-66.6666666666667,4,2,4,85,0,0
60607,-66.6666666666667,4,2,3,85,0,0
60692,-66.6666666666667,4,2,1,85,0,0
60777,-66.6666666666667,4,2,99,5,0,0
60864,-100,4,2,4,85,0,0
60949,-100,4,2,3,85,0,0
61035,-66.6666666666667,4,2,2,85,0,0
61206,-66.6666666666667,4,2,4,85,0,0
61292,-66.6666666666667,4,2,3,85,0,0
61378,-50,4,2,1,85,0,0
61463,-50,4,2,99,5,0,0
61549,-166.666666666667,4,2,4,85,0,0
61634,-166.666666666667,4,2,3,85,0,0
61720,-50,4,2,2,85,0,0
61976,-50,4,2,3,85,0,0
62063,-66.6666666666667,4,2,1,85,0,0
62319,-66.6666666666667,4,2,3,85,0,0
62405,-66.6666666666667,4,2,2,85,0,0
62447,-66.6666666666667,4,2,99,5,0,0
62491,-66.6666666666667,4,2,2,85,0,0
62533,-66.6666666666667,4,2,99,5,0,0
62577,-66.6666666666667,4,2,4,85,0,0
62619,-66.6666666666667,4,2,99,5,0,0
62748,-50,4,2,1,85,0,0
62833,-50,4,2,99,5,0,0
62919,-100,4,2,2,85,0,0
63090,-66.6666666666667,4,2,2,85,0,0
63261,-66.6666666666667,4,2,4,85,0,0
63347,-66.6666666666667,4,2,3,85,0,0
63433,-66.6666666666667,4,2,1,85,0,0
63518,-66.6666666666667,4,2,99,5,0,0
63604,-100,4,2,4,85,0,0
63689,-100,4,2,3,85,0,0
63776,-50,4,2,2,85,0,0
63947,-50,4,2,4,85,0,0
64032,-50,4,2,3,85,0,0
64118,-50,4,2,1,85,0,0
64461,-50,4,2,2,50,0,0
68229,-125,4,2,1,50,0,0
68314,-125,4,2,99,5,0,0
68400,-125,4,2,1,50,0,0
68485,-125,4,2,99,5,0,0
68571,-125,4,2,1,50,0,0
71054,-125,4,2,99,5,0,0
71141,-125,4,2,1,50,0,0
71226,-125,4,2,99,5,0,0
71312,-125,4,2,1,50,0,0
72596,-125,4,2,99,5,0,0
72682,-125,4,2,1,50,0,0
74823,-125,4,2,99,5,0,0
74909,-125,4,2,1,50,0,0
74994,-125,4,2,99,5,0,0
75080,-100,4,2,1,50,0,0
75165,-100,4,2,99,5,0,0
75251,-83.3333333333333,4,2,1,50,0,0
75336,-83.3333333333333,4,2,99,5,0,0
75423,-100,4,2,2,55,0,0
76364,-100,4,2,99,5,0,0
76450,-100,4,2,1,55,0,0
76535,-100,4,2,99,5,0,0
76622,-100,4,2,1,55,0,0
76707,-100,4,2,99,5,0,0
76793,-100,4,2,1,55,0,0
80904,-100,4,2,1,60,0,0
82274,-100,4,2,1,62,0,0
82873,-100,4,2,99,5,0,0
82959,-83.3333333333333,4,2,1,64,0,0
83215,-83.3333333333333,4,2,99,5,0,0
83302,-71.4285714285714,4,2,1,64,0,0
83558,-71.4285714285714,4,2,99,5,0,0
83644,-71.4285714285714,4,2,1,66,0,0
84329,-71.4285714285714,4,2,1,68,0,0
84928,-71.4285714285714,4,2,99,5,0,0
85014,-71.4285714285714,4,2,1,70,0,0
85357,-71.4285714285714,4,2,1,73,0,0
85442,-71.4285714285714,4,2,99,5,0,0
85528,-71.4285714285714,4,2,1,73,0,0
85613,-71.4285714285714,4,2,99,5,0,0
85700,-71.4285714285714,4,2,1,77,0,0
86042,-50,4,2,1,81,0,0
86298,-50,4,2,99,5,0,0
86385,-50,4,2,2,85,0,0
86641,-50,4,2,99,5,0,0
86727,-50,4,2,1,85,0,0
86812,-50,4,2,99,5,0,0
86899,-100,4,2,1,85,0,0
86984,-100,4,2,99,5,0,0
87070,-66.6666666666667,4,2,2,85,0,0
87326,-66.6666666666667,4,2,99,5,0,0
87412,-50,4,2,1,85,0,0
87497,-50,4,2,99,5,0,0
87584,-250,4,2,2,85,0,0
87669,-250,4,2,99,5,0,0
87755,-66.6666666666667,4,2,2,85,0,0
88098,-50,4,2,1,85,0,0
88440,-100,4,2,2,85,0,0
88783,-250,4,2,1,85,0,0
88868,-250,4,2,99,5,0,0
88954,-100,4,2,2,85,0,0
89039,-100,4,2,99,5,0,0
89125,-66.6666666666667,4,2,3,85,0,0
89381,-66.6666666666667,4,2,99,5,0,0
89468,-50,4,2,1,85,0,0
89724,-50,4,2,99,5,0,0
89810,-125,4,2,2,85,0,0
90067,-125,4,2,3,85,0,0
90153,-125,4,2,1,85,0,0
90238,-125,4,2,99,5,0,0
90324,-333.333333333333,4,2,2,85,0,0
90409,-333.333333333333,4,2,99,5,0,0
90496,-66.6666666666667,4,2,3,85,0,0
90752,-66.6666666666667,4,2,99,5,0,0
90838,-50,4,2,1,85,0,0
91095,-50,4,2,3,85,0,0
91181,-66.6666666666667,4,2,2,85,0,0
91266,-66.6666666666667,4,2,99,5,0,0
91352,-200,4,2,2,85,0,0
91437,-200,4,2,99,5,0,0
91523,-100,4,2,1,85,0,0
91608,-100,4,2,99,5,0,0
91694,-66.6666666666667,4,2,2,85,0,0
91779,-66.6666666666667,4,2,99,5,0,0
91866,-50,4,2,2,85,0,0
92122,-50,4,2,99,5,0,0
92208,-66.6666666666667,4,2,1,85,0,0
92464,-66.6666666666667,4,2,99,5,0,0
92551,-50,4,2,2,85,0,0
92893,-250,4,2,1,85,0,0
92978,-250,4,2,99,5,0,0
93065,-66.6666666666667,4,2,2,85,0,0
93321,-66.6666666666667,4,2,99,5,0,0
93407,-250,4,2,2,85,0,0
93492,-250,4,2,99,5,0,0
93579,-50,4,2,1,85,0,0
93921,-66.6666666666667,4,2,2,85,0,0
94006,-66.6666666666667,4,2,99,5,0,0
94092,-250,4,2,2,85,0,0
94177,-250,4,2,99,5,0,0
94264,-250,4,2,1,85,0,0
94435,-66.6666666666667,4,2,2,85,0,0
94520,-66.6666666666667,4,2,99,5,0,0
94606,-66.6666666666667,4,2,3,85,0,0
94862,-66.6666666666667,4,2,99,5,0,0
94949,-50,4,2,1,85,0,0
95291,-66.6666666666667,4,2,2,85,0,0
95376,-66.6666666666667,4,2,99,5,0,0
95463,-66.6666666666667,4,2,2,85,0,0
95548,-66.6666666666667,4,2,3,85,0,0
95634,-66.6666666666667,4,2,1,85,0,0
95719,-66.6666666666667,4,2,99,5,0,0
95805,-100,4,2,2,85,0,0
96319,-50,4,2,1,85,0,0
96576,-50,4,2,3,85,0,0
96662,-66.6666666666667,4,2,2,85,0,0
96747,-66.6666666666667,4,2,99,5,0,0
96833,-200,4,2,2,85,0,0
96918,-200,4,2,99,5,0,0
97004,-100,4,2,1,85,0,0
97089,-100,4,2,3,85,0,0
97175,-66.6666666666667,4,2,2,85,0,0
97260,-66.6666666666667,4,2,3,85,0,0
97347,-50,4,2,2,85,0,0
97603,-50,4,2,99,5,0,0
97689,-66.6666666666667,4,2,1,85,0,0
97774,-66.6666666666667,4,2,99,5,0,0
97861,-100,4,2,1,85,0,0
97946,-100,4,2,99,5,0,0
98032,-66.6666666666667,4,2,2,85,0,0
98374,-50,4,2,1,85,0,0
98459,-50,4,2,99,5,0,0
98546,-200,4,2,2,85,0,0
98631,-200,4,2,99,5,0,0
98717,-66.6666666666667,4,2,2,85,0,0
99060,-50,4,2,1,85,0,0
99402,-66.6666666666667,4,2,2,85,0,0
99745,-66.6666666666667,4,2,1,85,0,0
99830,-66.6666666666667,4,2,99,5,0,0
99916,-200,4,2,2,85,0,0
100001,-200,4,2,99,5,0,0
100087,-66.6666666666667,4,2,3,85,0,0
100343,-66.6666666666667,4,2,99,5,0,0
100430,-50,4,2,1,85,0,0
100772,-250,4,2,2,85,0,0
100857,-250,4,2,99,5,0,0
100944,-250,4,2,2,85,0,0
101029,-250,4,2,3,85,0,0
101115,-250,4,2,1,85,0,0
101286,-250,4,2,2,85,0,0
101371,-250,4,2,99,5,0,0
101458,-66.6666666666667,4,2,3,85,0,0
101714,-66.6666666666667,4,2,99,5,0,0
101800,-50,4,2,1,85,0,0
102057,-50,4,2,3,85,0,0
102143,-66.6666666666667,4,2,2,85,0,0
102228,-66.6666666666667,4,2,99,5,0,0
102314,-100,4,2,2,85,0,0
102399,-100,4,2,99,5,0,0
102485,-50,4,2,1,85,0,0
102570,-50,4,2,99,5,0,0
102657,-200,4,2,2,85,0,0
102742,-200,4,2,99,5,0,0
102828,-66.6666666666667,4,2,2,85,0,0
103084,-66.6666666666667,4,2,99,5,0,0
103170,-100,4,2,1,85,0,0
103426,-100,4,2,99,5,0,0
103513,-66.6666666666667,4,2,2,85,0,0
103855,-200,4,2,1,85,0,0
103940,-200,4,2,99,5,0,0
104027,-66.6666666666667,4,2,2,85,0,0
104283,-66.6666666666667,4,2,99,5,0,0
104369,-200,4,2,2,85,0,0
104454,-200,4,2,99,5,0,0
104541,-50,4,2,1,85,0,0
104883,-50,4,2,2,85,0,0
104968,-50,4,2,99,5,0,0
105054,-142.857142857143,4,2,2,85,0,0
105139,-142.857142857143,4,2,99,5,0,0
105226,-142.857142857143,4,2,1,85,0,0
105397,-100,4,2,2,85,0,0
105482,-100,4,2,99,5,0,0
105568,-66.6666666666667,4,2,3,85,0,0
105824,-66.6666666666667,4,2,99,5,0,0
105911,-50,4,2,1,85,0,0
106167,-50,4,2,99,5,0,0
106253,-100,4,2,2,85,0,0
106510,-100,4,2,3,85,0,0
106596,-100,4,2,1,85,0,0
106681,-100,4,2,99,5,0,0
106767,-66.6666666666667,4,2,2,85,0,0
107281,-71.4285714285714,4,2,1,85,0,0
107366,-71.4285714285714,4,2,99,5,0,0
107452,-71.4285714285714,4,2,1,85,0,0
107537,-71.4285714285714,4,2,3,85,0,0
107624,-50,4,2,2,85,0,0
107709,-50,4,2,99,5,0,0
107795,-66.6666666666667,4,2,2,85,0,0
107880,-66.6666666666667,4,2,99,5,0,0
107966,-100,4,2,1,85,0,0
108051,-100,4,2,3,85,0,0
108138,-200,4,2,2,85,0,0
108223,-200,4,2,3,85,0,0
108309,-40,4,2,2,85,0,0
108565,-40,4,2,3,85,0,0
108651,-40,4,2,1,85,0,0
108907,-40,4,2,3,85,0,0
108994,-40,4,2,2,85,0,0
109036,-40,4,2,99,5,0,0
109080,-40,4,2,2,85,0,0
109122,-40,4,2,99,5,0,0
109165,-40,4,2,4,85,0,0
109207,-40,4,2,99,5,0,0
109336,-40,4,2,1,85,0,0
109421,-40,4,2,99,5,0,0
109508,-100,4,2,2,85,0,0
109850,-100,4,2,4,85,0,0
109936,-100,4,2,3,85,0,0
110022,-66.6666666666667,4,2,1,85,0,0
110107,-66.6666666666667,4,2,99,5,0,0
110193,-66.6666666666667,4,2,4,85,0,0
110278,-66.6666666666667,4,2,3,85,0,0
110364,-55.5555555555556,4,2,2,85,0,0
110535,-55.5555555555556,4,2,4,85,0,0
110621,-55.5555555555556,4,2,3,85,0,0
110707,-55.5555555555556,4,2,1,85,0,0
110792,-55.5555555555556,4,2,99,5,0,0
110878,-166.666666666667,4,2,4,85,0,0
110963,-166.666666666667,4,2,3,85,0,0
111049,-50,4,2,2,85,0,0
111305,-50,4,2,3,85,0,0
111392,-66.6666666666667,4,2,1,85,0,0
111648,-66.6666666666667,4,2,3,85,0,0
111734,-66.6666666666667,4,2,2,85,0,0
111776,-66.6666666666667,4,2,99,5,0,0
111820,-66.6666666666667,4,2,2,85,0,0
111862,-66.6666666666667,4,2,99,5,0,0
111906,-66.6666666666667,4,2,4,85,0,0
111948,-66.6666666666667,4,2,99,5,0,0
112077,-50,4,2,1,85,0,0
112162,-50,4,2,99,5,0,0
112248,-100,4,2,2,85,0,0
112420,-66.6666666666667,4,2,2,85,0,0
112591,-66.6666666666667,4,2,5,85,0,0
112676,-66.6666666666667,4,2,3,85,0,0
112762,-66.6666666666667,4,2,6,85,0,0
112847,-66.6666666666667,4,2,99,5,0,0
112933,-100,4,2,5,85,0,0
113018,-100,4,2,3,85,0,0
113105,-66.6666666666667,4,2,5,85,0,0
113190,-66.6666666666667,4,2,99,5,0,0
113276,-100,4,2,5,85,0,0
113361,-100,4,2,3,85,0,0
113447,-66.6666666666667,4,2,6,85,0,0
113532,-66.6666666666667,4,2,99,5,0,0
113619,-100,4,2,5,85,0,0
113704,-100,4,2,3,85,0,0
113790,-50,4,2,2,85,0,0
114046,-50,4,2,3,85,0,0
114132,-66.6666666666667,4,2,1,85,0,0
114388,-66.6666666666667,4,2,3,85,0,0
114475,-66.6666666666667,4,2,2,85,0,0
114517,-66.6666666666667,4,2,99,5,0,0
114561,-66.6666666666667,4,2,2,85,0,0
114603,-66.6666666666667,4,2,99,5,0,0
114646,-66.6666666666667,4,2,4,85,0,0
114688,-66.6666666666667,4,2,99,5,0,0
114818,-50,4,2,1,85,0,0
114903,-50,4,2,99,5,0,0
114989,-100,4,2,2,85,0,0
115160,-66.6666666666667,4,2,2,85,0,0
115331,-66.6666666666667,4,2,4,85,0,0
115417,-66.6666666666667,4,2,3,85,0,0
115503,-66.6666666666667,4,2,1,85,0,0
115588,-66.6666666666667,4,2,99,5,0,0
115674,-100,4,2,4,85,0,0
115759,-100,4,2,3,85,0,0
115845,-66.6666666666667,4,2,2,85,0,0
116016,-66.6666666666667,4,2,4,85,0,0
116102,-66.6666666666667,4,2,3,85,0,0
116188,-50,4,2,1,85,0,0
116273,-50,4,2,99,5,0,0
116359,-166.666666666667,4,2,4,85,0,0
116444,-166.666666666667,4,2,3,85,0,0
116530,-50,4,2,2,85,0,0
116786,-50,4,2,3,85,0,0
116873,-66.6666666666667,4,2,1,85,0,0
117129,-66.6666666666667,4,2,3,85,0,0
117215,-66.6666666666667,4,2,2,85,0,0
117257,-66.6666666666667,4,2,99,5,0,0
117301,-66.6666666666667,4,2,2,85,0,0
117343,-66.6666666666667,4,2,99,5,0,0
117387,-66.6666666666667,4,2,4,85,0,0
117429,-66.6666666666667,4,2,99,5,0,0
117558,-50,4,2,1,85,0,0
117643,-50,4,2,99,5,0,0
117729,-100,4,2,2,85,0,0
117901,-66.6666666666667,4,2,2,85,0,0
118072,-66.6666666666667,4,2,4,85,0,0
118158,-66.6666666666667,4,2,3,85,0,0
118243,-66.6666666666667,4,2,1,85,0,0
118328,-66.6666666666667,4,2,99,5,0,0
118414,-100,4,2,4,85,0,0
118499,-100,4,2,3,85,0,0
118586,-50,4,2,2,85,0,0
118671,-50,4,2,99,5,0,0
118757,-50,4,2,4,85,0,0
118842,-50,4,2,3,85,0,0
118928,-66.6666666666667,4,2,1,85,0,0
119271,-66.6666666666667,4,2,2,35,0,0
127492,-66.6666666666667,4,2,1,40,0,0
128863,-66.6666666666667,4,2,1,45,0,0
129205,-125,4,2,1,45,0,0
130146,-125,4,2,99,5,0,0
130233,-125,4,2,1,50,0,0
130918,-125,4,2,1,55,0,0
131603,-125,4,2,1,60,0,0
132288,-125,4,2,1,70,0,0
132631,-58.8235294117647,4,2,3,80,0,0
132887,-58.8235294117647,4,2,99,5,0,0
132973,-43.4782608695652,4,2,2,90,0,0
133229,-43.4782608695652,4,2,3,90,0,0
133316,-43.4782608695652,4,2,1,90,0,0
133572,-43.4782608695652,4,2,3,90,0,0
133659,-66.6666666666667,4,2,2,90,0,0
133830,-50,4,2,4,90,0,0
134001,-50,4,2,1,90,0,0
134172,-50,4,2,4,90,0,0
134344,-50,4,2,2,90,0,0
134386,-50,4,2,99,5,0,0
134429,-50,4,2,2,90,0,0
134471,-50,4,2,99,5,0,0
134515,-50,4,2,4,90,0,0
134557,-50,4,2,99,5,0,0
134601,-50,4,2,4,90,0,0
134643,-50,4,2,99,5,0,0
134686,-50,4,2,1,90,0,0
134857,-50,4,2,4,90,0,0
135029,-50,4,2,2,90,0,0
135071,-50,4,2,99,5,0,0
135114,-50,4,2,2,90,0,0
135156,-50,4,2,99,5,0,0
135200,-50,4,2,4,90,0,0
135285,-50,4,2,3,90,0,0
135371,-50,4,2,1,90,0,0
135542,-50,4,2,4,90,0,0
135714,-43.4782608695652,4,2,2,90,0,0
135970,-43.4782608695652,4,2,3,90,0,0
136056,-43.4782608695652,4,2,1,90,0,0
136312,-43.4782608695652,4,2,3,90,0,0
136399,-66.6666666666667,4,2,2,90,0,0
136570,-55.5555555555556,4,2,4,90,0,0
136742,-47.6190476190476,4,2,1,90,0,0
136827,-47.6190476190476,4,2,99,5,0,0
136913,-41.6666666666667,4,2,4,90,0,0
137084,-41.6666666666667,4,2,2,90,0,0
137126,-41.6666666666667,4,2,99,5,0,0
137170,-41.6666666666667,4,2,2,90,0,0
137212,-41.6666666666667,4,2,99,5,0,0
137255,-41.6666666666667,4,2,4,90,0,0
137297,-41.6666666666667,4,2,99,5,0,0
137341,-41.6666666666667,4,2,4,90,0,0
137383,-41.6666666666667,4,2,99,5,0,0
137427,-41.6666666666667,4,2,1,90,0,0
137598,-41.6666666666667,4,2,4,90,0,0
137769,-41.6666666666667,4,2,2,90,0,0
137811,-41.6666666666667,4,2,99,5,0,0
137855,-41.6666666666667,4,2,2,90,0,0
137897,-41.6666666666667,4,2,99,5,0,0
137941,-41.6666666666667,4,2,4,90,0,0
138026,-41.6666666666667,4,2,3,90,0,0
138112,-50,4,2,1,90,0,0
138283,-50,4,2,4,90,0,0
138454,-43.4782608695652,4,2,2,90,0,0
138710,-43.4782608695652,4,2,3,90,0,0
138797,-43.4782608695652,4,2,1,90,0,0
139053,-43.4782608695652,4,2,3,90,0,0
139140,-66.6666666666667,4,2,2,90,0,0
139311,-50,4,2,4,90,0,0
139482,-50,4,2,1,90,0,0
139653,-50,4,2,4,90,0,0
139825,-50,4,2,2,90,0,0
139867,-50,4,2,99,5,0,0
139910,-50,4,2,3,90,0,0
139952,-50,4,2,99,5,0,0
139996,-50,4,2,4,90,0,0
140038,-50,4,2,99,5,0,0
140081,-50,4,2,3,90,0,0
140123,-50,4,2,99,5,0,0
140167,-50,4,2,1,90,0,0
140338,-50,4,2,4,90,0,0
140424,-50,4,2,3,90,0,0
140510,-50,4,2,2,90,0,0
140595,-50,4,2,3,90,0,0
140681,-66.6666666666667,4,2,4,90,0,0
140766,-66.6666666666667,4,2,3,90,0,0
140852,-50,4,2,1,90,0,0
140937,-50,4,2,3,90,0,0
141024,-43.4782608695652,4,2,4,90,0,0
141109,-43.4782608695652,4,2,3,90,0,0
141195,-43.4782608695652,4,2,2,90,0,0
141451,-43.4782608695652,4,2,3,90,0,0
141537,-43.4782608695652,4,2,1,90,0,0
141793,-43.4782608695652,4,2,3,90,0,0
141880,-500,4,2,2,90,0,0
142051,-250,4,2,4,90,0,0
142223,-166.666666666667,4,2,1,90,0,0
142308,-166.666666666667,4,2,99,5,0,0
142394,-125,4,2,4,90,0,0
142565,-100,4,2,2,90,0,0
142650,-100,4,2,3,90,0,0
142736,-76.9230769230769,4,2,4,90,0,0
142821,-76.9230769230769,4,2,3,90,0,0
142908,-62.5,4,2,1,90,0,0
142993,-62.5,4,2,99,5,0,0
143079,-55.5555555555556,4,2,4,90,0,0
143164,-55.5555555555556,4,2,3,90,0,0
143250,-47.6190476190476,4,2,2,90,0,0
143335,-47.6190476190476,4,2,3,90,0,0
143422,-41.6666666666667,4,2,4,90,0,0
143507,-41.6666666666667,4,2,3,90,0,0
143593,-37.037037037037,4,2,1,90,0,0
143678,-37.037037037037,4,2,3,90,0,0
143764,-33.3333333333333,4,2,3,90,0,0
143935,-33.3333333333333,4,2,2,90,0,0
144191,-33.3333333333333,4,2,3,90,0,0
144278,-50,4,2,6,90,0,0
144363,-50,4,2,99,5,0,0
144449,-66.6666666666667,4,2,2,90,0,0
144534,-66.6666666666667,4,2,3,90,0,0
144621,-66.6666666666667,4,2,5,90,0,0
144792,-66.6666666666667,4,2,4,90,0,0
144963,-66.6666666666667,4,2,6,90,0,0
145048,-66.6666666666667,4,2,99,5,0,0
145134,-66.6666666666667,4,2,5,90,0,0
145219,-66.6666666666667,4,2,2,90,0,0
145477,-66.6666666666667,4,2,4,90,0,0
145648,-83.3333333333333,4,2,1,90,0,0
145733,-83.3333333333333,4,2,99,5,0,0
145820,-66.6666666666667,4,2,4,90,0,0
145991,-55.5555555555556,4,2,2,90,0,0
146162,-47.6190476190476,4,2,4,90,0,0
146247,-47.6190476190476,4,2,3,90,0,0
146333,-47.6190476190476,4,2,6,90,0,0
146504,-47.6190476190476,4,2,5,90,0,0
146590,-47.6190476190476,4,2,4,90,0,0
146676,-47.6190476190476,4,2,2,90,0,0
146932,-47.6190476190476,4,2,3,90,0,0
147018,-47.6190476190476,4,2,6,90,0,0
147189,-47.6190476190476,4,2,2,90,0,0
147275,-47.6190476190476,4,2,3,90,0,0
147361,-47.6190476190476,4,2,5,90,0,0
147446,-47.6190476190476,4,2,1,90,0,0
147532,-47.6190476190476,4,2,5,90,0,0
147618,-47.6190476190476,4,2,4,90,0,0
147704,-47.6190476190476,4,2,6,90,0,0
147875,-47.6190476190476,4,2,5,90,0,0
147960,-47.6190476190476,4,2,2,90,0,0
148302,-47.6190476190476,4,2,4,90,0,0
148389,-47.6190476190476,4,2,6,90,0,0
148560,-47.6190476190476,4,2,5,90,0,0
148646,-47.6190476190476,4,2,4,90,0,0
148731,-66.6666666666667,4,2,5,90,0,0
148816,-66.6666666666667,4,2,1,90,0,0
148903,-66.6666666666667,4,2,5,90,0,0
148988,-66.6666666666667,4,2,3,90,0,0
149074,-66.6666666666667,4,2,6,90,0,0
149245,-66.6666666666667,4,2,5,90,0,0
149331,-66.6666666666667,4,2,4,90,0,0
149416,-50,4,2,2,90,0,0
149672,-50,4,2,3,90,0,0
149759,-50,4,2,6,90,0,0
150015,-50,4,2,3,90,0,0
150102,-50,4,2,5,90,0,0
150273,-50,4,2,4,90,0,0
150444,-50,4,2,6,90,0,0
150529,-50,4,2,99,5,0,0
150615,-50,4,2,5,90,0,0
150871,-50,4,2,3,90,0,0
150958,-50,4,2,4,90,0,0
151043,-50,4,2,3,90,0,0
151129,-50,4,2,1,90,0,0
151300,-50,4,2,4,90,0,0
151386,-50,4,2,3,90,0,0
151472,-66.6666666666667,4,2,2,90,0,0
151557,-66.6666666666667,4,2,3,90,0,0
151643,-100,4,2,4,90,0,0
151728,-100,4,2,3,90,0,0
151814,-100,4,2,6,90,0,0
151986,-50,4,2,5,90,0,0
152328,-50,4,2,2,90,0,0
152414,-50,4,2,3,90,0,0
152500,-43.4782608695652,4,2,6,90,0,0
152671,-43.4782608695652,4,2,2,90,0,0
152756,-43.4782608695652,4,2,3,90,0,0
152842,-66.6666666666667,4,2,5,90,0,0
152927,-66.6666666666667,4,2,1,90,0,0
153013,-66.6666666666667,4,2,5,90,0,0
153099,-66.6666666666667,4,2,4,90,0,0
153185,-66.6666666666667,4,2,6,90,0,0
153356,-66.6666666666667,4,2,5,90,0,0
153870,-66.6666666666667,4,2,6,90,0,0
154041,-66.6666666666667,4,2,5,90,0,0
154127,-66.6666666666667,4,2,3,90,0,0
154212,-66.6666666666667,4,2,5,90,0,0
154297,-66.6666666666667,4,2,3,90,0,0
154384,-66.6666666666667,4,2,5,90,0,0
154469,-66.6666666666667,4,2,3,90,0,0
154555,-50,4,2,6,90,0,0
154640,-50,4,2,3,90,0,0
154726,-100,4,2,7,90,0,0
154811,-100,4,2,3,90,0,0
154897,-43.4782608695652,4,2,2,90,0,0
155153,-43.4782608695652,4,2,3,90,0,0
155240,-43.4782608695652,4,2,6,90,0,0
155325,-43.4782608695652,4,2,99,5,0,0
155411,-66.6666666666667,4,2,2,90,0,0
155496,-66.6666666666667,4,2,3,90,0,0
155583,-55.5555555555556,4,2,5,90,0,0
155754,-55.5555555555556,4,2,4,90,0,0
155925,-76.9230769230769,4,2,6,90,0,0
156010,-76.9230769230769,4,2,99,5,0,0
156096,-76.9230769230769,4,2,5,90,0,0
156181,-76.9230769230769,4,2,2,90,0,0
156524,-76.9230769230769,4,2,4,90,0,0
156610,-100,4,2,1,90,0,0
156695,-100,4,2,99,5,0,0
156782,-71.4285714285714,4,2,4,90,0,0
156953,-55.5555555555556,4,2,2,90,0,0
157124,-45.4545454545455,4,2,4,90,0,0
157209,-45.4545454545455,4,2,3,90,0,0
157295,-45.4545454545455,4,2,6,90,0,0
157467,-45.4545454545455,4,2,5,90,0,0
157552,-45.4545454545455,4,2,4,90,0,0
157638,-45.4545454545455,4,2,2,90,0,0
157894,-45.4545454545455,4,2,3,90,0,0
157981,-41.6666666666667,4,2,6,90,0,0
158237,-41.6666666666667,4,2,3,90,0,0
158323,-52.6315789473684,4,2,5,90,0,0
158580,-52.6315789473684,4,2,4,90,0,0
158666,-52.6315789473684,4,2,6,90,0,0
158751,-52.6315789473684,4,2,99,5,0,0
158837,-52.6315789473684,4,2,5,90,0,0
159008,-52.6315789473684,4,2,2,90,0,0
159264,-52.6315789473684,4,2,4,90,0,0
159351,-52.6315789473684,4,2,6,90,0,0
159522,-52.6315789473684,4,2,5,90,0,0
159608,-52.6315789473684,4,2,4,90,0,0
159693,-100,4,2,5,90,0,0
159778,-100,4,2,1,90,0,0
159865,-76.9230769230769,4,2,5,90,0,0
159950,-76.9230769230769,4,2,3,90,0,0
160036,-62.5,4,2,6,90,0,0
160121,-62.5,4,2,1,90,0,0
160207,-52.6315789473684,4,2,5,90,0,0
160292,-52.6315789473684,4,2,4,90,0,0
160378,-50,4,2,2,90,0,0
160634,-50,4,2,3,90,0,0
160721,-50,4,2,6,90,0,0
160977,-50,4,2,3,90,0,0
161064,-50,4,2,5,90,0,0
161235,-50,4,2,4,90,0,0
161406,-50,4,2,6,90,0,0
161491,-50,4,2,99,5,0,0
161577,-50,4,2,5,90,0,0
161833,-50,4,2,3,90,0,0
161920,-50,4,2,4,90,0,0
162005,-50,4,2,3,90,0,0
162091,-100,4,2,1,90,0,0
162176,-100,4,2,99,5,0,0
162263,-76.9230769230769,4,2,4,90,0,0
162348,-76.9230769230769,4,2,3,90,0,0
162434,-62.5,4,2,2,90,0,0
162519,-62.5,4,2,3,90,0,0
162605,-62.5,4,2,4,90,0,0
162776,-62.5,4,2,6,90,0,0
162948,-62.5,4,2,5,90,0,0
163119,-62.5,4,2,2,90,0,0
163375,-62.5,4,2,3,90,0,0
163462,-50,4,2,6,90,0,0
163633,-50,4,2,2,90,0,0
163718,-50,4,2,3,90,0,0
163804,-50,4,2,5,90,0,0
164061,-50,4,2,4,90,0,0
164147,-66.6666666666667,4,2,6,90,0,0
164232,-66.6666666666667,4,2,99,5,0,0
164318,-66.6666666666667,4,2,5,90,0,0
164832,-66.6666666666667,4,2,6,90,0,0
165003,-66.6666666666667,4,2,5,90,0,0
165089,-66.6666666666667,4,2,3,90,0,0
165174,-66.6666666666667,4,2,5,90,0,0
165259,-66.6666666666667,4,2,3,90,0,0
165346,-50,4,2,5,90,0,0
165431,-50,4,2,3,90,0,0
165517,-40,4,2,6,90,0,0
165688,-40,4,2,7,90,0,0

[Colours]
Combo1 : 155,155,255
Combo2 : 177,100,255
Combo3 : 255,128,191
Combo4 : 240,219,155

[HitObjects]
101,177,9651,5,0,2:2:0:0:
101,177,9822,1,2,2:3:0:0:
31,122,9993,2,1,P|74:103|123:102,1,92.8,2|2,2:3|2:3,0:0:0:0:
332,46,10336,2,1,P|277:35|241:11,1,92.8,2|2,2:3|2:3,0:0:0:0:
151,18,10678,1,2,2:3:0:0:
222,12,10849,2,1,P|270:103|276:218,1,185.6,2|2,2:3|2:3,0:0:0:0:
256,357,11363,5,2,2:3:0:0:
256,357,11535,1,2,2:3:0:0:
269,278,11706,2,1,P|222:286|167:334,1,92.8,2|2,2:3|2:3,0:0:0:0:
165,379,12048,2,1,P|199:314|308:250,1,185.6,2|0,2:3|2:2,0:0:0:0:
486,176,12734,5,2,2:3:0:0:
486,176,12905,1,2,2:3:0:0:
404,164,13076,2,1,P|408:209|442:240,1,92.8,2|2,2:3|2:3,0:0:0:0:
356,86,13419,1,2,2:3:0:0:
285,61,13590,2,1,B|196:75|244:108|94:135,1,185.6,2|2,2:3|2:3,0:0:0:0:
7,48,14104,5,2,2:3:0:0:
7,48,14275,1,2,2:3:0:0:
37,115,14446,2,1,P|26:159|5:201,1,92.8,2|2,2:3|2:3,0:0:0:0:
97,220,14789,2,1,P|111:176|115:130,1,92.8,2|2,2:3|2:3,0:0:0:0:
120,234,15132,1,0,2:2:0:0:
506,182,15474,5,2,2:3:0:0:
506,182,15645,1,2,2:3:0:0:
451,245,15817,2,1,B|407:251|416:265|348:278,1,92.8,2|2,2:3|2:3,0:0:0:0:
361,158,16159,1,2,2:3:0:0:
432,132,16331,2,1,P|379:202|354:331,1,185.6,2|2,2:3|2:3,0:0:0:0:
174,384,16844,2,1,P|142:368|154:311,1,92.8,2|2,2:3|2:3,0:0:0:0:
251,306,17187,1,2,2:3:0:0:
251,306,17358,1,2,2:3:0:0:
282,384,17529,2,1,P|196:320|104:325,1,185.6,2|0,2:3|2:2,0:0:0:0:
21,174,18215,5,2,2:3:0:0:
70,122,18386,1,2,2:3:0:0:
141,133,18557,1,2,2:3:0:0:
84,231,18728,2,1,P|62:181|85:136,1,92.8,2|2,2:3|2:3,0:0:0:0:
172,259,19071,2,1,P|215:184|317:124,1,185.6,2|2,2:3|2:3,0:0:0:0:
216,127,19585,1,2,2:3:0:0:
306,165,19756,1,2,2:3:0:0:
264,59,19927,2,1,B|300:59|284:40|379:38,1,92.8,2|2,2:3|2:3,0:0:0:0:
399,207,20270,2,1,B|453:203|431:228|514:228,1,92.8,0|2,2:2|2:3,0:0:0:0:
481,151,20613,5,0,2:2:0:0:
306,384,20955,6,0,P|285:321|194:236,1,185.6,2|2,2:3|2:3,0:0:0:0:
158,325,21469,1,0,0:0:0:0:
213,375,21640,2,0,P|247:347|242:302,1,92.8,2|2,2:3|2:3,0:0:0:0:
17,186,21983,1,0,2:2:0:0:
10,185,22325,6,1,P|87:135|178:122,1,185.6,2|2,2:3|2:3,0:0:0:0:
140,19,22839,1,0,0:0:0:0:
67,23,23010,2,0,P|47:62|42:120,1,92.8,2|2,2:3|2:3,0:0:0:0:
126,338,23353,1,0,2:2:0:0:
133,345,23696,6,1,P|47:356|6:280,1,185.6,2|2,2:3|2:3,0:0:0:0:
200,201,24209,1,2,2:3:0:0:
129,185,24381,2,0,P|137:254|152:267,1,92.8,2|2,2:3|2:3,0:0:0:0:
343,131,24723,1,0,2:2:0:0:
349,121,25066,6,1,P|305:135|249:175,1,92.8,2|2,2:3|2:3,0:0:0:0:
386,185,25408,2,1,P|345:207|298:257,1,92.8,2|2,2:3|2:3,0:0:0:0:
327,51,25751,2,1,P|281:56|218:84,1,92.8,2|2,2:3|2:3,0:0:0:0:
17,147,26094,5,0,1:1:0:0:
21,218,26436,1,2,1:3:0:0:
86,252,26779,1,2,1:3:0:0:
154,227,27121,1,2,1:3:0:0:
232,225,27464,1,0,1:1:0:0:
283,290,27806,1,2,1:3:0:0:
267,373,28149,1,2,1:3:0:0:
180,372,28492,1,2,1:3:0:0:
180,372,28834,5,0,1:1:0:0:
125,319,29005,1,0,2:2:0:0:
125,238,29177,1,2,1:3:0:0:
191,184,29348,1,2,2:3:0:0:
283,190,29519,1,2,1:3:0:0:
347,244,29690,1,2,2:3:0:0:
433,213,29862,1,2,1:3:0:0:
440,116,30033,1,2,2:3:0:0:
360,69,30204,6,1,P|351:41|354:6,3,46.4,0|0|2|0,1:1|2:2|2:3|2:2,0:0:0:0:
440,116,30547,2,1,P|414:129|397:151,1,46.4,2|0,1:3|0:0,0:0:0:0:
270,4,30718,2,1,P|289:16|311:23,1,46.4,2|0,2:3|0:0,0:0:0:0:
252,304,30889,6,1,B|259:249|327:236|327:236|310:253|310:261,1,139.2,2|0,1:3|0:0,0:0:0:0:
75,331,31232,2,1,P|62:305|72:333,1,87,2|0,1:3|0:0,0:0:0:0:
0,384,31575,6,1,B|271:313|271:313|278:268|334:252,1,348,6|0,1:2|0:0,0:0:0:0:
385,374,31917,2,1,B|292:346|292:346|273:305,1,116,14|0,2:3|0:0,0:0:0:0:
187,300,32088,2,1,L|171:355,1,58,2|0,2:3|0:0,0:0:0:0:
385,374,32260,6,1,B|370:362|370:362|331:176,1,174.000006637573,2|0,1:3|2:2,0:0:0:0:
217,97,32517,1,0,1:1:0:0:
219,101,32602,2,1,B|237:92|237:92|314:129|314:129|320:174,1,116,14|0,2:3|0:0,0:0:0:0:
338,210,32774,2,1,L|372:197,1,23.2,10|0,2:3|0:0,0:0:0:0:
151,193,32945,2,1,B|216:173|216:173|223:165|223:165|389:118,1,174.000006637573,0|8,1:1|2:3,0:0:0:0:
325,41,33202,1,0,0:0:0:0:
319,25,33287,6,1,L|185:352,1,348,12|8,2:2|2:2,0:0:0:0:
151,193,33630,2,1,L|275:273,1,116,0|0,1:1|1:1,0:0:0:0:
26,234,33973,6,1,L|58:223,1,23.2,14|0,2:3|0:0,0:0:0:0:
151,193,34144,2,1,L|124:252,1,58,10|0,2:3|0:0,0:0:0:0:
182,384,34315,6,1,B|156:365|156:365|61:131,1,261.00000995636,0|0,1:1|0:0,0:0:0:0:
251,100,34658,2,1,B|371:69|371:69|194:341,1,348,14|0,2:3|0:0,0:0:0:0:
159,106,35000,2,1,L|103:86,1,46.4,2|0,1:3|0:0,0:0:0:0:
305,305,35171,5,2,2:3:0:0:
334,306,35257,1,0,1:1:0:0:
361,318,35343,1,14,2:3:0:0:
248,256,35514,2,1,L|241:239,1,17.3999994689942,10|0,2:3|0:0,0:0:0:0:
343,14,35685,6,1,L|247:257,1,261.00000995636,0|0,1:1|0:0,0:0:0:0:
459,39,36028,2,1,L|415:290,1,232,14|2,2:3|2:3,0:0:0:0:
328,161,36285,1,8,2:2:0:0:
326,166,36370,6,1,L|422:131,1,87.0000033187867,2|0,1:3|0:0,0:0:0:0:
501,186,36542,6,1,L|453:168,1,29,2|0,1:3|0:0,0:0:0:0:
343,14,36713,6,1,L|280:77,1,58,14|0,2:3|0:0,0:0:0:0:
481,328,36884,6,1,L|419:267,1,87.0000033187867,10|0,2:3|0:0,0:0:0:0:
419,266,37056,6,1,B|156:318|156:318|138:281|88:274,1,348,6|0,1:2|0:0,0:0:0:0:
85,362,37398,2,1,L|203:121,1,261.00000995636,14|0,2:3|0:0,0:0:0:0:
481,328,37741,6,1,B|314:263|314:263|308:254|308:254|257:235,1,232,2|0,1:3|2:2,0:0:0:0:
237,306,37998,1,0,1:1:0:0:
237,306,38083,2,1,L|248:343,1,23.2,14|0,2:3|0:0,0:0:0:0:
6,28,38255,6,1,L|95:282,1,261.00000995636,10|0,2:3|0:0,0:0:0:0:
164,297,38597,2,1,L|153:317,1,23.2,8|0,2:3|0:0,0:0:0:0:
77,0,38768,6,1,L|190:202,1,232,12|0,2:2|2:2,0:0:0:0:
236,135,39025,1,8,2:2:0:0:
240,133,39111,2,1,L|149:96,1,87.0000033187867,0|0,1:1|0:0,0:0:0:0:
203,19,39282,2,1,L|164:27,1,23.2,0|0,1:1|0:0,0:0:0:0:
108,0,39454,5,14,2:3:0:0:
406,211,39625,2,1,B|427:221|427:221|467:206|467:206|473:173,1,87.0000033187867,10|0,2:3|0:0,0:0:0:0:
203,19,39796,6,1,B|294:49|294:49|296:55|296:55|377:82|377:82|388:78|388:78|431:171,1,261.00000995636,0|0,1:1|0:0,0:0:0:0:
406,211,40139,2,1,P|319:136|360:32,1,232,14|2,2:3|2:3,0:0:0:0:
82,116,40481,2,1,B|94:116|94:116|188:77|188:77|203:16,1,174.000006637573,2|2,1:3|2:3,0:0:0:0:
231,148,40738,1,0,1:1:0:0:
240,161,40824,2,1,B|253:174|253:174|331:197,1,87.0000033187867,14|0,2:3|0:0,0:0:0:0:
91,12,40995,6,1,L|184:244,1,232,10|10,2:3|2:3,0:0:0:0:
413,136,41509,6,1,B|484:17|484:17|413:84,1,232,14|2,2:3|2:3,0:0:0:0:
324,187,41766,1,8,2:2:0:0:
318,193,41851,2,1,L|409:172,1,87.0000033187867,2|0,1:3|0:0,0:0:0:0:
313,87,42023,2,1,L|350:102,1,29,2|0,1:3|0:0,0:0:0:0:
512,265,42194,6,1,L|458:193,1,58,14|4,2:3|2:3,0:0:0:0:
445,0,42365,6,1,L|405:111,1,87.0000033187867,10|4,2:3|2:3,0:0:0:0:
193,383,42537,6,1,B|56:313|56:313|192:237|192:237|165:186,1,348,6|0,1:2|0:0,0:0:0:0:
97,174,42879,2,1,B|95:218|95:218|135:289,1,87.0000033187867,14|0,2:3|0:0,0:0:0:0:
229,310,43050,2,1,B|249:303|249:303|255:299|255:299|283:290,1,58,2|0,2:3|0:0,0:0:0:0:
110,365,43222,6,1,L|182:180,1,174.000006637573,2|0,1:3|2:2,0:0:0:0:
303,206,43479,1,0,1:1:0:0:
317,201,43564,2,1,B|328:230|328:230|299:292|299:292|250:286,1,116,14|0,2:3|0:0,0:0:0:0:
173,202,43736,2,1,L|218:222,1,29,10|0,2:3|0:0,0:0:0:0:
381,306,43907,6,1,B|492:250|492:250|394:205,1,174.000006637573,0|8,1:1|2:3,0:0:0:0:
443,365,44164,1,0,0:0:0:0:
435,384,44249,6,1,L|296:52,1,348,12|8,2:2|2:2,0:0:0:0:
367,27,44592,2,1,B|445:92|445:92|445:141,1,116,0|0,1:1|1:1,0:0:0:0:
282,289,44849,1,0,0:0:0:0:
272,285,44935,2,1,L|311:177,1,87.0000033187867,14|0,2:3|0:0,0:0:0:0:
368,124,45106,2,1,L|329:149,1,29,10|0,2:3|0:0,0:0:0:0:
42,139,45277,6,1,L|228:227,1,174.000006637573,0|2,1:1|2:3,0:0:0:0:
226,371,45534,1,0,0:0:0:0:
232,376,45620,2,1,B|414:233|414:233|229:183,1,348,14|0,2:3|0:0,0:0:0:0:
199,213,45962,2,1,L|238:197,1,23.2,2|0,1:3|0:0,0:0:0:0:
319,352,46134,1,2,2:3:0:0:
302,317,46219,1,0,1:1:0:0:
282,289,46305,1,14,2:3:0:0:
144,162,46476,2,1,L|163:129,1,23.2,10|0,2:3|0:0,0:0:0:0:
226,371,46647,6,1,L|297:99,1,261.00000995636,0|0,1:1|0:0,0:0:0:0:
144,162,46990,2,1,B|72:28|72:28|163:110,1,232,14|2,2:3|2:3,0:0:0:0:
293,24,47247,1,8,2:2:0:0:
285,9,47333,2,1,B|275:18|270:37|270:37|192:72,1,87.0000033187867,2|0,1:3|0:0,0:0:0:0:
77,127,47504,2,1,L|12:100,1,58,2|0,1:3|0:0,0:0:0:0:
383,180,47675,2,1,B|373:171|368:152|368:152|290:117,1,116,14|0,2:3|0:0,0:0:0:0:
114,57,47846,2,1,L|134:85,1,29,10|0,2:3|0:0,0:0:0:0:
130,80,48018,6,1,L|40:381,1,261.00000995636,6|0,1:2|0:0,0:0:0:0:
125,381,48360,2,1,B|256:363|256:363|267:333|306:319,1,174,14|0,2:3|0:0,0:0:0:0:
59,221,48703,2,1,B|199:270|199:270|212:296,1,174.000006637573,2|0,1:3|2:2,0:0:0:0:
157,356,48960,1,0,1:1:0:0:
152,359,49045,2,1,L|139:309,1,29,14|0,2:3|0:0,0:0:0:0:
152,165,49217,6,1,B|352:117|352:117|387:61,1,261.00000995636,10|0,2:3|0:0,0:0:0:0:
278,39,49559,2,1,L|314:52,1,29,8|0,2:3|0:0,0:0:0:0:
152,165,49730,6,1,B|28:106|28:106|176:96,1,232,12|0,2:2|2:2,0:0:0:0:
162,0,49987,1,8,2:2:0:0:
190,22,50073,2,1,P|200:76|241:147,1,116,0|0,1:1|0:0,0:0:0:0:
307,190,50244,2,1,P|303:161|292:134,1,40.5999987609864,0|0,1:1|0:0,0:0:0:0:
10,174,50416,5,14,2:3:0:0:
4,173,50587,2,1,L|78:149,1,58,10|0,2:3|0:0,0:0:0:0:
278,39,50758,6,1,B|474:117|474:117|418:11,1,261.00000995636,0|0,1:1|0:0,0:0:0:0:
307,190,51101,2,1,B|527:146|527:146|381:289,1,348,14|0,2:3|0:0,0:0:0:0:
359,107,51443,2,1,L|411:-22,1,116,2|2,1:3|2:3,0:0:0:0:
509,37,51700,1,0,1:1:0:0:
502,48,51786,2,1,B|491:58|491:58|440:77,1,58,14|0,2:3|0:0,0:0:0:0:
136,0,51957,6,1,L|245:358,1,348.000013275147,10|10,2:3|2:3,0:0:0:0:
231,165,52385,1,0,0:0:0:0:
238,168,52471,2,1,B|263:78|263:78|211:21,1,162.399995043945,14|2,2:3|2:3,0:0:0:0:
339,365,52728,1,8,2:2:0:0:
346,373,52814,6,1,L|199:318,1,116,2|0,1:3|0:0,0:0:0:0:
334,3,52985,6,1,L|234:52,1,87.0000033187867,2|0,1:3|0:0,0:0:0:0:
384,302,53156,6,1,L|346:257,1,58,14|4,2:3|2:3,0:0:0:0:
384,54,53327,6,1,L|372:80,1,29,10|4,2:3|2:3,0:0:0:0:
487,135,53499,6,1,B|453:111|390:109|359:164|359:164|352:166|352:166|341:206|284:224|287:225|327:18|423:101|429:172,1,348,6|4,1:2|2:3,0:0:0:0:
384,302,53841,6,1,B|391:298|391:298|409:134|588:100|592:277|407:182,1,348,14|4,2:2|2:3,0:0:0:0:
392,113,54184,6,1,P|357:102|327:70,1,58,2|0,1:2|0:0,0:0:0:0:
396,124,54269,2,1,P|360:131|318:119,1,58,2|0,2:2|0:0,0:0:0:0:
404,127,54355,2,1,P|376:151|334:161,1,58,10|0,2:3|0:0,0:0:0:0:
185,64,54526,6,1,B|159:21|104:17|104:17|80:-46,1,116,14|0,2:2|0:0,0:0:0:0:
117,94,54698,2,1,P|108:112|115:94,1,58,8|4,2:3|2:3,0:0:0:0:
217,168,54869,6,1,P|185:120|184:63,1,116,0|10,1:1|2:3,0:0:0:0:
89,0,55126,1,4,2:3:0:0:
97,0,55211,2,1,P|54:7|69:67,1,87.0000033187867,14|0,2:2|0:0,0:0:0:0:
173,242,55383,2,1,B|191:189|209:201|225:148,1,87.0000033187867,10|4,2:3|2:3,0:0:0:0:
98,0,55554,2,1,B|210:3|253:81|253:81|325:69,1,208.79999362793,2|10,1:2|2:3,0:0:0:0:
429,228,55811,1,4,2:3:0:0:
438,226,55897,2,1,P|403:180|343:160,1,104.399996813965,14|0,2:2|0:0,0:0:0:0:
354,83,56068,2,1,P|349:67|348:50,1,34.7999989379883,10|4,2:3|2:3,0:0:0:0:
173,242,56239,6,1,B|81:210|24:319|24:319|70:254|132:257|132:257|132:198,1,348,6|4,1:2|2:3,0:0:0:0:
217,168,56582,2,1,B|199:56|81:64|81:64|123:85|136:167,1,261.00000995636,14|4,2:2|2:3,0:0:0:0:
52,235,56924,2,1,P|38:215|13:192,1,43.5000016593934,2|0,1:2|0:0,0:0:0:0:
52,235,57010,2,1,P|56:199|48:177,1,43.5000016593934,2|0,2:2|0:0,0:0:0:0:
52,235,57096,2,1,P|28:221|-3:221,1,43.5000016593934,10|0,2:3|0:0,0:0:0:0:
314,384,57267,6,1,B|316:351|280:332|278:339|248:333|253:266,1,116,14|0,2:2|0:0,0:0:0:0:
253,292,57438,2,1,B|267:268|274:245|274:245|284:236,1,58,8|4,2:3|2:3,0:0:0:0:
502,222,57609,6,1,B|412:226|375:295|375:295|310:273,1,174.000006637573,0|10,1:1|2:3,0:0:0:0:
420,359,57866,1,4,2:3:0:0:
426,363,57952,2,1,P|443:323|433:260,1,87.0000033187867,14|0,2:2|0:0,0:0:0:0:
345,234,58123,2,1,P|342:261|379:303,1,58,10|4,2:3|2:3,0:0:0:0:
502,222,58295,6,1,B|453:165|456:89|456:89|397:134,1,174.000006637573,2|10,1:2|2:3,0:0:0:0:
378,166,58551,1,4,2:3:0:0:
388,172,58637,2,1,P|367:134|331:109,1,87.0000033187867,14|0,2:2|0:0,0:0:0:0:
310,317,58808,2,1,P|338:310|355:288,1,58,10|4,2:3|2:3,0:0:0:0:
179,138,58980,6,1,B|235:2|397:73|397:73|335:118|335:118|310:44,1,348,6|4,1:2|2:3,0:0:0:0:
310,317,59322,2,1,B|301:347|301:347|191:275|191:275|271:218,1,261.00000995636,14|4,2:2|2:3,0:0:0:0:
258,143,59665,6,1,P|249:113|243:70,1,43.5000016593934,2|0,1:2|0:0,0:0:0:0:
258,143,59750,2,1,P|236:128|215:103,1,43.5000016593934,2|0,2:2|0:0,0:0:0:0:
258,143,59836,2,1,P|265:109|277:90,1,43.5000016593934,10|0,2:3|0:0,0:0:0:0:
0,235,60007,6,1,B|79:214|79:214|82:198|98:187,1,116,14|0,2:2|0:0,0:0:0:0:
178,137,60179,2,1,P|155:121|127:115,1,58,8|4,2:3|2:3,0:0:0:0:
0,155,60350,6,1,P|55:220|76:304,1,174.000006637573,0|10,1:1|2:3,0:0:0:0:
20,356,60607,1,4,2:3:0:0:
16,361,60692,2,1,P|53:353|38:307,1,87.0000033187867,14|0,2:2|0:0,0:0:0:0:
127,115,60864,2,1,P|134:96|128:115,1,58,10|4,2:3|2:3,0:0:0:0:
245,112,61035,6,1,B|158:108|109:185|109:185|51:193,1,174.000006637573,2|10,1:2|2:3,0:0:0:0:
15,146,61292,1,4,2:3:0:0:
0,155,61378,6,1,P|-4:84|51:18,1,116,14|0,2:2|0:0,0:0:0:0:
184,273,61549,2,1,P|169:265|156:254,1,34.7999989379883,10|4,2:3|2:3,0:0:0:0:
341,218,61720,6,1,B|347:224|347:224|369:218|369:218|386:241|386:241|468:195|480:107|395:60|395:60|423:90|408:145,1,348,6|4,1:2|2:3,0:0:0:0:
341,218,62063,2,1,B|332:133|245:111|245:111|288:140|303:178|303:178|349:177,1,261.00000995636,14|4,2:2|2:3,0:0:0:0:
416,205,62405,6,1,P|441:218|465:248,1,43.5000016593934,2|0,1:2|0:0,0:0:0:0:
416,205,62491,2,1,P|443:202|471:211,1,43.5000016593934,2|0,2:2|0:0,0:0:0:0:
416,205,62577,2,1,P|428:189|466:178,1,43.5000016593934,10|0,2:3|0:0,0:0:0:0:
184,273,62748,2,1,B|169:274|169:274|152:315|92:340,1,116,14|0,2:2|0:0,0:0:0:0:
168,381,62919,2,1,P|195:371|216:351,1,58,8|4,2:3|2:3,0:0:0:0:
143,113,63090,6,1,P|164:250|211:294,1,174.000006637573,0|10,1:1|2:3,0:0:0:0:
320,193,63347,1,4,2:3:0:0:
319,178,63433,2,1,P|282:199|276:241,1,87.0000033187867,14|0,2:2|0:0,0:0:0:0:
216,350,63604,2,1,P|232:326|258:312,1,58,10|4,2:3|2:3,0:0:0:0:
52,243,63776,6,1,B|131:226|231:322|231:322|284:302,1,232,2|10,1:2|2:3,0:0:0:0:
331,355,64032,1,4,2:3:0:0:
338,361,64118,6,1,B|382:298|467:319|467:319|458:140|289:155|289:155|329:161|336:251,1,464,14|4,2:2|2:2,0:0:0:0:
35,120,67201,5,4,1:1:0:0:
101,94,67544,5,2,1:3:0:0:
166,125,67886,5,2,1:3:0:0:
241,75,68143,1,0,2:2:0:0:
246,84,68229,2,1,P|263:46|269:2,1,46.4,2|0,1:3|0:0,0:0:0:0:
165,69,68400,2,1,P|168:46|163:23,1,46.4,2|0,2:3|0:0,0:0:0:0:
163,23,68571,6,1,P|226:62|204:178,1,185.6,0|2,1:1|1:3,0:0:0:0:
108,376,69085,1,2,2:3:0:0:
57,384,69171,1,0,2:2:0:0:
65,377,69257,2,1,P|104:345|153:326,1,92.8,2|2,1:3|2:3,0:0:0:0:
219,163,69599,1,2,1:3:0:0:
147,148,69770,1,2,2:3:0:0:
99,254,69942,6,1,B|207:279|166:320|258:356,1,185.6,0|2,1:1|1:3,0:0:0:0:
419,198,70456,1,2,2:3:0:0:
492,179,70627,2,1,B|492:227|492:227|450:280,1,92.8,2|2,1:3|2:3,0:0:0:0:
384,361,70969,2,1,P|376:329|361:302,1,46.4,0|0,1:1|0:0,0:0:0:0:
473,310,71141,2,1,P|484:289|493:268,1,46.4,2|0,2:3|0:0,0:0:0:0:
460,322,71312,6,1,P|388:275|433:169,1,185.6,0|2,1:1|1:3,0:0:0:0:
476,109,71826,1,2,2:3:0:0:
334,37,71997,1,2,1:3:0:0:
402,16,72168,1,2,2:3:0:0:
376,113,72340,2,1,B|454:131|422:159|512:185,1,139.2,2|0,1:3|0:0,0:0:0:0:
334,37,72682,6,1,B|260:8|260:8|282:47,1,92.8,0|0,1:1|2:2,0:0:0:0:
406,186,73025,2,1,B|332:215|332:215|354:176,1,92.8,2|2,1:3|2:3,0:0:0:0:
231,93,73367,1,2,1:3:0:0:
167,129,73539,1,2,2:3:0:0:
232,165,73710,1,2,1:3:0:0:
131,239,73881,2,1,B|149:146|225:113|225:113|230:92,1,185.6,2|2,2:3|2:3,0:0:0:0:
81,0,74395,6,1,P|90:21|96:43,2,46.4,2|0|2,1:3|0:0|2:3,0:0:0:0:
230,92,74738,6,1,P|206:67|179:53,1,46.4,2|0,2:3|0:0,0:0:0:0:
142,101,74909,2,1,P|162:89|184:83,1,46.4,2|0,2:3|0:0,0:0:0:0:
303,3,75080,6,1,P|287:35|277:78,1,58,0|0,2:2|0:0,0:0:0:0:
256,228,75251,6,1,P|238:196|233:142,1,69.5999978759766,2|0,2:3|0:0,0:0:0:0:
231,164,75423,6,1,B|181:181|181:181|173:192|173:192|118:211,1,116,4|0,1:1|2:2,0:0:0:0:
361,272,75765,2,1,B|310:254|310:254|302:244|302:244|247:225,1,116,2|2,1:3|2:3,0:0:0:0:
59,360,76108,2,1,P|72:274|126:207,1,174,2|0,1:3|0:0,0:0:0:0:
80,87,76450,2,1,P|80:115|91:142,1,58,2|0,1:3|0:0,0:0:0:0:
80,87,76622,2,1,P|94:111|117:129,1,58,2|0,2:3|0:0,0:0:0:0:
268,271,76793,6,1,B|98:296|165:351|43:361,1,232,0|2,1:1|1:3,0:0:0:0:
277,276,77307,1,2,2:3:0:0:
192,242,77478,2,1,P|202:307|230:357,1,116,2|0,1:3|2:2,0:0:0:0:
130,380,77821,2,1,P|123:322|97:271,1,116,2|2,1:3|2:3,0:0:0:0:
287,35,78163,6,1,P|240:94|191:244,1,232,0|2,1:1|1:3,0:0:0:0:
288,26,78677,1,2,2:3:0:0:
229,88,78848,2,1,P|183:60|195:7,1,116,2|2,1:3|2:3,0:0:0:0:
282,307,79191,2,1,P|242:264|190:240,1,116,2|2,1:3|2:3,0:0:0:0:
288,26,79533,6,1,B|281:46|281:46|185:49|127:129|127:129|97:128,1,232,0|2,1:1|1:3,0:0:0:0:
87,53,80047,1,2,2:3:0:0:
247,173,80219,1,2,1:3:0:0:
319,148,80390,1,2,2:3:0:0:
239,159,80561,1,2,1:3:0:0:
192,244,80732,1,2,2:3:0:0:
227,360,80904,5,0,1:1:0:0:
247,289,81246,5,2,1:3:0:0:
203,227,81589,5,2,1:3:0:0:
253,118,81931,5,2,1:3:0:0:
209,60,82103,1,2,2:3:0:0:
268,191,82274,6,1,B|336:197|308:223|386:234,1,116,0|0,1:1|2:2,0:0:0:0:
268,191,82617,6,1,B|295:110|394:25|398:114|347:101,1,174,2|0,1:3|0:0,0:0:0:0:
318,251,82959,6,1,B|391:192|533:173|484:257|444:215,1,208.79999362793,2|0,1:3|0:0,0:0:0:0:
190,206,83302,6,1,B|184:86|271:-74|321:40|248:48,1,243.599992565918,2|0,1:3|0:0,0:0:0:0:
197,216,83644,1,0,1:1:0:0:
133,253,83816,1,0,2:2:0:0:
56,218,83987,1,2,1:3:0:0:
41,118,84158,1,2,2:3:0:0:
47,231,84329,1,2,1:3:0:0:
169,88,84501,1,2,2:3:0:0:
116,345,84672,1,2,1:3:0:0:
209,381,84843,6,1,P|197:342|194:301,1,81.1999975219727,2|0,2:3|0:0,0:0:0:0:
115,163,85014,1,0,1:1:0:0:
160,174,85100,1,0,2:2:0:0:
206,200,85186,1,0,2:2:0:0:
235,232,85271,1,0,2:2:0:0:
246,232,85357,6,1,B|246:195|230:168|230:168|235:154,1,81.1999975219727,2|0,1:3|0:0,0:0:0:0:
194,302,85528,2,1,B|176:269|149:254|149:254|146:239,1,81.1999975219727,2|0,2:3|0:0,0:0:0:0:
185,25,85700,1,2,1:3:0:0:
172,59,85785,1,0,2:2:0:0:
169,88,85871,1,0,2:2:0:0:
169,88,86042,6,1,B|74:90|67:188|79:257|265:244|279:29|126:109,1,348,2|0,1:3|0:0,0:0:0:0:
55,287,86385,6,1,B|49:281|49:281|48:271|48:271|-17:212|-17:212|33:165|33:165|167:228|167:228|75:282,1,348,6|0,1:2|0:0,0:0:0:0:
90,349,86727,2,1,B|165:324|165:324|178:302|221:293,1,116,14|0,2:3|0:0,0:0:0:0:
0,270,86899,2,1,L|85:297,1,58,2|0,2:3|0:0,0:0:0:0:
145,240,87070,6,1,B|277:137|277:137|217:266,1,261.00000995636,2|0,1:3|0:0,0:0:0:0:
145,240,87412,2,1,B|126:195|126:195|147:90,1,116,14|0,2:3|0:0,0:0:0:0:
284,113,87584,2,1,L|261:123,1,23.2,10|0,2:3|0:0,0:0:0:0:
400,284,87755,2,1,L|216:213,1,174.000006637573,0|8,1:1|2:3,0:0:0:0:
142,17,88012,1,0,0:0:0:0:
130,10,88098,2,1,B|134:27|134:27|150:41|150:41|264:342,1,348,12|8,2:2|2:2,0:0:0:0:
400,284,88440,2,1,L|375:128,1,116,0|0,1:1|1:1,0:0:0:0:
316,270,88697,1,0,0:0:0:0:
323,276,88783,2,1,L|310:248,1,23.2,14|0,2:3|0:0,0:0:0:0:
178,186,88954,2,1,B|201:206|201:206|228:207,1,58,10|0,2:3|0:0,0:0:0:0:
381,169,89125,6,1,B|432:109|432:109|341:133|341:133|338:131|338:131|279:148|279:148|299:156,1,261.00000995636,0|0,1:1|0:0,0:0:0:0:
187,283,89468,2,1,B|180:291|180:291|168:256|168:256|180:258|180:258|196:161|300:91|300:91|290:124|306:159|306:159|273:144,1,348,14|0,2:3|0:0,0:0:0:0:
101,252,89810,2,1,B|146:264|146:264|149:270|149:270|196:285,1,92.8,2|2,1:3|2:3,0:0:0:0:
174,153,90067,1,0,1:1:0:0:
164,163,90153,2,1,B|176:163|176:163|207:146,1,46.4,14|0,2:3|0:0,0:0:0:0:
50,313,90324,2,1,L|65:320,1,17.3999994689942,10|0,2:3|0:0,0:0:0:0:
101,252,90496,6,1,B|110:245|110:245|63:53|63:53|37:45|14:0,1,261.00000995636,0|0,1:1|0:0,0:0:0:0:
186,282,90838,2,1,B|180:260|180:260|250:154|250:154|285:157|310:140|310:140|302:162|289:161,1,232,14|2,2:3|2:3,0:0:0:0:
411,343,91095,1,8,2:2:0:0:
399,360,91181,6,1,B|421:344|459:341|459:341|470:320,1,87.0000033187867,2|0,1:3|0:0,0:0:0:0:
405,266,91352,2,1,P|390:276|360:285,1,29,2|0,1:3|0:0,0:0:0:0:
186,282,91523,6,1,P|207:310|222:359,1,58,14|0,2:3|0:0,0:0:0:0:
384,184,91694,6,1,B|384:193|384:193|402:214|397:255|397:255|404:266,1,87.0000033187867,10|0,2:3|0:0,0:0:0:0:
308,384,91866,6,1,B|343:256|223:206|223:206|208:233|208:233|156:253|156:253|205:299,1,348,6|0,1:2|0:0,0:0:0:0:
485,67,92208,2,1,B|493:61|493:61|497:31|497:31|352:55|384:185,1,261.00000995636,14|0,2:3|0:0,0:0:0:0:
338,296,92551,2,1,P|406:356|403:264,1,232,2|0,1:3|2:2,0:0:0:0:
313,207,92808,1,0,1:1:0:0:
303,208,92893,2,1,P|314:216|339:231,1,23.2,14|0,2:3|0:0,0:0:0:0:
383,183,93065,6,1,B|235:144|235:144|214:205|214:205|119:209,1,261.00000995636,10|0,2:3|0:0,0:0:0:0:
0,207,93407,2,1,L|31:201,1,23.2,8|0,2:3|0:0,0:0:0:0:
32,329,93579,6,1,B|67:196|226:247|226:247|220:194|166:193|166:193|176:224,1,348,12|8,2:2|2:2,0:0:0:0:
116,327,93921,2,1,B|118:358|146:373|146:373|136:356|139:304,1,87.0000033187867,0|0,1:1|0:0,0:0:0:0:
181,281,94092,2,1,B|185:287|193:286|193:286|189:284|182:273,1,23.2,0|0,1:1|0:0,0:0:0:0:
423,375,94264,1,14,2:3:0:0:
388,106,94435,6,1,P|399:85|390:109,1,87.0000033187867,10|0,2:3|0:0,0:0:0:0:
383,183,94606,2,1,P|297:207|320:84,1,261.00000995636,0|0,1:1|0:0,0:0:0:0:
403,281,94949,2,1,B|417:141|254:109|233:195|302:204|349:154,1,232,14|2,2:3|2:3,0:0:0:0:
289,259,95206,1,0,0:0:0:0:
277,264,95291,2,1,B|278:270|278:270|321:275|341:317,1,87.0000033187867,2|0,1:3|0:0,0:0:0:0:
498,225,95463,1,2,2:3:0:0:
501,205,95548,1,0,1:1:0:0:
493,209,95634,2,1,P|479:257|493:322,1,87.0000033187867,14|0,2:3|0:0,0:0:0:0:
83,223,95805,6,1,L|4:-28,1,232,10|10,2:3|2:3,0:0:0:0:
111,323,96319,2,1,B|128:277|170:268|170:268|226:89,1,232,14|2,2:3|2:3,0:0:0:0:
143,175,96576,1,8,2:2:0:0:
151,173,96662,6,1,P|131:198|52:225,1,87.0000033187867,2|0,1:3|0:0,0:0:0:0:
111,323,96833,2,1,P|88:317|69:306,1,29,2|0,1:3|0:0,0:0:0:0:
214,126,97004,6,1,P|210:98|200:71,1,58,14|4,2:3|2:3,0:0:0:0:
337,82,97175,6,1,P|324:123|297:157,1,87.0000033187867,10|4,2:3|2:3,0:0:0:0:
111,323,97347,6,1,B|195:303|195:303|205:307|205:307|244:298|244:298|252:291|252:291|360:265|360:265|377:209|436:203,1,348,6|0,1:2|0:0,0:0:0:0:
237,335,97689,2,1,B|232:325|222:320|222:320|182:230,1,87.0000033187867,14|0,2:3|0:0,0:0:0:0:
195,260,97861,2,1,B|211:249|211:249|260:265,1,58,2|0,2:3|0:0,0:0:0:0:
420,205,98032,6,1,B|422:189|439:175|439:175|350:160|338:252,1,174.000006637573,2|0,1:3|2:2,0:0:0:0:
399,295,98289,1,0,1:1:0:0:
399,295,98374,2,1,P|421:319|400:292,1,116,14|0,2:3|0:0,0:0:0:0:
348,166,98546,2,1,P|335:173|320:176,1,29,10|0,2:3|0:0,0:0:0:0:
247,134,98717,2,1,B|229:53|274:15|340:14|328:73|281:64,1,174.000006637573,0|8,1:1|2:3,0:0:0:0:
431,210,98974,1,0,0:0:0:0:
419,205,99060,6,1,B|425:232|442:246|442:246|444:250|444:250|431:253|389:231|401:180|409:200|432:156|391:93|329:59|231:104|229:181,1,348,12|8,2:2|2:2,0:0:0:0:
506,0,99402,2,1,B|440:21|439:76|457:92|458:87|473:109|466:133|436:139,1,174.000006637573,0|0,1:1|1:1,0:0:0:0:
18,206,99659,1,0,0:0:0:0:
12,195,99745,2,1,B|26:197|26:197|39:230|86:243,1,87.0000033187867,14|0,2:3|0:0,0:0:0:0:
118,160,99916,2,1,L|90:169,1,29,10|0,2:3|0:0,0:0:0:0:
140,382,100087,6,1,B|132:354|101:348|101:351|55:385|4:273|70:214|70:214|83:241|83:241|39:259,1,261.00000995636,0|0,1:1|0:0,0:0:0:0:
140,382,100430,2,1,B|147:288|252:278|252:278|233:293|234:306|236:306|234:324|210:328,1,232,14|2,2:3|2:3,0:0:0:0:
15,110,100772,2,1,L|35:120,1,23.2,2|0,1:3|0:0,0:0:0:0:
154,99,100944,1,2,2:3:0:0:
120,121,101029,1,0,1:1:0:0:
118,160,101115,1,14,2:3:0:0:
170,246,101286,2,1,L|192:241,1,23.2,10|0,2:3|0:0,0:0:0:0:
269,141,101458,6,1,B|233:46|109:59|109:59|146:77|145:99|145:99|178:98,1,261.00000995636,0|0,1:1|0:0,0:0:0:0:
358,86,101800,2,1,B|388:64|388:64|355:168|264:162|264:162|273:120,1,232,14|2,2:3|2:3,0:0:0:0:
258,69,102057,1,8,2:2:0:0:
277,65,102143,2,1,P|242:52|201:-8,1,87.0000033187867,2|0,1:3|0:0,0:0:0:0:
358,86,102314,2,1,P|352:57|356:28,1,58,2|0,1:3|0:0,0:0:0:0:
228,240,102485,6,1,B|284:199|215:191|269:141,1,116,14|0,2:3|0:0,0:0:0:0:
328,185,102657,2,1,P|339:193|352:200,1,29,10|0,2:3|0:0,0:0:0:0:
228,240,102828,6,1,B|231:247|231:247|166:236|132:292|132:292|91:185|207:118,1,261.00000995636,6|0,1:2|0:0,0:0:0:0:
217,366,103170,2,1,B|188:270|102:266|102:266|92:247,1,174,14|0,2:3|0:0,0:0:0:0:
6,38,103513,2,1,P|58:114|39:197,1,174.000006637573,2|0,1:3|2:2,0:0:0:0:
70,259,103770,1,0,1:1:0:0:
69,265,103855,2,1,L|96:256,1,29,14|0,2:3|0:0,0:0:0:0:
388,71,104027,6,1,B|402:52|402:52|405:73|405:73|452:94|452:94|328:123|352:202,1,261.00000995636,10|0,2:3|0:0,0:0:0:0:
414,149,104369,2,1,P|422:157|413:150,1,29,8|0,2:3|0:0,0:0:0:0:
388,71,104541,6,1,B|403:82|469:66|393:-29|250:0|238:118|238:118|255:74|309:83,1,348,12|8,2:2|2:2,0:0:0:0:
351,199,104883,2,1,B|327:173|332:147|341:157|341:116|299:98,1,116,0|0,1:1|0:0,0:0:0:0:
220,146,105054,2,1,P|206:157|184:162,1,40.5999987609864,0|0,1:1|0:0,0:0:0:0:
450,22,105226,1,14,2:3:0:0:
371,15,105397,2,1,P|375:40|401:89,1,58,10|0,2:3|0:0,0:0:0:0:
135,308,105568,6,1,B|210:196|344:215|344:215|357:179,1,261.00000995636,0|0,1:1|0:0,0:0:0:0:
450,201,105911,2,1,B|404:168|263:229|369:253|335:356|200:372|266:216|345:166|351:202,1,348,14|0,2:3|0:0,0:0:0:0:
135,308,106253,2,1,B|117:299|114:266|114:266|102:311|144:326,1,116,2|2,1:3|2:3,0:0:0:0:
250,317,106510,1,0,1:1:0:0:
255,321,106596,2,1,B|253:327|253:327|227:328|203:344,1,58,14|0,2:3|0:0,0:0:0:0:
0,128,106767,6,1,B|92:29|92:29|21:202|21:202|13:176,1,348.000013275147,10|10,2:3|2:3,0:0:0:0:
89,78,107195,1,0,0:0:0:0:
97,82,107281,2,1,P|75:48|42:24,1,81.1999975219727,14|0,2:3|0:0,0:0:0:0:
120,228,107452,2,1,P|131:262|132:325,1,81.1999975219727,2|8,2:3|2:2,0:0:0:0:
153,165,107624,6,1,P|167:109|216:70,1,116,2|0,1:3|0:0,0:0:0:0:
214,292,107795,6,1,P|171:286|134:307,1,87.0000033187867,2|0,1:3|0:0,0:0:0:0:
300,145,107966,6,1,P|271:146|246:132,1,58,14|4,2:3|2:3,0:0:0:0:
224,207,108138,6,1,P|234:197|248:192,1,29,10|4,2:3|2:3,0:0:0:0:
486,206,108309,6,1,B|466:226|466:226|451:228|451:228|371:425|361:246|308:170|451:61|505:146,1,435,6|4,1:2|2:3,0:0:0:0:
447,368,108651,2,1,B|438:381|438:381|438:364|438:364|426:349|426:349|472:240|283:471|368:5|512:70|606:146|518:411|447:209|501:136,1,435,14|4,2:2|2:3,0:0:0:0:
407,151,108994,6,1,P|378:131|363:99,1,72.5,2|0,1:2|0:0,0:0:0:0:
411,145,109080,2,1,P|396:112|402:77,1,72.5,2|0,2:2|0:0,0:0:0:0:
416,147,109165,2,1,P|422:111|446:85,1,72.5,10|0,2:3|0:0,0:0:0:0:
120,145,109336,2,1,B|40:162|112:190|-2:218,1,145,14|0,2:2|0:0,0:0:0:0:
49,125,109508,2,1,P|59:98|79:77,1,58,8|4,2:3|2:3,0:0:0:0:
211,198,109679,6,1,B|175:155|122:159|122:159|118:139,1,116,0|10,1:1|2:3,0:0:0:0:
267,141,109936,1,4,2:3:0:0:
273,152,110022,2,1,P|257:112|257:69,1,87.0000033187867,14|0,2:2|0:0,0:0:0:0:
89,298,110193,2,1,P|126:277|138:237,1,87.0000033187867,10|4,2:3|2:3,0:0:0:0:
161,129,110364,6,1,B|155:129|155:129|148:106|129:92|129:92|226:103|237:172|176:283,1,208.79999362793,2|10,1:2|2:3,0:0:0:0:
494,282,110621,1,4,2:3:0:0:
501,285,110707,2,1,B|467:314|451:365|451:365|431:335,1,104.399996813965,14|0,2:2|0:0,0:0:0:0:
406,286,110878,2,1,P|415:269|415:252,1,34.7999989379883,10|4,2:3|2:3,0:0:0:0:
154,375,111049,6,1,B|166:373|166:373|180:350|180:350|105:273|487:165|364:286|428:309,1,348,6|4,1:2|2:3,0:0:0:0:
154,375,111392,2,1,B|146:313|66:292|66:292|49:233|101:215|101:215|86:240|109:287,1,261.00000995636,14|4,2:2|2:3,0:0:0:0:
299,323,111734,6,1,P|316:292|323:257,1,43.5000016593934,2|0,1:2|0:0,0:0:0:0:
289,334,111820,2,1,P|293:369|308:401,1,43.5000016593934,2|0,2:2|0:0,0:0:0:0:
273,333,111906,2,1,P|248:307|217:289,1,43.5000016593934,10|0,2:3|0:0,0:0:0:0:
2,154,112077,6,1,B|51:182|51:182|58:191|58:191|121:226,1,116,14|0,2:2|0:0,0:0:0:0:
83,347,112248,2,1,P|76:318|66:291,1,58,10|4,2:3|2:3,0:0:0:0:
2,154,112420,6,1,B|10:90|54:62|112:88|112:88|76:134,1,174.000006637573,0|10,1:1|2:3,0:0:0:0:
172,174,112676,1,4,2:3:0:0:
178,178,112762,2,1,P|136:191|89:224,1,87.0000033187867,14|0,2:3|0:0,0:0:0:0:
66,291,112933,2,1,P|36:278|-1:254,1,58,10|4,2:3|2:3,0:0:0:0:
271,109,113105,6,1,B|228:101|200:75|200:75|165:87,1,87.0000033187867,2|0,1:3|0:0,0:0:0:0:
303,273,113276,6,1,B|283:274|256:296|256:296|239:285,1,58,10|4,2:3|2:3,0:0:0:0:
163,0,113447,6,1,P|173:48|217:119,1,87.0000033187867,14|0,2:3|0:0,0:0:0:0:
251,293,113619,6,1,P|238:318|231:346,1,58,10|4,2:3|2:3,0:0:0:0:
318,196,113790,6,1,B|344:86|432:133|432:133|440:115|476:106|476:106|416:92|310:85|321:222,1,348,6|4,1:2|2:3,0:0:0:0:
318,196,114132,2,1,B|323:204|323:204|249:190|200:263|292:307|166:157|270:109,1,261.00000995636,14|4,2:2|2:3,0:0:0:0:
444,155,114475,2,1,P|447:176|460:193,1,43.5000016593934,2|0,1:2|0:0,0:0:0:0:
444,155,114561,2,1,P|435:174|437:196,1,43.5000016593934,2|0,2:2|0:0,0:0:0:0:
444,155,114646,2,1,P|458:170|478:178,1,43.5000016593934,10|0,2:3|0:0,0:0:0:0:
301,10,114818,6,1,B|259:54|259:54|278:151,1,116,14|0,2:2|0:0,0:0:0:0:
264,112,114989,2,1,P|237:100|228:71,1,58,8|4,2:3|2:3,0:0:0:0:
456,72,115160,6,1,P|370:16|277:14,1,174.000006637573,0|10,1:1|2:3,0:0:0:0:
348,122,115417,1,4,2:3:0:0:
351,133,115503,2,1,P|376:97|371:31,1,87.0000033187867,14|0,2:2|0:0,0:0:0:0:
456,72,115674,2,1,P|449:43|436:17,1,58,10|4,2:3|2:3,0:0:0:0:
240,242,115845,6,1,B|233:256|233:256|166:248|115:299|115:299|43:285,1,174.000006637573,2|10,1:2|2:3,0:0:0:0:
103,218,116102,1,4,2:3:0:0:
99,214,116188,2,1,B|96:172|137:152|137:152|116:177|126:229,1,116,14|0,2:2|0:0,0:0:0:0:
28,245,116359,2,1,P|17:231|10:216,1,34.7999989379883,10|4,2:3|2:3,0:0:0:0:
240,242,116530,6,1,B|255:233|255:233|240:178|240:178|140:164|94:279|144:375,1,348,6|4,1:2|2:3,0:0:0:0:
215,322,116873,2,1,B|220:322|220:322|226:291|226:291|268:276|268:276|146:279|144:376,1,261.00000995636,14|4,2:2|2:3,0:0:0:0:
87,294,117215,6,1,L|33:276,1,43.5000016593934,2|0,1:2|0:0,0:0:0:0:
87,294,117301,2,1,L|38:313,1,43.5000016593934,2|0,2:2|0:0,0:0:0:0:
87,294,117387,2,1,L|54:258,1,43.5000016593934,10|0,2:3|0:0,0:0:0:0:
298,379,117558,6,1,B|261:337|261:337|272:243,1,116,14|0,2:2|0:0,0:0:0:0:
286,202,117729,2,1,B|293:199|293:199|326:222|326:222|328:231,1,58,8|4,2:3|2:3,0:0:0:0:
174,293,117901,2,1,B|239:236|325:241|325:241|329:226,1,174.000006637573,0|10,1:1|2:3,0:0:0:0:
356,342,118158,1,4,2:3:0:0:
366,343,118243,2,1,P|340:376|273:360,1,87.0000033187867,14|0,2:2|0:0,0:0:0:0:
125,261,118414,2,1,P|150:274|173:292,1,58,10|4,2:3|2:3,0:0:0:0:
363,124,118586,6,1,P|339:160|333:257,1,116,2|0,1:2|0:0,0:0:0:0:
235,384,118757,6,1,B|260:336|261:282|261:282|281:260,1,116,10|4,2:3|2:3,0:0:0:0:
106,136,118928,6,1,B|105:127|110:118|110:118|74:135|70:181|70:181|192:131|300:245|258:308,1,348.000013275147,14|4,2:2|0:0,0:0:0:0:
436,196,127492,5,0,1:1:0:0:
366,222,127835,5,2,1:3:0:0:
452,201,128177,5,2,1:3:0:0:
279,153,128520,5,2,1:3:0:0:
480,184,128863,5,0,1:1:0:0:
210,376,129205,6,1,P|198:333|159:278,1,92.8,2|2,1:3|2:3,0:0:0:0:
306,276,129548,2,1,P|305:322|291:366,1,92.8,2|2,1:3|2:3,0:0:0:0:
48,238,129890,2,1,P|103:248|180:300,1,139.2,2|0,1:3|0:0,0:0:0:0:
48,238,130233,5,0,1:1:0:0:
8,175,130404,1,2,1:3:0:0:
55,110,130575,1,2,1:3:0:0:
135,135,130747,1,2,1:3:0:0:
232,128,130918,1,2,1:3:0:0:
267,37,131089,1,2,1:3:0:0:
375,14,131261,1,2,1:3:0:0:
453,89,131432,1,2,1:3:0:0:
453,89,132631,6,1,B|456:95|456:95|455:72|455:72|472:50|472:50|393:20|311:74|347:197,1,295.800005641937,8|0,2:2|0:0,0:0:0:0:
365,310,132973,6,1,B|356:306|356:306|317:367|317:367|383:323|383:323|391:333|391:333|450:262|450:262|454:229|454:229|461:226|461:226|424:205|426:158|426:158|416:167,1,400.200007633209,6|4,1:2|2:3,0:0:0:0:
266,130,133316,6,1,B|269:124|269:124|257:109|257:109|417:31|417:31|407:77|407:77|425:92|425:92|444:184|444:184|379:142,1,400.200007633209,14|4,2:2|2:3,0:0:0:0:
343,183,133659,2,1,P|342:138|321:72,1,87.0000033187867,2|2,1:2|2:2,0:0:0:0:
166,305,133830,2,1,B|151:309|151:309|131:259|79:245,1,116,10|6,2:3|2:3,0:0:0:0:
266,130,134001,6,1,B|174:118|137:196|137:196|169:229|140:297,1,232,14|10,2:2|2:3,0:0:0:0:
329,345,134344,6,1,P|304:321|294:281,1,58,2|0,1:2|0:0,0:0:0:0:
323,353,134429,6,1,P|357:357|388:384,1,58,2|0,2:2|0:0,0:0:0:0:
334,336,134515,6,1,P|303:352|262:349,1,58,10|0,2:3|0:0,0:0:0:0:
335,357,134601,6,1,P|350:325|385:303,1,58,6|0,2:3|0:0,0:0:0:0:
323,353,134686,6,1,P|252:217|137:150,1,232,14|10,2:2|2:3,0:0:0:0:
9,124,134943,1,6,2:3:0:0:
0,116,135029,2,1,B|6:112|6:112|39:126|39:126|46:139,1,58,2|0,1:2|0:0,0:0:0:0:
46,139,135114,2,1,B|53:138|53:138|73:167|73:167|72:182,1,58,2|0,2:2|0:0,0:0:0:0:
71,182,135200,2,1,B|63:184|56:198|56:198|42:146|106:117,1,116,10|4,2:3|2:3,0:0:0:0:
190,170,135371,2,1,P|257:130|198:181,1,232,14|10,2:2|2:3,0:0:0:0:
188,324,135628,1,6,2:3:0:0:
195,329,135714,6,1,B|199:330|199:330|199:304|199:304|58:371|58:371|71:320|71:320|69:309|69:309|71:254|115:212|115:212|93:243|115:288,1,400.200007633209,6|4,1:2|2:3,0:0:0:0:
313,333,136056,2,1,B|321:189|190:170|190:170|253:192|274:240|274:240|283:247|283:247|286:262|286:262|368:250,1,400.200007633209,14|4,2:2|2:3,0:0:0:0:
206,211,136399,6,1,P|203:250|158:312,1,87.0000033187867,2|2,1:2|2:2,0:0:0:0:
313,333,136570,2,1,P|342:319|314:339,1,104.399996813965,10|6,2:3|2:3,0:0:0:0:
149,383,136742,2,1,B|165:378|165:378|184:330|244:317,1,121.799996282959,14|0,2:2|0:0,0:0:0:0:
441,315,136913,2,1,B|367:300|417:272|277:249,1,139.199995751953,10|4,2:3|2:3,0:0:0:0:
158,48,137084,6,1,P|160:85|202:156,1,69.5999978759766,2|0,1:2|0:0,0:0:0:0:
120,67,137170,6,1,P|148:87|169:114,1,69.5999978759766,2|0,2:2|0:0,0:0:0:0:
100,73,137255,6,1,P|102:36|144:-35,1,69.5999978759766,10|0,2:3|0:0,0:0:0:0:
62,53,137341,6,1,P|90:32|111:6,1,69.5999978759766,6|0,2:3|0:0,0:0:0:0:
62,53,137427,6,1,B|65:71|65:71|156:130|163:278|163:278|197:305,1,278.399991503907,14|10,2:2|2:3,0:0:0:0:
400,258,137684,1,6,2:3:0:0:
403,251,137769,2,1,P|424:216|428:159,1,69.5999978759766,2|0,1:2|0:0,0:0:0:0:
403,251,137855,2,1,P|401:210|373:160,1,69.5999978759766,2|0,2:2|0:0,0:0:0:0:
391,183,137941,2,1,B|331:176|314:219|314:219|316:255|268:270,1,139.199995751953,10|4,2:3|2:3,0:0:0:0:
185,83,138112,6,1,B|202:-13|292:-16|292:-16|237:-2|243:84,1,232,14|10,2:2|2:3,0:0:0:0:
472,113,138369,1,6,2:3:0:0:
481,112,138454,6,1,B|472:108|472:108|472:94|472:94|280:15|280:15|318:183,1,400.200007633209,6|4,1:2|2:3,0:0:0:0:
429,188,138797,2,1,B|438:195|438:195|426:234|426:234|444:263|444:263|271:186|271:186|346:54,1,400.200007633209,14|4,2:2|2:3,0:0:0:0:
407,111,139140,2,1,P|422:86|411:113,1,87.0000033187867,2|2,1:2|2:2,0:0:0:0:
512,288,139311,2,1,B|457:289|417:329|417:329|368:323,1,116,10|6,2:3|2:3,0:0:0:0:
47,249,139482,2,1,B|200:218|200:218|153:382,1,232,14|10,2:2|2:3,0:0:0:0:
331,336,139825,6,1,B|322:335|322:335|307:314|264:302,1,58,2|0,1:2|0:0,0:0:0:0:
304,369,139910,2,1,B|296:363|296:363|295:337|266:303,1,58,2|0,2:2|0:0,0:0:0:0:
224,365,139996,6,1,B|222:356|222:356|237:335|235:290,1,58,10|0,2:3|0:0,0:0:0:0:
184,349,140081,2,1,B|187:339|187:339|211:330|235:292,1,58,6|0,2:3|0:0,0:0:0:0:
176,354,140167,6,1,B|130:227|51:197|51:197|32:147,1,232,14|10,2:2|2:3,0:0:0:0:
56,12,140424,1,6,2:3:0:0:
52,2,140510,2,1,P|75:26|117:46,2,58,2|0|2,1:2|0:0|2:2,0:0:0:0:
53,262,140681,2,1,P|88:244|127:204,1,87.0000033187867,10|4,2:3|2:3,0:0:0:0:
328,0,140852,6,1,B|318:24|299:30|299:30|269:127,1,116,14|2,2:2|2:2,0:0:0:0:
231,183,141024,6,1,B|215:155|193:153|193:153|152:43,1,133.400002544403,10|6,2:3|2:3,0:0:0:0:
164,75,141195,6,1,B|155:83|155:83|358:156|358:156|356:162|356:162|257:272|257:272|285:281,1,400.200007633209,6|4,1:2|2:3,0:0:0:0:
377,172,141537,6,1,B|368:178|364:191|364:191|262:223|262:223|260:227|260:227|255:225|255:225|248:230|248:230|239:231|239:231|123:264|123:264|121:267|121:267|39:291|39:291|69:225,1,400.200007633209,14|4,2:2|2:3,0:0:0:0:
52,261,141880,6,1,L|47:246,1,11.6,2|2,1:2|2:2,0:0:0:0:
103,285,142051,6,1,L|76:264,1,23.2,10|6,2:3|2:3,0:0:0:0:
176,270,142223,6,1,L|130:266,1,34.7999989379883,14|0,2:2|0:0,0:0:0:0:
245,195,142394,6,1,L|197:235,1,46.4,10|4,2:3|2:3,0:0:0:0:
379,93,142565,6,1,P|363:125|354:182,1,58,2|2,1:2|2:2,0:0:0:0:
393,216,142736,6,1,P|385:173|363:129,1,75.3999965484621,10|6,2:3|2:3,0:0:0:0:
348,293,142908,6,1,P|388:302|455:358,1,92.8,14|0,2:2|0:0,0:0:0:0:
490,183,143079,6,1,P|447:189|361:245,1,104.399996813965,10|6,2:3|2:3,0:0:0:0:
456,69,143250,6,1,P|478:103|487:190,1,121.799996282959,2|2,1:2|2:2,0:0:0:0:
474,323,143422,6,1,P|458:282|384:211,1,139.199995751953,10|4,2:3|2:3,0:0:0:0:
292,51,143593,6,1,P|292:100|244:193,1,156.600000597382,14|2,2:2|2:2,0:0:0:0:
0,383,143764,6,1,B|48:312|124:309|124:309|143:262,1,174.000006637573,6|2,2:3|2:2,0:0:0:0:
132,287,143935,6,1,B|127:289|127:289|166:178|301:154|301:154|329:153|329:153|248:182|248:182|245:194|245:194|128:148|154:65|224:103|167:130,1,522.00001991272,6|4,1:2|2:3,0:0:0:0:
87,144,144278,2,1,B|76:165|76:165|100:187|111:218|111:218|149:205,1,116,14|0,2:3|0:0,0:0:0:0:
348,293,144449,2,1,P|330:336|362:378,1,87.0000033187867,10|4,2:3|2:3,0:0:0:0:
347,378,144621,6,1,P|256:341|298:243,1,174.000006637573,2|10,1:3|2:3,0:0:0:0:
217,194,144877,1,6,2:3:0:0:
219,183,144963,2,1,P|166:191|116:235,1,87.0000033187867,14|0,2:3|0:0,0:0:0:0:
214,350,145134,2,1,B|223:344|223:344|230:298|283:251,1,87.0000033187867,10|4,2:3|2:3,0:0:0:0:
452,353,145306,6,1,B|432:270|340:272|340:272|362:334,1,174.000006637573,2|10,1:2|2:3,0:0:0:0:
151,376,145648,6,1,P|180:357|214:349,1,69.5999978759766,14|0,2:2|0:0,0:0:0:0:
257,277,145820,6,1,P|228:255|145:228,1,87.0000033187867,10|6,2:3|2:3,0:0:0:0:
302,124,145991,6,1,P|333:171|350:221,1,104.399996813965,2|2,1:2|2:2,0:0:0:0:
475,214,146162,6,1,B|501:148|499:99|499:99|512:84,1,121.799996282959,10|4,2:3|2:3,0:0:0:0:
502,97,146333,2,1,B|505:89|505:89|382:76|352:187|352:187|385:204|372:253,1,243.599992565918,14|10,2:3|2:3,0:0:0:0:
485,220,146590,1,6,2:3:0:0:
475,214,146676,6,1,B|476:203|476:203|462:219|462:219|468:167|468:167|288:67|288:67|356:151,1,365.399988848877,2|4,1:2|2:3,0:0:0:0:
181,234,147018,2,1,B|173:238|173:238|171:245|171:245|156:241|156:241|47:284|47:284|120:186,1,243.599992565918,14|10,2:3|2:3,0:0:0:0:
55,155,147275,1,4,2:3:0:0:
52,150,147361,2,1,P|104:150|86:216,1,121.799996282959,2|2,1:3|2:2,0:0:0:0:
12,357,147532,1,10,2:3:0:0:
16,320,147618,1,6,2:3:0:0:
50,300,147704,1,14,2:3:0:0:
295,287,147875,2,1,B|304:248|339:234|339:234|311:256|319:291,1,121.799996282959,10|4,2:3|2:3,0:0:0:0:
345,240,148046,6,1,B|350:252|350:252|211:230|140:336|140:336|149:258|211:199,1,365.399988848877,2|6,1:2|2:3,0:0:0:0:
141,134,148389,2,1,B|84:54|-8:115|-8:115|51:110|73:210,1,243.599992565918,14|10,2:3|2:3,0:0:0:0:
180,233,148646,1,6,2:3:0:0:
190,242,148731,2,1,P|176:207|173:115,1,87.0000033187867,2|2,1:3|2:2,0:0:0:0:
263,247,148903,2,1,P|272:204|288:164,1,87.0000033187867,10|4,2:3|2:3,0:0:0:0:
51,149,149074,2,1,P|116:89|201:71,1,174.000006637573,14|10,2:3|2:3,0:0:0:0:
316,82,149331,5,6,2:3:0:0:
322,89,149416,2,1,B|326:94|326:94|333:83|333:83|359:75|359:75|369:48|408:26|408:26|314:9|237:87|301:187,1,348,6|4,1:2|2:3,0:0:0:0:
263,247,149759,2,1,B|224:343|423:387|473:149|363:158,1,348,14|4,2:3|2:3,0:0:0:0:
263,247,150102,2,1,B|256:238|256:238|351:219|399:289|399:289|387:331|460:362,1,232,2|10,1:3|2:3,0:0:0:0:
481,287,150358,1,6,2:3:0:0:
475,289,150444,2,1,B|518:301|558:251|497:253|475:289,1,116,14|0,2:3|0:0,0:0:0:0:
285,343,150615,6,1,B|285:276|216:177|195:206|195:206|186:193|160:187|160:187|238:215|250:248|250:248|295:242,1,348,10|2,2:3|2:2,0:0:0:0:
349,290,150958,2,1,B|375:259|366:224|366:224|365:252|319:305,1,116,10|6,2:3|2:3,0:0:0:0:
69,346,151129,2,1,B|158:322|70:289|198:231|265:245,1,232,14|10,2:2|2:3,0:0:0:0:
205,290,151386,1,6,2:3:0:0:
215,289,151472,2,1,B|185:322|179:360|179:360|156:346,1,87.0000033187867,2|2,1:2|2:2,0:0:0:0:
65,233,151643,2,1,P|89:216|109:196,1,58,10|4,2:3|2:3,0:0:0:0:
131,278,151814,5,14,2:3:0:0:
135,281,151986,6,1,B|252:59|41:-82|-106:44|46:148|85:52,1,464,10|10,2:3|2:3,0:0:0:0:
285,203,152414,1,4,2:3:0:0:
287,209,152500,2,1,B|284:212|284:212|271:193|271:193|254:196|254:196|233:163|181:150|181:150|197:79|239:73|239:73|223:88|226:115,1,266.800005088806,14|10,2:3|2:3,0:0:0:0:
328,84,152756,1,4,2:3:0:0:
329,93,152842,2,1,B|290:59|350:24|325:102,1,87.0000033187867,2|2,1:3|2:2,0:0:0:0:
198,207,153013,1,10,2:3:0:0:
168,227,153099,1,6,2:3:0:0:
168,266,153185,1,14,2:3:0:0:
383,143,153356,6,1,B|388:146|388:146|398:132|420:114|420:114|280:108|199:237|199:237|195:168,1,348.000013275147,10|10,2:3|2:3,0:0:0:0:
484,366,153870,2,1,B|418:316|338:309|338:309|329:297,1,174.000006637573,14|10,2:3|2:3,0:0:0:0:
488,269,154127,1,6,2:3:0:0:
491,263,154212,2,1,B|482:261|482:261|457:294|398:305,1,87.0000033187867,2|2,1:3|2:2,0:0:0:0:
247,357,154384,2,1,P|273:342|251:361,1,87.0000033187867,10|4,2:3|2:3,0:0:0:0:
280,238,154555,6,1,P|276:290|328:297,1,116,14|2,2:3|2:2,0:0:0:0:
416,300,154726,2,1,P|398:323|386:349,1,58,6|2,2:3|2:2,0:0:0:0:
281,238,154897,6,1,B|292:235|292:235|271:193|200:181|200:181|216:179|216:179|203:171|203:171|179:134|183:57|183:57|195:131|238:161|238:161|234:168,1,400.200007633209,6|4,1:2|2:3,0:0:0:0:
293,49,155240,2,1,P|263:73|297:51,1,133.400002544403,14|0,2:3|0:0,0:0:0:0:
198,245,155411,2,1,B|203:205|232:177|232:177|233:168,1,87.0000033187867,10|4,2:3|2:3,0:0:0:0:
128,71,155583,2,1,B|121:61|121:61|207:31|262:112|228:184,1,208.79999362793,2|10,1:3|2:3,0:0:0:0:
143,150,155839,1,6,2:3:0:0:
136,145,155925,2,1,P|138:182|130:219,1,75.3999965484621,14|0,2:3|0:0,0:0:0:0:
75,351,156096,6,1,P|38:360|10:383,1,75.3999965484621,10|4,2:3|2:3,0:0:0:0:
181,360,156268,2,1,B|185:368|185:368|115:379|51:286|134:215,1,226.199989645386,2|6,1:2|2:3,0:0:0:0:
64,174,156610,6,1,P|49:166|64:177,1,58,14|0,2:2|0:0,0:0:0:0:
271,217,156782,6,1,P|226:225|193:252,1,81.1999975219727,10|6,2:3|2:3,0:0:0:0:
161,72,156953,6,1,P|106:68|39:20,1,104.399996813965,2|2,1:2|2:2,0:0:0:0:
322,103,157124,6,1,B|258:174|324:159|253:239,1,127.600003894043,10|4,2:3|2:3,0:0:0:0:
215,152,157295,5,14,2:3:0:0:
219,156,157467,2,1,P|188:126|260:90,1,127.600003894043,10|6,2:3|2:3,0:0:0:0:
389,174,157638,6,1,B|399:179|399:179|439:168|488:224|488:224|438:92|312:80|312:80|330:120,1,382.800011682129,2|4,1:2|2:3,0:0:0:0:
306,355,157981,6,1,B|312:201|473:160|473:160|424:222|424:222|437:248|437:248|407:252,1,417.59998725586,14|4,2:3|2:3,0:0:0:0:
337,7,158323,2,1,B|292:33|271:-67|384:-66|411:66|337:116|302:104,1,220.399994114685,2|10,1:3|2:3,0:0:0:0:
219,156,158580,1,6,2:3:0:0:
213,161,158666,2,1,B|278:187|233:205|316:239,1,110.199997057343,14|0,2:3|0:0,0:0:0:0:
353,172,158837,5,10,2:3:0:0:
358,176,159008,6,1,B|362:186|362:186|154:202|79:368,1,330.599991172028,2|6,1:2|2:3,0:0:0:0:
130,191,159351,2,1,P|41:193|97:261,1,220.399994114685,14|10,2:3|2:3,0:0:0:0:
182,343,159608,1,6,2:3:0:0:
186,348,159693,6,1,P|182:313|158:260,1,58,2|2,1:3|2:2,0:0:0:0:
140,122,159865,6,1,B|128:147|124:189|124:189|130:190,1,75.3999965484621,10|4,2:3|2:3,0:0:0:0:
262,351,160036,6,1,P|264:315|251:259,1,92.8,14|2,2:3|2:2,0:0:0:0:
52,59,160207,6,1,P|100:82|157:153,1,110.199997057343,10|6,2:3|2:3,0:0:0:0:
175,291,160378,6,1,B|190:207|286:186|325:209|325:209|290:200|251:207|251:207|248:216|248:216|224:220|211:240|211:240|207:217,1,348,6|4,1:2|2:3,0:0:0:0:
9,209,160721,2,1,B|62:107|206:125|206:125|154:152|141:200|141:200|88:152,1,348,14|4,2:3|2:3,0:0:0:0:
9,209,161064,2,1,B|132:199|163:290|163:290|155:320|196:349,1,232,2|10,1:3|2:3,0:0:0:0:
62,302,161321,1,6,2:3:0:0:
67,297,161406,2,1,B|54:379|-25:303|94:292,1,116,14|0,2:3|0:0,0:0:0:0:
314,346,161577,6,1,B|314:357|314:357|264:303|173:330|173:330|183:239|252:210|252:210|240:236|260:270,1,348,10|2,2:3|2:2,0:0:0:0:
314,346,161920,2,1,B|318:308|369:299|369:299|341:310|339:355,1,116,10|6,2:3|2:3,0:0:0:0:
238,340,162091,6,1,P|228:302|235:256,1,58,14|0,2:2|0:0,0:0:0:0:
423,249,162263,6,1,P|384:276|362:315,1,75.3999965484621,10|6,2:3|2:3,0:0:0:0:
259,104,162434,6,1,B|255:100|255:100|251:51|220:22,1,92.8,2|2,1:2|2:2,0:0:0:0:
161,102,162605,2,1,P|236:118|344:209,1,185.6,10|14,2:3|2:3,0:0:0:0:
157,106,162948,1,10,2:3:0:0:
423,249,163119,6,1,B|475:125|344:53|344:53|340:84|340:84|405:88,1,278.4,6|4,1:2|2:3,0:0:0:0:
323,180,163462,2,1,B|254:225|290:320|417:292|385:198,1,232,14|10,2:3|2:3,0:0:0:0:
440,143,163718,1,4,2:3:0:0:
448,147,163804,2,1,B|477:122|477:122|408:105|364:37|364:37|345:101,1,232,2|10,1:3|2:3,0:0:0:0:
318,295,164061,1,6,2:3:0:0:
303,319,164147,2,1,B|279:280|309:285|254:208,1,87.0000033187867,14|0,2:3|0:0,0:0:0:0:
201,223,164318,6,1,B|225:112|398:117|398:117|320:121|309:246,1,348.000013275147,10|10,2:3|2:3,0:0:0:0:
201,222,164832,2,1,P|123:207|138:130,1,174.000006637573,14|10,2:3|2:3,0:0:0:0:
235,135,165089,1,6,2:3:0:0:
226,140,165174,6,1,P|250:123|229:143,1,87.0000033187867,2|2,1:3|2:2,0:0:0:0:
323,177,165346,2,1,P|286:221|279:278,1,116,10|4,2:3|2:3,0:0:0:0:
72,303,165517,6,1,B|62:302|62:302|64:345|64:345|167:242|131:102,1,290,14|6,2:3|2:3,0:0:0:0:
