osu file format v14

[General]
AudioFilename: audio.mp3
AudioLeadIn: 0
PreviewTime: 50019
Countdown: 0
SampleSet: Soft
StackLeniency: 0.2
Mode: 0
LetterboxInBreaks: 0
WidescreenStoryboard: 0

[Editor]
Bookmarks: 8394,27594,51594,70794,89994,109194,128394,147594,152394,171594,190794,209994,229194,248394,267594,277194
DistanceSpacing: 2.3
BeatDivisor: 4
GridSize: 32
TimelineZoom: 2.5

[Metadata]
Title:Fu Xiang Di Xin De Luo Ri Liu Hao ~ Little Raven
TitleUnicode:浮向地心的落日六号 ~ Little Raven
Artist:SEPHID feat. darkxixin
ArtistUnicode:SEPHID feat. darkxixin
Creator:Realazy
Version:Solar Flare
Source:東方地霊殿 ~ Subterranean Animism.
Tags:Firika Oiso Karen Kagamine Ren Suiyu 叶紫蝉 清则 NoisiestLunatic 千年戦争~iek loin staim haf il dis o-del al 東方Project Touhou Chireiden 11 th11 霊知の太陽信仰 Reichi no Taiyou Shinkou Solar Sect of Mystic Wisdom ~ Nuclear Fusion 霊烏路 空 Reiuji Utsuho okuu drumstep j-core electronic chinese
BeatmapID:2446824
BeatmapSetID:1173187

[Difficulty]
HPDrainRate:6
CircleSize:4
OverallDifficulty:9
ApproachRate:9.6
SliderMultiplier:2.12
SliderTickRate:1

[Events]
//Background and Video events
0,0,"littleraven.jpg",0,0
//Break Periods
2,162194,165894
//Storyboard Layer 0 (Background)
//Storyboard Layer 1 (Fail)
//Storyboard Layer 2 (Pass)
//Storyboard Layer 3 (Foreground)
//Storyboard Layer 4 (Overlay)
//Storyboard Sound Samples

[TimingPoints]
8394,300,4,2,0,40,1,0
8394,-303.030303030303,4,2,0,40,0,0
13194,-250,4,2,0,50,0,0
15594,-250,4,2,0,60,0,0
16794,-303.030303030303,4,2,0,50,0,0
17394,-400,4,2,0,40,0,0
17994,-200,4,2,0,40,0,0
22794,-166.666666666667,4,2,1,45,0,0
23994,-133.333333333333,4,2,1,50,0,0
24594,-133.333333333333,4,2,1,50,0,0
25194,-133.333333333333,4,2,1,60,0,0
26994,-399.999999999997,4,2,1,70,0,0
27519,-399.999999999997,4,2,1,5,0,0
27594,-79.9999999999999,4,2,1,70,0,0
27969,-79.9999999999999,4,2,1,5,0,0
28044,-79.9999999999999,4,2,1,70,0,0
28419,-79.9999999999999,4,2,1,5,0,0
28494,-79.9999999999999,4,2,1,70,0,0
28719,-79.9999999999999,4,2,1,5,0,0
28794,-200,4,2,1,60,0,0
29994,-80,4,2,1,70,0,0
30369,-79.9999999999999,4,2,1,5,0,0
30444,-79.9999999999999,4,2,1,70,0,0
30819,-79.9999999999999,4,2,1,5,0,0
30894,-79.9999999999999,4,2,1,70,0,0
30969,-79.9999999999999,4,2,1,5,0,0
31044,-200,4,2,1,60,0,0
31719,-200,4,2,1,5,0,0
31794,-200,4,2,1,60,0,0
32019,-200,4,2,1,5,0,0
32094,-200,4,2,1,60,0,0
32319,-200,4,2,1,5,0,0
32394,-80,4,2,1,70,0,0
32769,-79.9999999999999,4,2,1,5,0,0
32844,-79.9999999999999,4,2,1,70,0,0
33219,-79.9999999999999,4,2,1,5,0,0
33294,-79.9999999999999,4,2,1,70,0,0
33519,-79.9999999999999,4,2,1,5,0,0
33594,-200,4,2,1,70,0,0
34119,-200,4,2,1,5,0,0
34194,-200,4,2,1,70,0,0
34719,-200,4,2,1,5,0,0
34794,-80,4,2,1,70,0,0
35169,-79.9999999999999,4,2,1,5,0,0
35244,-79.9999999999999,4,2,1,70,0,0
35619,-79.9999999999999,4,2,1,5,0,0
35694,-79.9999999999999,4,2,1,70,0,0
35919,-79.9999999999999,4,2,1,5,0,0
35994,-133.333333333333,4,2,1,70,0,0
36519,-133.333333333333,4,2,1,5,0,0
36594,-133.333333333333,4,2,1,70,0,0
37119,-133.333333333333,4,2,1,5,0,0
37194,-200,4,2,1,60,0,0
41544,-100,4,2,2,70,0,0
41994,-100,4,2,1,70,0,0
46794,-80,4,2,1,80,0,0
47994,-66.6666666666667,4,2,1,90,0,0
49194,-50,4,2,1,70,0,0
51294,-400,4,2,2,70,0,0
51519,-400,4,2,1,5,0,0
51594,-100,4,2,1,50,0,0
51894,-66.6666666666667,4,2,1,90,0,1
52119,-66.6666666666667,4,2,1,5,0,1
52194,-66.6666666666667,4,2,1,90,0,1
52494,-57.1428571428571,4,2,1,90,0,1
52719,-57.1428571428571,4,2,1,5,0,1
52794,-80,4,2,1,90,0,1
53019,-80,4,2,1,5,0,1
53094,-100,4,2,1,90,0,1
53394,-57.1428571428571,4,2,1,90,0,1
53619,-57.1428571428571,4,2,1,5,0,1
53694,-57.1428571428571,4,2,1,90,0,1
53919,-57.1428571428571,4,2,1,5,0,1
53994,-100,4,2,1,90,0,1
54219,-100,4,2,1,5,0,1
54294,-66.6666666666667,4,2,1,90,0,1
54894,-57.1428571428571,4,2,1,90,0,1
55119,-57.1428571428571,4,2,1,5,0,1
55194,-100,4,2,1,90,0,1
55794,-80,4,2,1,90,0,1
56394,-66.6666666666667,4,2,1,90,0,1
56619,-66.6666666666667,4,2,1,5,0,1
56694,-66.6666666666667,4,2,1,90,0,1
56994,-57.1428571428571,4,2,1,90,0,1
57219,-57.1428571428571,4,2,1,5,0,1
57294,-50,4,2,1,90,0,1
57519,-50,4,2,1,5,0,1
57594,-66.6666666666667,4,2,1,90,0,1
57819,-66.6666666666667,4,2,1,5,0,1
57894,-100,4,2,1,90,0,1
58194,-66.6666666666667,4,2,1,90,0,1
58419,-66.6666666666667,4,2,1,5,0,1
58494,-57.1428571428571,4,2,1,90,0,1
58719,-57.1428571428571,4,2,1,5,0,1
58794,-80,4,2,1,90,0,1
59019,-80,4,2,1,5,0,1
59094,-80,4,2,1,90,0,1
59319,-80,4,2,1,5,0,1
59394,-57.1428571428571,4,2,1,90,0,1
59619,-57.1428571428571,4,2,1,5,0,1
59694,-66.6666666666667,4,2,1,90,0,1
59919,-66.6666666666667,4,2,1,5,0,1
59994,-50,4,2,1,90,0,1
60219,-50,4,2,1,5,0,1
60294,-50,4,2,1,90,0,1
60519,-50,4,2,1,5,0,1
60594,-44.4444444444445,4,2,1,90,0,1
60819,-44.4444444444445,4,2,1,5,0,1
60894,-44.4444444444445,4,2,1,90,0,1
61119,-44.4444444444445,4,2,1,5,0,1
61194,-100,4,2,1,50,0,0
61494,-66.6666666666667,4,2,1,90,0,1
61719,-66.6666666666667,4,2,1,5,0,1
61794,-66.6666666666667,4,2,1,90,0,1
62094,-57.1428571428571,4,2,1,90,0,1
62319,-57.1428571428571,4,2,1,5,0,1
62394,-80,4,2,1,90,0,1
62619,-80,4,2,1,5,0,1
62694,-100,4,2,1,90,0,1
62994,-57.1428571428571,4,2,1,90,0,1
63219,-57.1428571428571,4,2,1,5,0,1
63294,-57.1428571428571,4,2,1,90,0,1
63519,-57.1428571428571,4,2,1,5,0,1
63594,-100,4,2,1,90,0,1
63819,-100,4,2,1,5,0,1
63894,-66.6666666666667,4,2,1,90,0,1
64494,-57.1428571428571,4,2,1,90,0,1
64719,-57.1428571428571,4,2,1,5,0,1
64794,-100,4,2,1,90,0,1
65394,-80,4,2,1,90,0,1
65994,-133.333333333333,4,2,2,90,0,1
66444,-66.6666666666667,4,2,2,90,0,1
66594,-100,4,2,2,90,0,1
66819,-100,4,2,2,5,0,1
66894,-66.6666666666667,4,2,2,90,0,1
67119,-66.6666666666667,4,2,2,5,0,1
67194,-100,4,2,2,90,0,1
67419,-100,4,2,2,5,0,1
67494,-100,4,2,2,90,0,1
67794,-80,4,2,2,90,0,1
68019,-80,4,2,2,5,0,1
68094,-66.6666666666667,4,2,2,90,0,1
68319,-66.6666666666667,4,2,2,5,0,1
68394,-66.6666666666667,4,2,2,90,0,1
69594,-133.333333333333,4,2,1,60,0,0
70044,-117.647058823529,4,2,1,65,0,0
70494,-100,4,2,1,70,0,0
70719,-100,4,2,1,5,0,0
70794,-100,4,2,1,80,0,0
76494,-80,4,2,1,80,0,0
76719,-80,4,2,1,5,0,0
76794,-80,4,2,1,80,0,0
77019,-80,4,2,1,5,0,0
77094,-80,4,2,1,80,0,0
77319,-80,4,2,1,5,0,0
77394,-80,4,2,1,80,0,0
77919,-80,4,2,1,5,0,0
77994,-100,4,2,1,80,0,0
78219,-100,4,2,1,5,0,0
78294,-100,4,2,1,80,0,0
78519,-100,4,2,1,5,0,0
78594,-100,4,2,1,80,0,0
80694,-80,4,2,1,90,0,0
88794,-1000,4,2,1,60,0,0
89544,-200,4,2,1,60,0,0
89919,-200,4,2,1,5,0,0
89994,-133.333333333333,4,2,1,70,0,0
90144,-133.333333333333,4,2,3,70,0,0
90894,-100,4,2,3,70,0,0
91494,-133.333333333333,4,2,3,70,0,0
93294,-100,4,2,3,70,0,0
93894,-133.333333333333,4,2,3,70,0,0
94494,-66.6666666666667,4,2,1,70,0,0
94719,-66.6666666666667,4,2,3,5,0,0
94794,-133.333333333333,4,2,1,70,0,0
94944,-133.333333333333,4,2,3,70,0,0
98094,-100,4,2,3,70,0,0
98694,-133.333333333333,4,2,3,70,0,0
99294,-57.1428571428571,4,2,2,70,0,0
99519,-57.1428571428571,4,2,2,5,0,0
99594,-80,4,2,2,70,0,0
100494,-200,4,2,2,70,0,0
100794,-80,4,2,2,70,0,0
101694,-133.333333333333,4,2,2,70,0,0
101994,-79.9999999999999,4,2,2,70,0,0
102744,-66.6666666666667,4,2,2,70,0,0
103194,-79.9999999999999,4,2,2,70,0,0
104094,-57.1428571428571,4,2,2,70,0,0
104394,-133.333333333333,4,2,2,70,0,0
105444,-111.111111111111,4,2,2,70,0,0
106044,-95.2380952380952,4,2,2,70,0,0
106794,-80,4,2,2,70,0,0
108894,-66.6666666666667,4,2,2,70,0,0
109119,-66.6666666666667,4,2,1,5,0,0
109194,-80,4,2,2,90,0,0
109269,-80,4,2,2,5,0,0
109344,-80,4,2,2,90,0,0
109419,-80,4,2,2,5,0,0
109494,-1000,4,2,2,90,0,0
110094,-80,4,2,2,90,0,0
110169,-80,4,2,2,5,0,0
110244,-400,4,2,2,90,0,0
110469,-400,4,2,2,5,0,0
110544,-80,4,2,2,90,0,0
110619,-80,4,2,2,5,0,0
110694,-400,4,2,2,90,0,0
110919,-400,4,2,2,5,0,0
110994,-50,4,2,2,90,0,0
111219,-50,4,2,2,5,0,0
111294,-80,4,2,2,90,0,0
111369,-80,4,2,2,5,0,0
111444,-400,4,2,2,90,0,0
111669,-400,4,2,2,5,0,0
111744,-80,4,2,2,90,0,0
111819,-80,4,2,2,5,0,0
111894,-400,4,2,2,90,0,0
112119,-400,4,2,2,5,0,0
112194,-66.6666666666667,4,2,2,90,0,0
112494,-80,4,2,2,90,0,0
112569,-80,4,2,2,5,0,0
112644,-400,4,2,2,90,0,0
112869,-400,4,2,2,5,0,0
112944,-80,4,2,2,90,0,0
113019,-80,4,2,2,5,0,0
113094,-400,4,2,2,90,0,0
113319,-400,4,2,2,5,0,0
113394,-400,4,2,2,90,0,0
113619,-400,4,2,2,5,0,0
113694,-400,4,2,2,90,0,0
113919,-400,4,2,2,5,0,0
113994,-80,4,2,2,90,0,0
114069,-80,4,2,2,5,0,0
114144,-80,4,2,2,90,0,0
114219,-80,4,2,2,5,0,0
114294,-400,4,2,2,90,0,0
114519,-400,4,2,2,5,0,0
114594,-66.6666666666667,4,2,2,90,0,0
114819,-66.6666666666667,4,2,2,5,0,0
114894,-80,4,2,2,90,0,0
114969,-80,4,2,2,5,0,0
115044,-400,4,2,2,90,0,0
115269,-400,4,2,2,5,0,0
115344,-80,4,2,2,90,0,0
115419,-80,4,2,2,5,0,0
115494,-400,4,2,2,90,0,0
115719,-400,4,2,2,5,0,0
115794,-100,4,2,2,90,0,0
116394,-66.6666666666667,4,2,2,90,0,0
116619,-66.6666666666667,4,2,2,5,0,0
116694,-66.6666666666667,4,2,2,90,0,0
116919,-66.6666666666667,4,2,2,5,0,0
117144,-66.6666666666667,4,2,2,90,0,0
117369,-66.6666666666667,4,2,2,5,0,0
117594,-66.6666666666667,4,2,2,90,0,0
117819,-66.6666666666667,4,2,2,5,0,0
118044,-66.6666666666667,4,2,2,90,0,0
118269,-66.6666666666667,4,2,2,5,0,0
118494,-66.6666666666667,4,2,2,90,0,0
118719,-66.6666666666667,4,2,2,5,0,0
118794,-133.333333333333,4,2,2,90,0,0
119394,-66.6666666666667,4,2,2,90,0,0
119619,-66.6666666666667,4,2,2,5,0,0
119694,-80,4,2,2,90,0,0
119844,-400,4,2,2,90,0,0
120144,-80,4,2,2,90,0,0
120294,-400,4,2,2,90,0,0
120594,-57.1428571428571,4,2,2,90,0,0
120819,-57.1428571428571,4,2,2,5,0,0
120894,-80,4,2,2,90,0,0
121044,-400,4,2,2,90,0,0
121344,-80,4,2,2,90,0,0
121494,-400,4,2,2,90,0,0
121794,-66.6666666666667,4,2,2,90,0,0
122094,-80,4,2,2,90,0,0
122244,-400,4,2,2,90,0,0
122544,-80,4,2,2,90,0,0
122694,-400,4,2,2,90,0,0
123594,-133.333333333333,4,2,2,90,0,0
124044,-80,4,2,2,90,0,0
124194,-100,4,2,2,90,0,0
124419,-100,4,2,2,5,0,0
124494,-80,4,2,2,90,0,0
124719,-80,4,2,2,5,0,0
124794,-100,4,2,2,90,0,0
125019,-100,4,2,2,5,0,0
125094,-100,4,2,2,90,0,0
125394,-80,4,2,2,90,0,0
125619,-80,4,2,2,5,0,0
125694,-66.6666666666667,4,2,2,90,0,0
125919,-66.6666666666667,4,2,2,5,0,0
125994,-66.6666666666667,4,2,2,70,0,0
127194,-66.6666666666667,4,2,2,80,0,0
128094,-400,4,2,2,60,0,0
128319,-400,4,2,2,5,0,0
128394,-133.333333333333,4,2,2,60,0,0
128544,-100,4,2,2,70,0,0
128694,-133.333333333333,4,2,2,80,0,0
128919,-133.333333333333,4,2,2,5,0,0
128994,-133.333333333333,4,2,2,90,0,0
129294,-79.9999999999999,4,2,2,90,0,0
129444,-400,4,2,2,90,0,0
129744,-79.9999999999999,4,2,2,90,0,0
129894,-400,4,2,2,90,0,0
130194,-66.6666666666667,4,2,2,90,0,0
130494,-79.9999999999999,4,2,2,90,0,0
130644,-400,4,2,2,90,0,0
130944,-79.9999999999999,4,2,2,90,0,0
131094,-400,4,2,2,90,0,0
131394,-66.6666666666667,4,2,2,90,0,0
131694,-80,4,2,2,90,0,0
131844,-400,4,2,2,90,0,0
132144,-80,4,2,2,90,0,0
132294,-400,4,2,2,90,0,0
133194,-80,4,2,2,90,0,0
133494,-400,4,2,2,90,0,0
133794,-66.6666666666667,4,2,2,90,0,0
134019,-66.6666666666667,4,2,2,5,0,0
134094,-80,4,2,2,90,0,0
134244,-400,4,2,2,90,0,0
134544,-80,4,2,2,90,0,0
134694,-400,4,2,2,90,0,0
134994,-66.6666666666667,4,2,2,90,0,0
135294,-57.1428571428571,4,2,2,90,0,0
135594,-66.6666666666667,4,2,2,90,0,0
135819,-66.6666666666667,4,2,2,5,0,0
135894,-66.6666666666667,4,2,2,90,0,0
136119,-66.6666666666667,4,2,2,5,0,0
136344,-66.6666666666667,4,2,2,90,0,0
136569,-66.6666666666667,4,2,2,5,0,0
136794,-66.6666666666667,4,2,2,90,0,0
137019,-66.6666666666667,4,2,2,5,0,0
137244,-66.6666666666667,4,2,2,90,0,0
137469,-66.6666666666667,4,2,2,5,0,0
137694,-66.6666666666667,4,2,2,90,0,0
137919,-66.6666666666667,4,2,2,5,0,0
137994,-100,4,2,2,90,0,0
138594,-66.6666666666667,4,2,2,90,0,0
138894,-80,4,2,2,90,0,0
139044,-400,4,2,2,90,0,0
139344,-80,4,2,2,90,0,0
139494,-400,4,2,2,90,0,0
139794,-66.6666666666667,4,2,2,90,0,0
140019,-66.6666666666667,4,2,2,5,0,0
140094,-80,4,2,2,90,0,0
140244,-400,4,2,2,90,0,0
140544,-80,4,2,2,90,0,0
140694,-400,4,2,2,90,0,0
140994,-57.1428571428571,4,2,2,90,0,0
141294,-80,4,2,2,90,0,0
141444,-400,4,2,2,90,0,0
141744,-80,4,2,2,90,0,0
141894,-400,4,2,2,90,0,0
142794,-100,4,2,2,90,0,0
143244,-80,4,2,2,90,0,0
143844,-100,4,2,2,90,0,0
144144,-80,4,2,2,90,0,0
145194,-66.6666666666667,4,2,2,90,0,0
146994,-166.666666666667,4,2,2,90,0,0
147594,-166.666666666667,4,2,0,70,0,0
151794,-166.666666666667,4,2,0,40,0,0
152394,-333.333333333334,4,2,0,40,0,0
157194,-250,4,2,0,45,0,0
159594,-200,4,2,0,50,0,0
166794,-133.333333333333,4,2,1,40,0,0
167994,-133.333333333333,4,2,1,50,0,0
169194,-100,4,2,1,60,0,0
170994,-100,4,2,1,70,0,0
171594,-80,4,2,1,70,0,0
171969,-79.9999999999999,4,2,1,5,0,0
172044,-79.9999999999999,4,2,1,70,0,0
172419,-79.9999999999999,4,2,1,5,0,0
172494,-79.9999999999999,4,2,1,70,0,0
172719,-79.9999999999999,4,2,1,5,0,0
172794,-200,4,2,1,60,0,0
173994,-79.9999999999999,4,2,1,70,0,0
174369,-79.9999999999999,4,2,1,5,0,0
174444,-79.9999999999999,4,2,1,70,0,0
174819,-79.9999999999999,4,2,1,5,0,0
174894,-79.9999999999999,4,2,1,70,0,0
175044,-200,4,2,1,60,0,0
175719,-200,4,2,1,5,0,0
175794,-200,4,2,1,60,0,0
176019,-200,4,2,1,5,0,0
176094,-200,4,2,1,60,0,0
176319,-200,4,2,1,5,0,0
176394,-80,4,2,1,70,0,0
176769,-79.9999999999999,4,2,1,5,0,0
176844,-79.9999999999999,4,2,1,70,0,0
177219,-79.9999999999999,4,2,1,5,0,0
177294,-79.9999999999999,4,2,1,70,0,0
177519,-79.9999999999999,4,2,1,5,0,0
177594,-200,4,2,1,60,0,0
178719,-200,4,2,1,5,0,0
178794,-80,4,2,1,70,0,0
179169,-79.9999999999999,4,2,1,5,0,0
179244,-79.9999999999999,4,2,1,70,0,0
179619,-79.9999999999999,4,2,1,5,0,0
179694,-79.9999999999999,4,2,1,70,0,0
179919,-79.9999999999999,4,2,1,5,0,0
179994,-200,4,2,1,60,0,0
180519,-200,4,2,1,5,0,0
180594,-133.333333333333,4,2,1,70,0,0
181119,-133.333333333333,4,2,1,5,0,0
181194,-80,4,2,1,75,0,0
182394,-200,4,2,1,60,0,0
182994,-133.333333333333,4,2,1,70,0,0
183594,-80,4,2,1,75,0,0
184494,-100,4,2,1,75,0,0
185094,-133.333333333333,4,2,1,60,0,0
185394,-100,4,2,1,70,0,0
185619,-100,4,2,1,5,0,0
185694,-100,4,2,1,70,0,0
185919,-100,4,2,1,5,0,0
185994,-80,4,2,1,75,0,0
187194,-133.333333333333,4,2,1,60,0,0
187419,-133.333333333333,4,2,1,5,0,0
187494,-133.333333333333,4,2,1,60,0,0
188019,-133.333333333333,4,2,1,5,0,0
188094,-100,4,2,1,70,0,0
188394,-80,4,2,1,75,0,0
189594,-200,4,2,1,70,0,0
190119,-200,4,2,1,5,0,0
190194,-80,4,2,1,70,0,0
190719,-80,4,2,1,5,0,0
190794,-133.333333333333,4,2,2,60,0,0
195594,-100,4,2,2,70,0,0
200394,-166.666666666667,4,2,2,60,0,0
202194,-100,4,2,2,60,0,0
202794,-125,4,2,2,70,0,0
204594,-83.3333333333333,4,2,2,70,0,0
205194,-100,4,2,2,80,0,0
207594,-66.6666666666667,4,2,2,50,0,0
207744,-66.6666666666667,4,2,2,53,0,0
207894,-66.6666666666667,4,2,2,56,0,0
208044,-66.6666666666667,4,2,2,59,0,0
208194,-66.6666666666667,4,2,2,62,0,0
208344,-66.6666666666667,4,2,2,65,0,0
208494,-66.6666666666667,4,2,2,68,0,0
208644,-66.6666666666667,4,2,2,71,0,0
208794,-66.6666666666667,4,2,2,74,0,0
209694,-400,4,2,2,70,0,0
209919,-400,4,2,2,5,0,0
209994,-80,4,2,1,90,0,1
210894,-71.4285714285714,4,2,1,90,0,1
211794,-90.9090909090909,4,2,1,90,0,1
212394,-83.3333333333333,4,2,1,90,0,1
212694,-74.0740740740741,4,2,1,90,0,1
212994,-66.6666666666667,4,2,1,90,0,1
214194,-80,4,2,1,90,0,1
214794,-66.6666666666667,4,2,1,90,0,1
215694,-80,4,2,1,90,0,1
216594,-71.4285714285714,4,2,1,90,0,1
217194,-100,4,2,1,90,0,1
218244,-50,4,2,1,90,0,1
218844,-66.6666666666667,4,2,1,90,0,1
219594,-400,4,2,1,90,0,0
219819,-400,4,2,1,5,0,0
219894,-80,4,2,1,90,0,1
220494,-66.6666666666667,4,2,1,90,0,1
221394,-71.4285714285714,4,2,1,90,0,1
221844,-66.6666666666667,4,2,1,90,0,1
222294,-60.6060606060606,4,2,1,90,0,1
222594,-55.5555555555556,4,2,1,90,0,1
223194,-50,4,2,1,90,0,1
223794,-100,4,2,1,80,0,0
224094,-200,4,2,1,70,0,0
224394,-133.333333333333,4,2,2,90,0,1
224769,-133.333333333333,4,2,2,5,0,1
224844,-133.333333333333,4,2,2,90,0,1
224919,-133.333333333333,4,2,2,5,0,1
224994,-133.333333333333,4,2,2,90,0,1
225219,-133.333333333333,4,2,2,5,0,1
225294,-133.333333333333,4,2,2,90,0,1
225969,-133.333333333333,4,2,2,5,0,1
226044,-133.333333333333,4,2,2,90,0,1
226194,-133.333333333333,4,2,2,90,0,1
226419,-133.333333333333,4,2,2,5,0,1
226494,-133.333333333333,4,2,2,90,0,1
227994,-133.333333333333,4,2,1,90,0,0
229194,-66.6666666666667,4,2,1,90,0,1
230694,-133.333333333333,4,2,1,90,0,1
230994,-100,4,2,1,90,0,1
231594,-75.187969924812,4,2,1,90,0,1
232644,-66.6666666666667,4,2,1,90,0,1
233019,-66.6666666666667,4,2,1,5,0,1
233094,-66.6666666666667,4,2,1,90,0,1
233994,-66.6666666666667,4,2,1,90,0,1
234894,-75.187969924812,4,2,1,90,0,1
235494,-133.333333333333,4,2,1,90,0,1
235794,-75.187969924812,4,2,1,90,0,1
236394,-57.1428571428571,4,2,1,90,0,1
238794,-400,4,2,1,70,0,0
239019,-400,4,2,1,5,0,0
239094,-66.6666666666667,4,2,1,90,0,1
240294,-133.333333333333,4,2,1,90,0,1
240594,-75.187969924812,4,2,1,90,0,1
242244,-66.6666666666667,4,2,1,90,0,1
242619,-66.6666666666667,4,2,1,5,0,1
242694,-66.6666666666667,4,2,1,90,0,1
243594,-133.333333333333,4,2,2,90,0,1
243969,-133.333333333333,4,2,2,5,0,1
244044,-133.333333333333,4,2,2,90,0,1
244419,-133.333333333333,4,2,2,5,0,1
244494,-133.333333333333,4,2,2,90,0,1
245169,-133.333333333333,4,2,2,5,0,1
245244,-133.333333333333,4,2,2,90,0,1
245619,-133.333333333333,4,2,2,5,0,1
245694,-133.333333333333,4,2,2,90,0,1
247194,-303.030303030303,4,2,1,70,0,0
248394,-100,4,2,1,90,0,0
248694,-66.6666666666667,4,2,1,90,0,1
248919,-66.6666666666667,4,2,1,5,0,1
248994,-66.6666666666667,4,2,1,90,0,1
249294,-57.1428571428571,4,2,1,90,0,1
249519,-57.1428571428571,4,2,1,5,0,1
249594,-80,4,2,1,90,0,1
249819,-80,4,2,1,5,0,1
249894,-100,4,2,1,90,0,1
250194,-57.1428571428571,4,2,1,90,0,1
250419,-57.1428571428571,4,2,1,5,0,1
250494,-57.1428571428571,4,2,1,90,0,1
250719,-57.1428571428571,4,2,1,5,0,1
250794,-100,4,2,1,90,0,1
251019,-100,4,2,1,5,0,1
251094,-66.6666666666667,4,2,1,90,0,1
251694,-57.1428571428571,4,2,1,90,0,1
251994,-100,4,2,1,90,0,1
252594,-80,4,2,1,90,0,1
253194,-66.6666666666667,4,2,1,90,0,1
253419,-66.6666666666667,4,2,1,5,0,1
253494,-66.6666666666667,4,2,1,90,0,1
253794,-57.1428571428571,4,2,1,90,0,1
254019,-57.1428571428571,4,2,1,5,0,1
254094,-50,4,2,1,90,0,1
254394,-66.6666666666667,4,2,1,90,0,1
254619,-66.6666666666667,4,2,1,5,0,1
254694,-100,4,2,1,90,0,1
254994,-66.6666666666667,4,2,1,90,0,1
255294,-57.1428571428571,4,2,1,90,0,1
255594,-80,4,2,1,90,0,1
255819,-80,4,2,1,5,0,1
255894,-80,4,2,1,90,0,1
256119,-80,4,2,1,5,0,1
256194,-57.1428571428571,4,2,1,90,0,1
256419,-57.1428571428571,4,2,1,5,0,1
256494,-66.6666666666667,4,2,1,90,0,1
256794,-50,4,2,1,90,0,1
257019,-50,4,2,1,5,0,1
257094,-50,4,2,1,90,0,1
257319,-50,4,2,1,5,0,1
257394,-44.4444444444445,4,2,1,90,0,1
257619,-44.4444444444445,4,2,1,5,0,1
257694,-44.4444444444445,4,2,1,90,0,1
257919,-44.4444444444445,4,2,1,5,0,1
257994,-100,4,2,1,90,0,0
258294,-66.6666666666667,4,2,1,90,0,1
258519,-66.6666666666667,4,2,1,5,0,1
258594,-66.6666666666667,4,2,1,90,0,1
258894,-57.1428571428571,4,2,1,90,0,1
259119,-57.1428571428571,4,2,1,5,0,1
259194,-80,4,2,1,90,0,1
259494,-100,4,2,1,90,0,1
259794,-57.1428571428571,4,2,1,90,0,1
260019,-57.1428571428571,4,2,1,5,0,1
260094,-57.1428571428571,4,2,1,90,0,1
260319,-57.1428571428571,4,2,1,5,0,1
260394,-100,4,2,1,90,0,1
260694,-66.6666666666667,4,2,1,90,0,1
261294,-57.1428571428571,4,2,1,90,0,1
261594,-100,4,2,1,90,0,1
262194,-80,4,2,1,90,0,1
262794,-133.333333333333,4,2,1,90,0,1
263244,-66.6666666666667,4,2,2,90,0,1
263394,-100,4,2,2,90,0,1
263619,-100,4,2,2,5,0,1
263694,-66.6666666666667,4,2,2,90,0,1
263919,-66.6666666666667,4,2,2,5,0,1
263994,-100,4,2,2,90,0,1
264219,-100,4,2,2,5,0,1
264294,-100,4,2,2,90,0,1
264594,-80,4,2,2,90,0,1
264819,-80,4,2,2,5,0,1
264894,-66.6666666666667,4,2,2,90,0,1
265119,-66.6666666666667,4,2,2,5,0,1
265194,-66.6666666666667,4,2,2,90,0,1
266394,-133.333333333333,4,2,1,70,0,0
267594,-200,4,2,1,50,0,0
267744,-200,4,2,0,50,0,0
269994,-250,4,2,0,40,0,0
272394,-333.333333333333,4,2,0,30,0,0
274794,-333.333333333333,4,2,0,20,0,0
275394,-333.333333333333,4,2,0,15,0,0
275994,-333.333333333333,4,2,0,20,0,0
276144,-333.333333333333,4,2,0,30,0,0
276294,-333.333333333333,4,2,0,40,0,0
276444,-333.333333333333,4,2,0,50,0,0
276594,-333.333333333333,4,2,0,60,0,0

[Colours]
Combo1 : 243,131,48
Combo2 : 255,226,213
Combo3 : 160,185,250
Combo4 : 87,211,238
Combo5 : 181,233,22
Combo6 : 239,58,104

[HitObjects]
124,367,7794,5,0,0:0:0:0:
124,367,8394,2,0,L|119:332,7,34.9799998932495,2|0|0|0|0|0|0|0,0:0|0:0|0:0|0:0|0:0|0:0|0:0|0:0,0:0:0:0:
172,274,9594,2,0,L|176:239,7,34.9799998932495,2|0|0|0|0|0|0|0,0:0|0:0|0:0|0:0|0:0|0:0|0:0|0:0,0:0:0:0:
116,379,10794,6,0,L|111:344,1,34.9799998932495,2|0,0:0|0:0,0:0:0:0:
183,268,11094,2,0,L|187:233,1,34.9799998932495,2|0,0:0|0:0,0:0:0:0:
79,107,11394,69,2,0:0:0:0:
120,169,11544,2,0,L|115:134,1,34.9799998932495,2|0,0:0|0:0,0:0:0:0:
186,65,11844,2,0,L|190:30,4,34.9799998932495,2|0|0|0|0,0:0|0:0|0:0|0:0|0:0,0:0:0:0:
115,134,12594,6,0,L|120:169,1,34.9799998932495,2|0,0:0|0:0,0:0:0:0:
187,233,12894,2,0,L|183:268,1,34.9799998932495,2|0,0:0|0:0,0:0:0:0:
230,347,13194,70,0,L|212:386,7,42.4,2|0|0|0|0|0|0|0,0:0|0:0|0:0|0:0|0:0|0:0|0:0|0:0,0:0:0:0:
303,265,14394,2,0,L|286:225,7,42.4,2|0|0|0|0|0|0|0,0:0|0:0|0:0|0:0|0:0|0:0|0:0|0:0,0:0:0:0:
373,346,15594,6,0,L|356:384,2,42.4,2|0|0,0:0|0:0|0:0,0:0:0:0:
448,287,16044,2,0,L|463:325,2,42.4,2|0|0,0:0|0:0|0:0,0:0:0:0:
455,187,16494,2,0,L|496:203,1,42.4,2|0,0:0|0:0,0:0:0:0:
417,117,16794,70,0,L|382:121,3,34.9799998932495,2|0|0|0,0:0|0:0|0:0|0:0,0:0:0:0:
305,133,17394,2,0,L|278:136,3,26.5,2|0|0|0,0:0|0:0|0:0|0:0,0:0:0:0:
210,73,17994,22,0,P|147:177|134:57,1,318,2|0,0:0|0:0,0:0:0:0:
134,57,19194,2,0,B|218:28|277:95|277:95|335:162|420:133,1,318,2|0,0:0|0:0,0:0:0:0:
421,133,20394,54,0,P|412:107|411:81,1,53,2|0,0:0|0:0,0:0:0:0:
498,173,20694,2,0,P|506:147|507:121,1,53,2|0,0:0|0:0,0:0:0:0:
411,291,20994,1,2,0:0:0:0:
427,215,21144,2,0,P|400:213|375:221,1,53,2|0,0:0|0:0,0:0:0:0:
493,320,21444,22,0,P|468:224|368:212,1,212,2|0,0:0|0:0,0:0:0:0:
275,158,22194,54,0,L|281:105,1,53,2|0,0:0|0:0,0:0:0:0:
220,249,22494,2,0,L|226:301,1,53,2|0,0:0|0:0,0:0:0:0:
95,185,22794,22,0,P|142:186|182:163,1,95.3999970886231,2|0,1:2|0:0,0:0:0:0:
196,172,23094,2,0,L|208:84,1,63.5999980590821,0|0,1:0|0:0,0:0:0:0:
154,41,23394,53,0,1:0:0:0:
128,46,23544,1,0,0:0:0:0:
251,14,23694,21,0,1:0:0:0:
277,19,23844,1,0,0:0:0:0:
364,137,23994,54,0,P|379:174|375:217,1,79.5000030326844,2|0,1:2|0:0,0:0:0:0:
290,229,24294,2,0,P|275:192|277:153,1,79.5000030326844,0|0,1:0|0:0,0:0:0:0:
419,74,24594,22,0,P|457:89|484:122,1,79.5000030326844,0|0,1:0|0:0,0:0:0:0:
159,169,24894,2,0,P|174:132|204:106,1,79.5000030326844,0|0,1:0|0:0,0:0:0:0:
421,337,25194,53,2,1:2:0:0:
326,319,25344,1,0,1:0:0:0:
232,301,25494,1,0,1:0:0:0:
277,153,25644,21,2,1:2:0:0:
182,171,25794,1,0,1:0:0:0:
88,189,25944,1,0,1:0:0:0:
43,337,26094,53,2,1:2:0:0:
92,173,26244,1,0,1:0:0:0:
38,355,26394,53,2,1:2:0:0:
69,371,26469,1,0,1:0:0:0:
110,372,26544,1,0,1:0:0:0:
145,354,26619,1,0,1:0:0:0:
168,321,26694,1,0,1:0:0:0:
191,291,26769,1,0,1:0:0:0:
227,272,26844,1,0,1:0:0:0:
267,274,26919,1,0,1:0:0:0:
300,291,26994,22,2,L|314:382,1,92.75,0|0,1:0|0:0,1:0:0:0:
314,382,27594,54,0,B|397:333|516:344|516:344|447:337|402:301,1,331.25,4|0,1:0|0:0,0:0:0:0:
210,118,28044,2,0,B|184:63|227:16|227:16|296:40|320:137|267:201,1,331.25,4|0,1:0|0:0,0:0:0:0:
136,286,28494,2,0,P|190:330|154:270,1,198.75,4|0,1:0|0:0,0:0:0:0:
123,203,28794,22,0,B|215:164|284:240|246:253|313:324|404:286,1,318,2|0,0:0|0:0,0:0:0:0:
403,286,29994,54,0,B|444:234|444:234|252:302|252:302|287:252,1,331.25,4|0,1:0|0:0,0:0:0:0:
437,71,30444,2,0,B|492:109|492:109|366:99|366:99|372:95|372:95|241:86,1,331.25,4|0,1:0|0:0,0:0:0:0:
249,98,30894,2,0,L|182:93,1,66.25,4|0,1:0|0:0,0:0:0:0:
75,11,31044,22,0,B|101:72|55:120|55:120|9:168|36:229,1,238.5,2|0,0:0|0:0,0:0:0:0:
57,339,31794,22,0,P|85:311|123:301,1,79.5,2|0,0:0|0:0,0:0:0:0:
129,287,32094,2,0,P|168:287|202:307,1,79.5,2|0,0:0|0:0,0:0:0:0:
297,248,32394,22,0,B|361:346|555:304|478:149|391:193,1,331.25,4|0,1:0|0:0,0:0:0:0:
202,307,32844,2,0,B|164:220|229:152|229:152|294:84|256:-1,1,331.25,4|4,1:0|1:0,0:0:0:0:
43,79,33294,2,0,B|89:54|91:0|91:0|110:50|165:62,1,198.75,4|0,1:0|0:0,0:0:0:0:
114,128,33594,22,0,P|124:204|185:158,1,185.5,2|0,0:0|0:0,0:0:0:0:
205,141,34194,2,0,P|215:64|276:110,1,185.5,2|0,0:0|0:0,0:0:0:0:
352,164,34794,54,0,B|402:151|455:179|455:179|468:145|501:119|501:119|439:71|361:81,1,331.25,4|0,1:0|0:0,0:0:0:0:
192,234,35244,2,0,B|109:316|-72:235|35:99|111:160,1,331.25,4|0,1:0|0:0,0:0:0:0:
227,351,35694,2,0,B|279:361|319:326|319:326|358:290|411:301,1,198.75,4|0,1:0|0:0,0:0:0:0:
461,363,35994,22,0,P|341:339|385:224,1,278.250010614396,4|0,1:0|0:0,0:0:0:0:
507,67,36594,22,0,B|471:247|471:247|481:196|446:160,1,278.250010614396,2|0,0:0|0:0,0:0:0:0:
382,97,37194,53,6,1:2:0:0:
382,97,37344,2,0,L|329:94,1,53,2|0,0:0|0:0,0:0:0:0:
288,28,37644,2,0,L|248:63,1,53,2|0,0:0|0:0,0:0:0:0:
172,45,37944,2,0,L|169:97,1,53,2|0,0:0|0:0,0:0:0:0:
101,140,38244,2,0,L|136:179,1,53,2|0,0:0|0:0,0:0:0:0:
295,32,38544,6,0,L|255:67,1,53,2|0,0:0|0:0,0:0:0:0:
179,49,38844,2,0,L|175:102,1,53,2|0,0:0|0:0,0:0:0:0:
109,143,39144,2,0,L|143:181,1,53,2|0,0:0|0:0,0:0:0:0:
126,261,39444,2,0,L|178:263,1,53,2|0,0:0|0:0,0:0:0:0:
186,53,39744,70,0,L|183:106,1,53,2|0,0:0|0:0,0:0:0:0:
115,147,40044,2,0,L|150:187,1,53,2|0,0:0|0:0,0:0:0:0:
132,263,40344,2,0,L|183:266,1,53,2|0,0:0|0:0,0:0:0:0:
228,334,40644,2,0,L|267:299,1,53,2|0,0:0|0:0,0:0:0:0:
123,150,40944,6,0,L|158:189,1,53,2|0,0:0|0:0,0:0:0:0:
139,266,41244,2,0,L|192:269,1,53,2|0,0:0|0:0,0:0:0:0:
354,315,41544,38,0,L|356:262,1,53,0|0,1:0|0:0,0:0:0:0:
236,338,41694,2,0,L|275:303,1,53,8|0,1:2|0:0,0:0:0:0:
275,302,41994,21,0,3:0:0:0:
275,302,42144,1,2,3:2:0:0:
354,315,42294,1,0,3:0:0:0:
262,187,42444,21,2,3:2:0:0:
323,237,42594,1,0,3:0:0:0:
307,80,42744,53,2,3:2:0:0:
335,153,42894,1,0,3:0:0:0:
399,9,43044,21,2,3:2:0:0:
387,87,43194,1,0,3:0:0:0:
495,300,43344,53,2,3:2:0:0:
512,203,43494,1,0,3:0:0:0:
354,315,43644,21,2,3:2:0:0:
416,240,43794,1,0,3:0:0:0:
222,259,43944,53,2,3:2:0:0:
313,224,44094,1,0,3:0:0:0:
134,145,44244,21,2,3:2:0:0:
230,160,44394,1,0,3:0:0:0:
2,384,44544,53,2,3:2:0:0:
133,379,44694,1,0,3:0:0:0:
86,241,44844,21,2,3:2:0:0:
202,303,44994,1,0,3:0:0:0:
230,160,45144,53,2,3:2:0:0:
300,270,45294,1,0,3:0:0:0:
394,160,45444,21,2,3:2:0:0:
400,291,45594,1,0,3:0:0:0:
482,38,45744,53,2,3:2:0:0:
320,19,45894,1,0,3:0:0:0:
313,154,46044,21,2,3:2:0:0:
182,57,46194,1,0,3:0:0:0:
115,177,46344,53,2,3:2:0:0:
18,359,46494,21,0,3:0:0:0:
25,366,46794,53,4,3:2:0:0:
25,366,46869,1,0,3:0:0:0:
25,366,46944,2,0,L|14:287,1,66.25,2|0,3:2|3:0,3:0:0:0:
82,155,47094,53,0,3:0:0:0:
82,155,47169,1,0,3:0:0:0:
82,155,47244,2,0,L|93:234,1,66.25,2|0,3:2|3:0,3:0:0:0:
195,384,47394,21,0,3:0:0:0:
195,384,47469,1,0,3:0:0:0:
195,384,47544,2,0,L|184:305,1,66.25,2|0,3:2|3:0,3:0:0:0:
260,122,47694,53,0,3:0:0:0:
260,122,47769,1,0,3:0:0:0:
260,122,47844,2,0,L|271:201,1,66.25,2|0,3:2|3:0,3:0:0:0:
408,317,47994,21,0,3:0:0:0:
408,317,48069,1,0,3:0:0:0:
408,317,48144,2,0,L|332:335,1,79.5000030326844,2|0,3:2|3:0,3:0:0:0:
92,220,48294,53,0,3:0:0:0:
92,220,48369,1,0,3:0:0:0:
92,220,48444,2,0,L|169:238,1,79.5000030326844,2|0,3:2|3:0,3:0:0:0:
466,152,48594,21,0,3:0:0:0:
466,152,48669,1,0,3:0:0:0:
466,152,48744,2,0,L|390:170,1,79.5000030326844,2|0,3:2|3:0,3:0:0:0:
36,44,48894,53,0,3:0:0:0:
36,44,48969,1,0,3:0:0:0:
36,44,49044,2,0,L|113:62,1,79.5000030326844,2|0,3:2|3:0,3:0:0:0:
370,4,49194,22,0,P|344:7|321:19,6,53,0|0|0|0|0|0|0,3:0|3:0|3:0|3:0|3:0|3:0|3:0,3:0:0:0:
139,69,49494,2,0,P|166:72|189:84,6,53,0|0|0|0|0|0|0,3:0|3:0|3:0|3:0|3:0|3:0|3:0,3:0:0:0:
347,167,49794,2,0,P|321:170|298:182,6,53,0|0|0|0|0|0|0,3:0|3:0|3:0|3:0|3:0|3:0|3:0,3:0:0:0:
218,254,50094,54,0,P|195:241|169:238,2,53,0|0|0,3:0|3:0|3:0,3:0:0:0:
284,300,50244,2,0,P|308:287|334:284,2,53,0|0|0,3:0|3:0|3:0,3:0:0:0:
233,362,50394,21,4,1:0:0:0:
233,362,51294,6,0,L|273:355,1,39.75,8|0,0:0|0:0,0:0:0:0:
355,267,51594,70,0,L|361:241,6,26.5,0|0|0|0|0|0|0,1:0|1:0|1:0|1:0|1:0|1:0|1:0,0:0:0:0:
474,266,51894,54,0,B|355:251|355:251|359:256|359:256|247:243,1,238.500009098053,12|0,1:0|0:0,0:0:0:0:
48,148,52194,5,2,1:2:0:0:
38,152,52244,1,2,0:0:0:0:
37,163,52294,1,2,0:0:0:0:
46,168,52344,1,2,0:0:0:0:
56,164,52394,1,2,0:0:0:0:
57,153,52444,1,2,0:0:0:0:
45,158,52494,70,2,B|120:169|138:247|138:247|142:168|214:142,1,278.250002653599,10|0,1:2|0:0,1:0:0:0:
242,42,52794,6,0,B|340:38|340:38|337:35|337:35|430:31,1,198.75,0|0,1:0|0:0,0:0:0:0:
512,49,53094,2,0,B|518:23|518:23|507:-1,1,53,8|0,1:2|0:0,0:0:0:0:
358,11,53244,2,0,B|351:36|351:36|360:61,1,53
267,212,53394,70,2,B|213:208|195:165|195:165|241:123|326:127|367:165,1,278.250002653599,2|0,1:0|0:0,1:0:0:0:
460,330,53694,2,2,B|514:326|532:283|532:283|486:241|401:245|360:283,1,278.250002653599,10|0,1:2|0:0,1:0:0:0:
72,384,53994,6,0,P|128:332|202:348,1,159,0|0,1:0|0:0,1:0:0:0:
202,348,54294,70,0,B|197:309|197:309|200:306|200:306|195:270,1,79.5000030326844,10|0,1:2|0:0,0:0:0:0:
64,174,54444,2,0,B|68:135|68:135|65:132|65:132|70:96,1,79.5000030326844,2|0,0:0|0:0,0:0:0:0:
218,28,54594,5,2,1:2:0:0:
247,96,54669,1,2,0:0:0:0:
315,131,54744,1,2,0:0:0:0:
391,118,54819,1,2,0:0:0:0:
443,61,54894,70,2,B|389:8|389:8|424:207,1,278.250002653599,10|0,1:0|0:0,1:0:0:0:
485,327,55194,5,2,1:2:0:0:
459,318,55269,1,2,0:0:0:0:
432,316,55344,2,0,P|405:318|383:332,1,53,2|0,0:0|0:0,0:0:0:0:
326,226,55494,69,10,1:2:0:0:
311,244,55569,1,2,0:0:0:0:
285,262,55644,1,2,0:0:0:0:
244,268,55719,1,2,0:0:0:0:
196,253,55794,6,0,L|185:120,1,132.5,2|0,1:2|0:0,0:0:0:0:
195,42,56019,2,0,L|201:107,1,66.25,2|8,0:0|1:2,0:0:0:0:
99,172,56169,1,2,0:0:0:0:
99,172,56244,2,0,L|105:237,1,66.25,2|0,0:0|0:0,0:0:0:0:
0,373,56394,70,0,B|91:378|91:378|139:331|139:331|218:337,1,238.500009098053,2|0,1:0|0:0,0:0:0:0:
484,279,56694,5,10,1:2:0:0:
494,283,56744,1,2,0:0:0:0:
495,294,56794,1,2,0:0:0:0:
486,299,56844,1,2,0:0:0:0:
476,295,56894,1,2,0:0:0:0:
475,284,56944,1,2,0:0:0:0:
487,289,56994,70,2,B|520:269|520:269|393:260|393:260|384:266|384:266|282:258,1,278.250002653599,2|0,1:2|0:0,1:0:0:0:
99,183,57294,6,0,B|55:148|55:148|254:165|254:165|198:193,1,318,10|0,1:0|0:0,0:0:0:0:
0,385,57594,70,0,P|44:282|154:297,1,238.500009098053,2|0,1:2|0:0,0:0:0:0:
228,342,57894,2,0,P|238:317|238:291,1,53,10|0,1:2|0:0,0:0:0:0:
306,209,58044,2,0,P|307:182|298:157,1,53,2|0,0:0|0:0,0:0:0:0:
54,167,58194,6,2,B|120:162|141:97|141:97|139:165|199:193,1,238.500009098053,2|0,1:2|0:0,1:0:0:0:
239,292,58494,2,2,B|316:297|341:374|341:374|338:293|409:261,1,278.250002653599,10|0,1:2|0:0,1:0:0:0:
485,169,58794,70,0,B|386:156|386:156|389:160|389:160|297:149,1,198.75,0|0,1:0|0:0,1:0:0:0:
294,141,59094,2,0,B|386:151|386:151|383:147|383:147|481:160,1,198.75,8|0,1:0|0:0,1:0:0:0:
490,315,59394,6,0,P|505:202|403:251,1,278.250002653599,2|0,1:2|0:0,0:0:0:0:
412,252,59694,2,0,P|501:211|486:308,1,238.500009098053,10|0,1:2|0:0,0:0:0:0:
402,360,59994,70,0,B|311:398|244:327|282:314|213:238|121:277,1,318,2|0,1:0|0:0,0:0:0:0:
130,384,60294,2,2,B|227:406|282:319|242:313|296:231|392:253,1,318,10|0,1:0|0:0,1:0:0:0:
395,69,60594,6,2,B|467:31|542:173|381:214|307:141|347:122|295:74|230:98,1,357.75001364708,2|0,1:0|0:0,1:0:0:0:
94,211,60894,2,2,B|21:248|-53:106|107:65|181:138|141:157|193:205|258:181,1,357.75001364708,10|0,1:0|0:0,1:0:0:0:
228,15,61194,6,0,L|202:20,6,26.5,0|0|0|0|0|0|0,1:0|1:0|1:0|1:0|1:0|1:0|1:0,0:0:0:0:
230,98,61494,54,0,B|216:205|216:205|221:201|221:201|202:323,1,238.500009098053,12|0,1:0|0:0,0:0:0:0:
57,378,61794,5,2,1:2:0:0:
46,376,61844,1,2,0:0:0:0:
43,365,61894,1,2,0:0:0:0:
48,357,61944,1,2,0:0:0:0:
59,359,61994,1,2,0:0:0:0:
62,369,62044,1,2,0:0:0:0:
53,364,62094,70,2,B|20:282|83:226|93:259|161:199|128:118,1,278.250002653599,10|0,1:2|0:0,1:0:0:0:
42,0,62394,6,0,P|-19:53|58:77,1,198.75,0|0,1:0|0:0,1:0:0:0:
128,118,62694,2,0,P|139:143|157:162,1,53,8|0,1:2|0:0,0:0:0:0:
184,45,62844,2,0,P|190:20|208:0,1,53
120,248,62994,70,2,B|197:253|222:330|222:330|219:249|290:217,1,278.250002653599,2|0,1:0|0:0,1:0:0:0:
476,162,63294,2,2,P|468:272|388:195,1,278.250002653599,10|0,1:0|0:0,1:0:0:0:
310,0,63594,6,0,B|345:32|345:32|322:141,1,159,0|0,1:0|0:0,0:0:0:0:
322,141,63894,2,0,L|244:125,1,79.5000030326844,8|0,1:2|0:0,0:0:0:0:
120,248,64044,2,0,L|197:232,1,79.5000030326844
392,378,64194,69,2,1:2:0:0:
319,346,64269,1,2,0:0:0:0:
241,331,64344,1,2,0:0:0:0:
161,333,64419,1,2,0:0:0:0:
84,352,64494,6,2,P|7:268|120:248,1,278.250002653599,10|0,1:0|0:0,1:0:0:0:
319,346,64794,69,2,1:2:0:0:
334,331,64869,1,2,0:0:0:0:
348,315,64944,2,0,L|340:243,1,53,2|0,0:0|0:0,0:0:0:0:
284,49,65094,5,10,1:2:0:0:
292,68,65169,1,2,0:0:0:0:
311,93,65244,1,2,0:0:0:0:
349,111,65319,1,2,0:0:0:0:
401,102,65394,70,0,P|460:101|463:160,1,132.5,2|0,1:2|0:0,0:0:0:0:
393,196,65619,2,0,P|425:192|455:177,1,66.25,2|8,0:0|1:2,0:0:0:0:
498,307,65769,1,2,0:0:0:0:
512,302,65844,2,0,P|482:287|449:283,1,66.25,2|0,0:0|0:0,0:0:0:0:
267,188,65994,22,0,L|269:207,10,19.8750007581711,4|0|0|0|0|0|0|0|0|0|0,1:0|0:0|0:0|0:0|0:0|0:0|0:0|0:0|0:0|0:0|0:0,0:0:0:0:
281,306,66444,70,0,P|247:285|208:281,1,79.5000030326844,8|0,1:2|0:0,0:0:0:0:
0,367,66594,70,2,B|34:354|67:370|67:370|82:357|82:357|113:375|150:367,1,159,2|0,1:0|0:0,1:0:0:0:
167,379,66894,6,2,B|161:261|161:261|166:265|166:265|161:151,1,238.500009098053,10|0,1:2|0:0,1:0:0:0:
113,68,67194,70,0,P|41:71|43:143,1,159,2|0,1:2|0:0,0:0:0:0:
32,163,67494,6,0,L|84:157,1,53,2|0,0:0|0:0,0:0:0:0:
161,151,67644,2,0,L|213:145,1,53,10|0,1:2|0:0,0:0:0:0:
260,76,67794,70,2,P|344:126|442:133,1,198.75,2|0,1:2|0:0,1:0:0:0:
505,89,68094,2,2,P|486:194|380:175,1,238.500009098053,10|0,1:0|0:0,1:0:0:0:
333,5,68394,21,0,3:0:0:0:
260,76,68544,1,0,3:0:0:0:
380,175,68694,1,0,3:0:0:0:
191,270,68844,1,0,3:0:0:0:
488,371,68994,53,0,3:0:0:0:
456,335,69069,1,0,3:0:0:0:
419,305,69144,1,0,3:0:0:0:
377,282,69219,1,0,3:0:0:0:
332,267,69294,1,0,3:0:0:0:
285,259,69369,1,0,3:0:0:0:
237,260,69444,1,0,3:0:0:0:
191,270,69519,1,0,3:0:0:0:
146,287,69594,22,0,L|168:129,1,159.000006065369,4|0,1:0|0:0,0:0:0:0:
261,81,70044,2,0,L|237:260,1,180.200003437042,2|0,0:0|0:0,0:0:0:0:
54,314,70494,2,0,L|76:156,1,159,2|0,0:0|0:0,0:0:0:0:
23,97,70794,38,0,P|13:45|37:0,1,106,6|0,1:2|0:0,0:0:0:0:
143,112,71094,2,0,P|166:65|155:14,1,106,10|0,1:2|0:0,0:0:0:0:
54,314,71394,37,2,1:2:0:0:
236,258,71544,2,0,P|185:247|134:260,1,106,2|8,0:0|1:2,0:0:0:0:
46,322,71844,37,2,0:0:0:0:
251,250,71994,2,0,P|296:277|325:322,1,106,2|0,1:2|0:0,0:0:0:0:
143,112,72294,37,10,1:2:0:0:
413,103,72444,2,0,P|384:147|339:174,1,106,2|0,0:0|1:0,0:0:0:0:
135,104,72744,37,2,0:0:0:0:
222,165,72894,2,0,P|272:177|324:166,1,106,10|0,1:2|0:0,0:0:0:0:
417,312,73194,38,0,P|489:303|487:231,1,159,2|0,1:2|0:0,0:0:0:0:
494,216,73494,1,8,1:2:0:0:
324,329,73644,1,0,0:0:0:0:
114,224,73794,37,2,1:2:0:0:
239,305,73944,2,0,P|263:257|261:205,1,106,2|8,0:0|1:2,0:0:0:0:
127,381,74244,2,0,B|182:393|225:355|225:355|268:317|324:329,1,212,2|0,0:0|0:0,0:0:0:0:
461,93,74694,37,10,1:2:0:0:
498,216,74844,1,2,0:0:0:0:
373,255,74994,1,2,1:2:0:0:
336,129,75144,1,2,0:0:0:0:
512,223,75294,2,0,L|494:329,1,106,10|0,1:2|0:0,0:0:0:0:
317,120,75594,38,0,P|265:177|188:170,1,159,2|0,1:2|0:0,0:0:0:0:
174,161,75894,1,10,1:2:0:0:
34,255,76044,1,2,0:0:0:0:
148,378,76194,2,0,P|162:327|153:275,1,106,2|0,1:2|0:0,0:0:0:0:
70,60,76494,38,0,P|70:150|159:146,1,198.75,10|0,1:2|0:0,0:0:0:0:
174,161,76794,2,0,P|261:117|356:140,1,198.75,2|0,1:2|0:0,0:0:0:0:
367,124,77094,2,0,P|453:103|431:17,1,198.75,10|0,1:2|0:0,0:0:0:0:
418,6,77394,2,0,P|401:68|428:126,1,132.5,2|0,1:2|0:0,0:0:0:0:
507,240,77694,2,0,B|452:243|434:297|434:297|437:240|386:218,1,198.75,10|0,1:2|0:0,0:0:0:0:
308,173,77994,38,0,P|260:232|185:219,1,159,0|0,1:0|0:0,0:0:0:0:
169,229,78294,2,0,P|122:169|47:181,1,159,8|0,1:2|0:0,0:0:0:0:
32,199,78594,37,2,1:2:0:0:
195,30,78744,2,0,P|151:59|99:59,1,106,2|8,0:0|1:2,0:0:0:0:
347,101,79044,1,2,1:2:0:0:
339,81,79119,1,0,1:0:0:0:
331,61,79194,38,0,L|325:113,1,53,2|0,1:3|0:0,0:0:0:0:
295,375,79344,2,0,L|301:323,1,53,2|0,1:3|0:0,0:0:0:0:
284,367,79644,70,0,L|289:314,1,53,2|0,1:3|0:0,0:0:0:0:
272,358,79944,6,0,L|277:305,1,53,2|0,1:3|0:0,0:0:0:0:
439,146,80094,2,0,L|390:167,1,53,2|0,1:3|0:0,0:0:0:0:
143,120,80244,1,0,1:0:0:0:
158,114,80319,1,0,1:0:0:0:
172,108,80394,70,0,L|193:123,6,26.5
276,150,80694,54,0,P|188:172|200:262,1,198.75,14|0,1:2|0:0,0:0:0:0:
277,305,80994,37,2,1:2:0:0:
33,378,81144,2,0,L|19:246,1,132.5,2|0,0:0|1:2,0:0:0:0:
288,314,81444,37,2,0:0:0:0:
7,234,81594,2,0,L|20:365,1,132.5,2|0,1:2|0:0,0:0:0:0:
163,142,81894,37,2,1:2:0:0:
366,207,82044,1,2,0:0:0:0:
162,273,82194,1,2,1:2:0:0:
288,100,82344,1,2,0:0:0:0:
288,314,82494,1,2,1:2:0:0:
275,17,82644,37,0,3:0:0:0:
275,17,82719,1,0,3:0:0:0:
275,17,82794,2,0,P|345:85|440:75,1,198.75,2|0,1:2|0:0,0:0:0:0:
460,89,83094,1,2,1:2:0:0:
270,150,83244,1,0,0:0:0:0:
479,103,83394,37,2,1:2:0:0:
306,234,83544,2,0,P|240:236|188:197,1,132.5,2|0,0:0|1:0,0:0:0:0:
390,354,83844,37,0,3:0:0:0:
380,337,83919,1,0,3:0:0:0:
370,320,83994,2,0,P|435:317|487:356,1,132.5,2|0,1:2|0:0,0:0:0:0:
148,384,84294,37,2,1:2:0:0:
95,167,84444,1,0,0:0:0:0:
142,368,84594,2,0,L|167:230,1,132.5,2|0,1:2|3:0,0:0:0:0:
172,256,84819,1,0,3:0:0:0:
178,274,84894,1,2,1:2:0:0:
94,54,85044,69,0,3:0:0:0:
101,35,85119,1,0,3:0:0:0:
107,17,85194,1,2,1:2:0:0:
296,130,85344,1,0,1:0:0:0:
508,72,85494,5,2,1:2:0:0:
305,24,85644,1,2,0:0:0:0:
203,168,85794,1,2,1:2:0:0:
0,120,85944,1,0,3:0:0:0:
13,105,86019,1,0,3:0:0:0:
26,90,86094,2,0,L|157:105,1,132.5,2|0,1:2|3:0,0:0:0:0:
259,217,86319,1,0,3:0:0:0:
247,235,86394,69,2,1:2:0:0:
19,226,86544,1,0,3:0:0:0:
229,366,86694,1,2,3:2:0:0:
12,340,86844,5,0,3:0:0:0:
31,332,86919,1,0,3:0:0:0:
50,325,86994,1,2,1:2:0:0:
326,384,87144,1,2,3:2:0:0:
236,252,87294,1,2,3:2:0:0:
512,311,87444,1,0,3:0:0:0:
508,330,87519,1,0,3:0:0:0:
505,349,87594,5,0,3:0:0:0:
466,355,87669,1,0,3:0:0:0:
428,345,87744,1,0,3:0:0:0:
396,322,87819,1,0,3:0:0:0:
376,288,87894,1,0,3:2:0:0:
370,249,87969,1,0,3:0:0:0:
379,211,88044,1,0,3:0:0:0:
403,179,88119,1,0,3:0:0:0:
427,147,88194,1,0,3:0:0:0:
436,108,88269,1,0,3:0:0:0:
430,69,88344,1,0,3:0:0:0:
410,36,88419,1,0,3:0:0:0:
378,12,88494,1,0,3:2:0:0:
340,3,88569,1,0,3:0:0:0:
301,9,88644,1,0,3:0:0:0:
268,30,88719,1,0,3:0:0:0:
245,61,88794,22,0,L|250:104,1,42.4,6|0,0:2|0:0,0:0:0:0:
124,249,89544,53,0,3:0:0:0:
124,249,89619,1,0,3:0:0:0:
124,249,89694,2,0,P|126:287|107:321,1,79.5,2|0,3:2|0:0,0:0:0:0:
171,378,89994,21,4,1:2:0:0:
171,378,90144,1,0,1:0:0:0:
242,189,90294,22,0,L|319:205,1,79.5000030326844,10|0,0:0|0:0,0:0:0:0:
232,171,90519,2,0,L|154:154,1,79.5000030326844,2|0,1:2|0:0,0:0:0:0:
145,138,90744,1,0,1:0:0:0:
354,310,90894,54,0,P|380:312|406:304,1,53,10|0,0:0|0:0,0:0:0:0:
478,216,91044,1,2,0:0:0:0:
466,223,91119,2,0,P|456:274|420:312,1,106,2|0,1:2|0:0,0:0:0:0:
341,301,91344,1,0,0:0:0:0:
266,78,91494,22,0,P|227:71|191:87,1,79.5000030326844,10|0,0:0|0:0,0:0:0:0:
320,127,91719,2,0,P|306:90|274:67,1,79.5000030326844,2|0,1:2|0:0,0:0:0:0:
336,134,91944,1,2,0:0:0:0:
409,237,92094,1,10,0:2:0:0:
512,164,92244,1,2,1:2:0:0:
439,61,92394,1,2,0:0:0:0:
439,61,92544,1,0,1:0:0:0:
261,303,92694,54,0,L|182:296,1,79.5000030326844,10|0,0:0|0:0,0:0:0:0:
87,297,92919,2,0,L|166:304,1,79.5000030326844,2|0,1:2|0:0,0:0:0:0:
276,295,93144,1,0,1:0:0:0:
33,208,93294,22,0,P|18:185|13:159,1,53,10|0,0:2|0:0,0:0:0:0:
25,55,93444,1,2,1:2:0:0:
35,66,93519,2,0,P|3:107|0:159,1,106,2|0,1:2|0:0,0:0:0:0:
46,216,93744,2,0,L|98:208,1,53,2|0,0:0|0:0,0:0:0:0:
158,129,93894,53,10,0:0:0:0:
195,118,93969,1,2,0:0:0:0:
231,129,94044,1,2,0:0:0:0:
255,160,94119,1,2,0:0:0:0:
268,198,94194,1,2,0:0:0:0:
291,229,94269,1,2,0:0:0:0:
327,240,94344,1,2,0:0:0:0:
366,230,94419,1,2,0:0:0:0:
412,161,94494,54,0,B|336:168|336:168|493:207,1,238.500009098053,4|0,1:2|0:0,0:0:0:0:
512,291,94794,21,6,1:2:0:0:
512,291,94944,1,0,1:0:0:0:
468,76,95094,22,0,B|431:58|431:58|393:66,1,79.5000030326844,10|0,0:0|0:0,0:0:0:0:
308,44,95319,2,0,B|345:62|345:62|382:53,1,79.5000030326844,2|0,1:2|0:0,0:0:0:0:
481,85,95544,1,0,1:0:0:0:
283,166,95694,54,0,L|291:245,1,79.5000030326844,10|0,0:0|0:0,0:0:0:0:
311,340,95919,2,0,L|302:260,1,79.5000030326844,2|0,1:2|0:0,0:0:0:0:
272,151,96144,1,0,1:0:0:0:
101,328,96294,22,0,P|140:331|178:321,1,79.5000030326844,10|0,0:0|0:0,0:0:0:0:
20,307,96519,2,0,P|52:329|90:339,1,79.5000030326844,10|0,0:0|0:0,0:0:0:0:
4,313,96744,1,2,1:2:0:0:
111,234,96894,1,10,0:0:0:0:
135,102,97044,1,2,0:0:0:0:
37,16,97194,1,2,0:0:0:0:
37,16,97344,1,0,1:0:0:0:
146,91,97494,54,0,L|225:83,1,79.5000030326844,10|0,0:0|0:0,0:0:0:0:
317,65,97719,2,0,L|238:73,1,79.5000030326844,2|0,1:2|0:0,0:0:0:0:
135,102,97944,1,0,1:0:0:0:
402,169,98094,22,0,P|410:143|410:117,1,53,10|0,0:0|0:0,0:0:0:0:
328,256,98244,1,2,0:0:0:0:
344,252,98319,2,0,P|389:226|413:179,1,106,2|0,1:2|0:0,0:0:0:0:
316,268,98544,1,0,1:0:0:0:
478,368,98694,54,0,P|442:351|402:348,1,79.5000030326844,10|0,0:0|0:0,0:0:0:0:
308,356,98919,2,0,P|347:353|383:336,1,79.5000030326844,2|0,1:2|0:0,0:0:0:0:
493,362,99144,1,2,0:0:0:0:
236,306,99294,54,0,B|144:294|144:294|82:363|82:363|176:375,1,278.250002653599,6|0,1:0|0:0,0:0:0:0:
316,268,99594,22,0,L|309:202,1,66.25,8|0,1:2|0:0,0:0:0:0:
298,103,99744,1,0,1:0:0:0:
326,261,99894,54,0,L|319:195,1,66.25,10|0,1:2|0:0,0:0:0:0:
308,96,100044,1,2,1:2:0:0:
308,96,100119,2,0,L|247:68,1,66.25,10|0,1:2|1:0,0:0:0:0:
156,29,100269,1,2,0:0:0:0:
156,29,100344,2,2,L|101:67,1,66.25,2|0,1:2|0:2,1:2:0:0:
1,147,100494,22,0,P|28:138|0:139,1,79.5,2|0,0:1|0:0,0:0:0:0:
23,240,100794,54,0,P|50:223|83:218,2,66.25,8|0|0,1:2|0:0|1:0,0:0:0:0:
156,155,101019,1,8,1:2:0:0:
156,155,101094,2,0,P|188:161|214:181,1,66.25,2|0,1:2|0:0,0:0:0:0:
310,188,101244,1,8,1:2:0:0:
310,188,101319,2,0,P|327:215|332:248,1,66.25,2|0,0:0|1:0,0:0:0:0:
395,320,101469,1,2,0:0:0:0:
395,320,101544,2,0,P|388:352|368:378,1,66.25,10|0,1:2|0:0,0:0:0:0:
196,328,101694,22,0,L|203:288,1,39.7500015163422,2|0,0:0|0:0,0:0:0:0:
217,280,101844,2,0,L|209:319,1,39.7500015163422,2|0,0:0|0:0,0:0:0:0:
74,379,101994,54,0,P|63:347|64:314,1,66.25,10|0,1:2|0:0,0:0:0:0:
83,218,102144,1,0,0:0:0:0:
61,384,102294,22,0,P|50:352|51:319,1,66.25,10|0,1:2|0:0,0:0:0:0:
70,223,102444,1,2,1:2:0:0:
70,223,102519,2,0,P|84:193|108:170,1,66.25,10|0,1:2|1:0,0:0:0:0:
308,21,102744,53,2,1:2:0:0:
327,26,102819,1,2,1:2:0:0:
345,33,102894,2,0,P|325:34|306:41,6,39.7500015163422,2|0|0|0|0|0|0,1:2|0:0|0:0|0:0|0:0|0:0|0:0,0:0:0:0:
0,84,103194,22,0,L|65:92,1,66.25,10|0,1:2|0:0,0:0:0:0:
163,104,103344,1,0,0:0:0:0:
6,73,103494,54,0,L|71:81,1,66.25,10|0,1:2|0:0,0:0:0:0:
205,74,103644,1,8,1:2:0:0:
188,84,103719,1,10,1:2:0:0:
171,94,103794,2,0,L|236:102,1,66.25,0|0,1:0|0:0,0:0:0:0:
336,115,103944,2,0,L|401:123,1,66.25,2|0,1:2|0:0,0:0:0:0:
468,250,104094,22,0,P|485:142|399:208,1,278.250002653599,2|0,1:0|0:0,1:0:0:0:
471,384,104394,53,6,1:2:0:0:
456,364,104469,1,0,3:0:0:0:
437,350,104544,1,0,3:0:0:0:
415,343,104619,1,0,3:0:0:0:
392,344,104694,2,0,L|352:350,1,39.7500015163422,2|0,3:2|3:0,3:0:0:0:
282,316,104844,1,2,3:2:0:0:
282,316,104919,2,0,L|242:322,1,39.7500015163422,2|0,3:2|3:0,3:0:0:0:
172,287,105069,1,0,3:2:0:0:
172,287,105144,2,0,L|132:293,1,39.7500015163422,2|0,3:2|3:0,3:0:0:0:
52,234,105294,21,0,3:0:0:0:
52,234,105369,1,0,3:0:0:0:
52,234,105444,2,0,L|58:186,1,47.6999985443116,2|0,3:2|3:0,3:0:0:0:
203,119,105594,1,0,3:0:0:0:
191,127,105669,1,0,3:0:0:0:
179,135,105744,2,0,L|131:128,1,47.6999985443116,2|0,3:2|3:0,3:0:0:0:
18,65,105894,2,0,L|65:58,1,47.6999985443116,2|0,3:2|3:0,3:0:0:0:
205,0,106044,53,0,3:0:0:0:
225,12,106119,1,0,3:0:0:0:
246,18,106194,2,0,P|273:18|299:9,1,55.6499983016968,2|0,3:2|3:0,3:0:0:0:
340,139,106344,1,2,3:2:0:0:
362,118,106419,2,0,P|376:94|381:67,1,55.6499983016968,2|0,3:2|3:0,3:0:0:0:
512,97,106569,1,0,3:0:0:0:
505,67,106644,2,0,P|491:42|470:24,1,55.6499983016968,2|0,3:2|3:0,3:0:0:0:
265,171,106794,22,0,L|277:200,6,33.125,2|0|0|0|0|0|0,3:2|3:0|3:0|3:0|3:0|3:0|3:0,3:0:0:0:
281,382,107094,2,0,L|287:349,6,33.125,2|0|0|0|0|0|0,3:2|3:0|3:0|3:0|3:0|3:0|3:0,3:0:0:0:
366,218,107394,2,0,L|392:197,4,33.125,2|0|0|0|0,3:2|3:0|3:0|3:0|3:0,3:0:0:0:
226,276,107620,2,0,L|194:280,4,33.125,2|0|0|0|0,3:2|3:0|3:0|3:0|3:0,3:0:0:0:
375,311,107844,2,0,L|404:328,2,33.125,2|0|0,3:2|3:0|3:0,3:0:0:0:
307,271,107994,53,4,1:0:0:0:
307,271,108894,70,0,B|240:290|229:352|229:352|240:290|183:249,1,238.500009098053,8|0,0:2|0:0,0:0:0:0:
85,199,109194,6,0,B|67:191|54:205|54:205|70:212|85:199,1,66.25,6|0,1:2|0:0,0:0:0:0:
298,121,109344,2,0,B|315:114|328:127|328:127|312:134|298:121,1,66.25,2|0,1:2|0:0,0:0:0:0:
177,7,109494,22,0,L|180:28,1,21.2,0|0,0:1|1:0,0:0:0:0:
179,27,110094,38,0,P|202:27|179:22,1,66.25,0|0,1:0|0:0,0:0:0:0:
52,72,110244,38,0,L|13:68,1,39.75,0|0,1:0|0:0,1:0:0:0:
213,165,110544,54,0,P|236:167|213:171,1,66.25,0|0,1:0|0:0,0:0:0:0:
39,85,110694,22,0,L|0:81,1,39.75,0|0,1:1|0:0,1:0:0:0:
77,7,110994,38,2,B|91:162|91:162|86:159|86:159|99:314,1,318,10|0,1:0|0:0,1:0:0:0:
214,345,111294,6,0,B|201:376|201:376|202:342,1,66.25,0|0,1:0|0:0,0:0:0:0:
350,270,111444,22,0,L|389:276,1,39.75,0|0,1:0|0:0,1:0:0:0:
224,169,111744,38,0,B|211:138|211:138|212:171,1,66.25,0|0,1:0|0:0,0:0:0:0:
357,285,111894,38,0,L|396:291,1,39.75,0|0,1:0|0:0,1:0:0:0:
268,242,112194,54,0,P|264:262|266:282,6,39.7500015163422,2|0|0|0|0|0|0,1:2|3:0|3:0|3:0|3:0|3:0|3:0,0:0:0:0:
339,176,112494,70,0,P|351:145|349:112,1,66.25,0|0,1:0|0:0,0:0:0:0:
186,23,112644,38,0,L|226:16,1,39.75,0|0,1:0|0:0,1:0:0:0:
358,162,112944,54,0,P|364:129|357:97,1,66.25,0|0,1:0|0:0,0:0:0:0:
165,19,113094,22,0,L|125:26,1,39.75,2|0,0:1|0:0,1:0:0:0:
357,97,113394,2,0,L|397:104,1,39.75,2|0,0:1|0:0,1:0:0:0:
165,161,113694,2,0,L|125:168,1,39.75,2|0,0:1|0:0,1:0:0:0:
386,342,113994,38,0,B|375:358|389:372|389:372|397:356|386:342,1,66.25,2|0,1:2|0:0,0:0:0:0:
281,215,114144,2,0,B|286:232|306:233|306:233|299:217|281:215,1,66.25,2|0,1:2|0:0,0:0:0:0:
116,199,114294,38,0,L|76:206,1,39.75,0|0,1:0|0:0,1:0:0:0:
0,255,114594,54,0,B|57:296|46:358|46:358|57:296|124:277,1,238.500009098053,2|0,1:0|0:0,0:0:0:0:
156,373,114894,70,0,P|133:373|156:368,1,66.25,0|0,1:0|0:0,0:0:0:0:
283,310,115044,38,0,P|301:317|321:319,1,39.75,0|0,1:0|0:0,0:0:0:0:
205,212,115344,54,0,P|182:212|205:217,1,66.25,0|0,1:0|0:0,0:0:0:0:
321,319,115494,22,0,P|340:318|359:311,1,39.75,0|0,1:0|0:0,0:0:0:0:
450,277,115794,38,0,L|454:250,6,26.5,8|0|0|0|0|0|0,1:0|3:0|3:0|3:0|3:0|3:0|3:0,0:0:0:0:
468,178,116094,2,0,L|470:160,9,17.6666666666667,0|0|0|0|0|0|0|0|0|0,3:0|3:0|3:0|3:0|3:0|3:0|3:0|3:0|3:0|3:0,0:0:0:0:
376,107,116394,6,0,B|392:178|331:218|326:189|261:230|278:302,1,238.500009098053,4|0,1:0|0:0,0:0:0:0:
359,310,116694,2,0,B|387:241|330:189|321:218|267:168|296:100,1,238.500009098053,4|0,1:0|0:0,0:0:0:0:
297,100,117144,2,0,B|313:171|252:211|247:182|182:223|199:295,1,238.500009098053,4|0,1:0|0:0,0:0:0:0:
279,303,117594,2,0,B|307:234|250:182|241:211|187:161|216:93,1,238.500009098053,4|0,1:0|0:0,0:0:0:0:
217,93,118044,2,0,B|233:164|172:204|167:175|102:216|119:288,1,238.500009098053,4|0,1:0|0:0,0:0:0:0:
199,297,118494,2,0,B|227:228|170:176|161:205|107:155|136:87,1,238.500009098053,4|0,1:0|0:0,0:0:0:0:
142,70,118794,22,0,L|102:75,7,39.7500015163422
10,63,119394,38,2,B|126:70|126:70|123:74|123:74|240:82,1,238.500009098053,10|0,1:0|0:0,1:0:0:0:
365,49,119694,6,0,P|343:58|361:42,1,66.25,0|0,1:0|0:0,0:0:0:0:
494,14,119844,2,0,L|467:9,1,26.5,0|0,1:0|0:0,0:0:0:0:
263,215,120144,70,0,P|285:224|267:207,1,66.25,0|0,1:0|0:0,0:0:0:0:
134,179,120294,2,0,L|160:174,1,26.5,0|0,1:0|0:0,0:0:0:0:
434,306,120594,6,0,B|452:252|452:252|393:234|351:279|351:279|309:324|250:306,1,278.250002653599,10|0,1:0|0:0,0:0:0:0:
151,384,120894,70,0,B|165:354|165:354|159:322,1,66.25,0|0,1:0|0:0,0:0:0:0:
44,337,121044,2,0,L|70:341,1,26.5,0|0,1:0|0:0,0:0:0:0:
267,207,121344,6,0,B|252:177|252:177|258:145,1,66.25,0|0,1:0|0:0,0:0:0:0:
374,160,121494,2,0,L|347:164,1,26.5,0|0,1:0|0:0,0:0:0:0:
464,384,121794,70,0,B|468:357,9,26.5000010108948,0|0|0|0|0|0|0|0|0|0,1:0|0:0|0:0|0:0|0:0|0:0|0:0|0:0|0:0|0:0,0:0:0:0:
425,289,122094,6,0,P|394:300|361:299,1,66.25,0|0,1:0|0:0,0:0:0:0:
486,198,122244,2,0,L|480:223,1,26.5,0|0,1:0|0:0,0:0:0:0:
230,270,122544,70,0,P|199:258|166:259,1,66.25,0|0,1:0|0:0,0:0:0:0:
291,361,122694,6,0,L|285:335,1,26.5,2|0,1:0|0:0,0:0:0:0:
473,215,122994,2,0,L|478:189,1,26.5,2|0,1:0|0:0,0:0:0:0:
207,104,123294,2,0,L|201:78,1,26.5,2|0,1:0|0:0,0:0:0:0:
502,12,123594,70,0,L|497:31,10,19.8750007581711,8|0|0|0|0|0|0|0|0|0|0,1:0|0:0|0:0|0:0|0:0|0:0|0:0|0:0|0:0|0:0|0:0,0:0:0:0:
512,113,124044,6,0,B|477:116|477:116|450:98,1,66.25,8|0,1:0|0:0,0:0:0:0:
293,38,124194,2,0,B|406:18|406:18|370:44,1,159,2|0,1:0|0:0,0:0:0:0:
288,148,124494,70,2,B|235:153|198:115|198:115|162:75|109:82,1,198.75,10|0,1:2|0:0,1:0:0:0:
95,176,124794,6,0,P|144:195|98:169,1,159,2|0,1:2|0:0,0:0:0:0:
18,174,125094,2,0,P|17:200|24:225,1,53,2|0,0:0|0:0,0:0:0:0:
1,299,125244,2,0,P|23:312|49:319,1,53,10|0,1:2|0:0,0:0:0:0:
98,377,125394,70,2,P|186:333|283:347,1,198.75,2|0,1:0|0:0,1:0:0:0:
416,340,125694,6,0,P|309:345|309:238,1,238.500009098053,10|0,1:0|0:0,1:0:0:0:
375,177,125994,21,6,1:2:0:0:
437,219,126144,1,0,3:0:0:0:
512,224,126294,1,0,3:0:0:0:
362,163,126444,53,2,3:2:0:0:
444,115,126594,1,0,3:0:0:0:
485,31,126744,1,0,3:0:0:0:
353,152,126894,21,2,3:2:0:0:
368,26,127044,1,0,3:0:0:0:
309,238,127194,53,0,3:0:0:0:
272,207,127269,1,0,3:0:0:0:
227,193,127344,1,0,3:0:0:0:
180,197,127419,1,0,3:0:0:0:
138,219,127494,1,0,3:0:0:0:
97,243,127569,1,0,3:0:0:0:
51,240,127644,1,0,3:0:0:0:
13,211,127719,1,0,3:0:0:0:
0,166,127794,1,0,3:0:0:0:
12,121,127869,1,0,3:0:0:0:
48,91,127944,1,0,3:0:0:0:
94,86,128019,1,0,3:0:0:0:
136,109,128094,22,0,L|97:114,1,39.75,2|0,0:0|0:0,0:0:0:0:
13,21,128394,54,0,P|31:14|51:12,1,39.7500015163422,6|0,1:2|0:0,0:0:0:0:
73,0,128544,2,0,P|99:0|125:5,1,53,2|0,0:0|0:0,0:0:0:0:
150,0,128694,22,0,P|199:31|258:32,1,119.250004549027,2|0,0:0|0:0,0:0:0:0:
362,0,128994,37,8,1:2:0:0:
362,0,129294,6,0,P|371:31|367:64,1,66.25,4|0,1:0|0:0,0:0:0:0:
259,33,129444,2,0,L|286:37,1,26.5
96,114,129744,70,0,P|86:145|90:178,1,66.25
199,146,129894,2,0,L|172:150,1,26.5,0|0,1:0|0:0,0:0:0:0:
249,312,130194,6,2,B|274:292|274:292|343:301|343:301|363:328|363:328|433:337|433:337|459:317,1,238.500009098053,10|0,1:0|0:0,1:0:0:0:
419,191,130494,70,0,B|409:256,1,66.25
485,136,130644,2,0,B|488:109,1,26.5,0|0,0:0|1:0,0:0:0:0:
257,245,130944,6,0,B|248:311,1,66.25
324,191,131094,2,0,B|327:164,1,26.5
53,374,131394,70,0,L|79:370,9,26.5000010108948,8|0|0|0|0|0|0|0|0|0,1:0|0:0|0:0|0:0|0:0|0:0|0:0|0:0|0:0|0:0,0:0:0:0:
142,313,131694,6,0,B|154:281|154:281|147:249,1,66.25,0|0,1:0|0:0,0:0:0:0:
41,188,131844,2,0,L|67:191,1,26.5
288,11,132144,70,0,B|300:42|300:42|293:74,1,66.25
187,136,132294,6,0,L|213:132,1,26.5,2|0,1:0|0:0,0:0:0:0:
289,362,132594,2,0,L|315:365,1,26.5,10|0,1:0|0:0,0:0:0:0:
391,191,132894,2,0,L|417:187,1,26.5,2|0,1:0|0:0,0:0:0:0:
492,302,133194,70,0,B|505:310|505:310|522:307|522:307|508:298|508:298|492:302,1,66.25,2|0,1:2|0:0,0:0:0:0:
365,279,133344,2,0,B|378:287|378:287|395:284|395:284|381:275|381:275|365:279,1,66.25,2|0,0:0|0:0,0:0:0:0:
247,258,133494,2,0,L|273:262,1,26.5,2|0,0:0|0:0,0:0:0:0:
23,322,133794,6,2,B|66:378|66:378|46:211,1,238.500009098053,10|0,1:0|0:0,1:0:0:0:
84,67,134094,70,0,B|116:61|116:61|145:77,1,66.25,0|0,1:0|0:0,0:0:0:0:
115,149,134244,2,0,L|88:144,1,26.5
215,339,134544,6,0,B|247:344|247:344|276:328,1,66.25
246,257,134694,2,0,L|219:261,1,26.5,0|0,1:0|0:0,0:0:0:0:
456,161,134994,70,2,B|422:47|422:47|351:143,1,238.500009098053,10|0,1:2|0:0,1:0:0:0:
343,139,135294,6,2,B|426:27|426:27|466:161,1,278.250002653599,2|0,1:0|0:0,1:0:0:0:
322,292,135594,70,0,B|288:331|222:345|181:304|181:304|203:265|243:256,1,238.500009098053,4|0,1:0|0:0,0:0:0:0:
392,243,135894,2,0,B|409:291|388:355|332:370|332:370|309:331|322:292,1,238.500009098053,4|0,1:0|0:0,0:0:0:0:
384,158,136344,2,0,B|434:167|479:217|464:273|464:273|419:273|391:242,1,238.500009098053,4|0,1:0|0:0,0:0:0:0:
306,123,136794,2,0,B|339:83|405:69|446:110|446:110|424:149|384:158,1,238.500009098053,4|0,1:0|0:0,0:0:0:0:
237,173,137244,2,0,B|219:124|240:60|296:45|296:45|319:84|306:123,1,238.500009098053,4|0,1:0|0:0,0:0:0:0:
246,259,137694,2,0,B|195:249|150:199|165:143|165:143|210:143|237:173,1,238.500009098053,4|0,1:0|0:0,0:0:0:0:
311,210,137994,38,0,B|325:214|325:214|316:207,14,26.5,2|0|0|0|0|0|0|0|0|0|0|0|0|0|0,0:0|0:0|0:0|0:0|0:0|0:0|0:0|0:0|0:0|0:0|0:0|0:0|0:0|0:0|0:0,0:0:0:0:
329,95,138594,38,2,B|314:210|314:210|317:208|317:208|303:324,1,238.500009098053,10|0,1:0|0:0,1:0:0:0:
376,374,138894,6,0,B|406:360|406:360|438:366,1,66.25,0|0,1:0|0:0,0:0:0:0:
499,277,139044,2,0,L|502:303,1,26.5
227,258,139344,70,0,B|197:244|197:244|164:250,1,66.25
104,161,139494,2,0,L|100:187,1,26.5,0|0,1:0|0:0,0:0:0:0:
330,95,139794,6,2,B|437:144|437:144|320:177,1,238.500009098053,10|0,1:0|0:0,1:0:0:0:
163,82,140094,70,0,P|151:51|153:18,1,66.25
228,131,140244,2,0,L|254:128,1,26.5,0|0,0:0|1:0,0:0:0:0:
91,251,140544,6,0,P|102:220|100:187,1,66.25
26,300,140694,2,0,L|0:297,1,26.5
173,354,140994,70,0,L|202:348,9,30.916666961511,10|0|0|0|0|0|0|0|0|0,1:2|0:0|0:0|0:0|0:0|0:0|0:0|0:0|0:0|0:0,0:0:0:0:
294,309,141294,6,0,P|316:318|298:302,1,66.25,0|0,1:0|0:0,0:0:0:0:
165,274,141444,2,0,L|192:269,1,26.5
375,138,141744,70,0,P|397:147|379:131,1,66.25
246,103,141894,2,0,L|273:98,1,26.5,2|0,1:0|0:0,0:0:0:0:
464,246,142194,2,0,L|437:241,1,26.5,10|0,1:0|0:0,0:0:0:0:
204,349,142494,2,0,L|231:344,1,26.5,2|0,1:0|0:0,0:0:0:0:
493,376,142794,38,0,B|473:343|473:343|407:329,1,106,6|0,1:0|0:0,0:0:0:0:
353,250,143019,2,0,B|323:273|323:273|256:261,1,106,0|0,1:0|0:0,0:0:0:0:
102,323,143244,53,0,1:0:0:0:
122,306,143319,1,0,1:0:0:0:
141,287,143394,2,0,P|147:255|138:223,1,66.25,8|0,1:0|0:0,0:0:0:0:
15,171,143544,2,0,P|63:213|128:209,1,132.5,2|0,1:0|0:0,0:0:0:0:
338,23,143844,22,0,B|307:46|307:46|226:35|226:35|203:4,1,159,2|0,1:0|0:0,0:0:0:0:
191,14,144144,54,0,P|227:67|218:131,1,132.5,2|0,1:0|0:0,0:0:0:0:
398,123,144369,2,0,P|339:151|315:211,1,132.5,2|0,1:0|0:0,0:0:0:0:
129,200,144594,22,0,P|157:216|177:242,1,66.25,8|0,1:0|0:0,0:0:0:0:
475,270,144744,2,0,P|410:265|359:305,1,132.5,2|0,1:0|0:0,0:0:0:0:
39,356,145044,2,0,P|71:355|102:368,1,66.25,2|0,1:0|0:0,0:0:0:0:
349,384,145194,54,0,L|359:305,1,79.5000030326844,4|0,1:0|0:0,0:0:0:0:
188,321,145344,1,0,1:0:0:0:
188,321,145419,1,0,1:0:0:0:
188,321,145494,2,0,L|177:242,1,79.5000030326844,8|0,1:0|0:0,0:0:0:0:
424,226,145644,1,0,1:0:0:0:
424,226,145719,1,0,1:0:0:0:
424,226,145794,2,0,L|434:147,1,79.5000030326844,4|0,1:0|0:0,0:0:0:0:
116,136,145944,2,0,L|105:57,1,79.5000030326844,0|0,1:0|0:0,0:0:0:0:
263,1,146094,2,0,L|252:79,1,79.5000030326844,8|0,1:0|0:0,0:0:0:0:
242,159,146244,1,0,1:0:0:0:
506,85,146394,5,4,1:0:0:0:
456,54,146469,1,0,1:0:0:0:
396,57,146544,1,0,1:0:0:0:
352,96,146619,1,0,1:0:0:0:
338,153,146694,1,4,1:0:0:0:
323,209,146769,1,0,1:0:0:0:
279,247,146844,1,0,1:0:0:0:
220,251,146919,1,0,1:0:0:0:
170,224,146994,6,0,B|100:143|174:37|266:102|242:159,1,254.399992236328,10|4,1:2|0:1,0:0:0:0:
241,159,151794,5,2,0:0:0:0:
241,159,152394,70,0,L|248:128,7,31.799999029541,2|0|0|0|0|0|0|0,0:0|0:0|0:0|0:0|0:0|0:0|0:0|0:0,0:0:0:0:
161,197,153594,2,0,L|133:180,7,31.799999029541,2|0|0|0|0|0|0|0,0:0|0:0|0:0|0:0|0:0|0:0|0:0|0:0,0:0:0:0:
302,223,154794,6,0,L|333:220,1,31.799999029541,2|0,0:0|0:0,0:0:0:0:
172,285,155094,2,0,L|147:305,1,31.799999029541,2|0,0:0|0:0,0:0:0:0:
241,159,155394,1,2,0:0:0:0:
259,301,155544,2,0,L|271:330,1,31.799999029541,2|0,0:0|0:0,0:0:0:0:
353,369,155844,69,0,0:0:0:0:
353,369,155994,2,0,P|369:367|385:364,3,31.799999029541,2|0|0|0,0:0|0:0|0:0|0:0,0:0:0:0:
444,315,156594,2,0,P|450:300|455:285,1,31.799999029541,2|0,0:0|0:0,0:0:0:0:
442,209,156894,2,0,P|433:195|422:184,1,31.799999029541,2|0,0:0|0:0,0:0:0:0:
512,91,157194,6,0,L|469:95,7,42.4,2|0|0|0|0|0|0|0,0:0|0:0|0:0|0:0|0:0|0:0|0:0|0:0,0:0:0:0:
410,42,158394,2,0,L|367:46,7,42.4,2|0|0|0|0|0|0|0,0:0|0:0|0:0|0:0|0:0|0:0|0:0|0:0,0:0:0:0:
305,107,159594,70,0,P|282:93|256:90,1,53,2|0,0:0|0:0,0:0:0:0:
118,55,159894,1,0,0:0:0:0:
193,41,160044,2,0,P|167:47|146:63,2,53,2|0|0,0:0|0:0|0:0,0:0:0:0:
67,73,160494,2,0,P|53:95|50:121,1,53,2|0,0:0|0:0,0:0:0:0:
5,242,160794,6,0,L|58:232,2,53,2|0|0,0:0|0:0|0:0,0:0:0:0:
195,149,161244,1,0,0:0:0:0:
119,169,161394,2,0,L|327:208,1,212,2|0,0:0|0:0,0:0:0:0:
303,213,166794,70,0,L|421:203,1,119.250004549027,0|0,1:0|0:0,0:0:0:0:
438,214,167094,2,0,L|450:135,1,79.5000030326844,0|0,1:0|0:0,0:0:0:0:
365,292,167394,21,0,1:0:0:0:
370,313,167544,1,0,0:0:0:0:
303,213,167694,53,0,1:0:0:0:
308,192,167844,1,0,0:0:0:0:
199,322,167994,22,0,L|119:314,1,79.5000030326844,0|0,1:0|0:0,0:0:0:0:
216,123,168294,2,0,L|208:202,1,79.5000030326844,0|0,1:0|0:0,0:0:0:0:
17,106,168594,2,0,L|96:113,1,79.5000030326844,0|0,1:0|0:0,0:0:0:0:
0,305,168894,2,0,L|7:225,1,79.5000030326844,0|0,1:0|0:0,0:0:0:0:
199,322,169194,53,2,1:2:0:0:
290,279,169344,1,0,1:0:0:0:
390,306,169494,1,0,1:0:0:0:
207,155,169644,21,2,1:2:0:0:
334,182,169794,1,0,1:0:0:0:
408,280,169944,1,0,1:0:0:0:
423,84,170094,53,2,1:2:0:0:
439,274,170244,1,0,1:0:0:0:
247,147,170394,53,2,1:2:0:0:
207,152,170469,1,0,1:0:0:0:
168,157,170544,1,0,1:0:0:0:
128,162,170619,1,0,1:0:0:0:
89,152,170694,1,0,1:0:0:0:
66,122,170769,1,0,1:0:0:0:
67,83,170844,1,0,1:0:0:0:
92,53,170919,1,0,1:0:0:0:
131,47,170994,22,0,L|156:53,14,26.5,0|0|0|0|0|0|0|0|0|0|0|0|0|0|0,1:0|0:0|0:0|0:0|0:0|0:0|0:0|0:0|0:0|0:0|0:0|0:0|0:0|0:0|0:0,0:0:0:0:
226,6,171594,54,0,B|311:39|253:83|349:152|445:123|462:48|404:0|362:23,1,331.25,4|0,1:0|0:0,0:0:0:0:
204,142,172044,2,0,B|166:193|197:251|223:220|271:304|196:438|86:337|138:281,1,331.25,4|0,1:0|0:0,0:0:0:0:
286,179,172494,2,0,B|338:176|372:218|372:218|406:260|459:258,1,198.75,4|0,1:0|0:0,0:0:0:0:
512,178,172794,22,0,B|421:138|353:210|392:223|322:299|231:260,1,318,2|0,0:0|0:0,0:0:0:0:
231,260,173994,54,0,P|334:336|207:347,1,331.25,4|0,1:0|0:0,0:0:0:0:
72,216,174444,2,0,B|72:164|126:135|126:135|191:244|113:347,1,331.25,4|0,1:0|0:0,0:0:0:0:
94,353,174894,2,0,P|66:336|34:333,1,66.25,4|0,1:0|0:0,0:0:0:0:
0,248,175044,22,0,L|237:275,1,238.5,2|0,0:0|0:0,0:0:0:0:
376,368,175794,22,0,P|356:333|353:294,1,79.5,2|0,0:0|0:0,0:0:0:0:
339,274,176094,2,0,P|349:235|375:206,1,79.5,2|0,0:0|0:0,0:0:0:0:
484,167,176394,22,0,B|540:204|540:204|410:182|410:182|397:170|397:170|283:152,1,331.25,4|0,1:0|0:0,0:0:0:0:
98,42,176844,2,0,B|-24:23|-24:23|27:112|27:112|130:128,1,331.25,4|0,1:0|0:0,0:0:0:0:
303,137,177294,2,0,B|208:141|208:141|204:138|204:138|208:141|208:141|114:145,1,198.75,4|0,1:0|0:0,0:0:0:0:
12,218,177594,22,0,B|60:250|57:308|57:308|82:256|140:249,1,212,2|0,0:0|0:0,0:0:0:0:
139,249,178494,22,0,L|217:259,1,79.5,2|0,0:0|0:0,0:0:0:0:
329,298,178794,22,0,B|321:233|321:233|230:244|230:244|222:249|222:249|142:259|142:259|135:256|135:256|58:265,1,331.25,4|0,1:0|0:0,0:0:0:0:
102,363,179244,2,0,B|166:369|166:369|179:255|179:255|174:258|174:258|191:113,1,331.25,4|0,1:0|0:0,0:0:0:0:
64,9,179694,2,0,B|69:79|69:79|66:74|66:74|98:107|98:107|95:104|95:104|102:180,1,198.75,4|0,1:0|0:0,0:0:0:0:
265,131,179994,22,0,P|240:47|153:42,1,185.5,4|0,1:0|0:0,0:0:0:0:
223,196,180594,2,0,B|243:211|243:211|309:203|309:203|325:183|325:183|397:174|397:174|428:211|428:211|423:250,1,278.250010614396,2|0,0:0|0:0,0:0:0:0:
507,336,181194,54,0,L|496:367,10,33.125,4|0|0|0|0|0|0|0|0|0|0,1:0|0:0|0:0|0:0|0:0|0:0|0:0|0:0|0:0|0:0|0:0,0:0:0:0:
424,251,181644,2,0,L|445:276,10,33.125,4|0|0|0|0|0|0|0|0|0|0,1:0|0:0|0:0|0:0|0:0|0:0|0:0|0:0|0:0|0:0|0:0,0:0:0:0:
308,280,182094,2,0,L|340:273,6,33.125,4|0|0|0|0|0|0,1:0|0:0|0:0|0:0|0:0|0:0|0:0,0:0:0:0:
237,331,182394,22,0,P|296:263|284:173,1,185.5,2|0,0:0|0:0,0:0:0:0:
208,119,182994,54,0,L|188:120,6,19.8750007581711
276,163,183294,2,0,B|324:156|324:156|335:144|335:144|388:138,1,119.250004549027
510,66,183594,22,0,B|496:76|496:76|511:73,10,33.125,4|0|0|0|0|0|0|0|0|0|0,1:0|0:0|0:0|0:0|0:0|0:0|0:0|0:0|0:0|0:0|0:0,0:0:0:0:
388,138,184044,2,0,B|403:140|403:140|389:130,10,33.125,4|0|0|0|0|0|0|0|0|0|0,1:0|0:0|0:0|0:0|0:0|0:0|0:0|0:0|0:0|0:0|0:0,0:0:0:0:
512,193,184494,54,2,B|389:231|389:231|298:112|298:112|388:138,1,371,4|0,1:0|0:0,1:0:0:0:
389,130,185094,22,0,L|351:119,1,39.7500015163422
275,96,185244,2,0,L|237:85,1,39.7500015163422
100,33,185394,54,0,B|123:-3|123:-3|142:111,1,159,2|0,0:0|0:0,0:0:0:0:
17,225,185694,2,0,P|1:159|67:167,1,159,2|0,0:0|0:0,0:0:0:0:
92,310,185994,22,0,B|109:310|109:310|124:315,10,33.125,4|0|0|0|0|0|0|0|0|0|0,1:0|0:0|0:0|0:0|0:0|0:0|0:0|0:0|0:0|0:0|0:0,0:0:0:0:
223,228,186444,2,0,B|214:242|214:242|201:253,10,33.125,4|0|0|0|0|0|0|0|0|0|0,1:0|0:0|0:0|0:0|0:0|0:0|0:0|0:0|0:0|0:0|0:0,0:0:0:0:
227,383,186894,2,0,B|218:368|218:368|215:351,6,33.125,4|0|0|0|0|0|0,1:0|0:0|0:0|0:0|0:0|0:0|0:0,0:0:0:0:
274,297,187194,54,0,P|331:299|365:346,1,119.250004549027,2|0,0:0|0:0,0:0:0:0:
389,360,187494,22,0,L|349:363,1,39.7500015163422,2|0,0:0|0:0,0:0:0:0:
470,356,187644,2,0,L|510:353,1,39.7500015163422,2|0,0:0|0:0,0:0:0:0:
427,285,187794,54,0,B|434:229|434:229|438:233|438:233|444:176,1,119.250004549027,0|0,0:0|0:0,1:0:0:0:
512,138,188094,22,0,P|438:137|423:65,1,159,2|0,0:0|0:0,0:0:0:0:
512,4,188394,54,0,L|502:35,10,33.125,4|0|0|0|0|0|0|0|0|0|0,1:0|0:0|0:0|0:0|0:0|0:0|0:0|0:0|0:0|0:0|0:0,0:0:0:0:
422,65,188844,2,0,L|412:96,10,33.125,4|0|0|0|0|0|0|0|0|0|0,1:0|0:0|0:0|0:0|0:0|0:0|0:0|0:0|0:0|0:0|0:0,0:0:0:0:
332,126,189294,2,0,L|322:157,6,33.125,4|0|0|0|0|0|0,1:0|0:0|0:0|0:0|0:0|0:0|0:0,0:0:0:0:
250,231,189594,22,0,P|192:177|167:251,1,185.5,2|0,1:2|0:0,1:0:0:0:
16,384,190194,2,0,P|212:266|441:271,1,463.75,2|0,0:0|0:0,1:0:0:0:
489,197,190794,22,0,L|507:119,1,79.5000030326844,4|0,1:0|0:0,0:0:0:0:
364,257,191094,2,0,L|373:218,3,39.7500015163422,10|2|2|2,0:0|0:0|0:0|0:0,0:0:0:0:
381,252,191394,2,0,L|399:174,1,79.5000030326844,8|0,0:0|0:0,0:0:0:0:
256,311,191694,2,0,L|265:272,3,39.7500015163422,10|2|2|2,0:0|0:0|0:0|0:0,0:0:0:0:
273,307,191994,2,0,L|291:229,1,79.5000030326844,8|0,0:0|0:0,0:0:0:0:
148,367,192294,2,0,L|157:328,3,39.7500015163422,10|2|2|2,0:0|0:0|0:0|0:0,0:0:0:0:
161,311,192594,54,0,P|124:325|84:325,1,79.5000030326844,8|0,0:0|0:0,0:0:0:0:
9,345,192819,1,2,0:0:0:0:
9,345,192894,2,0,P|3:326|0:306,1,39.7500015163422,10|0,0:0|0:0,0:0:0:0:
76,286,193044,2,0,P|81:304|84:324,1,39.7500015163422,2|0,0:0|0:0,0:0:0:0:
18,105,193194,22,0,P|56:99|87:74,1,79.5000030326844,8|0,0:0|0:0,0:0:0:0:
138,182,193494,2,0,P|148:165|154:146,3,39.7500015163422,10|2|2|2,0:0|0:0|0:0|0:0,0:0:0:0:
147,199,193794,2,0,P|170:167|174:128,1,79.5000030326844,8|0,0:0|0:0,0:0:0:0:
285,167,194094,2,0,P|280:147|271:129,3,39.7500015163422,10|2|2|2,0:0|0:0|0:0|0:0,0:0:0:0:
303,174,194394,2,0,P|297:135|272:104,1,79.5000030326844,8|0,0:0|0:0,0:0:0:0:
379,54,194694,2,0,P|362:43|343:37,3,39.7500015163422,10|2|2|2,0:0|0:0|0:0|0:0,0:0:0:0:
396,45,194994,54,0,P|364:21|325:17,1,79.5000030326844,8|0,0:0|0:0,0:0:0:0:
295,5,195219,1,2,0:0:0:0:
295,5,195294,2,0,P|275:10|259:21,1,39.7500015163422,10|0,0:0|0:0,0:0:0:0:
234,14,195444,2,0,P|216:23|203:38,1,39.7500015163422,2|0,0:0|0:0,0:0:0:0:
96,141,195594,22,0,L|200:158,1,106,8|0,0:0|0:0,0:0:0:0:
311,182,195894,1,10,0:0:0:0:
311,182,195969,1,2,0:0:0:0:
311,182,196044,1,2,0:0:0:0:
133,236,196194,54,0,L|237:253,1,106,8|0,0:0|0:0,0:0:0:0:
348,277,196494,1,10,0:0:0:0:
348,277,196569,1,2,0:0:0:0:
348,277,196644,1,2,0:0:0:0:
170,331,196794,22,0,L|274:348,1,106,8|0,0:0|0:0,0:0:0:0:
385,372,197094,1,10,0:0:0:0:
385,372,197169,1,2,0:0:0:0:
385,372,197244,1,2,0:0:0:0:
484,235,197394,53,8,0:0:0:0:
353,169,197544,1,2,0:0:0:0:
365,182,197619,2,0,L|416:192,1,53,2|8,0:0|0:0,0:0:0:0:
496,248,197769,1,2,0:0:0:0:
508,261,197844,1,2,0:0:0:0:
504,72,197994,22,0,P|464:106|413:112,1,106,8|0,0:0|0:0,0:0:0:0:
315,86,198294,1,10,0:0:0:0:
315,86,198369,1,2,0:0:0:0:
315,86,198444,1,2,0:0:0:0:
385,263,198594,54,0,P|332:259|292:227,1,106,8|0,0:0|0:0,0:0:0:0:
241,139,198894,1,10,0:0:0:0:
241,139,198969,1,2,0:0:0:0:
241,139,199044,1,2,0:0:0:0:
165,313,199194,22,0,P|130:273|124:222,1,106,8|0,0:0|0:0,0:0:0:0:
151,124,199494,1,10,0:0:0:0:
151,124,199569,1,2,0:0:0:0:
151,124,199644,2,0,L|158:176,1,53,2|0,0:0|0:0,0:0:0:0:
165,313,199794,54,0,P|140:304|113:303,1,53,10|0,0:0|0:0,0:0:0:0:
292,227,199944,2,0,P|287:201|274:177,1,53,2|0,1:2|0:0,0:0:0:0:
429,293,200094,2,0,P|449:275|462:253,1,53,10|0,0:0|0:0,0:0:0:0:
462,253,200394,54,0,L|458:219,1,31.799999029541,0|0,1:0|0:0,0:0:0:0:
428,17,200544,2,0,L|431:50,1,31.799999029541,0|0,1:0|0:0,0:0:0:0:
442,145,200694,1,2,1:2:0:0:
445,135,200769,1,2,0:0:0:0:
448,125,200844,1,2,1:2:0:0:
356,303,200994,22,0,L|352:269,1,31.799999029541,0|0,1:0|0:0,0:0:0:0:
322,67,201144,2,0,L|325:100,1,31.799999029541,0|0,1:0|0:0,0:0:0:0:
336,195,201294,1,2,1:2:0:0:
339,185,201369,1,2,0:2:0:0:
342,175,201444,1,2,1:2:0:0:
250,353,201594,54,0,L|246:319,1,31.799999029541,0|0,1:0|0:0,0:0:0:0:
216,117,201744,2,0,L|219:150,1,31.799999029541,0|0,1:0|0:0,0:0:0:0:
230,245,201894,1,2,1:2:0:0:
233,235,201969,1,2,0:2:0:0:
236,225,202044,1,2,1:2:0:0:
0,49,202194,22,0,P|27:46|52:52,1,53,2|0,1:2|0:0,0:0:0:0:
129,172,202344,1,2,1:2:0:0:
129,172,202419,2,0,P|113:150|105:125,1,53,2|0,0:0|1:0,0:0:0:0:
171,0,202569,1,2,0:0:0:0:
171,0,202644,2,0,P|160:24|142:44,1,53,2|0,1:2|0:0,0:0:0:0:
9,246,202794,54,0,P|30:242|51:243,1,42.4,4|0,1:0|0:0,0:0:0:0:
217,338,202944,2,0,P|205:320|189:306,1,42.4,0|0,1:0|0:0,0:0:0:0:
130,252,203094,1,2,1:2:0:0:
124,266,203169,1,2,0:0:0:0:
118,280,203244,1,2,1:2:0:0:
178,97,203394,22,0,P|198:104|215:116,1,42.4,0|0,1:0|0:0,0:0:0:0:
311,280,203544,2,0,P|310:259|303:239,1,42.4,0|0,1:0|0:0,0:0:0:0:
279,162,203694,1,2,1:2:0:0:
267,171,203769,1,2,0:0:0:0:
255,181,203844,1,2,1:2:0:0:
398,52,203994,54,0,P|412:68|421:87,1,42.4,0|0,1:0|0:0,0:0:0:0:
421,277,204144,2,0,P|431:258|435:238,1,42.4,0|0,1:0|0:0,0:0:0:0:
453,159,204294,1,2,1:2:0:0:
438,161,204369,1,2,0:0:0:0:
423,163,204444,1,2,1:2:0:0:
265,0,204594,22,0,L|273:63,1,63.5999980590821,2|0,1:2|0:0,0:0:0:0:
162,119,204744,1,2,1:2:0:0:
162,119,204819,2,0,L|153:182,1,63.5999980590821,2|0,0:0|1:0,0:0:0:0:
275,251,204969,1,2,0:0:0:0:
275,251,205044,2,0,L|283:314,1,63.5999980590821,2|0,1:2|0:0,0:0:0:0:
189,380,205194,53,4,1:0:0:0:
169,362,205269,1,0,3:0:0:0:
144,352,205344,1,0,3:0:0:0:
118,349,205419,1,0,3:0:0:0:
92,354,205494,5,2,3:2:0:0:
142,361,205569,1,2,3:2:0:0:
187,333,205644,1,2,3:2:0:0:
231,305,205719,1,2,3:2:0:0:
282,313,205794,69,0,3:0:0:0:
302,331,205869,1,0,3:0:0:0:
326,343,205944,1,0,3:0:0:0:
352,347,206019,1,0,3:0:0:0:
378,343,206094,5,2,3:2:0:0:
382,291,206169,1,2,3:2:0:0:
421,259,206244,1,2,3:2:0:0:
473,264,206319,1,2,3:2:0:0:
508,191,206394,69,4,1:0:0:0:
481,188,206469,1,0,3:0:0:0:
455,185,206544,1,0,3:0:0:0:
428,182,206619,1,0,3:0:0:0:
400,155,206694,5,2,3:2:0:0:
347,145,206769,1,2,3:2:0:0:
309,115,206844,1,2,3:2:0:0:
275,154,206919,1,2,3:2:0:0:
225,170,206994,70,0,L|173:159,1,53,2|0,3:2|3:0,3:0:0:0:
17,126,207144,1,2,3:2:0:0:
17,126,207219,2,0,L|33:176,1,53,2|0,3:2|3:0,3:0:0:0:
82,328,207369,1,2,3:2:0:0:
82,328,207444,2,0,L|117:288,1,53,2|0,3:2|3:0,3:0:0:0:
235,86,207594,6,0,P|228:67|218:50,1,39.7500015163422,4|0,3:1|3:0,3:0:0:0:
245,74,207669,2,0,P|244:54|238:35,1,39.7500015163422,0|0,3:0|3:0,3:0:0:0:
260,67,207744,2,0,P|264:47|263:27,1,39.7500015163422,0|0,3:0|3:0,3:0:0:0:
277,67,207819,2,0,P|286:49|290:30,1,39.7500015163422,0|0,3:0|3:0,3:0:0:0:
291,73,207894,2,0,P|304:58|313:40,1,39.7500015163422,0|0,3:0|3:0,3:0:0:0:
302,84,207969,2,0,P|318:73|332:58,1,39.7500015163422,0|0,3:0|3:0,3:0:0:0:
309,99,208044,2,0,P|327:92|344:82,1,39.7500015163422,0|0,3:0|3:0,3:0:0:0:
309,115,208119,2,0,P|328:114|347:108,1,39.7500015163422,0|0,3:0|3:0,3:0:0:0:
352,192,208194,70,0,P|370:186|390:185,1,39.7500015163422,4|0,3:1|3:0,3:0:0:0:
356,217,208269,2,0,P|372:206|391:200,1,39.7500015163422,0|0,3:0|3:0,3:0:0:0:
368,240,208344,2,0,P|381:225|398:214,1,39.7500015163422,0|0,3:0|3:0,3:0:0:0:
386,259,208419,2,0,P|395:241|408:226,1,39.7500015163422,0|0,3:0|3:0,3:0:0:0:
410,270,208494,2,0,P|414:250|423:233,1,39.7500015163422,0|0,3:0|3:0,3:0:0:0:
435,272,208569,2,0,P|434:252|438:232,1,39.7500015163422,0|0,3:0|3:0,3:0:0:0:
461,265,208644,2,0,P|455:246|454:226,1,39.7500015163422,0|0,3:0|3:0,3:0:0:0:
482,251,208719,2,0,P|471:234|465:215,1,39.7500015163422,0|0,3:0|3:0,3:0:0:0:
512,142,208794,21,4,1:0:0:0:
512,142,209244,1,2,0:0:0:0:
512,142,209694,6,0,L|473:133,1,39.75,8|0,0:0|0:0,0:0:0:0:
406,72,209994,6,0,P|360:118|296:114,1,132.5,6|0,1:2|0:0,0:0:0:0:
158,284,210294,5,10,1:2:0:0:
136,250,210369,1,2,0:0:0:0:
102,230,210444,1,2,0:0:0:0:
63,225,210519,1,2,0:0:0:0:
26,238,210594,2,0,L|12:369,1,132.5,2|0,1:2|0:0,0:0:0:0:
466,277,210894,69,10,1:2:0:0:
427,332,210969,1,2,0:0:0:0:
373,364,211044,1,2,0:0:0:0:
309,371,211119,1,2,0:0:0:0:
251,351,211194,2,0,L|236:203,1,148.399995471192,2|0,1:2|0:0,0:0:0:0:
328,33,211494,5,10,1:2:0:0:
311,17,211569,1,2,0:0:0:0:
328,0,211644,1,2,0:0:0:0:
344,17,211719,1,2,0:0:0:0:
328,16,211794,70,0,P|313:41|308:70,1,58.3000017791749,2|0,1:2|0:0,0:0:0:0:
414,226,211944,1,2,0:0:0:0:
435,230,212019,2,0,P|464:230|491:222,1,58.3000017791749,2|8,0:0|1:2,0:0:0:0:
385,140,212169,1,2,0:0:0:0:
366,147,212244,2,0,P|343:165|329:191,1,58.3000017791749,2|0,0:0|0:0,0:0:0:0:
376,380,212394,6,0,B|401:366|401:366|303:375,1,127.199996118164,2|0,1:2|0:0,0:0:0:0:
121,300,212619,1,2,0:0:0:0:
104,294,212694,2,0,B|71:276|71:276|178:287,1,143.100000545883,10|0,1:2|0:0,0:0:0:0:
329,190,212919,1,2,0:0:0:0:
414,226,212994,2,0,B|450:206|450:206|334:218,1,159.000006065369,2|0,1:2|0:0,0:0:0:0:
124,59,213219,69,2,0:0:0:0:
192,20,213294,2,0,L|203:98,1,79.5000030326844,10|0,1:2|0:0,0:0:0:0:
329,190,213444,2,0,L|317:268,1,79.5000030326844,2|0,0:0|0:0,0:0:0:0:
74,379,213594,5,2,1:2:0:0:
58,366,213669,1,2,0:0:0:0:
39,357,213744,1,2,0:0:0:0:
20,355,213819,1,2,0:0:0:0:
0,354,213894,69,10,1:2:0:0:
74,379,213969,1,2,0:0:0:0:
147,350,214044,1,2,0:0:0:0:
185,280,214119,1,2,0:0:0:0:
167,203,214194,2,0,L|101:211,3,66.25,2|0|0|0,1:2|0:0|0:0|0:0,0:0:0:0:
0,24,214494,5,10,1:2:0:0:
35,93,214569,1,2,0:0:0:0:
100,135,214644,2,0,L|165:126,1,66.25,2|0,0:0|0:0,0:0:0:0:
275,38,214794,70,0,B|317:29|349:57|349:57|381:86|423:77,1,159.000006065369,2|0,1:2|0:0,0:0:0:0:
512,300,215094,5,10,1:2:0:0:
489,239,215169,1,2,0:0:0:0:
443,200,215244,1,2,0:0:0:0:
382,184,215319,1,2,0:0:0:0:
322,201,215394,2,0,L|338:359,1,159.000006065369,2|0,1:2|0:0,0:0:0:0:
49,294,215694,69,10,1:2:0:0:
73,336,215769,1,2,0:0:0:0:
116,361,215844,1,2,0:0:0:0:
166,366,215919,1,2,0:0:0:0:
211,343,215994,2,0,L|197:211,1,132.5,2|0,1:2|0:0,0:0:0:0:
390,75,216294,5,10,1:2:0:0:
368,69,216369,1,2,0:0:0:0:
362,92,216444,1,2,0:0:0:0:
385,97,216519,1,2,0:0:0:0:
377,84,216594,70,0,P|344:82|307:66,1,74.1999977355958,2|0,1:2|0:0,0:0:0:0:
175,0,216744,1,2,0:0:0:0:
175,0,216819,2,0,P|189:29|194:69,1,74.1999977355958,2|8,0:0|1:2,0:0:0:0:
201,215,216969,1,2,0:0:0:0:
201,215,217044,2,0,P|219:187|251:163,1,74.1999977355958,2|0,0:0|0:0,0:0:0:0:
404,269,217194,6,0,P|351:272|303:251,1,106,2|0,1:2|0:0,0:0:0:0:
75,326,217419,1,2,0:0:0:0:
96,333,217494,2,0,P|148:336|196:315,1,106,10|0,1:2|0:0,0:0:0:0:
379,384,217719,1,2,0:0:0:0:
365,365,217794,2,0,L|314:354,1,53,2|0,1:2|0:0,0:0:0:0:
97,192,217944,2,0,L|200:214,1,106,2|8,0:0|1:2,0:0:0:0:
414,30,218244,69,2,0:0:0:0:
448,16,218319,1,2,0:0:0:0:
482,3,218394,2,0,L|465:107,1,106,4|0,1:0|0:0,0:0:0:0:
333,134,218544,5,2,0:0:0:0:
273,91,218619,2,0,L|290:195,1,106,4|0,1:0|0:0,0:0:0:0:
344,348,218769,69,2,0:0:0:0:
407,298,218844,2,0,B|370:266|370:266|261:278,1,159.000006065369,6|0,1:2|0:0,0:0:0:0:
41,356,219069,1,0,1:0:0:0:
19,335,219144,5,2,1:2:0:0:
58,340,219219,1,2,0:0:0:0:
97,345,219294,1,2,1:2:0:0:
137,351,219369,1,2,0:0:0:0:
176,356,219444,1,2,1:2:0:0:
215,362,219519,1,2,0:0:0:0:
227,374,219594,70,0,L|266:381,1,39.75,2|0,0:0|0:0,0:0:0:0:
344,348,219894,5,10,1:2:0:0:
338,307,219969,1,2,0:0:0:0:
332,267,220044,1,2,0:0:0:0:
324,227,220119,1,2,0:0:0:0:
318,189,220194,2,0,P|382:178|436:215,1,132.5,2|0,1:2|0:0,0:0:0:0:
157,335,220494,69,10,1:2:0:0:
164,270,220569,1,2,0:0:0:0:
173,210,220644,1,2,0:0:0:0:
185,148,220719,1,2,0:0:0:0:
194,88,220794,2,0,P|117:74|53:118,1,159.000006065369,2|0,1:2|0:0,0:0:0:0:
316,5,221094,5,10,1:2:0:0:
311,27,221169,1,2,0:0:0:0:
288,22,221244,1,2,0:0:0:0:
294,0,221319,1,2,0:0:0:0:
310,19,221394,70,0,L|382:32,1,74.1999977355958,2|0,1:2|0:0,0:0:0:0:
512,137,221544,1,2,0:0:0:0:
490,151,221619,2,0,L|417:136,1,74.1999977355958,2|8,0:0|1:2,0:0:0:0:
261,191,221769,1,2,0:0:0:0:
275,211,221844,2,0,L|353:225,1,79.5000030326844,2|0,0:0|0:0,0:0:0:0:
512,346,221994,6,0,L|355:319,1,159.000006065369,2|0,1:2|0:0,0:0:0:0:
273,384,222219,1,2,0:0:0:0:
297,374,222294,2,0,B|271:328|271:328|152:307,1,174.900001667976,10|0,1:2|0:0,0:0:0:0:
0,282,222519,1,2,0:0:0:0:
22,359,222594,2,0,B|68:333|68:333|92:197,1,190.799994177246,2|0,1:2|0:0,0:0:0:0:
237,111,222819,69,2,0:0:0:0:
256,135,222894,2,0,L|152:115,1,95.3999970886231,10|0,1:2|0:2,0:2:0:0:
93,38,223044,2,0,L|0:55,1,95.3999970886231,2|0,0:2|0:2,0:2:0:0:
244,10,223194,5,2,1:2:0:0:
268,13,223269,1,2,0:0:0:0:
293,16,223344,1,2,0:0:0:0:
318,18,223419,1,2,0:0:0:0:
343,21,223494,69,10,1:2:0:0:
416,37,223569,1,2,0:0:0:0:
467,91,223644,1,2,0:0:0:0:
481,167,223719,1,2,0:0:0:0:
447,234,223794,2,0,P|433:268|430:306,3,53,2|0|0|0,1:2|0:0|0:0|0:0,0:0:0:0:
479,364,224094,54,0,L|505:359,1,26.5,10|0,1:2|0:0,0:0:0:0:
512,346,224244,2,0,L|485:350,1,26.5,2|0,0:0|0:0,0:0:0:0:
371,382,224394,38,0,P|291:326|193:333,1,198.750007581711,4|0,1:0|0:0,0:0:0:0:
184,345,224844,2,0,P|203:344|222:339,1,39.7500015163422,8|0,1:2|0:0,0:0:0:0:
260,196,224994,38,0,P|210:229|152:225,1,119.250004549027,0|0,1:0|0:0,0:0:0:0:
97,283,225294,1,10,0:0:0:0:
97,283,225369,1,2,0:0:0:0:
97,283,225444,1,2,0:0:0:0:
0,91,225594,38,0,B|74:95|74:95|109:69|109:69|188:75,1,198.750007581711,0|0,1:0|0:0,0:0:0:0:
197,94,226044,2,0,L|157:89,1,39.7500015163422,8|0,1:2|0:0,0:0:0:0:
272,3,226194,38,0,B|299:35|299:35|376:43,1,119.250004549027,0|0,1:0|0:0,0:0:0:0:
390,63,226494,2,0,B|469:71,1,79.5000030326844,8|0,1:2|0:0,0:0:0:0:
512,174,226794,37,0,1:0:0:0:
429,280,226944,1,0,3:0:0:0:
318,125,227094,1,0,3:0:0:0:
217,329,227244,1,0,3:0:0:0:
108,59,227394,5,0,3:0:0:0:
149,84,227469,1,0,3:0:0:0:
171,128,227544,1,0,3:0:0:0:
165,176,227619,1,0,3:0:0:0:
133,214,227694,1,0,3:0:0:0:
86,227,227769,1,0,3:0:0:0:
39,213,227844,1,0,3:0:0:0:
7,176,227919,1,0,3:0:0:0:
1,127,227994,21,4,1:0:0:0:
13,119,228219,1,2,0:0:0:0:
25,111,228444,1,2,0:0:0:0:
25,111,229194,22,0,B|96:87|143:149|113:156|159:214|230:191,1,238.500009098053,4|0,1:0|0:0,0:0:0:0:
336,57,229494,5,10,1:2:0:0:
333,12,229569,1,2,0:0:0:0:
291,0,229644,1,2,0:0:0:0:
266,36,229719,1,2,0:0:0:0:
292,71,229794,2,0,L|450:55,1,159.000006065369,2|0,1:2|0:0,0:0:0:0:
512,236,230094,69,10,1:2:0:0:
461,218,230169,1,2,0:0:0:0:
408,227,230244,1,2,0:0:0:0:
369,262,230319,1,2,0:0:0:0:
350,314,230394,2,0,L|538:338,1,159.000006065369,2|0,1:2|0:0,0:0:0:0:
290,180,230694,5,10,1:2:0:0:
290,180,230769,1,2,0:0:0:0:
290,180,230844,2,0,L|281:218,1,39.7500015163422,2|0,0:0|0:0,0:0:0:0:
167,369,230994,70,0,L|219:362,1,53,2|0,1:2|0:0,0:0:0:0:
112,271,231144,1,2,0:0:0:0:
127,280,231219,2,0,L|179:273,1,53,2|8,0:0|1:2,0:0:0:0:
72,182,231369,1,2,0:0:0:0:
87,191,231444,2,0,L|139:184,1,53,2|0,0:0|0:0,0:0:0:0:
202,5,231594,6,0,P|151:51|83:46,1,140.979994191803,2|0,1:2|0:0,0:0:0:0:
295,124,231819,1,2,0:0:0:0:
273,138,231894,2,0,P|226:86|158:85,1,140.979994191803,10|0,1:2|0:0,0:0:0:0:
425,58,232119,1,2,0:0:0:0:
375,0,232194,2,0,P|354:28|349:62,1,70.4899970959016,2|0,1:2|0:0,0:0:0:0:
462,181,232344,2,0,P|496:120|501:50,1,140.979994191803,2|8,0:0|1:2,0:0:0:0:
261,239,232644,70,0,L|340:247,1,79.5000030326844,2|0,0:0|0:0,0:0:0:0:
512,249,232794,2,0,L|274:223,1,238.500009098053,2|0,1:2|0:0,0:0:0:0:
261,239,233094,1,8,1:2:0:0:
3,193,233244,5,2,0:0:0:0:
3,193,233319,1,2,0:0:0:0:
3,193,233394,2,0,L|81:203,1,79.5000030326844,2|0,1:2|0:0,0:0:0:0:
163,47,233544,69,2,0:0:0:0:
163,47,233619,1,2,0:0:0:0:
163,47,233694,2,0,L|180:124,1,79.5000030326844,10|0,1:2|0:0,0:0:0:0:
118,376,233844,2,0,L|154:305,1,79.5000030326844,2|0,0:0|0:0,0:0:0:0:
403,164,233994,6,0,P|325:165|274:223,1,159.000006065369,2|0,1:2|0:0,0:0:0:0:
26,55,234294,69,10,1:2:0:0:
71,45,234369,1,2,0:0:0:0:
118,55,234444,1,2,0:0:0:0:
156,83,234519,1,2,0:0:0:0:
180,124,234594,2,0,L|153:312,1,159.000006065369,2|0,1:2|0:0,0:0:0:0:
335,79,234894,5,10,1:2:0:0:
383,67,234969,1,2,0:0:0:0:
385,19,235044,1,2,0:0:0:0:
344,0,235119,1,2,0:0:0:0:
311,36,235194,2,0,L|326:176,1,140.979994191803,2|0,1:2|0:0,0:0:0:0:
379,366,235494,69,10,1:2:0:0:
379,366,235569,1,2,0:0:0:0:
379,366,235644,2,0,L|418:359,1,39.7500015163422,2|0,0:0|0:0,0:0:0:0:
507,240,235794,6,0,P|472:238|440:222,1,70.4899970959016,2|0,1:2|0:0,0:0:0:0:
335,286,235944,1,2,0:0:0:0:
359,277,236019,2,0,P|327:261|292:259,1,70.4899970959016,2|8,0:0|1:2,0:0:0:0:
196,188,236169,1,2,0:0:0:0:
220,196,236244,2,0,P|187:211|152:213,1,70.4899970959016,2|0,0:0|0:0,0:0:0:0:
27,377,236394,6,0,L|43:285,1,92.7500008845329,4|0,1:0|0:0,0:0:0:0:
65,162,236544,2,0,L|81:70,1,92.7500008845329,4|0,1:0|0:0,0:0:0:0:
81,70,236844,70,0,L|97:161,1,92.7500008845329,4|0,1:0|0:0,0:0:0:0:
119,285,236994,2,0,L|135:376,1,92.7500008845329,4|0,1:0|0:0,0:0:0:0:
135,376,237294,6,0,L|151:284,1,92.7500008845329,4|0,1:0|0:0,0:0:0:0:
193,153,237444,69,0,1:0:0:0:
193,153,237519,1,0,1:0:0:0:
193,153,237594,2,0,B|232:175|232:175|279:166,1,92.7500008845329,4|0,1:0|0:0,0:0:0:0:
436,118,237744,1,0,1:0:0:0:
217,10,237894,6,0,B|260:2|260:2|303:24,1,92.7500008845329,4|0,1:0|0:0,0:0:0:0:
436,118,238044,1,0,1:0:0:0:
140,72,238194,69,4,1:0:0:0:
140,72,238269,1,0,1:0:0:0:
140,72,238344,1,0,1:0:0:0:
140,72,238419,1,0,1:0:0:0:
140,72,238494,2,0,L|249:89,1,92.7500008845329,4|0,1:0|0:0,0:0:0:0:
436,118,238644,1,0,1:0:0:0:
436,118,238794,38,0,P|444:137|448:156,1,39.75,2|0,0:0|0:0,0:0:0:0:
512,203,239094,21,14,1:2:0:0:
490,236,239169,1,2,0:0:0:0:
477,273,239244,1,2,0:0:0:0:
473,313,239319,1,2,0:0:0:0:
478,351,239394,2,0,P|403:349|378:278,1,159.000006065369,2|0,1:2|0:0,0:0:0:0:
208,133,239694,5,10,1:2:0:0:
212,176,239769,1,2,0:0:0:0:
216,220,239844,1,2,0:0:0:0:
252,193,239919,1,2,0:0:0:0:
287,166,239994,2,0,P|209:150|136:178,1,159.000006065369,2|0,1:2|0:0,0:0:0:0:
0,70,240294,69,10,1:2:0:0:
0,70,240369,1,2,0:0:0:0:
0,70,240444,2,0,L|37:81,1,39.7500015163422,2|0,0:0|0:0,0:0:0:0:
117,22,240594,6,0,L|132:90,1,70.4899970959016,2|0,1:2|0:0,0:0:0:0:
77,242,240744,1,2,0:0:0:0:
77,242,240819,2,0,L|128:194,1,70.4899970959016,2|8,0:0|1:2,0:0:0:0:
287,166,240969,1,2,0:0:0:0:
287,166,241044,2,0,L|219:145,1,70.4899970959016,2|0,0:0|0:0,0:0:0:0:
8,199,241194,70,0,P|48:256|43:325,1,140.979994191803,2|0,1:2|0:0,0:0:0:0:
209,129,241419,1,2,0:0:0:0:
219,145,241494,2,0,P|224:213|185:270,1,140.979994191803,10|0,1:2|0:0,0:0:0:0:
416,124,241719,1,2,0:0:0:0:
432,198,241794,2,0,P|422:232|402:261,1,70.4899970959016,2|0,1:2|0:0,0:0:0:0:
368,55,241944,2,0,P|428:92|497:89,1,140.979994191803,2|8,0:0|1:2,0:0:0:0:
512,357,242244,6,0,P|512:318|495:283,1,79.5000030326844,2|0,0:0|0:0,0:0:0:0:
313,238,242394,2,0,P|428:233|495:325,1,238.500009098053,2|0,1:2|0:0,0:0:0:0:
512,357,242694,1,8,1:2:0:0:
236,384,242844,69,2,0:0:0:0:
236,384,242919,1,2,0:0:0:0:
236,384,242994,2,0,L|247:306,1,79.5000030326844,2|0,1:2|0:0,0:0:0:0:
136,180,243144,5,2,0:0:0:0:
136,180,243219,1,2,0:0:0:0:
136,180,243294,2,0,L|202:224,1,79.5000030326844,10|0,1:2|0:0,0:0:0:0:
389,215,243444,2,0,L|312:238,1,79.5000030326844,2|0,0:0|0:0,0:0:0:0:
138,367,243594,38,0,P|134:285|63:328,1,198.750007581711,6|0,1:2|0:0,0:0:0:0:
54,351,244044,2,0,P|53:331|57:311,1,39.7500015163422,8|0,1:2|0:0,0:0:0:0:
12,125,244194,38,0,B|43:135|57:162|57:162|64:133|93:117,1,119.250004549027,0|0,1:0|0:0,0:0:0:0:
90,103,244494,2,0,P|114:94|137:90,1,39.7500015163422,8|0,1:2|0:0,0:0:0:0:
210,16,244644,37,2,0:0:0:0:
210,16,244719,1,2,0:0:0:0:
210,16,244794,2,0,P|294:67|391:57,1,198.750007581711,2|0,1:2|0:0,0:0:0:0:
406,78,245244,2,0,L|412:39,1,39.7500015163422,8|0,1:2|0:0,0:0:0:0:
485,132,245394,38,0,B|490:187|490:187|483:195|483:195|487:249,1,119.250004549027,0|0,1:2|0:0,0:0:0:0:
479,328,245694,2,0,L|474:248,1,79.5000030326844,8|0,1:2|0:0,0:0:0:0:
403,379,245994,37,0,1:0:0:0:
356,237,246144,1,0,3:0:0:0:
256,370,246294,1,0,3:0:0:0:
186,128,246444,1,0,3:0:0:0:
59,351,246594,53,0,3:0:0:0:
76,314,246669,1,0,3:0:0:0:
86,276,246744,1,0,3:0:0:0:
91,237,246819,1,0,3:0:0:0:
90,197,246894,1,0,3:0:0:0:
83,158,246969,1,0,3:0:0:0:
70,120,247044,1,0,3:0:0:0:
52,85,247119,1,0,3:0:0:0:
29,52,247194,22,0,P|-6:110|-1:179,1,139.919999572998,4|2,1:0|0:0,0:0:0:0:
0,180,248094,1,2,0:0:0:0:
113,119,248394,6,0,L|138:124,6,26.5,0|0|0|0|0|0|0,3:0|3:0|3:0|3:0|3:0|3:0|3:0,0:0:0:0:
19,93,248694,38,0,B|88:63|139:120|111:130|161:183|230:155,1,238.500009098053,12|0,1:0|0:0,0:0:0:0:
450,72,248994,5,2,1:2:0:0:
440,68,249044,1,2,0:0:0:0:
439,57,249094,1,2,0:0:0:0:
448,52,249144,1,2,0:0:0:0:
458,57,249194,1,2,0:0:0:0:
459,67,249244,1,2,0:0:0:0:
451,63,249294,70,2,B|398:0|398:0|426:193,1,278.250002653599,10|0,1:0|0:0,1:0:0:0:
506,384,249594,6,0,B|442:375|442:375|412:360|412:360|383:366|383:366|311:356,1,198.75,0|0,1:0|0:0,0:0:0:0:
312,356,249894,2,0,B|319:303,1,53,8|0,1:2|0:0,0:0:0:0:
506,384,250044,2,0,B|513:331,1,53
325,204,250194,70,2,B|248:205|221:280|221:280|227:201|157:166,1,278.250002653599,2|0,1:0|0:0,1:0:0:0:
0,90,250494,2,2,B|-14:34|30:3|30:3|109:66|63:164,1,278.250002653599,10|0,1:0|0:0,1:0:0:0:
0,319,250794,6,0,B|29:244|29:244|76:306,1,159,0|0,1:0|0:0,0:0:0:0:
76,306,251094,70,0,P|109:326|148:320,1,79.5000030326844,10|0,1:2|0:0,0:0:0:0:
258,384,251244,2,0,P|292:365|306:329,1,79.5000030326844,2|0,0:0|0:0,0:0:0:0:
433,272,251394,5,2,1:2:0:0:
359,245,251469,1,2,0:0:0:0:
313,181,251544,1,2,0:0:0:0:
311,103,251619,1,2,0:0:0:0:
354,38,251694,70,0,B|536:59|536:59|443:80,1,278.250002653599,10|0,1:2|0:0,0:0:0:0:
221,16,251994,5,2,1:2:0:0:
199,31,252069,1,2,0:0:0:0:
177,46,252144,2,0,L|181:98,1,53,2|0,0:0|0:0,0:0:0:0:
6,211,252294,69,10,1:2:0:0:
25,201,252369,1,2,0:0:0:0:
56,196,252444,1,2,0:0:0:0:
95,211,252519,1,2,0:0:0:0:
125,255,252594,6,0,P|130:320|110:383,1,132.5,2|0,1:2|0:0,0:0:0:0:
272,293,252819,1,2,0:0:0:0:
261,274,252894,2,0,P|252:242|254:209,1,66.25,10|0,1:2|0:0,0:0:0:0:
181,98,253044,2,0,P|183:130|174:162,1,66.25,2|0,0:0|0:0,0:0:0:0:
211,384,253194,70,0,P|298:308|413:321,1,238.500009098053,0|0,1:0|0:0,1:0:0:0:
509,137,253494,5,10,1:2:0:0:
503,128,253544,1,2,0:0:0:0:
492,130,253594,1,2,0:0:0:0:
490,140,253644,1,2,0:0:0:0:
496,149,253694,1,2,0:0:0:0:
507,147,253744,1,2,0:0:0:0:
500,137,253794,70,2,B|419:102|360:168|392:180|334:241|254:209,1,278.250002653599,2|0,1:2|0:0,1:0:0:0:
83,79,254094,6,2,B|42:40|42:40|238:74|238:74|180:97,1,318,10|0,1:0|0:0,1:0:0:0:
35,269,254394,70,0,B|126:264|126:264|174:311|174:311|253:305,1,238.500009098053,2|0,1:2|0:0,0:0:0:0:
338,257,254694,2,0,B|350:233|350:233|349:206,1,53,10|0,1:2|0:0,0:0:0:0:
260,158,254844,2,0,B|250:182|250:182|253:209,1,53,2|0,0:0|0:0,0:0:0:0:
343,351,254994,6,2,P|455:352|497:248,1,238.500009098053,2|0,1:2|0:0,1:0:0:0:
430,147,255294,2,2,B|355:134|339:55|339:55|332:134|260:158,1,278.250002653599,10|0,1:2|0:0,1:0:0:0:
3,165,255594,70,0,P|94:167|105:258,1,198.75,0|0,1:0|0:0,0:0:0:0:
105,258,255894,2,0,P|137:172|227:192,1,198.75,8|0,1:2|0:0,0:0:0:0:
274,309,256194,6,0,B|142:297|142:297|125:312|125:312|2:301,1,278.250002653599,2|0,1:2|0:0,0:0:0:0:
18,295,256494,2,0,L|255:315,1,238.500009098053,10|0,1:2|0:0,0:0:0:0:
444,156,256794,70,0,B|527:109|595:243|437:302|354:196,1,318,2|0,1:0|0:0,0:0:0:0:
303,133,257094,2,0,B|220:27|62:86|130:221|215:174,1,318,10|0,1:0|0:0,0:0:0:0:
399,18,257394,6,2,B|424:125|333:187|325:142|229:206|256:315,1,357.75001364708,2|0,1:0|0:0,1:0:0:0:
349,326,257694,2,2,B|407:229|335:140|313:180|245:92|305:-2,1,357.75001364708,10|0,1:0|0:0,1:0:0:0:
397,8,257994,6,0,L|435:15,6,26.5,0|0|0|0|0|0|0,1:0|1:0|1:0|1:0|1:0|1:0|1:0,0:0:0:0:
512,83,258294,54,0,B|498:190|498:190|503:186|503:186|484:308,1,238.500009098053,12|0,1:0|0:0,0:0:0:0:
356,251,258594,5,2,1:2:0:0:
349,243,258644,1,2,0:0:0:0:
338,246,258694,1,2,0:0:0:0:
337,256,258744,1,2,0:0:0:0:
344,264,258794,1,2,0:0:0:0:
355,261,258844,1,2,0:0:0:0:
347,252,258894,70,0,B|282:230|240:282|267:289|223:344|159:321|159:321|190:320|215:299,1,278.250002653599,10|0,1:0|0:0,0:0:0:0:
323,152,259194,6,0,P|368:235|463:234,1,198.75,0|0,1:2|0:0,0:0:0:0:
463,235,259494,2,0,P|452:210|450:184,1,53,8|0,1:2|0:0,0:0:0:0:
397,124,259644,2,0,P|407:99|424:79,1,53
512,0,259794,70,0,P|392:66|258:42,1,278.250002653599,2|0,1:0|0:0,0:0:0:0:
195,112,260094,2,0,P|151:10|258:42,1,278.250002653599,10|0,1:0|0:0,0:0:0:0:
249,231,260394,6,0,B|182:222|182:222|164:201|164:201|100:193,1,159,2|0,1:2|0:0,0:0:0:0:
100,193,260694,2,0,B|88:231|88:231|102:267,1,79.5000030326844,10|0,1:2|0:0,0:0:0:0:
220,384,260844,2,0,B|232:346|232:346|218:309,1,79.5000030326844,2|0,0:0|0:0,0:0:0:0:
335,144,260994,69,2,1:2:0:0:
409,125,261069,1,2,0:0:0:0:
471,171,261144,1,2,0:0:0:0:
476,248,261219,1,2,0:0:0:0:
421,301,261294,6,2,B|341:334|283:272|316:260|256:194|175:228,1,278.250002653599,10|0,1:2|0:0,1:0:0:0:
40,355,261594,69,2,1:2:0:0:
66,360,261669,1,2,0:0:0:0:
92,365,261744,2,0,L|143:352,1,53,2|0,0:0|0:0,0:0:0:0:
304,218,261894,5,10,1:2:0:0:
289,233,261969,1,2,0:0:0:0:
263,250,262044,1,2,0:0:0:0:
221,254,262119,1,2,0:0:0:0:
175,227,262194,70,0,L|164:94,1,132.5,2|0,1:2|0:0,0:0:0:0:
88,20,262419,1,2,0:0:0:0:
75,33,262494,2,0,L|8:38,1,66.25,10|0,1:2|0:0,0:0:0:0:
173,81,262644,2,0,L|239:75,1,66.25,2|0,0:0|0:0,0:0:0:0:
349,51,262794,22,0,L|354:31,10,19.8750007581711,4|0|0|0|0|0|0|0|0|0|0,1:0|0:0|0:0|0:0|0:0|0:0|0:0|0:0|0:0|0:0|0:0,0:0:0:0:
349,4,263244,70,0,L|356:83,1,79.5000030326844,8|0,1:2|0:0,0:0:0:0:
384,195,263394,70,2,P|427:133|500:150,1,159,2|0,1:0|0:0,1:0:0:0:
480,264,263694,6,2,B|410:293|360:237|387:227|337:174|269:202,1,238.500009098053,10|0,1:2|0:0,1:0:0:0:
104,279,263994,70,0,B|133:351|133:351|183:288,1,159,2|0,1:2|0:0,0:0:0:0:
205,302,264294,6,0,L|201:250,1,53,2|0,0:0|0:0,0:0:0:0:
193,169,264444,2,0,L|189:117,1,53,10|0,1:2|0:0,0:0:0:0:
4,77,264594,70,2,B|53:53|51:-2|51:-2|69:51|124:54,1,198.75,2|0,1:0|0:0,1:0:0:0:
189,117,264894,2,2,B|248:144|246:212|246:212|267:147|333:143,1,238.500009098053,10|0,1:0|0:0,1:0:0:0:
412,86,265194,21,0,3:0:0:0:
428,182,265344,1,0,3:0:0:0:
333,30,265494,1,0,3:0:0:0:
371,261,265644,1,0,3:0:0:0:
504,121,265794,53,0,3:0:0:0:
461,126,265869,1,0,3:0:0:0:
419,132,265944,1,0,3:0:0:0:
376,137,266019,1,0,3:0:0:0:
334,143,266094,1,0,3:0:0:0:
292,149,266169,1,0,3:0:0:0:
249,154,266244,1,0,3:0:0:0:
207,160,266319,1,0,3:0:0:0:
164,163,266394,22,0,P|63:120|87:12,2,238.500009098053,4|2|2,1:0|0:0|0:0,0:0:0:0:
164,164,267594,6,0,L|173:216,7,53,4|0|0|0|0|0|0|0,1:0|0:0|0:0|0:0|0:0|0:0|0:0|0:0,0:0:0:0:
201,82,268794,2,0,L|241:48,3,53,2|0|0|0,0:0|0:0|0:0|0:0,0:0:0:0:
111,90,269394,2,0,L|61:71,3,53,2|0|0|0,0:0|0:0|0:0|0:0,0:0:0:0:
261,175,269994,70,0,L|303:169,7,42.4,2|0|0|0|0|0|0|0,0:0|0:0|0:0|0:0|0:0|0:0|0:0|0:0,0:0:0:0:
354,111,271194,2,0,L|393:127,3,42.4,2|0|0|0,0:0|0:0|0:0|0:0,0:0:0:0:
466,102,271794,2,0,L|491:135,3,42.4,2|0|0|0,0:0|0:0|0:0|0:0,0:0:0:0:
512,253,272394,6,0,P|497:245|482:241,7,31.799999029541,2|0|0|0|0|0|0|0,0:0|0:0|0:0|0:0|0:0|0:0|0:0|0:0,0:0:0:0:
444,218,273594,2,0,P|428:222|415:230,3,31.799999029541,2|0|0|0,0:0|0:0|0:0|0:0,0:0:0:0:
371,241,274194,2,0,P|363:255|359:270,3,31.799999029541,2|0|0|0,0:0|0:0|0:0|0:0,0:0:0:0:
276,298,274794,69,2,0:0:0:0:
277,304,274944,1,0,0:0:0:0:
278,310,275094,1,0,0:0:0:0:
279,316,275244,1,0,0:0:0:0:
280,322,275394,1,0,0:0:0:0:
281,328,275544,1,0,0:0:0:0:
282,334,275694,1,0,0:0:0:0:
284,340,275844,1,0,0:0:0:0:
286,346,275994,5,2,0:0:0:0:
274,338,276144,69,2,0:0:0:0:
250,321,276294,5,2,0:0:0:0:
225,277,276444,69,2,0:0:0:0:
231,203,276594,5,2,0:0:0:0:
