osu file format v14

[General]
AudioFilename: audio.mp3
AudioLeadIn: 0
PreviewTime: 50305
Countdown: 0
SampleSet: Drum
StackLeniency: 0.7
Mode: 2
LetterboxInBreaks: 0
WidescreenStoryboard: 1

[Editor]
Bookmarks: 51880,89980,128380,171580,209980,229180,248680,283517,286580,7780,17980,27580,37180,51580,70780,109180,147580,161980,190780,248380,267580,277180,288880
DistanceSpacing: 4.6
BeatDivisor: 4
GridSize: 4
TimelineZoom: 3.699997

[Metadata]
Title:Fu Xiang Di Xin De Luo Ri Liu Hao ~ Little Raven
TitleUnicode:浮向地心的落日六号 ~ Little Raven
Artist:SEPHID feat. darkxixin
ArtistUnicode:SEPHID feat. darkxixin
Creator:Jemzuu
Version:Team Various Countries 3's Overdose
Source:東方地霊殿 ~ Subterranean Animism.
Tags:featured artist fa ajamez crowley -momox nosuri -rustyy bastian -vale autofanboy afb alienflybot deif autols Hanikawa Kurose osu!catch mapping world cup cmwc Kagamine Ren Suiyu 叶紫蝉 清则 NoisiestLunatic 千年戦争~iek loin staim haf il dis o-del al 東方Project Touhou Chireiden 11 th11 霊知の太陽信仰 Reichi no Taiyou Shinkou Solar Sect of Mystic Wisdom ~ Nuclear Fusion 霊烏路 空 Reiuji Utsuho okuu drumstep j-core electronic chinese hanikawa_kurose
BeatmapID:3307427
BeatmapSetID:1618365

[Difficulty]
HPDrainRate:5
CircleSize:4.8
OverallDifficulty:9.4
ApproachRate:9.4
SliderMultiplier:1.76
SliderTickRate:2

[Events]
//Background and Video events
0,0,"TENALP by NH3YEaN.jpg",0,0
//Break Periods
//Storyboard Layer 0 (Background)
//Storyboard Layer 1 (Fail)
//Storyboard Layer 2 (Pass)
//Storyboard Layer 3 (Foreground)
//Storyboard Layer 4 (Overlay)
//Storyboard Sound Samples

[TimingPoints]
7780,300,4,3,51,40,1,0
7780,-59.5238095238095,4,3,51,40,0,0
8380,-100,4,3,51,40,0,0
8530,-100,4,3,51,20,0,0
9580,-100,4,3,51,40,0,0
9730,-100,4,3,51,20,0,0
10780,-100,4,3,51,40,0,0
10930,-100,4,3,51,20,0,0
11080,-100,4,3,51,40,0,0
11230,-100,4,3,51,20,0,0
11380,-100,4,3,51,40,0,0
11680,-100,4,3,51,20,0,0
11830,-100,4,3,51,40,0,0
11980,-100,4,3,51,20,0,0
12580,-100,4,3,51,40,0,0
12730,-100,4,3,51,20,0,0
12880,-100,4,3,51,40,0,0
13030,-100,4,3,51,20,0,0
13180,-100,4,3,51,40,0,0
13330,-100,4,3,51,25,0,0
14380,-100,4,3,51,40,0,0
14530,-100,4,3,51,25,0,0
15580,-100,4,3,51,40,0,0
15730,-100,4,3,51,25,0,0
16030,-100,4,3,51,40,0,0
16180,-100,4,3,51,25,0,0
16480,-100,4,3,51,40,0,0
16630,-100,4,3,51,25,0,0
16780,-100,4,3,51,40,0,0
16930,-100,4,3,51,30,0,0
17380,-100,4,3,51,40,0,0
17530,-100,4,3,51,30,0,0
17980,-100,4,3,51,40,0,0
18130,-100,4,3,51,20,0,0
19180,-100,4,3,51,40,0,0
19330,-100,4,3,51,20,0,0
20380,-100,4,3,51,40,0,0
20530,-100,4,3,51,20,0,0
20680,-100,4,3,51,40,0,0
20830,-100,4,3,51,20,0,0
20980,-100,4,3,51,40,0,0
21280,-100,4,3,51,20,0,0
21430,-100,4,3,51,40,0,0
21580,-100,4,3,51,20,0,0
22180,-100,4,3,51,40,0,0
22330,-100,4,3,51,20,0,0
22480,-100,4,3,51,40,0,0
22630,-100,4,3,51,20,0,0
22780,-100,4,3,75,40,0,0
22930,-100,4,3,51,30,0,0
23380,-100,4,3,51,32,0,0
23680,-100,4,3,51,35,0,0
23980,-100,4,3,75,40,0,0
24130,-100,4,3,51,30,0,0
24280,-100,4,3,51,40,0,0
24580,-100,4,3,51,30,0,0
24880,-100,4,3,51,40,0,0
25330,-100,4,3,51,30,0,0
25630,-100,4,3,51,40,0,0
25780,-100,4,3,51,30,0,0
26080,-100,4,3,51,40,0,0
26230,-100,4,3,51,30,0,0
26530,-100,4,3,51,50,0,0
26605,-100,4,3,51,30,0,0
26830,-100,4,3,51,50,0,0
26905,-100,4,3,51,30,0,0
26980,-100,4,3,71,50,0,0
27130,-100,4,3,51,5,0,0
27580,-40,4,3,51,50,0,0
27880,-40,4,3,51,5,0,0
28030,-40,4,3,51,50,0,0
28330,-40,4,3,51,5,0,0
28480,-40,4,3,51,50,0,0
28630,-40,4,3,51,5,0,0
28780,-40,4,3,51,70,0,0
29830,-40,4,3,51,5,0,0
29980,-40,4,3,51,50,0,0
30280,-40,4,3,51,70,0,0
30430,-40,4,3,51,50,0,0
30580,-40,4,3,69,70,0,0
30730,-40,4,3,51,70,0,0
30880,-40,4,3,51,50,0,0
31030,-40,4,3,69,70,0,0
31180,-40,4,3,51,5,0,0
31780,-100,4,3,51,70,0,0
31930,-100,4,3,51,5,0,0
32080,-100,4,3,51,70,0,0
32230,-100,4,3,51,5,0,0
32380,-40,4,3,51,50,0,0
32680,-40,4,3,51,5,0,0
32830,-40,4,3,51,50,0,0
33130,-40,4,3,51,5,0,0
33280,-40,4,3,51,50,0,0
33430,-40,4,3,51,5,0,0
33580,-100,4,3,51,70,0,0
34030,-100,4,3,51,5,0,0
34180,-100,4,3,51,70,0,0
34630,-100,4,3,51,5,0,0
34780,-40,4,3,51,50,0,0
35080,-40,4,3,51,5,0,0
35230,-40,4,3,51,50,0,0
35530,-40,4,3,51,5,0,0
35680,-40,4,3,51,50,0,0
35830,-40,4,3,51,5,0,0
35980,-40,4,3,51,50,0,0
36430,-40,4,3,51,5,0,0
36580,-59.5238095238095,4,3,51,70,0,0
37030,-59.5238095238095,4,3,51,5,0,0
37180,-100,4,3,51,40,0,0
37480,-100,4,3,51,10,0,0
37630,-100,4,3,51,40,0,0
37780,-100,4,3,51,10,0,0
37930,-100,4,3,51,20,0,0
38080,-100,4,3,51,10,0,0
38230,-100,4,3,51,20,0,0
38380,-100,4,3,51,40,0,0
38680,-100,4,3,51,10,0,0
38830,-100,4,3,51,40,0,0
38980,-100,4,3,51,10,0,0
39130,-100,4,3,51,20,0,0
39280,-100,4,3,51,10,0,0
39430,-100,4,3,51,20,0,0
39580,-100,4,3,51,40,0,0
39880,-100,4,3,51,10,0,0
40030,-100,4,3,51,40,0,0
40180,-100,4,3,51,10,0,0
40330,-100,4,3,51,20,0,0
40480,-100,4,3,51,10,0,0
40630,-100,4,3,51,20,0,0
40780,-100,4,3,51,40,0,0
41080,-100,4,3,51,10,0,0
41230,-100,4,3,51,40,0,0
41380,-100,4,3,51,10,0,0
41530,-100,4,3,51,40,0,0
41980,-100,4,3,51,50,0,0
42280,-100,4,3,51,30,0,0
42430,-100,4,3,51,50,0,0
42580,-100,4,3,51,30,0,0
42730,-100,4,3,51,50,0,0
42880,-100,4,3,51,30,0,0
43030,-100,4,3,51,50,0,0
43480,-100,4,3,51,30,0,0
43630,-100,4,3,51,50,0,0
43780,-100,4,3,51,30,0,0
43930,-100,4,3,51,50,0,0
44080,-100,4,3,51,30,0,0
44230,-100,4,3,51,50,0,0
44680,-100,4,3,51,30,0,0
44830,-100,4,3,51,50,0,0
44980,-100,4,3,51,30,0,0
45130,-100,4,3,51,50,0,0
45280,-100,4,3,51,30,0,0
45430,-100,4,3,51,50,0,0
45880,-100,4,3,51,30,0,0
46030,-100,4,3,51,50,0,0
46180,-100,4,3,51,30,0,0
46330,-100,4,3,51,50,0,0
46480,-42.3728813559322,4,3,51,50,0,0
46630,-42.3728813559322,4,3,51,10,0,0
46780,-100,4,3,51,60,0,0
46930,-100,4,3,51,70,0,0
47005,-100,4,3,51,60,0,0
47230,-100,4,3,51,70,0,0
47305,-100,4,3,51,60,0,0
47530,-100,4,3,51,70,0,0
47605,-100,4,3,51,60,0,0
47830,-100,4,3,51,70,0,0
47905,-100,4,3,51,60,0,0
48130,-100,4,3,51,70,0,0
48205,-100,4,3,51,60,0,0
48430,-100,4,3,51,70,0,0
48505,-100,4,3,51,60,0,0
48730,-100,4,3,51,70,0,0
48805,-100,4,3,51,60,0,0
49030,-100,4,3,51,70,0,0
49105,-100,4,3,51,60,0,0
49330,-100,4,3,51,70,0,0
49380,-100,4,3,51,60,0,0
49630,-100,4,3,51,70,0,0
49680,-100,4,3,51,60,0,0
49930,-100,4,3,51,70,0,0
49980,-100,4,3,51,60,0,0
50180,-100,4,3,51,70,0,0
50230,-100,4,3,51,60,0,0
50280,-100,4,3,51,70,0,0
50330,-100,4,3,51,60,0,0
50380,-100,4,3,51,70,0,0
50680,-100,4,3,51,5,0,0
50830,-100,4,3,51,40,0,0
51130,-100,4,3,51,5,0,0
51280,-40,4,3,51,40,0,0
51430,-100,4,3,51,5,0,0
51580,-100,4,3,75,60,0,0
51598,-100,4,3,75,5,0,0
51880,-42.3728813559322,4,3,51,80,0,1
52030,-42.3728813559322,4,1,69,80,0,1
52180,-68.9655172413793,4,3,51,80,0,1
52230,-68.9655172413793,4,3,51,40,0,1
52330,-68.9655172413793,4,3,51,80,0,1
52380,-68.9655172413793,4,3,51,40,0,1
52480,-68.9655172413793,4,3,51,80,0,1
52498,-68.9655172413793,4,3,51,5,0,1
52630,-68.9655172413793,4,3,51,80,0,1
52648,-68.9655172413793,4,3,51,5,0,1
52780,-68.9655172413793,4,3,51,80,0,1
52798,-68.9655172413793,4,3,51,5,0,1
53080,-68.9655172413793,4,3,52,80,0,1
53098,-68.9655172413793,4,3,52,5,0,1
53230,-68.9655172413793,4,3,52,80,0,1
53380,-42.3728813559322,4,3,75,80,0,1
53530,-42.3728813559322,4,1,69,80,0,1
53605,-42.3728813559322,4,3,51,5,0,1
53680,-42.3728813559322,4,3,75,80,0,1
53830,-42.3728813559322,4,1,69,80,0,1
53905,-42.3728813559322,4,3,51,5,0,1
53980,-68.9655172413793,4,3,75,60,0,1
53998,-68.9655172413793,4,3,51,5,0,1
54130,-68.9655172413793,4,3,51,80,0,1
54148,-68.9655172413793,4,3,51,5,0,1
54280,-68.9655172413793,4,3,51,80,0,1
54655,-68.9655172413793,4,3,51,40,0,1
54730,-68.9655172413793,4,3,51,80,0,1
54805,-68.9655172413793,4,3,51,40,0,1
54880,-68.9655172413793,4,3,74,60,0,1
54898,-68.9655172413793,4,3,51,80,0,1
55030,-68.9655172413793,4,1,69,80,0,1
55105,-68.9655172413793,4,3,51,5,0,1
55180,-68.9655172413793,4,3,51,80,0,1
55255,-68.9655172413793,4,3,51,40,0,1
55330,-68.9655172413793,4,3,51,80,0,1
55405,-68.9655172413793,4,3,51,40,0,1
55480,-68.9655172413793,4,3,51,80,0,1
55705,-68.9655172413793,4,3,51,40,0,1
55780,-68.9655172413793,4,3,75,80,0,1
55930,-68.9655172413793,4,1,69,80,0,1
56005,-68.9655172413793,4,3,75,80,0,1
56080,-68.9655172413793,4,3,51,80,0,1
56230,-68.9655172413793,4,3,75,80,0,1
56380,-68.9655172413793,4,3,51,80,0,1
56398,-68.9655172413793,4,3,51,5,0,1
56680,-68.9655172413793,4,3,51,80,0,1
56730,-68.9655172413793,4,3,51,40,0,1
56830,-68.9655172413793,4,3,51,80,0,1
56880,-68.9655172413793,4,3,51,40,0,1
56980,-68.9655172413793,4,3,73,80,0,1
57130,-68.9655172413793,4,3,51,80,0,1
57280,-42.3728813559322,4,3,74,60,0,1
57430,-42.3728813559322,4,1,69,80,0,1
57580,-68.9655172413793,4,3,73,80,0,1
57598,-68.9655172413793,4,3,51,5,0,1
57880,-68.9655172413793,4,3,51,80,0,1
57898,-68.9655172413793,4,3,51,5,0,1
58030,-68.9655172413793,4,3,51,80,0,1
58048,-68.9655172413793,4,3,51,5,0,1
58180,-68.9655172413793,4,3,51,80,0,1
58198,-68.9655172413793,4,3,51,5,0,1
58330,-68.9655172413793,4,3,51,80,0,1
58348,-68.9655172413793,4,3,51,5,0,1
58480,-68.9655172413793,4,3,51,80,0,1
58498,-68.9655172413793,4,3,51,5,0,1
58630,-68.9655172413793,4,3,51,80,0,1
58780,-68.9655172413793,4,3,73,80,0,1
58798,-68.9655172413793,4,3,51,5,0,1
58930,-68.9655172413793,4,3,51,80,0,1
58948,-68.9655172413793,4,3,51,5,0,1
59080,-68.9655172413793,4,3,52,80,0,1
59098,-68.9655172413793,4,3,52,5,0,1
59230,-68.9655172413793,4,3,52,80,0,1
59248,-68.9655172413793,4,3,52,5,0,1
59380,-68.9655172413793,4,3,73,80,0,1
59398,-68.9655172413793,4,3,51,5,0,1
59530,-68.9655172413793,4,3,51,80,0,1
59548,-68.9655172413793,4,3,51,5,0,1
59680,-68.9655172413793,4,3,73,80,0,1
59698,-68.9655172413793,4,3,51,5,0,1
59830,-68.9655172413793,4,3,51,80,0,1
59848,-68.9655172413793,4,3,51,5,0,1
59980,-68.9655172413793,4,3,51,80,0,1
60280,-42.3728813559322,4,3,51,80,0,1
60580,-68.9655172413793,4,3,51,80,0,1
60880,-42.3728813559322,4,3,51,80,0,1
61180,-68.9655172413793,4,3,75,60,0,0
61198,-68.9655172413793,4,3,75,5,0,0
61480,-42.3728813559322,4,3,51,80,0,1
61630,-42.3728813559322,4,1,69,80,0,1
61780,-68.9655172413793,4,3,51,80,0,1
61830,-68.9655172413793,4,3,51,40,0,1
61930,-68.9655172413793,4,3,51,80,0,1
61980,-68.9655172413793,4,3,51,40,0,1
62080,-68.9655172413793,4,3,51,80,0,1
62098,-68.9655172413793,4,3,51,5,0,1
62230,-68.9655172413793,4,3,51,80,0,1
62248,-68.9655172413793,4,3,51,5,0,1
62380,-68.9655172413793,4,3,51,80,0,1
62398,-68.9655172413793,4,3,51,5,0,1
62680,-68.9655172413793,4,3,52,80,0,1
62698,-68.9655172413793,4,3,52,5,0,1
62830,-68.9655172413793,4,3,52,80,0,1
62848,-68.9655172413793,4,3,52,5,0,1
62980,-42.3728813559322,4,3,75,80,0,1
63130,-42.3728813559322,4,1,69,80,0,1
63205,-42.3728813559322,4,3,51,5,0,1
63280,-42.3728813559322,4,3,75,80,0,1
63430,-42.3728813559322,4,1,69,80,0,1
63505,-42.3728813559322,4,3,51,5,0,1
63580,-68.9655172413793,4,3,75,60,0,1
63598,-68.9655172413793,4,3,51,5,0,1
63730,-68.9655172413793,4,3,51,80,0,1
63748,-68.9655172413793,4,3,51,5,0,1
63880,-68.9655172413793,4,3,51,80,0,1
64180,-68.9655172413793,4,3,73,80,0,1
64255,-68.9655172413793,4,3,51,40,0,1
64330,-68.9655172413793,4,3,51,80,0,1
64405,-68.9655172413793,4,3,51,40,0,1
64480,-68.9655172413793,4,3,74,60,0,1
64630,-68.9655172413793,4,1,69,80,0,1
64705,-68.9655172413793,4,3,51,5,0,1
64780,-68.9655172413793,4,3,73,80,0,1
64855,-68.9655172413793,4,3,51,40,0,1
64930,-68.9655172413793,4,3,51,80,0,1
65005,-68.9655172413793,4,3,51,40,0,1
65080,-68.9655172413793,4,3,51,80,0,1
65305,-68.9655172413793,4,3,51,40,0,1
65380,-68.9655172413793,4,3,75,80,0,1
65530,-68.9655172413793,4,1,69,80,0,1
65605,-68.9655172413793,4,3,75,80,0,1
65680,-68.9655172413793,4,3,51,80,0,1
65830,-68.9655172413793,4,3,75,80,0,1
65980,-68.9655172413793,4,3,51,80,0,1
65998,-68.9655172413793,4,3,51,5,0,1
66280,-68.9655172413793,4,3,51,80,0,1
66298,-68.9655172413793,4,3,51,5,0,1
66430,-68.9655172413793,4,3,51,80,0,1
66805,-68.9655172413793,4,3,51,5,0,1
66880,-42.3728813559322,4,3,51,80,0,1
67105,-42.3728813559322,4,3,51,5,0,1
67180,-68.9655172413793,4,3,51,80,0,1
67198,-68.9655172413793,4,3,51,5,0,1
67480,-68.9655172413793,4,3,51,80,0,1
67498,-68.9655172413793,4,3,51,5,0,1
67630,-68.9655172413793,4,3,51,80,0,1
67648,-68.9655172413793,4,3,51,5,0,1
67780,-68.9655172413793,4,3,51,80,0,1
67798,-68.9655172413793,4,3,51,5,0,1
67930,-68.9655172413793,4,3,51,80,0,1
67948,-68.9655172413793,4,3,51,5,0,1
68080,-68.9655172413793,4,3,51,80,0,1
68098,-68.9655172413793,4,3,51,5,0,1
68230,-68.9655172413793,4,3,51,80,0,1
68248,-68.9655172413793,4,3,51,5,0,1
68380,-68.9655172413793,4,3,51,80,0,1
68398,-68.9655172413793,4,3,51,5,0,1
68530,-68.9655172413793,4,3,51,80,0,1
68548,-68.9655172413793,4,3,51,5,0,1
68680,-68.9655172413793,4,3,51,80,0,1
68698,-68.9655172413793,4,3,51,5,0,1
68830,-68.9655172413793,4,3,51,80,0,1
68848,-68.9655172413793,4,3,51,5,0,1
68980,-68.9655172413793,4,3,51,80,0,1
68998,-68.9655172413793,4,3,51,5,0,1
69055,-68.9655172413793,4,3,51,80,0,1
69073,-68.9655172413793,4,3,51,5,0,1
69130,-68.9655172413793,4,3,51,80,0,1
69148,-68.9655172413793,4,3,51,5,0,1
69205,-68.9655172413793,4,3,51,80,0,1
69223,-68.9655172413793,4,3,51,5,0,1
69280,-68.9655172413793,4,3,51,80,0,1
69298,-68.9655172413793,4,3,51,5,0,1
69355,-68.9655172413793,4,3,51,80,0,1
69373,-68.9655172413793,4,3,51,5,0,1
69430,-68.9655172413793,4,3,51,80,0,1
69448,-68.9655172413793,4,3,51,5,0,1
69505,-68.9655172413793,4,3,51,80,0,1
69523,-68.9655172413793,4,3,51,5,0,1
69580,-100,4,3,51,80,0,0
69880,-100,4,3,51,5,0,0
70030,-100,4,3,51,40,0,0
70330,-100,4,3,51,5,0,0
70480,-42.3728813559322,4,3,51,40,0,0
70630,-42.3728813559322,4,3,51,5,0,0
70780,-68.9655172413793,4,3,51,60,0,1
70930,-68.9655172413793,4,3,51,60,0,0
76780,-42.3728813559322,4,3,51,60,0,0
77080,-36.6300366300366,4,3,51,60,0,0
77380,-68.9655172413793,4,3,51,60,0,0
78280,-54.9450549450549,4,3,51,60,0,0
78580,-68.9655172413793,4,3,51,60,0,0
79180,-68.9655172413793,4,3,75,60,0,0
79480,-68.9655172413793,4,3,51,60,0,0
80380,-68.9655172413793,4,3,75,60,0,0
80398,-68.9655172413793,4,3,75,5,0,0
80530,-68.9655172413793,4,3,51,60,0,0
80548,-68.9655172413793,4,3,51,5,0,0
80680,-68.9655172413793,4,3,51,60,0,0
82705,-68.9655172413793,4,3,51,20,0,0
82780,-68.9655172413793,4,3,51,60,0,0
83905,-68.9655172413793,4,3,51,20,0,0
83980,-68.9655172413793,4,3,51,60,0,0
85105,-68.9655172413793,4,3,51,20,0,0
85180,-68.9655172413793,4,3,51,60,0,0
86005,-68.9655172413793,4,3,51,20,0,0
86080,-68.9655172413793,4,3,51,60,0,0
86305,-68.9655172413793,4,3,51,20,0,0
86380,-42.3728813559322,4,3,51,60,0,0
86680,-36.6300366300366,4,3,51,60,0,0
86905,-36.6300366300366,4,3,51,20,0,0
86980,-68.9655172413793,4,3,51,60,0,0
87280,-42.3728813559322,4,3,51,60,0,0
87505,-42.3728813559322,4,3,51,20,0,0
87580,-68.9655172413793,4,3,51,60,0,0
87655,-68.9655172413793,4,3,51,40,0,0
88030,-68.9655172413793,4,3,51,60,0,0
88105,-68.9655172413793,4,3,51,40,0,0
88180,-68.9655172413793,4,3,51,60,0,0
88255,-68.9655172413793,4,3,51,40,0,0
88330,-68.9655172413793,4,3,51,60,0,0
88405,-68.9655172413793,4,3,51,40,0,0
88630,-68.9655172413793,4,3,51,60,0,0
88705,-68.9655172413793,4,3,51,40,0,0
88780,-68.9655172413793,4,3,51,60,0,0
89680,-68.9655172413793,4,3,52,60,0,0
89698,-68.9655172413793,4,3,52,5,0,0
89980,-100,4,3,51,60,0,0
90130,-100,4,3,61,50,0,0
90580,-100,4,3,61,20,0,0
90730,-100,4,3,61,50,0,0
91105,-100,4,3,61,20,0,0
91330,-100,4,3,61,50,0,0
91367,-100,4,3,61,20,0,0
91480,-100,4,3,61,50,0,0
91630,-100,4,3,61,20,0,0
91705,-100,4,3,61,50,0,0
91780,-100,4,3,61,20,0,0
91930,-100,4,3,61,50,0,0
92230,-100,4,3,61,20,0,0
92380,-100,4,3,61,50,0,0
92530,-100,4,3,61,20,0,0
92680,-100,4,3,61,50,0,0
92980,-100,4,3,61,20,0,0
93130,-100,4,3,61,50,0,0
93505,-100,4,3,61,20,0,0
93580,-100,4,3,61,50,0,0
93805,-100,4,3,61,20,0,0
93880,-100,4,3,61,50,0,0
93955,-100,4,3,61,20,0,0
94105,-100,4,3,61,50,0,0
94180,-100,4,3,61,20,0,0
94330,-100,4,3,61,50,0,0
94480,-100,4,3,75,60,0,0
94498,-100,4,3,75,5,0,0
94630,-100,4,3,61,50,0,0
94648,-100,4,3,61,5,0,0
94780,-100,4,3,61,50,0,0
94930,-100,4,3,61,20,0,0
95080,-100,4,3,61,50,0,0
95380,-100,4,3,61,20,0,0
95530,-100,4,3,61,50,0,0
95980,-100,4,3,61,20,0,0
96130,-100,4,3,61,50,0,0
96167,-100,4,3,61,20,0,0
96280,-100,4,3,61,50,0,0
96430,-100,4,3,61,20,0,0
96505,-100,4,3,61,50,0,0
97030,-100,4,3,61,20,0,0
97180,-100,4,3,61,50,0,0
97330,-100,4,3,61,20,0,0
97480,-100,4,3,61,50,0,0
97780,-100,4,3,61,20,0,0
97930,-100,4,3,61,50,0,0
98305,-100,4,3,61,20,0,0
98380,-100,4,3,61,50,0,0
98605,-100,4,3,61,20,0,0
98680,-100,4,3,61,50,0,0
98830,-100,4,3,61,20,0,0
98905,-100,4,3,61,50,0,0
99055,-100,4,3,61,20,0,0
99130,-100,4,3,61,50,0,0
99280,-100,4,3,75,60,0,0
99298,-100,4,3,75,5,0,0
99430,-100,4,3,61,60,0,0
99448,-100,4,3,61,5,0,0
99580,-100,4,3,61,60,0,0
100255,-100,4,3,61,20,0,0
100330,-100,4,3,61,60,0,0
100480,-100,4,3,74,60,0,0
100630,-100,4,3,51,5,0,0
100780,-100,4,3,61,60,0,0
101455,-100,4,3,61,20,0,0
101530,-100,4,3,61,60,0,0
101680,-100,4,3,52,60,0,0
101698,-100,4,3,52,5,0,0
101830,-100,4,3,52,60,0,0
101848,-100,4,3,52,5,0,0
101980,-100,4,3,61,60,0,0
102655,-100,4,3,61,20,0,0
102730,-100,4,3,61,60,0,0
102880,-100,4,3,74,60,0,0
102898,-100,4,3,61,5,0,0
103180,-100,4,3,61,60,0,0
103855,-100,4,3,61,20,0,0
103930,-100,4,3,61,60,0,0
104098,-100,4,3,61,40,0,0
104380,-100,4,3,75,60,0,0
104455,-100,4,3,51,40,0,0
104680,-100,4,3,51,60,0,0
104755,-100,4,3,51,40,0,0
104905,-100,4,3,51,60,0,0
104980,-100,4,3,51,40,0,0
105130,-100,4,3,51,60,0,0
105205,-100,4,3,51,40,0,0
105430,-100,4,3,51,60,0,0
105505,-100,4,3,51,40,0,0
105730,-100,4,3,51,60,0,0
105805,-100,4,3,51,40,0,0
105880,-100,4,3,51,60,0,0
105955,-100,4,3,51,40,0,0
106180,-100,4,3,51,60,0,0
106255,-100,4,3,51,40,0,0
106405,-100,4,3,51,60,0,0
106480,-100,4,3,51,40,0,0
106630,-100,4,3,51,60,0,0
106705,-100,4,3,51,40,0,0
106780,-100,4,3,51,60,0,0
106830,-100,4,3,51,40,0,0
107080,-100,4,3,51,60,0,0
107130,-100,4,3,51,40,0,0
107380,-100,4,3,51,60,0,0
107430,-100,4,3,51,40,0,0
107580,-100,4,3,51,60,0,0
107630,-100,4,3,51,40,0,0
107780,-100,4,3,51,60,0,0
107830,-100,4,3,51,40,0,0
107980,-28.2485875706215,4,3,51,60,0,0
108130,-28.2485875706215,4,3,67,40,0,0
108730,-28.2485875706215,4,3,51,5,0,0
108880,-100,4,3,53,70,0,0
109030,-100,4,3,51,5,0,0
109180,-100,4,3,51,60,0,1
109217,-100,4,3,51,20,0,1
109330,-100,4,3,51,60,0,0
109367,-100,4,3,51,20,0,0
109480,-100,4,3,52,60,0,0
109517,-100,4,3,51,20,0,0
109780,-40.8163265306122,4,3,51,60,0,0
110080,-100,4,3,51,60,0,0
110230,-100,4,3,52,60,0,0
110267,-100,4,3,51,20,0,0
110530,-100,4,3,51,60,0,0
110680,-100,4,3,52,60,0,0
110717,-100,4,3,51,20,0,0
110980,-40.8163265306122,4,3,74,60,0,0
111130,-40.8163265306122,4,3,51,60,0,0
111280,-100,4,3,51,60,0,0
111430,-100,4,3,52,60,0,0
111467,-100,4,3,51,20,0,0
111880,-100,4,3,52,60,0,0
111917,-100,4,3,51,20,0,0
112180,-100,4,3,72,60,0,0
112198,-100,4,3,51,5,0,0
112480,-100,4,3,51,60,0,0
112630,-100,4,3,52,60,0,0
112667,-100,4,3,51,20,0,0
113080,-50.8130081300813,4,3,52,60,0,0
113117,-50.8130081300813,4,3,51,5,0,0
113380,-40.8163265306122,4,3,52,65,0,0
113417,-40.8163265306122,4,3,51,5,0,0
113680,-25,4,3,52,70,0,0
113717,-25,4,3,51,5,0,0
113980,-100,4,3,51,60,0,0
114280,-100,4,3,52,60,0,0
114317,-100,4,3,51,60,0,0
114580,-40.8163265306122,4,3,74,60,0,0
114730,-40.8163265306122,4,3,51,60,0,0
114880,-100,4,3,51,60,0,0
115030,-100,4,3,52,60,0,0
115067,-100,4,3,51,20,0,0
115330,-100,4,3,51,60,0,0
115480,-100,4,3,52,60,0,0
115517,-100,4,3,51,20,0,0
115780,-100,4,3,74,60,0,0
115798,-100,4,3,51,5,0,0
116080,-100,4,3,74,60,0,0
116098,-100,4,3,51,5,0,0
116380,-50.761421319797,4,3,51,60,0,0
116455,-50.761421319797,4,3,51,5,0,0
116680,-40.8163265306122,4,3,51,60,0,0
116755,-40.8163265306122,4,3,51,5,0,0
117130,-68.9655172413793,4,3,51,60,0,0
117205,-68.9655172413793,4,3,51,5,0,0
117580,-27.1739130434783,4,3,51,60,0,0
118030,-27.1739130434783,4,3,63,60,0,0
118180,-27.1739130434783,4,3,51,60,0,0
118480,-27.1739130434783,4,3,63,60,0,0
118630,-100,4,3,51,60,0,0
118705,-100,4,3,51,20,0,0
118780,-100,4,3,51,30,0,0
118798,-100,4,3,51,10,0,0
118855,-100,4,3,51,30,0,0
118873,-100,4,3,51,10,0,0
118930,-100,4,3,51,30,0,0
118948,-100,4,3,51,10,0,0
119005,-100,4,3,51,30,0,0
119023,-100,4,3,51,10,0,0
119080,-100,4,3,51,30,0,0
119098,-100,4,3,51,10,0,0
119155,-100,4,3,51,30,0,0
119173,-100,4,3,51,10,0,0
119230,-100,4,3,51,30,0,0
119248,-100,4,3,51,10,0,0
119305,-100,4,3,51,30,0,0
119323,-100,4,3,51,10,0,0
119380,-100,4,3,51,60,0,1
119530,-100,4,3,51,5,0,0
119680,-100,4,3,52,60,0,0
119717,-100,4,3,51,20,0,0
119830,-100,4,3,52,60,0,0
119867,-100,4,3,51,20,0,0
120130,-100,4,3,51,60,0,0
120280,-100,4,3,52,60,0,0
120317,-100,4,3,51,20,0,0
120580,-100,4,3,74,60,0,0
120598,-100,4,3,51,5,0,0
120880,-100,4,3,51,60,0,0
120917,-100,4,3,51,20,0,0
121030,-100,4,3,52,60,0,0
121067,-100,4,3,51,20,0,0
121330,-100,4,3,51,60,0,0
121367,-100,4,3,51,20,0,0
121480,-100,4,3,52,60,0,0
121517,-100,4,3,51,20,0,0
121780,-100,4,3,72,60,0,0
121798,-100,4,3,51,5,0,0
122080,-100,4,3,51,60,0,0
122117,-100,4,3,51,20,0,0
122230,-100,4,3,52,60,0,0
122267,-100,4,3,51,20,0,0
122530,-100,4,3,51,60,0,0
122567,-100,4,3,51,20,0,0
122680,-59.5238095238095,4,3,52,60,0,0
122717,-59.5238095238095,4,3,51,5,0,0
122980,-59.5238095238095,4,3,52,65,0,0
123017,-59.5238095238095,4,3,51,5,0,0
123280,-40.8163265306122,4,3,52,70,0,0
123317,-40.8163265306122,4,3,51,5,0,0
123580,-100,4,3,51,60,0,0
123598,-100,4,3,51,5,0,0
123880,-100,4,3,51,60,0,0
123898,-100,4,3,51,5,0,0
124030,-100,4,3,51,60,0,0
124180,-59.5238095238095,4,3,51,60,0,0
124480,-100,4,3,51,60,0,0
124498,-100,4,3,51,10,0,0
124555,-100,4,3,51,60,0,0
124573,-100,4,3,51,10,0,0
124630,-100,4,3,51,60,0,0
124648,-100,4,3,51,10,0,0
124705,-100,4,3,51,60,0,0
124723,-100,4,3,51,10,0,0
124780,-100,4,3,51,60,0,0
125305,-100,4,3,51,20,0,0
125380,-100,4,3,51,60,0,0
125530,-100,4,3,51,20,0,0
125680,-100,4,3,51,60,0,0
125830,-100,4,3,51,20,0,0
125980,-100,4,3,51,60,0,0
126130,-100,4,3,51,80,0,0
126280,-100,4,3,51,60,0,0
126580,-100,4,3,51,80,0,0
126730,-100,4,3,51,60,0,0
127030,-100,4,3,51,80,0,0
127180,-100,4,3,51,60,0,0
127255,-100,4,3,51,40,0,0
127330,-100,4,3,51,60,0,0
127405,-100,4,3,51,40,0,0
127480,-100,4,3,51,80,0,0
127555,-100,4,3,51,40,0,0
127630,-100,4,3,51,60,0,0
127705,-100,4,3,51,40,0,0
127780,-100,4,3,51,60,0,0
127855,-100,4,3,51,40,0,0
127930,-100,4,3,51,80,0,0
128005,-100,4,3,51,40,0,0
128080,-100,4,3,51,80,0,0
128230,-100,4,3,51,5,0,0
128380,-27.1739130434783,4,3,51,60,0,0
128417,-27.1739130434783,4,3,51,5,0,0
128980,-40.8163265306122,4,3,51,40,0,0
129280,-100,4,3,51,60,0,1
129317,-100,4,3,51,20,0,1
129430,-100,4,3,52,60,0,0
129467,-100,4,3,51,20,0,0
129730,-100,4,3,51,60,0,0
129767,-100,4,3,51,20,0,0
129880,-100,4,3,52,60,0,0
129917,-100,4,3,51,20,0,0
130180,-40.8163265306122,4,3,74,60,0,0
130330,-40.8163265306122,4,3,51,60,0,0
130480,-100,4,3,51,60,0,0
130517,-100,4,3,51,20,0,0
130630,-100,4,3,52,60,0,0
130667,-100,4,3,51,20,0,0
130930,-100,4,3,51,60,0,0
130967,-100,4,3,51,20,0,0
131080,-100,4,3,52,60,0,0
131117,-100,4,3,51,20,0,0
131380,-100,4,3,72,60,0,0
131398,-100,4,3,51,5,0,0
131680,-100,4,3,51,60,0,0
131717,-100,4,3,51,20,0,0
131830,-100,4,3,52,60,0,0
131867,-100,4,3,51,20,0,0
132130,-100,4,3,51,60,0,0
132167,-100,4,3,51,20,0,0
132280,-50.8130081300813,4,3,52,60,0,0
132317,-50.8130081300813,4,3,51,5,0,0
132580,-40.8163265306122,4,3,52,65,0,0
132617,-40.8163265306122,4,3,51,5,0,0
132880,-25,4,3,52,70,0,0
132917,-25,4,3,51,5,0,0
133180,-100,4,3,51,60,0,0
133367,-100,4,3,51,20,0,0
133480,-100,4,3,52,60,0,0
133517,-100,4,3,51,20,0,0
133780,-40.8163265306122,4,3,74,60,0,0
133930,-40.8163265306122,4,3,51,60,0,0
134080,-100,4,3,51,60,0,0
134117,-100,4,3,51,20,0,0
134230,-100,4,3,52,60,0,0
134267,-100,4,3,51,20,0,0
134530,-100,4,3,52,60,0,0
134567,-100,4,3,52,20,0,0
134680,-100,4,3,52,60,0,0
134717,-100,4,3,51,10,0,0
134980,-100,4,3,74,60,0,0
134998,-100,4,3,51,5,0,0
135280,-100,4,3,74,60,0,0
135298,-100,4,3,51,5,0,0
135580,-50.761421319797,4,3,51,60,0,0
135655,-50.761421319797,4,3,51,5,0,0
135880,-40.8163265306122,4,3,51,60,0,0
135955,-40.8163265306122,4,3,51,5,0,0
136330,-68.9655172413793,4,3,51,60,0,0
136405,-68.9655172413793,4,3,51,5,0,0
136780,-27.1739130434783,4,3,51,60,0,0
137230,-27.1739130434783,4,3,63,60,0,0
137380,-27.1739130434783,4,3,51,60,0,0
137680,-27.1739130434783,4,3,63,60,0,0
137830,-100,4,3,51,60,0,0
137905,-100,4,3,51,20,0,0
137980,-100,4,3,74,60,0,0
137998,-100,4,3,51,5,0,0
138280,-100,4,3,51,60,0,0
138298,-100,4,3,51,5,0,0
138580,-40.8163265306122,4,3,51,60,0,1
138880,-100,4,3,51,60,0,0
138917,-100,4,3,51,20,0,0
139030,-100,4,3,52,60,0,0
139067,-100,4,3,51,20,0,0
139330,-100,4,3,51,60,0,0
139367,-100,4,3,51,20,0,0
139480,-100,4,3,52,60,0,0
139517,-100,4,3,51,20,0,0
139780,-100,4,3,74,60,0,0
139798,-100,4,3,51,5,0,0
140080,-100,4,3,51,60,0,0
140117,-100,4,3,51,20,0,0
140230,-100,4,3,52,60,0,0
140267,-100,4,3,51,20,0,0
140530,-100,4,3,51,60,0,0
140680,-100,4,3,52,60,0,0
140717,-100,4,3,51,20,0,0
140980,-100,4,3,72,60,0,0
140998,-100,4,3,51,5,0,0
141280,-100,4,3,51,60,0,0
141317,-100,4,3,51,20,0,0
141430,-100,4,3,52,60,0,0
141467,-100,4,3,51,20,0,0
141730,-100,4,3,51,60,0,0
141767,-100,4,3,51,20,0,0
141880,-59.1715976331361,4,3,52,60,0,0
141917,-59.1715976331361,4,3,51,5,0,0
142180,-59.1715976331361,4,3,52,65,0,0
142217,-59.1715976331361,4,3,51,5,0,0
142480,-30.3030303030303,4,3,52,70,0,0
142517,-30.3030303030303,4,3,51,5,0,0
142780,-68.9655172413793,4,3,51,60,0,0
142930,-68.9655172413793,4,3,51,20,0,0
143005,-68.9655172413793,4,3,51,60,0,0
143155,-68.9655172413793,4,3,51,20,0,0
143230,-68.9655172413793,4,3,51,60,0,0
143455,-68.9655172413793,4,3,51,20,0,0
143530,-68.9655172413793,4,3,51,60,0,0
143680,-68.9655172413793,4,3,51,20,0,0
143830,-68.9655172413793,4,3,51,60,0,0
143980,-68.9655172413793,4,3,51,20,0,0
144130,-68.9655172413793,4,3,51,60,0,0
144280,-68.9655172413793,4,3,51,20,0,0
144355,-68.9655172413793,4,3,51,60,0,0
144505,-68.9655172413793,4,3,51,20,0,0
144580,-68.9655172413793,4,3,51,60,0,0
144655,-68.9655172413793,4,3,51,20,0,0
144730,-68.9655172413793,4,3,51,60,0,0
144880,-68.9655172413793,4,3,51,20,0,0
144955,-68.9655172413793,4,3,51,60,0,0
145105,-68.9655172413793,4,3,51,20,0,0
145180,-40.8163265306122,4,3,51,70,0,0
145330,-68.9655172413793,4,3,51,40,0,0
145480,-68.9655172413793,4,3,51,70,0,0
145630,-68.9655172413793,4,3,51,40,0,0
145780,-40.8163265306122,4,3,51,70,0,0
145930,-68.9655172413793,4,3,51,40,0,0
146080,-68.9655172413793,4,3,51,70,0,0
146230,-68.9655172413793,4,3,51,40,0,0
146380,-68.9655172413793,4,3,51,80,0,0
146455,-68.9655172413793,4,3,51,60,0,0
146530,-68.9655172413793,4,3,51,80,0,0
146605,-68.9655172413793,4,3,51,60,0,0
146680,-68.9655172413793,4,3,51,80,0,0
146755,-68.9655172413793,4,3,51,60,0,0
146830,-68.9655172413793,4,3,51,80,0,0
146905,-68.9655172413793,4,3,51,60,0,0
146980,-40.8163265306122,4,3,51,80,0,0
147580,-100,4,3,51,60,0,0
147730,-100,4,3,51,40,0,0
148630,-100,4,3,51,60,0,0
149080,-100,4,3,51,20,0,0
149230,-100,4,3,51,60,0,0
149380,-100,4,3,51,20,0,0
149830,-100,4,3,51,60,0,0
149980,-100,4,3,51,20,0,0
150130,-100,4,3,51,60,0,0
150280,-100,4,3,51,20,0,0
150430,-100,4,3,51,60,0,0
150580,-100,4,3,51,20,0,0
151780,-100,4,3,51,10,0,0
152380,-100,4,3,51,40,0,0
152530,-100,4,3,51,20,0,0
153580,-100,4,3,51,40,0,0
153730,-100,4,3,51,20,0,0
154780,-100,4,3,51,40,0,0
154930,-100,4,3,51,20,0,0
155080,-100,4,3,51,40,0,0
155230,-100,4,3,51,20,0,0
155380,-100,4,3,51,40,0,0
155680,-100,4,3,51,20,0,0
155830,-100,4,3,51,40,0,0
155980,-100,4,3,51,20,0,0
156580,-100,4,3,51,40,0,0
156730,-100,4,3,51,20,0,0
156880,-100,4,3,51,40,0,0
157030,-100,4,3,51,20,0,0
157180,-100,4,3,51,40,0,0
157330,-100,4,3,51,25,0,0
158380,-100,4,3,51,40,0,0
158530,-100,4,3,51,25,0,0
159580,-100,4,3,51,40,0,0
159730,-100,4,3,51,25,0,0
160030,-100,4,3,51,40,0,0
160180,-100,4,3,51,25,0,0
160480,-100,4,3,51,40,0,0
160630,-100,4,3,51,25,0,0
160780,-100,4,3,51,40,0,0
160930,-100,4,3,51,30,0,0
161380,-59.5238095238095,4,3,51,40,0,0
161530,-59.5238095238095,4,3,51,30,0,0
161980,-100,4,3,51,40,0,0
166780,-100,4,3,75,40,0,0
166930,-100,4,3,51,30,0,0
167380,-100,4,3,51,32,0,0
167680,-100,4,3,51,35,0,0
167980,-100,4,3,75,40,0,0
168130,-100,4,3,51,30,0,0
168280,-100,4,3,51,40,0,0
168580,-100,4,3,51,30,0,0
168880,-100,4,3,51,40,0,0
169330,-100,4,3,51,30,0,0
169630,-100,4,3,51,40,0,0
169780,-100,4,3,51,30,0,0
170080,-100,4,3,51,40,0,0
170230,-100,4,3,51,30,0,0
170530,-100,4,3,51,50,0,0
170605,-100,4,3,51,30,0,0
170830,-100,4,3,51,50,0,0
170905,-100,4,3,51,30,0,0
170980,-100,4,3,75,50,0,0
171055,-100,4,3,51,50,0,0
171430,-100,4,3,51,10,0,0
171580,-40,4,3,51,50,0,0
171880,-40,4,3,51,5,0,0
172030,-40,4,3,51,50,0,0
172330,-40,4,3,51,5,0,0
172480,-40,4,3,51,50,0,0
172630,-40,4,3,51,5,0,0
172780,-40,4,3,51,70,0,0
172930,-40,4,3,51,5,0,0
173980,-40,4,3,51,50,0,0
174280,-40,4,3,51,70,0,0
174430,-40,4,3,51,50,0,0
174580,-40,4,3,69,70,0,0
174730,-40,4,3,51,5,0,0
174880,-40,4,3,51,50,0,0
175030,-40,4,3,69,70,0,0
175180,-40,4,3,51,50,0,0
175630,-40,4,3,51,5,0,0
175780,-100,4,3,51,70,0,0
175930,-100,4,3,51,5,0,0
176080,-100,4,3,51,70,0,0
176230,-100,4,3,51,5,0,0
176380,-40,4,3,51,50,0,0
176680,-40,4,3,51,5,0,0
176830,-40,4,3,51,50,0,0
177130,-40,4,3,51,5,0,0
177280,-40,4,3,51,50,0,0
177430,-40,4,3,51,5,0,0
177580,-50,4,3,51,70,0,0
178630,-40,4,3,51,5,0,0
178780,-40,4,3,51,50,0,0
179080,-40,4,3,51,5,0,0
179230,-40,4,3,51,50,0,0
179530,-40,4,3,51,70,0,0
179680,-40,4,3,51,50,0,0
179830,-40,4,3,51,5,0,0
179980,-40,4,3,51,50,0,0
180430,-40,4,3,51,5,0,0
180580,-40,4,3,75,50,0,0
180730,-40,4,3,51,5,0,0
181180,-66.6666666666667,4,3,51,50,0,0
181217,-66.6666666666667,4,3,51,5,0,0
181630,-66.6666666666667,4,3,51,50,0,0
181667,-66.6666666666667,4,3,51,5,0,0
182080,-66.6666666666667,4,3,51,50,0,0
182117,-66.6666666666667,4,3,51,5,0,0
182380,-40,4,3,51,70,0,0
182905,-66.6666666666667,4,3,51,5,0,0
182980,-66.6666666666667,4,3,51,50,0,0
183017,-66.6666666666667,4,3,51,5,0,0
183280,-33.3333333333333,4,3,51,50,0,0
183505,-66.6666666666667,4,3,51,5,0,0
183580,-66.6666666666667,4,3,51,50,0,0
183617,-66.6666666666667,4,3,51,5,0,0
183880,-66.6666666666667,4,3,51,70,0,0
183917,-66.6666666666667,4,3,51,5,0,0
184030,-66.6666666666667,4,3,51,50,0,0
184067,-66.6666666666667,4,3,51,5,0,0
184180,-66.6666666666667,4,3,51,70,0,0
184217,-66.6666666666667,4,3,51,5,0,0
184480,-40,4,3,51,50,0,0
184630,-40,4,3,69,70,0,0
184780,-40,4,3,51,5,0,0
185005,-66.6666666666667,4,3,51,50,0,0
185080,-66.6666666666667,4,3,51,50,0,0
185155,-66.6666666666667,4,3,51,5,0,0
185230,-66.6666666666667,4,3,51,50,0,0
185305,-66.6666666666667,4,3,51,5,0,0
185380,-66.6666666666667,4,3,51,70,0,0
185605,-66.6666666666667,4,3,51,5,0,0
185680,-66.6666666666667,4,3,51,70,0,0
185905,-66.6666666666667,4,3,51,5,0,0
185980,-66.6666666666667,4,3,51,50,0,0
186017,-66.6666666666667,4,3,51,5,0,0
186430,-66.6666666666667,4,3,51,50,0,0
186467,-66.6666666666667,4,3,51,5,0,0
186880,-66.6666666666667,4,3,51,50,0,0
186917,-66.6666666666667,4,3,51,5,0,0
187180,-66.6666666666667,4,3,51,70,0,0
187405,-66.6666666666667,4,3,51,5,0,0
187480,-66.6666666666667,4,3,51,50,0,0
187555,-66.6666666666667,4,3,51,5,0,0
187630,-66.6666666666667,4,3,51,50,0,0
187705,-66.6666666666667,4,3,51,5,0,0
187780,-66.6666666666667,4,3,51,70,0,0
188005,-66.6666666666667,4,3,51,5,0,0
188080,-66.6666666666667,4,3,51,70,0,0
188305,-66.6666666666667,4,3,51,5,0,0
188380,-66.6666666666667,4,3,51,50,0,0
188417,-66.6666666666667,4,3,51,5,0,0
188830,-66.6666666666667,4,3,51,50,0,0
188867,-66.6666666666667,4,3,51,5,0,0
189130,-66.6666666666667,4,3,51,70,0,0
189167,-66.6666666666667,4,3,51,5,0,0
189280,-66.6666666666667,4,3,51,50,0,0
189317,-66.6666666666667,4,3,51,5,0,0
189580,-40,4,3,51,50,0,0
190105,-40,4,3,51,5,0,0
190180,-40,4,3,51,70,0,0
190705,-66.6666666666667,4,3,51,5,0,0
190780,-66.6666666666667,4,3,61,40,0,0
191155,-66.6666666666667,4,3,51,20,0,0
191230,-66.6666666666667,4,3,51,40,0,0
191305,-66.6666666666667,4,3,51,20,0,0
191380,-66.6666666666667,4,3,61,40,0,0
191755,-66.6666666666667,4,3,51,20,0,0
191830,-66.6666666666667,4,3,51,40,0,0
191905,-66.6666666666667,4,3,51,20,0,0
191980,-66.6666666666667,4,3,61,40,0,0
192355,-66.6666666666667,4,3,51,20,0,0
192430,-66.6666666666667,4,3,51,40,0,0
192505,-66.6666666666667,4,3,51,20,0,0
192580,-66.6666666666667,4,3,61,40,0,0
192805,-66.6666666666667,4,3,51,40,0,0
192880,-66.6666666666667,4,2,60,40,0,0
193030,-66.6666666666667,4,3,51,40,0,0
193105,-66.6666666666667,4,3,51,20,0,0
193180,-66.6666666666667,4,3,61,40,0,0
193555,-66.6666666666667,4,3,51,20,0,0
193630,-66.6666666666667,4,3,51,40,0,0
193705,-66.6666666666667,4,3,51,20,0,0
193780,-66.6666666666667,4,3,61,40,0,0
194155,-66.6666666666667,4,3,51,20,0,0
194230,-66.6666666666667,4,3,51,40,0,0
194305,-66.6666666666667,4,3,51,20,0,0
194380,-66.6666666666667,4,3,61,40,0,0
194755,-66.6666666666667,4,3,51,20,0,0
194830,-66.6666666666667,4,3,51,40,0,0
194905,-66.6666666666667,4,3,51,20,0,0
194980,-66.6666666666667,4,3,61,40,0,0
195205,-66.6666666666667,4,3,75,40,0,0
195280,-66.6666666666667,4,2,60,40,0,0
195430,-66.6666666666667,4,3,75,40,0,0
195505,-66.6666666666667,4,3,51,20,0,0
195580,-66.6666666666667,4,3,61,40,0,0
195955,-66.6666666666667,4,3,51,20,0,0
196030,-66.6666666666667,4,3,51,40,0,0
196180,-66.6666666666667,4,3,61,40,0,0
196555,-66.6666666666667,4,3,51,20,0,0
196630,-66.6666666666667,4,3,51,40,0,0
196780,-66.6666666666667,4,3,61,40,0,0
197155,-66.6666666666667,4,3,51,20,0,0
197230,-66.6666666666667,4,3,51,40,0,0
197380,-66.6666666666667,4,3,61,40,0,0
197530,-66.6666666666667,4,3,51,20,0,0
197605,-66.6666666666667,4,3,51,40,0,0
197680,-66.6666666666667,4,3,61,40,0,0
197755,-66.6666666666667,4,3,51,20,0,0
197830,-66.6666666666667,4,3,51,40,0,0
197980,-66.6666666666667,4,3,61,40,0,0
198355,-66.6666666666667,4,3,51,20,0,0
198430,-66.6666666666667,4,3,51,40,0,0
198580,-66.6666666666667,4,3,61,40,0,0
198730,-66.6666666666667,4,3,51,20,0,0
198880,-66.6666666666667,4,3,61,40,0,0
198955,-66.6666666666667,4,3,51,20,0,0
199030,-66.6666666666667,4,3,51,40,0,0
199180,-66.6666666666667,4,3,61,40,0,0
199330,-66.6666666666667,4,3,51,20,0,0
199480,-66.6666666666667,4,3,61,40,0,0
199555,-66.6666666666667,4,3,51,20,0,0
199780,-66.6666666666667,4,3,61,40,0,0
199855,-66.6666666666667,4,3,51,20,0,0
199930,-66.6666666666667,4,3,51,40,0,0
200005,-66.6666666666667,4,3,51,20,0,0
200080,-42.3728813559322,4,3,75,80,0,0
200230,-42.3728813559322,4,3,51,20,0,0
200380,-66.6666666666667,4,3,51,60,0,0
200755,-66.6666666666667,4,3,51,20,0,0
200830,-66.6666666666667,4,3,51,60,0,0
200905,-66.6666666666667,4,3,51,20,0,0
200980,-40,4,3,51,60,0,0
201130,-66.6666666666667,4,3,51,60,0,0
201355,-66.6666666666667,4,3,51,20,0,0
201430,-66.6666666666667,4,3,51,60,0,0
201505,-66.6666666666667,4,3,51,20,0,0
201580,-40,4,3,51,60,0,0
201730,-66.6666666666667,4,3,51,60,0,0
201955,-66.6666666666667,4,3,51,20,0,0
202030,-66.6666666666667,4,3,51,60,0,0
202105,-66.6666666666667,4,3,51,20,0,0
202180,-40,4,3,51,60,0,0
202330,-66.6666666666667,4,3,51,20,0,0
202405,-66.6666666666667,4,3,75,60,0,0
202480,-66.6666666666667,4,3,51,60,0,0
202555,-66.6666666666667,4,3,51,20,0,0
202630,-66.6666666666667,4,3,75,60,0,0
202780,-40,4,3,51,60,0,0
202930,-66.6666666666667,4,3,51,60,0,0
203155,-66.6666666666667,4,3,51,20,0,0
203230,-66.6666666666667,4,3,51,60,0,0
203305,-66.6666666666667,4,3,51,20,0,0
203380,-40,4,3,51,60,0,0
203530,-66.6666666666667,4,3,51,60,0,0
203755,-66.6666666666667,4,3,51,20,0,0
203830,-66.6666666666667,4,3,51,60,0,0
203905,-66.6666666666667,4,3,51,20,0,0
203980,-40,4,3,51,60,0,0
204130,-66.6666666666667,4,3,51,60,0,0
204355,-66.6666666666667,4,3,51,20,0,0
204430,-66.6666666666667,4,3,51,60,0,0
204505,-66.6666666666667,4,3,51,20,0,0
204580,-40,4,3,51,60,0,0
204730,-66.6666666666667,4,3,51,20,0,0
204805,-66.6666666666667,4,3,75,80,0,0
204880,-66.6666666666667,4,3,51,60,0,0
204955,-66.6666666666667,4,3,51,20,0,0
205030,-66.6666666666667,4,3,75,80,0,0
205105,-66.6666666666667,4,3,51,20,0,0
205180,-66.6666666666667,4,3,51,60,0,0
205255,-66.6666666666667,4,3,51,40,0,0
205330,-66.6666666666667,4,3,51,70,0,0
205405,-66.6666666666667,4,3,51,40,0,0
205480,-66.6666666666667,4,3,51,60,0,0
205555,-66.6666666666667,4,3,51,40,0,0
205630,-66.6666666666667,4,3,51,70,0,0
205705,-66.6666666666667,4,3,51,40,0,0
205780,-66.6666666666667,4,3,51,60,0,0
205855,-66.6666666666667,4,3,51,40,0,0
205930,-66.6666666666667,4,3,51,70,0,0
206005,-66.6666666666667,4,3,51,40,0,0
206080,-66.6666666666667,4,3,51,60,0,0
206155,-66.6666666666667,4,3,51,40,0,0
206230,-66.6666666666667,4,3,51,70,0,0
206305,-66.6666666666667,4,3,51,40,0,0
206380,-66.6666666666667,4,3,51,60,0,0
206455,-66.6666666666667,4,3,51,40,0,0
206530,-66.6666666666667,4,3,51,70,0,0
206605,-66.6666666666667,4,3,51,40,0,0
206680,-66.6666666666667,4,3,51,60,0,0
206755,-66.6666666666667,4,3,51,40,0,0
206830,-66.6666666666667,4,3,51,70,0,0
206905,-66.6666666666667,4,3,51,40,0,0
206980,-66.6666666666667,4,3,51,60,0,0
207055,-66.6666666666667,4,3,51,40,0,0
207130,-66.6666666666667,4,3,51,70,0,0
207205,-66.6666666666667,4,3,51,40,0,0
207280,-66.6666666666667,4,3,51,60,0,0
207355,-66.6666666666667,4,3,51,40,0,0
207430,-66.6666666666667,4,3,51,70,0,0
207505,-66.6666666666667,4,3,51,40,0,0
207580,-66.6666666666667,4,3,51,60,0,0
207730,-66.6666666666667,4,3,51,70,0,0
207780,-66.6666666666667,4,3,51,60,0,0
208030,-66.6666666666667,4,3,51,70,0,0
208080,-66.6666666666667,4,3,51,60,0,0
208330,-66.6666666666667,4,3,51,70,0,0
208380,-66.6666666666667,4,3,51,60,0,0
208580,-66.6666666666667,4,3,51,70,0,0
208630,-66.6666666666667,4,3,51,60,0,0
208680,-66.6666666666667,4,3,51,70,0,0
208730,-66.6666666666667,4,3,51,60,0,0
208780,-42.3728813559322,4,3,51,70,0,0
209230,-42.3728813559322,4,3,67,40,0,0
209530,-42.3728813559322,4,3,51,40,0,0
209680,-42.3728813559322,4,3,53,70,0,0
209830,-42.3728813559322,4,3,51,20,0,0
209980,-68.9655172413793,7,3,51,80,0,1
210205,-68.9655172413793,7,3,51,40,0,1
210280,-68.9655172413793,7,3,51,80,0,1
210355,-68.9655172413793,7,3,51,40,0,1
210430,-68.9655172413793,7,3,51,80,0,1
210505,-68.9655172413793,7,3,51,40,0,1
210580,-68.9655172413793,7,3,51,80,0,1
210655,-68.9655172413793,7,3,51,40,0,1
210730,-68.9655172413793,7,3,51,80,0,1
210805,-68.9655172413793,7,3,51,40,0,1
210880,-68.9655172413793,7,3,51,80,0,1
210955,-68.9655172413793,7,3,51,40,0,1
211030,-68.9655172413793,7,3,51,80,0,1
211105,-68.9655172413793,7,3,51,40,0,1
211180,-68.9655172413793,7,3,75,80,0,1
211330,-68.9655172413793,7,3,51,80,0,1
211405,-68.9655172413793,7,3,51,40,0,1
211480,-68.9655172413793,7,3,51,80,0,1
211555,-68.9655172413793,7,3,51,40,0,1
211630,-68.9655172413793,7,3,51,80,0,1
211705,-68.9655172413793,7,3,51,40,0,1
211780,-68.9655172413793,7,3,51,80,0,1
211930,-68.9655172413793,7,3,51,40,0,1
212005,-68.9655172413793,7,3,51,80,0,1
212155,-68.9655172413793,7,3,51,40,0,1
212230,-68.9655172413793,7,3,51,80,0,1
212305,-68.9655172413793,7,3,51,40,0,1
212380,-68.9655172413793,7,3,51,80,0,1
212455,-68.9655172413793,7,3,51,40,0,1
212530,-68.9655172413793,7,3,51,80,0,1
212605,-68.9655172413793,7,3,51,40,0,1
212680,-68.9655172413793,7,3,75,80,0,1
212755,-68.9655172413793,7,3,75,40,0,1
212830,-68.9655172413793,7,3,51,80,0,1
212905,-68.9655172413793,7,3,75,40,0,1
212980,-68.9655172413793,7,3,75,80,0,1
213130,-68.9655172413793,7,3,51,80,0,1
213205,-68.9655172413793,7,3,75,80,0,1
213280,-68.9655172413793,7,3,51,80,0,1
213355,-68.9655172413793,7,3,51,40,0,1
213430,-68.9655172413793,7,3,75,80,0,1
213580,-68.9655172413793,7,3,51,80,0,1
213655,-68.9655172413793,7,3,51,40,0,1
213730,-68.9655172413793,7,3,51,80,0,1
213805,-68.9655172413793,7,3,51,40,0,1
213880,-68.9655172413793,7,3,51,80,0,1
213955,-68.9655172413793,7,3,51,40,0,1
214030,-68.9655172413793,7,3,51,80,0,1
214105,-68.9655172413793,7,3,51,40,0,1
214180,-68.9655172413793,7,3,75,80,0,1
214255,-68.9655172413793,7,3,75,40,0,1
214330,-68.9655172413793,7,3,51,80,0,1
214405,-68.9655172413793,7,3,51,40,0,1
214480,-68.9655172413793,7,3,51,80,0,1
214555,-68.9655172413793,7,3,51,40,0,1
214630,-68.9655172413793,7,3,75,80,0,1
214705,-68.9655172413793,7,3,75,40,0,1
214780,-68.9655172413793,7,3,51,80,0,1
215005,-68.9655172413793,7,3,51,40,0,1
215080,-68.9655172413793,7,3,51,80,0,1
215155,-68.9655172413793,7,3,51,40,0,1
215230,-68.9655172413793,7,3,51,80,0,1
215305,-68.9655172413793,7,3,51,40,0,1
215380,-68.9655172413793,7,3,75,80,0,1
215530,-68.9655172413793,7,3,51,80,0,1
215605,-68.9655172413793,7,3,51,40,0,1
215680,-68.9655172413793,7,3,51,80,0,1
215755,-68.9655172413793,7,3,51,40,0,1
215830,-68.9655172413793,7,3,75,80,0,1
215905,-68.9655172413793,7,3,75,40,0,1
215980,-68.9655172413793,7,3,51,80,0,1
216055,-68.9655172413793,7,3,51,40,0,1
216130,-68.9655172413793,7,3,51,80,0,1
216205,-68.9655172413793,7,3,51,40,0,1
216280,-68.9655172413793,7,3,51,80,0,1
216355,-68.9655172413793,7,3,51,40,0,1
216430,-68.9655172413793,7,3,75,80,0,1
216505,-68.9655172413793,7,3,75,40,0,1
216580,-68.9655172413793,7,3,51,80,0,1
216805,-68.9655172413793,7,3,75,80,0,1
216880,-68.9655172413793,7,3,51,80,0,1
216955,-68.9655172413793,7,3,51,40,0,1
217030,-68.9655172413793,7,3,51,80,0,1
217105,-68.9655172413793,7,3,51,40,0,1
217180,-68.9655172413793,7,3,51,80,0,1
217330,-68.9655172413793,7,1,69,80,0,1
217405,-68.9655172413793,7,3,51,40,0,1
217480,-68.9655172413793,7,3,75,80,0,1
217630,-68.9655172413793,7,3,51,80,0,1
217705,-68.9655172413793,7,3,51,40,0,1
217780,-68.9655172413793,7,3,51,80,0,1
217930,-68.9655172413793,7,3,75,80,0,1
218080,-68.9655172413793,7,3,51,80,0,1
218230,-68.9655172413793,7,3,75,80,0,1
218305,-68.9655172413793,7,3,75,40,0,1
218380,-68.9655172413793,7,3,51,80,0,1
218530,-68.9655172413793,7,3,51,40,0,1
218605,-68.9655172413793,7,3,51,80,0,1
218755,-68.9655172413793,7,3,51,40,0,1
218830,-68.9655172413793,7,3,51,80,0,1
218905,-68.9655172413793,7,3,51,40,0,1
218980,-68.9655172413793,7,3,51,60,0,1
219055,-68.9655172413793,7,3,51,80,0,1
219280,-68.9655172413793,7,3,51,80,0,1
219355,-68.9655172413793,7,3,51,40,0,1
219430,-68.9655172413793,7,3,51,80,0,1
219505,-68.9655172413793,7,3,51,40,0,1
219580,-68.9655172413793,7,3,75,60,0,0
219730,-68.9655172413793,7,3,51,5,0,0
219880,-68.9655172413793,7,3,51,80,0,1
219955,-68.9655172413793,7,3,51,40,0,1
220030,-68.9655172413793,7,3,51,80,0,1
220105,-68.9655172413793,7,3,51,40,0,1
220180,-68.9655172413793,7,3,51,80,0,1
220255,-68.9655172413793,7,3,51,40,0,1
220330,-68.9655172413793,7,3,51,80,0,1
220405,-68.9655172413793,7,3,51,40,0,1
220480,-68.9655172413793,7,3,51,80,0,1
220555,-68.9655172413793,7,3,51,40,0,1
220630,-68.9655172413793,7,3,51,80,0,1
220705,-68.9655172413793,7,3,51,40,0,1
220780,-68.9655172413793,7,3,75,80,0,1
220855,-68.9655172413793,7,3,75,40,0,1
220930,-68.9655172413793,7,3,51,80,0,1
221005,-68.9655172413793,7,3,51,40,0,1
221080,-68.9655172413793,7,3,51,80,0,1
221155,-68.9655172413793,7,3,51,40,0,1
221230,-68.9655172413793,7,3,51,80,0,1
221305,-68.9655172413793,7,3,51,40,0,1
221380,-68.9655172413793,7,3,51,80,0,1
221530,-68.9655172413793,7,3,51,40,0,1
221605,-68.9655172413793,7,3,51,80,0,1
221680,-68.9655172413793,7,3,51,40,0,1
221830,-68.9655172413793,7,3,51,80,0,1
221905,-68.9655172413793,7,3,51,40,0,1
221980,-68.9655172413793,7,3,51,80,0,1
222055,-68.9655172413793,7,3,51,40,0,1
222130,-68.9655172413793,7,3,51,80,0,1
222205,-68.9655172413793,7,3,51,40,0,1
222280,-68.9655172413793,7,3,75,80,0,1
222355,-68.9655172413793,7,3,75,40,0,1
222430,-68.9655172413793,7,3,51,80,0,1
222505,-68.9655172413793,7,3,51,40,0,1
222580,-68.9655172413793,7,3,75,80,0,1
222730,-68.9655172413793,7,3,51,80,0,1
222805,-68.9655172413793,7,3,75,80,0,1
222880,-68.9655172413793,7,3,51,80,0,1
222955,-68.9655172413793,7,3,51,40,0,1
223030,-68.9655172413793,7,3,75,80,0,1
223180,-68.9655172413793,7,3,51,80,0,1
223255,-68.9655172413793,7,3,51,40,0,1
223330,-68.9655172413793,7,3,51,80,0,1
223405,-68.9655172413793,7,3,51,40,0,1
223480,-68.9655172413793,7,3,51,80,0,1
223555,-68.9655172413793,7,3,51,40,0,1
223630,-68.9655172413793,7,3,51,80,0,1
223705,-68.9655172413793,7,3,51,40,0,1
223780,-68.9655172413793,7,3,75,80,0,1
223855,-68.9655172413793,7,3,51,40,0,1
223930,-68.9655172413793,7,3,51,80,0,1
224005,-68.9655172413793,7,3,51,40,0,1
224080,-68.9655172413793,7,3,75,80,0,1
224230,-68.9655172413793,7,3,51,80,0,1
224830,-68.9655172413793,7,3,51,80,0,1
224905,-68.9655172413793,7,3,51,40,0,1
224980,-68.9655172413793,7,3,51,80,0,1
225055,-68.9655172413793,7,3,51,40,0,1
225430,-68.9655172413793,7,3,51,80,0,1
225505,-68.9655172413793,7,3,51,40,0,1
225580,-68.9655172413793,7,3,51,80,0,1
225655,-68.9655172413793,7,3,51,40,0,1
226030,-68.9655172413793,7,3,51,80,0,1
226105,-68.9655172413793,7,3,51,40,0,1
226180,-68.9655172413793,7,3,51,80,0,1
226255,-68.9655172413793,7,3,51,40,0,1
226405,-68.9655172413793,7,3,51,80,0,1
226480,-68.9655172413793,7,3,51,40,0,1
226630,-68.9655172413793,7,3,51,80,0,1
226705,-68.9655172413793,7,3,51,40,0,1
226780,-68.9655172413793,7,3,51,80,0,1
226930,-68.9655172413793,7,3,68,80,0,1
227230,-68.9655172413793,7,3,51,80,0,1
227380,-68.9655172413793,7,3,68,80,0,1
227455,-68.9655172413793,7,3,68,40,0,1
227530,-68.9655172413793,7,3,51,80,0,1
227605,-68.9655172413793,7,3,51,40,0,1
227680,-68.9655172413793,7,3,68,80,0,1
227755,-68.9655172413793,7,3,68,40,0,1
227830,-68.9655172413793,7,3,51,80,0,1
227905,-68.9655172413793,7,3,68,40,0,1
227980,-68.9655172413793,7,3,51,80,0,1
228055,-68.9655172413793,7,3,51,40,0,1
228205,-68.9655172413793,7,3,51,80,0,1
228280,-68.9655172413793,7,3,51,40,0,1
228430,-68.9655172413793,7,3,51,80,0,1
228880,-100,7,3,51,40,0,0
229180,-68.9655172413793,7,3,51,80,0,1
229405,-68.9655172413793,7,3,51,40,0,1
229480,-68.9655172413793,7,3,51,80,0,1
229555,-68.9655172413793,7,3,51,40,0,1
229630,-68.9655172413793,7,3,51,80,0,1
229705,-68.9655172413793,7,3,51,40,0,1
229780,-68.9655172413793,7,3,51,80,0,1
229855,-68.9655172413793,7,3,51,40,0,1
229930,-68.9655172413793,7,3,51,80,0,1
230005,-68.9655172413793,7,3,51,40,0,1
230080,-68.9655172413793,7,3,51,80,0,1
230155,-68.9655172413793,7,3,51,40,0,1
230230,-68.9655172413793,7,3,51,80,0,1
230305,-68.9655172413793,7,3,51,40,0,1
230380,-68.9655172413793,7,3,75,80,0,1
230530,-68.9655172413793,7,3,51,80,0,1
230605,-68.9655172413793,7,3,51,40,0,1
230680,-68.9655172413793,7,3,51,80,0,1
230755,-68.9655172413793,7,3,51,40,0,1
230830,-68.9655172413793,7,3,51,80,0,1
230905,-68.9655172413793,7,3,51,40,0,1
230980,-68.9655172413793,7,3,51,80,0,1
231055,-68.9655172413793,7,3,51,40,0,1
231130,-68.9655172413793,7,3,51,80,0,1
231205,-68.9655172413793,7,3,51,40,0,1
231280,-68.9655172413793,7,3,51,80,0,1
231355,-68.9655172413793,7,3,51,40,0,1
231430,-68.9655172413793,7,3,51,80,0,1
231505,-68.9655172413793,7,3,51,40,0,1
231580,-68.9655172413793,7,3,51,80,0,1
231730,-68.9655172413793,7,1,69,80,0,1
231805,-68.9655172413793,7,3,51,40,0,1
231880,-68.9655172413793,7,3,75,80,0,1
232030,-68.9655172413793,7,1,69,80,0,1
232105,-68.9655172413793,7,3,51,40,0,1
232180,-68.9655172413793,7,3,75,80,0,1
232330,-68.9655172413793,7,3,51,80,0,1
232405,-68.9655172413793,7,3,75,80,0,1
232480,-68.9655172413793,7,3,51,80,0,1
232630,-68.9655172413793,7,3,75,80,0,1
232780,-68.9655172413793,7,3,51,80,0,1
232855,-68.9655172413793,7,3,51,40,0,1
232930,-68.9655172413793,7,3,51,80,0,1
233005,-68.9655172413793,7,3,51,40,0,1
233080,-68.9655172413793,7,3,51,80,0,1
233155,-68.9655172413793,7,3,51,40,0,1
233230,-68.9655172413793,7,3,51,80,0,1
233305,-68.9655172413793,7,3,51,40,0,1
233380,-68.9655172413793,7,3,75,80,0,1
233455,-68.9655172413793,7,3,75,40,0,1
233530,-68.9655172413793,7,3,51,80,0,1
233605,-68.9655172413793,7,3,51,40,0,1
233680,-68.9655172413793,7,3,51,80,0,1
233755,-68.9655172413793,7,3,51,40,0,1
233830,-68.9655172413793,7,3,75,80,0,1
233980,-68.9655172413793,7,3,51,80,0,1
234205,-68.9655172413793,7,3,51,40,0,1
234280,-68.9655172413793,7,3,51,80,0,1
234355,-68.9655172413793,7,3,51,40,0,1
234430,-68.9655172413793,7,3,51,80,0,1
234505,-68.9655172413793,7,3,51,40,0,1
234580,-68.9655172413793,7,3,75,80,0,1
234730,-68.9655172413793,7,3,51,80,0,1
234805,-68.9655172413793,7,3,51,40,0,1
234880,-68.9655172413793,7,3,51,80,0,1
234955,-68.9655172413793,7,3,51,40,0,1
235030,-68.9655172413793,7,3,51,80,0,1
235105,-68.9655172413793,7,3,51,40,0,1
235180,-68.9655172413793,7,3,51,80,0,1
235255,-68.9655172413793,7,3,51,40,0,1
235330,-68.9655172413793,7,3,51,80,0,1
235405,-68.9655172413793,7,3,51,40,0,1
235480,-68.9655172413793,7,3,51,80,0,1
235555,-68.9655172413793,7,3,51,40,0,1
235630,-68.9655172413793,7,3,75,80,0,1
235705,-68.9655172413793,7,3,75,40,0,1
235780,-68.9655172413793,7,3,51,80,0,1
235930,-68.9655172413793,7,3,51,40,0,1
236005,-68.9655172413793,7,3,75,80,0,1
236155,-68.9655172413793,7,3,51,80,0,1
236230,-68.9655172413793,7,3,51,80,0,1
236305,-68.9655172413793,7,3,51,40,0,1
236380,-68.9655172413793,7,3,75,80,0,1
236680,-68.9655172413793,7,3,51,80,0,1
236830,-68.9655172413793,7,3,75,80,0,1
237130,-68.9655172413793,7,3,51,80,0,1
237580,-68.9655172413793,7,3,75,80,0,1
237730,-68.9655172413793,7,3,51,80,0,1
237805,-68.9655172413793,7,3,51,40,0,1
237880,-68.9655172413793,7,3,75,80,0,1
237955,-68.9655172413793,7,3,75,40,0,1
238030,-68.9655172413793,7,3,51,80,0,1
238180,-68.9655172413793,7,3,75,80,0,1
238255,-68.9655172413793,7,3,51,40,0,1
238330,-68.9655172413793,7,3,51,80,0,1
238405,-68.9655172413793,7,3,51,40,0,1
238480,-68.9655172413793,7,3,75,80,0,1
238555,-68.9655172413793,7,3,51,40,0,1
238630,-68.9655172413793,7,3,51,80,0,1
238705,-68.9655172413793,7,3,51,40,0,1
238780,-68.9655172413793,7,3,75,60,0,0
238930,-68.9655172413793,7,3,51,5,0,0
239080,-68.9655172413793,7,3,51,80,0,1
239155,-68.9655172413793,7,3,51,40,0,1
239230,-68.9655172413793,7,3,51,80,0,1
239305,-68.9655172413793,7,3,51,40,0,1
239380,-68.9655172413793,7,3,51,80,0,1
239455,-68.9655172413793,7,3,51,40,0,1
239530,-68.9655172413793,7,3,51,80,0,1
239605,-68.9655172413793,7,3,51,40,0,1
239680,-68.9655172413793,7,3,51,80,0,1
239755,-68.9655172413793,7,3,51,40,0,1
239830,-68.9655172413793,7,3,51,80,0,1
239905,-68.9655172413793,7,3,51,40,0,1
239980,-68.9655172413793,7,3,75,80,0,1
240055,-68.9655172413793,7,3,75,40,0,1
240130,-68.9655172413793,7,3,51,80,0,1
240205,-68.9655172413793,7,3,51,40,0,1
240280,-68.9655172413793,7,3,51,80,0,1
240355,-68.9655172413793,7,3,51,40,0,1
240430,-68.9655172413793,7,3,51,80,0,1
240505,-68.9655172413793,7,3,51,40,0,1
240580,-68.9655172413793,7,3,51,80,0,1
240655,-68.9655172413793,7,3,51,40,0,1
240730,-68.9655172413793,7,3,51,80,0,1
240805,-68.9655172413793,7,3,51,40,0,1
240880,-68.9655172413793,7,3,51,80,0,1
240955,-68.9655172413793,7,3,51,40,0,1
241030,-68.9655172413793,7,3,51,80,0,1
241105,-68.9655172413793,7,3,51,40,0,1
241180,-68.9655172413793,7,3,51,80,0,1
241255,-68.9655172413793,7,3,51,40,0,1
241330,-68.9655172413793,7,3,51,80,0,1
241405,-68.9655172413793,7,3,51,40,0,1
241480,-68.9655172413793,7,3,75,80,0,1
241555,-68.9655172413793,7,3,51,40,0,1
241630,-68.9655172413793,7,3,51,80,0,1
241705,-68.9655172413793,7,3,51,40,0,1
241780,-68.9655172413793,7,3,75,80,0,1
241930,-68.9655172413793,7,3,51,80,0,1
242005,-68.9655172413793,7,3,75,80,0,1
242080,-68.9655172413793,7,3,51,80,0,1
242230,-68.9655172413793,7,3,75,80,0,1
242380,-68.9655172413793,7,3,51,80,0,1
242455,-68.9655172413793,7,3,51,40,0,1
242530,-68.9655172413793,7,3,51,80,0,1
242605,-68.9655172413793,7,3,51,40,0,1
242680,-68.9655172413793,7,3,51,80,0,1
242755,-68.9655172413793,7,3,51,40,0,1
242830,-68.9655172413793,7,3,51,80,0,1
242905,-68.9655172413793,7,3,51,40,0,1
242980,-68.9655172413793,7,3,75,80,0,1
243055,-68.9655172413793,7,3,51,40,0,1
243130,-68.9655172413793,7,3,51,80,0,1
243205,-68.9655172413793,7,3,51,40,0,1
243280,-68.9655172413793,7,3,51,80,0,1
243355,-68.9655172413793,7,3,51,40,0,1
243430,-68.9655172413793,7,3,75,80,0,1
243505,-68.9655172413793,7,3,75,40,0,1
243580,-68.9655172413793,7,3,51,80,0,1
243655,-68.9655172413793,7,3,51,40,0,1
243880,-68.9655172413793,7,3,51,80,0,1
243955,-68.9655172413793,7,3,51,40,0,1
244030,-68.9655172413793,7,3,51,80,0,1
244105,-68.9655172413793,7,3,51,40,0,1
244180,-68.9655172413793,7,3,51,80,0,1
244255,-68.9655172413793,7,3,51,40,0,1
244480,-68.9655172413793,7,3,51,80,0,1
244555,-68.9655172413793,7,3,51,40,0,1
244780,-68.9655172413793,7,3,51,80,0,1
244855,-68.9655172413793,7,3,51,40,0,1
245080,-68.9655172413793,7,3,51,80,0,1
245155,-68.9655172413793,7,3,51,40,0,1
245230,-68.9655172413793,7,3,51,80,0,1
245305,-68.9655172413793,7,3,51,40,0,1
245380,-68.9655172413793,7,3,51,80,0,1
245455,-68.9655172413793,7,3,51,40,0,1
245680,-68.9655172413793,7,3,51,80,0,1
245755,-68.9655172413793,7,3,51,40,0,1
245980,-68.9655172413793,7,3,51,80,0,1
246130,-68.9655172413793,7,3,68,80,0,1
246430,-68.9655172413793,7,3,51,80,0,1
246580,-68.9655172413793,7,3,68,80,0,1
246655,-68.9655172413793,7,3,68,40,0,1
246730,-68.9655172413793,7,3,51,80,0,1
246805,-68.9655172413793,7,3,51,40,0,1
246880,-68.9655172413793,7,3,68,80,0,1
246955,-68.9655172413793,7,3,68,40,0,1
247030,-68.9655172413793,7,3,51,80,0,1
247105,-68.9655172413793,7,3,51,40,0,1
247180,-68.9655172413793,7,3,51,70,0,1
247480,-68.9655172413793,7,3,51,10,0,1
247630,-68.9655172413793,7,3,67,40,0,1
247780,-68.9655172413793,7,3,51,40,0,1
247930,-68.9655172413793,7,3,51,10,0,1
248080,-68.9655172413793,7,3,51,40,0,1
248380,-100,7,3,75,80,0,0
248398,-100,7,3,75,5,0,0
248680,-40,7,3,51,80,0,1
248830,-40,7,1,69,80,0,1
248980,-68.9655172413793,7,3,51,80,0,1
249030,-68.9655172413793,7,3,51,40,0,1
249130,-68.9655172413793,7,3,51,80,0,1
249180,-68.9655172413793,7,3,51,40,0,1
249280,-68.9655172413793,7,3,51,80,0,1
249298,-68.9655172413793,7,3,51,20,0,1
249430,-68.9655172413793,7,3,51,80,0,1
249448,-68.9655172413793,7,3,51,20,0,1
249580,-68.9655172413793,7,3,51,80,0,1
249598,-68.9655172413793,7,3,51,5,0,1
249880,-68.9655172413793,7,3,52,80,0,1
249898,-68.9655172413793,7,3,52,5,0,1
250030,-68.9655172413793,7,3,52,80,0,1
250048,-68.9655172413793,7,3,52,5,0,1
250180,-40,7,3,75,80,0,1
250330,-40,7,1,69,80,0,1
250405,-40,7,3,51,5,0,1
250480,-40,7,3,75,80,0,1
250630,-40,7,1,69,80,0,1
250705,-40,7,3,51,5,0,1
250780,-68.9655172413793,7,3,75,60,0,1
250798,-68.9655172413793,7,3,51,5,0,1
250930,-68.9655172413793,7,3,51,80,0,1
250948,-68.9655172413793,7,3,51,5,0,1
251080,-40,7,3,51,80,0,1
251230,-40,7,1,69,80,0,1
251380,-68.9655172413793,7,3,51,80,0,1
251455,-68.9655172413793,7,3,51,40,0,1
251530,-68.9655172413793,7,3,51,80,0,1
251605,-68.9655172413793,7,3,51,40,0,1
251680,-68.9655172413793,7,3,74,60,0,1
251830,-68.9655172413793,7,1,69,80,0,1
251905,-68.9655172413793,7,3,51,5,0,1
251980,-68.9655172413793,7,3,51,80,0,1
252130,-68.9655172413793,7,1,69,80,0,1
252205,-68.9655172413793,7,3,51,5,0,1
252280,-68.9655172413793,7,3,51,80,0,1
252355,-68.9655172413793,7,3,51,40,0,1
252430,-68.9655172413793,7,3,51,80,0,1
252505,-68.9655172413793,7,3,51,40,0,1
252580,-68.9655172413793,7,3,75,80,0,1
252730,-68.9655172413793,7,1,69,80,0,1
252805,-68.9655172413793,7,3,75,80,0,1
252880,-68.9655172413793,7,3,51,80,0,1
253030,-68.9655172413793,7,3,75,80,0,1
253180,-68.9655172413793,7,3,51,80,0,1
253198,-68.9655172413793,7,3,51,5,0,1
253480,-68.9655172413793,7,3,51,80,0,1
253530,-68.9655172413793,7,3,51,40,0,1
253630,-68.9655172413793,7,3,51,80,0,1
253680,-68.9655172413793,7,3,51,40,0,1
253780,-40,7,3,73,80,0,1
253930,-40,7,3,51,80,0,1
254080,-40,7,3,74,60,0,1
254098,-40,7,3,51,80,0,1
254230,-40,7,1,69,80,0,1
254380,-68.9655172413793,7,3,73,80,0,1
254398,-68.9655172413793,7,3,51,5,0,1
254680,-68.9655172413793,7,3,51,80,0,1
254698,-68.9655172413793,7,3,51,5,0,1
254830,-68.9655172413793,7,3,51,80,0,1
254848,-68.9655172413793,7,3,51,5,0,1
254980,-68.9655172413793,7,3,51,80,0,1
254998,-68.9655172413793,7,3,51,5,0,1
255130,-68.9655172413793,7,3,51,80,0,1
255148,-68.9655172413793,7,3,51,5,0,1
255280,-68.9655172413793,7,3,51,80,0,1
255298,-68.9655172413793,7,3,51,5,0,1
255430,-68.9655172413793,7,3,51,80,0,1
255448,-68.9655172413793,7,3,51,5,0,1
255580,-68.9655172413793,7,3,73,80,0,1
255598,-68.9655172413793,7,3,51,5,0,1
255730,-68.9655172413793,7,3,51,80,0,1
255748,-68.9655172413793,7,3,51,5,0,1
255880,-68.9655172413793,7,3,52,80,0,1
255898,-68.9655172413793,7,3,52,5,0,1
256030,-68.9655172413793,7,3,52,80,0,1
256048,-68.9655172413793,7,3,52,5,0,1
256180,-68.9655172413793,7,3,73,80,0,1
256198,-68.9655172413793,7,3,51,5,0,1
256330,-68.9655172413793,7,3,51,80,0,1
256348,-68.9655172413793,7,3,51,5,0,1
256480,-40,7,3,73,80,0,1
256498,-40,7,3,51,5,0,1
256630,-68.9655172413793,7,3,51,80,0,1
256648,-68.9655172413793,7,3,51,5,0,1
256780,-68.9655172413793,7,3,51,80,0,1
256930,-68.9655172413793,7,1,69,80,0,1
257005,-68.9655172413793,7,3,51,5,0,1
257080,-68.9655172413793,7,3,51,80,0,1
257230,-68.9655172413793,7,1,69,80,0,1
257305,-68.9655172413793,7,3,51,5,0,1
257380,-68.9655172413793,7,3,51,80,0,1
257530,-68.9655172413793,7,1,69,80,0,1
257605,-68.9655172413793,7,3,51,5,0,1
257680,-68.9655172413793,7,3,51,80,0,1
257830,-68.9655172413793,7,1,69,80,0,1
257905,-68.9655172413793,7,3,51,5,0,1
257980,-68.9655172413793,7,3,75,60,0,0
257998,-68.9655172413793,7,3,75,5,0,0
258280,-40,7,3,51,80,0,1
258430,-40,7,1,69,80,0,1
258580,-68.9655172413793,7,3,51,80,0,1
258630,-68.9655172413793,7,3,51,40,0,1
258730,-68.9655172413793,7,3,51,80,0,1
258780,-68.9655172413793,7,3,51,40,0,1
258880,-68.9655172413793,7,3,51,80,0,1
258898,-68.9655172413793,7,3,51,5,0,1
259030,-68.9655172413793,7,3,51,80,0,1
259048,-68.9655172413793,7,3,51,5,0,1
259180,-40,7,3,51,80,0,1
259480,-40,7,3,52,80,0,1
259498,-40,7,3,52,5,0,1
259630,-40,7,3,52,80,0,1
259648,-40,7,3,52,5,0,1
259780,-40,7,3,75,80,0,1
259930,-40,7,1,69,80,0,1
260005,-40,7,3,51,5,0,1
260080,-40,7,3,75,80,0,1
260230,-40,7,1,69,80,0,1
260380,-40,7,3,75,60,0,1
260398,-40,7,3,51,5,0,1
260530,-40,7,3,51,80,0,1
260548,-40,7,3,51,5,0,1
260680,-40,7,3,51,80,0,1
260698,-40,7,3,51,5,0,1
260830,-40,7,3,51,80,0,1
260848,-40,7,3,51,5,0,1
260980,-68.9655172413793,7,3,73,80,0,1
261055,-68.9655172413793,7,3,51,40,0,1
261130,-68.9655172413793,7,3,51,80,0,1
261205,-68.9655172413793,7,3,51,40,0,1
261280,-68.9655172413793,7,3,74,60,0,1
261298,-68.9655172413793,7,3,51,80,0,1
261580,-68.9655172413793,7,3,73,80,0,1
261730,-68.9655172413793,7,3,51,80,0,1
261955,-68.9655172413793,7,3,51,5,0,1
262030,-68.9655172413793,7,3,51,80,0,1
262105,-68.9655172413793,7,3,51,5,0,1
262180,-68.9655172413793,7,3,75,80,0,1
262330,-68.9655172413793,7,1,69,80,0,1
262405,-68.9655172413793,7,3,75,80,0,1
262480,-68.9655172413793,7,3,51,80,0,1
262630,-68.9655172413793,7,3,75,80,0,1
262780,-68.9655172413793,7,3,51,80,0,1
262798,-68.9655172413793,7,3,51,5,0,1
263080,-68.9655172413793,7,3,51,80,0,1
263098,-68.9655172413793,7,3,51,5,0,1
263230,-68.9655172413793,7,3,51,80,0,1
263305,-68.9655172413793,7,3,51,5,0,1
263380,-68.9655172413793,7,3,51,80,0,1
263605,-68.9655172413793,7,3,51,5,0,1
263680,-68.9655172413793,7,3,51,80,0,1
263905,-68.9655172413793,7,3,51,5,0,1
263980,-68.9655172413793,7,3,51,80,0,1
264055,-68.9655172413793,7,3,51,5,0,1
264130,-68.9655172413793,7,3,51,40,0,1
264205,-68.9655172413793,7,3,51,5,0,1
264280,-68.9655172413793,7,3,51,80,0,1
264355,-68.9655172413793,7,3,51,5,0,1
264430,-68.9655172413793,7,3,51,80,0,1
264505,-68.9655172413793,7,3,51,5,0,1
264580,-68.9655172413793,7,3,51,80,0,1
264655,-68.9655172413793,7,3,51,5,0,1
264730,-68.9655172413793,7,3,51,40,0,1
264805,-68.9655172413793,7,3,51,5,0,1
264880,-68.9655172413793,7,3,51,80,0,1
264955,-68.9655172413793,7,3,51,5,0,1
265030,-68.9655172413793,7,3,51,40,0,1
265180,-68.9655172413793,7,3,51,80,0,1
265405,-68.9655172413793,7,3,51,5,0,1
265480,-68.9655172413793,7,3,51,40,0,1
265555,-68.9655172413793,7,3,51,5,0,1
265630,-68.9655172413793,7,3,51,80,0,1
265705,-68.9655172413793,7,3,51,5,0,1
265780,-68.9655172413793,7,3,51,80,0,1
265855,-68.9655172413793,7,3,51,5,0,1
265930,-68.9655172413793,7,3,68,80,0,1
266380,-100,7,3,51,80,0,0
266830,-100,7,3,51,40,0,0
267580,-100,7,3,51,40,0,1
267730,-100,7,3,67,20,0,0
268030,-100,7,3,51,20,0,0
268330,-100,7,3,67,20,0,0
268630,-100,7,3,51,20,0,0
268780,-100,7,3,51,20,0,0
268930,-100,7,3,67,20,0,0
269230,-100,7,3,51,20,0,0
269380,-100,7,3,51,38,0,0
269530,-100,7,3,67,20,0,0
269830,-100,7,3,51,20,0,0
269980,-100,7,3,51,35,0,0
270130,-100,7,3,67,20,0,0
271030,-100,7,3,51,20,0,0
271180,-123.456790123457,7,3,51,32,0,0
271330,-123.456790123457,7,3,67,20,0,0
271630,-123.456790123457,7,3,51,20,0,0
271780,-123.456790123457,7,3,51,30,0,0
271930,-123.456790123457,7,3,67,20,0,0
272230,-123.456790123457,7,3,51,20,0,0
272380,-156.25,7,3,51,28,0,0
272530,-156.25,7,3,67,20,0,0
273430,-156.25,7,3,51,20,0,0
273730,-156.25,7,3,67,20,0,0
274030,-156.25,7,3,51,20,0,0
274180,-156.25,7,3,51,25,0,0
274330,-156.25,7,3,67,20,0,0
274630,-156.25,7,3,51,20,0,0
274780,-156.25,7,3,51,22,0,0
274930,-156.25,7,3,67,20,0,0
275830,-156.25,7,3,51,20,0,0
275980,-100,7,3,51,20,0,0
276130,-100,7,3,67,22,0,0
276280,-100,7,3,67,25,0,0
276430,-100,7,3,51,28,0,0
276580,-66.6666666666667,7,3,51,30,0,0
276730,-66.6666666666667,7,3,51,20,0,0
277180,-100,7,3,51,30,0,0
284530,-100,7,3,65,30,0,0

[Colours]
Combo1 : 254,183,95
Combo2 : 255,255,94
Combo3 : 140,181,208
Combo4 : 169,171,180

[HitObjects]
68,200,7780,6,0,B|68:52|68:52|68:348|68:348|216:348,1,591.359981953126,2|2,2:0|2:0,0:0:0:0:
296,316,8530,5,0,0:0:0:0:
332,236,8680,1,0,0:0:0:0:
296,156,8830,1,0,0:0:0:0:
216,124,8980,1,0,0:0:0:0:
180,204,9130,1,0,0:0:0:0:
216,284,9280,1,0,0:0:0:0:
296,316,9430,1,0,0:0:0:0:
444,228,9580,5,2,2:0:0:0:
480,148,9730,1,0,0:0:0:0:
444,68,9880,1,0,0:0:0:0:
364,36,10030,1,0,0:0:0:0:
444,132,10180,1,0,0:0:0:0:
364,100,10330,1,0,0:0:0:0:
284,68,10480,1,0,0:0:0:0:
364,36,10630,1,0,0:0:0:0:
216,212,10780,6,0,L|212:124,1,88,2|0,2:0|0:0,0:0:0:0:
64,300,11080,2,0,L|60:212,1,88,2|0,2:0|0:0,0:0:0:0:
212,124,11380,1,2,2:0:0:0:
60,36,11530,2,0,L|148:32,1,88,2|0,2:0|0:0,0:0:0:0:
296,120,11830,5,2,2:0:0:0:
216,152,11980,1,0,0:0:0:0:
180,232,12130,1,0,0:0:0:0:
216,312,12280,1,0,0:0:0:0:
296,344,12430,1,0,0:0:0:0:
444,256,12580,2,0,L|356:252,1,88,2|0,2:0|0:0,0:0:0:0:
208,164,12880,2,0,L|120:160,1,88,2|0,2:0|0:0,0:0:0:0:
268,72,13180,5,2,2:0:0:0:
304,152,13330,1,0,0:0:0:0:
268,232,13480,1,0,0:0:0:0:
188,264,13630,1,0,0:0:0:0:
40,176,13780,2,0,L|36:88,1,88,0|0,0:0|0:0,0:0:0:0:
184,352,14080,2,0,L|188:264,1,88,0|0,0:0|0:0,0:0:0:0:
336,0,14380,5,2,2:0:0:0:
256,32,14530,1,0,0:0:0:0:
220,112,14680,1,0,0:0:0:0:
256,192,14830,1,0,0:0:0:0:
404,280,14980,2,0,L|408:192,1,88,0|0,0:0|0:0,0:0:0:0:
260,368,15280,2,0,L|256:280,1,88,0|0,0:0|0:0,0:0:0:0:
404,104,15580,6,0,L|492:108,2,88,2|0|0,2:0|0:0|0:0,0:0:0:0:
256,192,16030,2,0,L|344:196,2,88,2|0|0,2:0|0:0|0:0,0:0:0:0:
108,368,16480,2,0,L|104:280,1,88,2|0,2:0|0:0,0:0:0:0:
252,16,16780,5,2,2:0:0:0:
288,96,16930,1,0,0:0:0:0:
252,176,17080,1,0,0:0:0:0:
172,208,17230,1,0,0:0:0:0:
320,120,17380,1,2,2:0:0:0:
240,152,17530,1,0,0:0:0:0:
204,232,17680,1,0,0:0:0:0:
240,312,17830,1,0,0:0:0:0:
464,224,17980,5,6,2:0:0:0:
468,136,18130,1,0,0:0:0:0:
472,48,18280,1,0,0:0:0:0:
476,136,18430,1,0,0:0:0:0:
480,224,18580,1,0,0:0:0:0:
484,312,18730,1,0,0:0:0:0:
488,224,18880,1,0,0:0:0:0:
492,136,19030,1,0,0:0:0:0:
344,48,19180,5,2,2:0:0:0:
340,136,19330,1,0,0:0:0:0:
336,224,19480,1,0,0:0:0:0:
332,312,19630,1,0,0:0:0:0:
328,224,19780,1,0,0:0:0:0:
324,136,19930,1,0,0:0:0:0:
320,48,20080,1,0,0:0:0:0:
316,136,20230,1,0,0:0:0:0:
168,224,20380,6,0,L|164:136,1,88,2|0,2:0|0:0,0:0:0:0:
312,312,20680,2,0,L|316:224,1,88,2|0,2:0|0:0,0:0:0:0:
168,312,20980,1,2,2:0:0:0:
316,48,21130,2,0,L|404:52,1,88,2|0,2:0|0:0,0:0:0:0:
256,140,21430,5,2,2:0:0:0:
336,172,21580,1,0,0:0:0:0:
372,252,21730,1,0,0:0:0:0:
336,332,21880,1,0,0:0:0:0:
256,364,22030,1,0,0:0:0:0:
108,276,22180,2,0,L|196:272,1,88,2|0,2:0|0:0,0:0:0:0:
344,184,22480,2,0,L|256:180,1,88,2|0,2:0|0:0,0:0:0:0:
40,92,22780,6,0,L|36:4,1,88,10|0,0:1|0:0,0:0:0:0:
184,180,23080,2,0,L|184:92,1,88,2|0,0:0|0:0,0:0:0:0:
332,268,23380,2,0,L|332:180,1,88,2|0,0:0|0:0,0:0:0:0:
480,356,23680,2,0,L|484:268,1,88,2|0,0:0|0:0,0:0:0:0:
188,356,23980,6,0,L|184:268,1,88,2|0,0:1|0:0,0:0:0:0:
400,268,24280,2,0,L|404:180,1,88,8|0,0:1|0:0,0:0:0:0:
256,180,24580,2,0,L|256:92,1,88,2|0,0:0|0:0,0:0:0:0:
108,92,24880,2,0,L|104:4,1,88,8|0,0:1|0:0,0:0:0:0:
400,92,25180,6,0,L|312:88,2,88,10|0|0,0:1|0:0|0:0,0:0:0:0:
184,268,25630,1,10,0:1:0:0:
272,264,25780,2,0,L|276:176,1,88,0|0,0:0|0:0,0:0:0:0:
60,352,26080,2,0,L|56:264,1,88,10|0,0:1|0:0,0:0:0:0:
352,88,26380,5,2,0:0:0:0:
404,92,26455,1,0,0:0:0:0:
256,136,26530,1,8,0:1:0:0:
204,140,26605,1,0,0:0:0:0:
256,184,26680,1,2,0:0:0:0:
308,188,26755,1,0,0:0:0:0:
160,232,26830,1,8,0:1:0:0:
108,236,26905,1,0,0:0:0:0:
256,280,26980,6,0,P|360:196|256:108,1,308,4|0,0:0|0:0,0:0:0:0:
91,142,27580,6,0,B|294:130|294:130|338:362,1,440,4|0,0:0|0:0,0:0:0:0:
117,304,28030,2,0,B|348:268|348:268|219:47,1,440,4|0,0:0|0:0,0:0:0:0:
463,79,28480,2,0,L|455:321,1,220,4|0,0:0|0:0,0:0:0:0:
126,351,28780,6,0,P|67:31|162:376,1,1540,2|0,2:0|0:0,0:0:0:0:
406,311,29980,6,0,B|154:270|154:270|120:68,1,440,4|2,0:0|2:0,0:0:0:0:
347,308,30430,2,0,B|351:180|351:180|18:148,1,440,4|2,0:0|2:0,0:0:0:0:
260,72,30880,6,0,P|374:152|82:106,1,1100,4|0,0:0|0:0,0:0:0:0:
341,130,31780,6,0,L|347:226,1,88,2|0,2:0|0:0,0:0:0:0:
199,322,32080,2,0,L|187:228,1,88,2|0,2:0|0:0,0:0:0:0:
408,219,32380,6,0,B|173:201|173:201|291:14,1,440,4|0,0:0|0:0,0:0:0:0:
62,305,32830,2,0,B|360:290|360:290|357:93,1,440,4|0,0:0|0:0,0:0:0:0:
137,58,33280,2,0,L|48:259,1,220,4|0,0:0|0:0,0:0:0:0:
318,62,33580,6,0,L|335:355,1,264,2|0,2:0|0:0,0:0:0:0:
112,336,34180,2,0,L|97:30,1,264,2|0,2:0|0:0,0:0:0:0:
387,158,34780,6,0,B|171:177|171:177|301:371,1,440,4|0,0:0|0:0,0:0:0:0:
76,109,35230,2,0,B|292:128|292:128|162:322,1,440,4|0,0:0|0:0,0:0:0:0:
377,174,35680,2,0,L|217:377,1,220,4|0,0:0|0:0,0:0:0:0:
475,341,35980,6,0,B|371:144|371:144|153:144|153:144|55:339,1,660,4|0,0:0|0:0,0:0:0:0:
256,57,36580,2,0,P|300:193|70:290,1,443.519986464844,2|0,2:0|0:0,0:0:0:0:
336,172,37180,5,4,0:0:0:0:
124,172,37330,2,0,L|120:84,1,88,2|0,2:0|0:0,0:0:0:0:
260,172,37630,2,0,L|256:84,1,88,2|0,2:0|0:0,0:0:0:0:
396,172,37930,2,0,L|392:84,1,88,2|0,2:0|0:0,0:0:0:0:
260,172,38230,1,2,2:0:0:0:
396,172,38380,5,2,0:0:0:0:
188,172,38530,2,0,L|184:84,1,88,2|0,2:0|0:0,0:0:0:0:
324,172,38830,2,0,L|328:84,1,88,2|0,2:0|0:0,0:0:0:0:
188,172,39130,2,0,L|184:84,1,88,2|0,2:0|0:0,0:0:0:0:
324,172,39430,1,2,2:0:0:0:
184,84,39580,5,2,0:0:0:0:
392,172,39730,2,0,L|304:172,1,88,2|0,2:0|0:0,0:0:0:0:
164,84,40030,2,0,L|76:84,1,88,2|0,2:0|0:0,0:0:0:0:
216,172,40330,2,0,L|304:172,1,88,2|0,2:0|0:0,0:0:0:0:
164,84,40630,1,2,2:0:0:0:
304,172,40780,5,2,0:0:0:0:
96,172,40930,2,0,L|184:172,1,88,2|0,2:0|0:0,0:0:0:0:
324,84,41230,2,0,L|412:84,1,88,2|0,2:0|0:0,0:0:0:0:
272,172,41530,2,0,L|228:172,1,44,2|0,0:0|0:0,0:0:0:0:
412,172,41680,1,8,0:1:0:0:
60,132,41980,5,2,0:0:0:0:
308,132,42130,2,0,L|396:132,1,88,2|2,2:0|0:0,0:0:0:0:
256,132,42430,2,0,L|348:132,1,88,2|2,2:0|0:0,0:0:0:0:
204,132,42730,2,0,L|92:132,1,88,2|2,2:0|0:0,0:0:0:0:
256,132,43030,1,2,2:0:0:0:
48,132,43180,5,2,0:0:0:0:
256,132,43330,2,0,L|344:132,1,88,2|2,2:0|0:0,0:0:0:0:
204,132,43630,2,0,L|292:132,1,88,2|2,2:0|0:0,0:0:0:0:
432,132,43930,2,0,L|344:132,1,88,2|2,2:0|0:0,0:0:0:0:
204,132,44230,1,2,2:0:0:0:
412,132,44380,5,2,0:0:0:0:
204,132,44530,2,0,L|116:132,1,88,2|2,2:0|0:0,0:0:0:0:
256,132,44830,2,0,L|260:220,1,88,2|2,2:0|0:0,0:0:0:0:
400,220,45130,2,0,L|488:220,1,88,2|2,2:0|0:0,0:0:0:0:
348,220,45430,1,2,2:0:0:0:
140,220,45580,5,2,0:0:0:0:
348,220,45730,2,0,L|260:220,1,88,2|2,2:0|0:0,0:0:0:0:
120,220,46030,2,0,L|32:220,1,88,2|2,2:0|0:0,0:0:0:0:
172,220,46330,1,2,2:0:0:0:
436,312,46480,6,0,B|436:104|436:104|228:104,1,415.359985422852,8|4,0:1|0:0,0:0:0:0:
284,104,46855,1,0,0:0:0:0:
112,216,46930,5,8,0:1:0:0:
60,216,47005,1,0,0:0:0:0:
60,216,47080,1,2,0:0:0:0:
112,216,47155,1,0,0:0:0:0:
288,216,47230,1,8,0:1:0:0:
340,204,47305,1,0,0:0:0:0:
372,164,47380,1,2,0:0:0:0:
376,112,47455,1,0,0:0:0:0:
200,112,47530,5,8,0:1:0:0:
148,100,47605,1,0,0:0:0:0:
116,60,47680,1,2,0:0:0:0:
112,8,47755,1,0,0:0:0:0:
288,8,47830,1,8,0:1:0:0:
340,8,47905,1,0,0:0:0:0:
340,8,47980,1,2,0:0:0:0:
288,8,48055,1,0,0:0:0:0:
112,164,48130,5,8,0:1:0:0:
164,164,48205,1,0,0:0:0:0:
216,164,48280,1,2,0:0:0:0:
268,164,48355,1,0,0:0:0:0:
92,312,48430,1,8,0:1:0:0:
40,312,48505,1,0,0:0:0:0:
92,312,48580,1,2,0:0:0:0:
40,312,48655,1,0,0:0:0:0:
216,240,48730,5,8,0:1:0:0:
268,240,48805,1,0,0:0:0:0:
216,240,48880,1,2,0:0:0:0:
164,240,48955,1,0,0:0:0:0:
340,164,49030,1,8,0:1:0:0:
392,164,49105,1,0,0:0:0:0:
216,112,49180,5,2,0:0:0:0:
172,128,49230,1,0,0:0:0:0:
156,164,49280,1,0,0:0:0:0:
156,164,49330,1,8,0:1:0:0:
172,128,49380,1,0,0:0:0:0:
216,112,49430,1,0,0:0:0:0:
412,112,49480,5,2,0:0:0:0:
456,128,49530,1,0,0:0:0:0:
472,164,49580,1,0,0:0:0:0:
472,164,49630,1,8,0:1:0:0:
456,128,49680,1,0,0:0:0:0:
412,112,49730,1,0,0:0:0:0:
236,56,49780,5,2,0:0:0:0:
196,56,49830,1,0,0:0:0:0:
236,56,49880,1,0,0:0:0:0:
276,56,49930,1,8,0:1:0:0:
316,56,49980,1,0,0:0:0:0:
276,56,50030,1,0,0:0:0:0:
100,144,50080,5,2,0:0:0:0:
60,144,50130,1,0,0:0:0:0:
20,144,50180,1,0,0:0:0:0:
60,144,50230,1,0,0:0:0:0:
100,144,50280,1,0,0:0:0:0:
140,144,50330,1,0,0:0:0:0:
372,144,50380,5,4,0:0:0:0:
368,148,51280,6,0,L|124:136,1,220,8|0,0:1|0:0,0:0:0:0:
416,192,51580,1,4,0:1:0:0:
432,192,51598,1,0,0:0:0:0:
448,192,51617,1,0,0:0:0:0:
464,192,51636,1,0,0:0:0:0:
480,192,51655,1,0,0:0:0:0:
472,144,51673,1,0,0:0:0:0:
480,192,51692,1,0,0:0:0:0:
472,144,51711,1,0,0:0:0:0:
480,192,51730,1,0,0:0:0:0:
472,144,51748,1,0,0:0:0:0:
480,192,51767,1,0,0:0:0:0:
472,144,51786,1,0,0:0:0:0:
480,192,51805,1,0,0:0:0:0:
240,192,51880,6,0,B|32:192|32:192|240:192,1,415.359985422852,4|2,0:0|0:0,0:0:0:0:
256,144,52230,1,0,0:0:0:0:
240,96,52280,1,0,0:0:0:0:
208,64,52330,1,2,0:1:0:0:
168,64,52380,1,0,0:0:0:0:
208,64,52430,1,0,0:0:0:0:
320,336,52480,2,0,L|320:320,1,15.9500004867554,8|0,0:0|0:0,0:0:0:0:
416,336,52630,2,0,L|416:320,1,15.9500004867554,2|0,0:1|0:0,0:0:0:0:
224,336,52780,5,2,0:0:0:0:
224,320,52798,2,0,B|224:304|224:304|336:304|336:304|224:304,1,239.250007301331,0|12,0:0|0:0,0:0:0:0:
224,288,53098,1,0,0:0:0:0:
320,304,53230,2,0,L|320:288,1,15.9500004867554,4|0,0:0|0:0,0:0:0:0:
32,192,53380,6,0,B|240:192|240:192|272:240|240:288,1,311.519989067139,6|0,0:0|0:0,0:0:0:0:
96,80,53680,2,0,B|304:80|304:80|336:128|304:176,1,311.519989067139,6|0,0:0|0:0,0:0:0:0:
160,192,53980,5,4,0:1:0:0:
144,160,53998,1,0,0:0:0:0:
140,128,54017,1,0,0:0:0:0:
144,96,54036,1,0,0:0:0:0:
160,64,54055,1,0,0:0:0:0:
177,90,54073,1,0,0:0:0:0:
189,120,54092,1,0,0:0:0:0:
197,151,54111,1,0,0:0:0:0:
199,182,54130,1,2,0:1:0:0:
197,214,54148,1,0,0:0:0:0:
190,245,54167,1,0,0:0:0:0:
178,275,54186,1,0,0:0:0:0:
161,302,54205,1,0,0:0:0:0:
32,304,54280,2,0,L|160:304,1,127.600003894043,8|2,0:0|0:1,0:0:0:0:
384,192,54580,6,0,L|448:192,1,63.8000019470215,2|0,0:0|0:0,0:0:0:0:
448,240,54730,2,0,L|384:240,1,63.8000019470215,2|0,0:1|0:0,0:0:0:0:
256,304,54880,2,0,B|192:304|192:304|160:304|152:256|160:208|192:208,1,191.400005841065,12|0,0:1|0:0,0:0:0:0:
336,112,55180,5,2,0:0:0:0:
400,112,55255,1,0,0:0:0:0:
432,160,55330,1,2,0:1:0:0:
400,208,55405,1,0,0:0:0:0:
272,208,55480,2,0,P|240:140|272:112,1,127.600003894043,8|2,0:0|0:1,0:0:0:0:
336,112,55705,1,0,0:0:0:0:
208,48,55780,6,0,B|336:48|336:48|336:112,1,191.400005841065,6|4,0:0|0:0,0:0:0:0:
208,192,56080,2,0,P|176:124|208:96,1,127.600003894043,8|4,0:0|0:0,0:0:0:0:
432,64,56380,5,2,0:0:0:0:
464,64,56398,1,0,0:1:0:0:
435,64,56417,1,0,0:1:0:0:
460,64,56435,1,0,0:1:0:0:
437,64,56455,1,0,0:1:0:0:
458,64,56473,1,0,0:1:0:0:
439,64,56492,1,0,0:1:0:0:
458,64,56511,1,0,0:1:0:0:
437,64,56529,1,2,0:1:0:0:
460,64,56549,1,0,0:1:0:0:
435,64,56567,1,0,0:1:0:0:
464,64,56586,1,0,0:1:0:0:
432,64,56604,1,0,0:1:0:0:
304,64,56680,5,8,0:0:0:0:
288,112,56730,1,0,0:0:0:0:
304,160,56780,1,0,0:0:0:0:
336,192,56830,1,2,0:1:0:0:
376,192,56880,1,0,0:0:0:0:
336,192,56930,1,0,0:0:0:0:
224,192,56980,6,0,P|192:260|224:288,1,127.600003894043,6|2,0:0|0:1,0:0:0:0:
464,192,57280,2,0,L|48:192,1,415.359985422852,12|6,0:1|0:0,0:0:0:0:
48,176,57598,1,0,0:0:0:0:
464,192,57880,6,0,L|464:176,1,15.9500004867554,8|0,0:0|0:0,0:0:0:0:
352,192,58030,2,0,L|352:176,1,15.9500004867554,2|0,0:0|0:0,0:0:0:0:
64,192,58180,2,0,L|64:176,1,15.9500004867554,2|0,0:0|0:0,0:0:0:0:
256,192,58330,2,0,L|256:176,1,15.9500004867554,2|0,0:1|0:0,0:0:0:0:
448,304,58480,5,8,0:0:0:0:
460,274,58498,1,0,0:0:0:0:
469,244,58517,1,0,0:0:0:0:
468,212,58536,1,0,0:0:0:0:
448,192,58555,1,0,0:0:0:0:
467,173,58573,1,0,0:0:0:0:
470,141,58592,1,0,0:0:0:0:
461,111,58611,1,0,0:0:0:0:
448,81,58630,1,2,0:1:0:0:
144,96,58780,5,6,0:0:0:0:
121,96,58798,1,0,0:0:0:0:
126,122,58817,1,0,0:0:0:0:
102,123,58836,1,0,0:0:0:0:
115,152,58855,1,0,0:0:0:0:
92,153,58873,1,0,0:0:0:0:
111,184,58892,1,0,0:0:0:0:
87,184,58911,1,0,0:0:0:0:
115,215,58930,1,2,0:1:0:0:
92,216,58948,1,0,0:0:0:0:
126,245,58967,1,0,0:0:0:0:
102,245,58986,1,0,0:0:0:0:
140,272,59005,1,0,0:0:0:0:
336,96,59080,6,0,L|352:96,4,15.9500004867554,12|0|0|0|0,0:0|0:0|0:0|0:0|0:0,0:0:0:0:
176,256,59230,1,12,0:0:0:0:
152,224,59248,1,0,0:0:0:0:
144,192,59267,1,0,0:0:0:0:
152,160,59286,1,0,0:0:0:0:
176,128,59305,1,0,0:0:0:0:
368,192,59380,5,6,0:0:0:0:
371,192,59398,1,0,0:0:0:0:
365,192,59417,1,0,0:0:0:0:
374,192,59436,1,0,0:0:0:0:
362,192,59455,1,0,0:0:0:0:
377,192,59473,1,0,0:0:0:0:
356,192,59492,1,0,0:0:0:0:
380,192,59511,1,0,0:0:0:0:
353,192,59529,1,2,0:1:0:0:
383,192,59548,1,0,0:0:0:0:
350,192,59567,1,0,0:0:0:0:
386,192,59586,1,0,0:0:0:0:
350,192,59605,1,0,0:0:0:0:
176,96,59680,6,0,L|160:96,4,15.9500004867554,12|0|0|0|0,0:0|0:0|0:0|0:0|0:0,0:0:0:0:
337,224,59830,1,2,0:1:0:0:
349,208,59848,1,0,0:0:0:0:
353,192,59867,1,0,0:0:0:0:
349,176,59886,1,0,0:0:0:0:
337,160,59905,1,0,0:0:0:0:
144,192,59980,6,0,L|16:192,1,127.600003894043,2|2,0:0|0:1,0:0:0:0:
224,96,60280,2,0,L|16:96,1,207.679992711426,8|2,0:0|0:1,0:0:0:0:
224,192,60580,6,0,L|352:192,1,127.600003894043,2|2,0:0|0:1,0:0:0:0:
144,288,60880,2,0,L|352:288,1,207.679992711426,8|2,0:0|0:1,0:0:0:0:
96,192,61180,5,4,0:1:0:0:
80,192,61198,1,0,0:0:0:0:
64,192,61217,1,0,0:0:0:0:
48,192,61236,1,0,0:0:0:0:
32,192,61255,1,0,0:0:0:0:
40,144,61273,1,0,0:0:0:0:
32,192,61292,1,0,0:0:0:0:
40,144,61311,1,0,0:0:0:0:
32,192,61330,1,0,0:0:0:0:
40,144,61348,1,0,0:0:0:0:
32,192,61367,1,0,0:0:0:0:
40,144,61386,1,0,0:0:0:0:
32,192,61405,1,0,0:0:0:0:
272,192,61480,6,0,B|480:192|480:192|272:192,1,415.359985422852,12|2,0:0|0:0,0:0:0:0:
232,192,61830,1,0,0:0:0:0:
200,144,61880,1,0,0:0:0:0:
232,96,61930,1,2,0:1:0:0:
272,96,61980,1,0,0:0:0:0:
232,96,62030,1,0,0:0:0:0:
112,336,62080,2,0,L|112:320,1,15.9500004867554,8|0,0:0|0:0,0:0:0:0:
208,336,62230,2,0,L|208:320,1,15.9500004867554,2|0,0:1|0:0,0:0:0:0:
400,336,62380,5,2,0:0:0:0:
400,320,62398,2,0,B|400:304|400:304|288:304|288:304|400:304,1,239.250007301331,0|12,0:0|0:0,0:0:0:0:
400,288,62698,1,0,0:0:0:0:
496,304,62830,2,0,L|496:288,1,15.9500004867554,4|0,0:0|0:0,0:0:0:0:
208,192,62980,6,0,B|416:192|416:192|448:240|416:288,1,311.519989067139,6|0,0:0|0:0,0:0:0:0:
272,192,63280,2,0,B|64:192|64:192|32:240|64:288,1,311.519989067139,12|0,0:0|0:0,0:0:0:0:
208,192,63580,5,4,0:1:0:0:
224,160,63598,1,0,0:0:0:0:
228,128,63617,1,0,0:0:0:0:
224,96,63636,1,0,0:0:0:0:
208,64,63655,1,0,0:0:0:0:
191,90,63673,1,0,0:0:0:0:
179,120,63692,1,0,0:0:0:0:
171,151,63711,1,0,0:0:0:0:
169,182,63730,1,2,0:1:0:0:
171,214,63748,1,0,0:0:0:0:
178,245,63767,1,0,0:0:0:0:
190,275,63786,1,0,0:0:0:0:
207,302,63805,1,0,0:0:0:0:
336,304,63880,2,0,L|208:304,1,127.600003894043,8|2,0:0|0:1,0:0:0:0:
432,192,64180,6,0,L|496:192,1,63.8000019470215,6|0,0:0|0:1,0:0:0:0:
496,240,64330,2,0,L|432:240,1,63.8000019470215,2|0,0:1|0:1,0:0:0:0:
256,304,64480,2,0,B|368:240|368:240|320:192,1,191.400005841065,12|0,0:1|0:0,0:0:0:0:
176,112,64780,5,6,0:0:0:0:
112,112,64855,1,0,0:0:0:0:
80,160,64930,1,2,0:1:0:0:
112,208,65005,1,0,0:0:0:0:
240,208,65080,2,0,P|272:140|240:112,1,127.600003894043,8|2,0:0|0:1,0:0:0:0:
176,112,65305,1,0,0:0:0:0:
304,48,65380,6,0,B|176:48|176:48|176:112,1,191.400005841065,6|4,0:0|0:0,0:0:0:0:
304,192,65680,2,0,P|336:124|304:96,1,127.600003894043,8|4,0:0|0:0,0:0:0:0:
80,32,65980,6,0,L|64:32,1,15.9500004867554,4|0,0:0|0:0,0:0:0:0:
80,32,66017,2,0,L|96:32,1,15.9500004867554,0|0,0:0|0:0,0:0:0:0:
80,32,66055,2,0,L|64:36,1,15.9500004867554,0|0,0:0|0:0,0:0:0:0:
80,32,66092,2,0,L|95:36,1,15.9500004867554,0|0,0:0|0:0,0:0:0:0:
80,32,66130,6,0,L|67:41,1,15.9500004867554,0|0,0:0|0:0,0:0:0:0:
80,32,66167,2,0,L|92:41,1,15.9500004867554,0|0,0:0|0:0,0:0:0:0:
80,32,66205,2,0,L|70:44,1,15.9500004867554,0|0,0:0|0:0,0:0:0:0:
80,32,66242,2,0,L|89:44,1,15.9500004867554,0|0,0:0|0:0,0:0:0:0:
80,32,66280,6,0,L|75:47,1,15.9500004867554,2|0,0:0|0:0,0:0:0:0:
80,32,66317,2,0,L|84:47,1,15.9500004867554,0|0,0:0|0:0,0:0:0:0:
80,32,66355,1,0,0:0:0:0:
256,32,66430,1,8,0:1:0:0:
48,32,66580,6,0,B|48:160|48:160|112:160,1,191.400005841065,8|0,0:1|0:0,0:0:0:0:
272,160,66880,2,0,B|480:160|480:160|480:48,1,311.519989067139,2|0,0:0|0:0,0:0:0:0:
336,48,67180,6,0,L|336:64,1,15.9500004867554,8|0,0:1|0:0,0:0:0:0:
128,48,67480,1,2,0:0:0:0:
144,48,67498,1,0,0:0:0:0:
288,192,67630,1,8,0:1:0:0:
272,192,67648,1,0,0:0:0:0:
32,336,67780,5,8,0:1:0:0:
48,336,67798,1,0,0:0:0:0:
192,192,67930,1,0,0:0:0:0:
208,192,67948,1,0,0:0:0:0:
448,336,68080,1,2,0:0:0:0:
432,336,68098,1,0,0:0:0:0:
288,192,68230,1,0,0:0:0:0:
272,192,68248,1,0,0:0:0:0:
32,192,68380,6,0,L|32:176,1,15.9500004867554,8|0,0:1|0:0,0:0:0:0:
144,192,68530,2,0,L|144:176,1,15.9500004867554,0|0,0:0|0:0,0:0:0:0:
32,192,68680,2,0,L|16:192,1,15.9500004867554,0|0,0:0|0:0,0:0:0:0:
144,192,68830,2,0,L|160:192,1,15.9500004867554,8|0,0:1|0:0,0:0:0:0:
368,288,68980,6,0,L|384:288,1,15.9500004867554,8|0,0:1|0:0,0:0:0:0:
448,224,69055,2,0,L|464:224,1,15.9500004867554,0|0,0:0|0:0,0:0:0:0:
464,160,69130,2,0,L|448:160,1,15.9500004867554,0|0,0:0|0:0,0:0:0:0:
384,96,69205,2,0,L|368:96,1,15.9500004867554,0|0,0:0|0:0,0:0:0:0:
240,288,69280,2,0,L|224:288,1,15.9500004867554,8|0,0:1|0:0,0:0:0:0:
168,224,69355,2,0,L|152:224,1,15.9500004867554,0|0,0:0|0:0,0:0:0:0:
240,96,69430,2,0,L|224:96,1,15.9500004867554,0|0,0:0|0:0,0:0:0:0:
168,160,69505,2,0,L|152:160,1,15.9500004867554,0|0,0:0|0:0,0:0:0:0:
272,112,69580,6,0,P|304:192|272:272,1,176,4|0,0:1|0:0,0:0:0:0:
208,192,70030,2,0,B|296:192|296:192|208:192,1,176,0|0,0:0|0:0,0:0:0:0:
144,192,70480,2,0,L|352:192,1,207.679992711426,0|0,0:0|0:0,0:0:0:0:
144,192,70780,6,0,P|112:124|144:96,1,127.600003894043,4|2,0:0|0:1,0:0:0:0:
368,192,71080,2,0,P|400:124|368:96,1,127.600003894043,8|2,0:0|0:1,0:0:0:0:
144,96,71380,1,2,0:0:0:0:
288,96,71530,2,0,P|320:164|288:192,1,127.600003894043,2|8,0:1|0:0,0:0:0:0:
144,192,71830,1,2,0:1:0:0:
368,192,71980,6,0,P|400:260|368:288,1,127.600003894043,2|2,0:0|0:1,0:0:0:0:
144,192,72280,1,8,0:0:0:0:
288,320,72430,2,0,L|288:192,1,127.600003894043,2|2,0:1|0:0,0:0:0:0:
432,192,72730,1,2,0:1:0:0:
208,96,72880,1,8,0:0:0:0:
368,96,73030,1,0,0:0:0:0:
144,96,73180,6,0,L|400:96,1,255.200007788086,2|8,0:0|0:0,0:0:0:0:
256,192,73630,1,2,0:1:0:0:
400,288,73780,1,2,0:0:0:0:
176,192,73930,2,0,P|144:260|176:288,1,127.600003894043,2|8,0:1|0:0,0:0:0:0:
400,192,74230,6,0,B|272:192|272:192|400:192,1,255.200007788086,2|2,0:1|0:1,0:0:0:0:
176,192,74680,2,0,L|304:192,1,127.600003894043,8|2,0:0|0:1,0:0:0:0:
80,192,74980,2,0,P|48:124|80:96,1,127.600003894043,2|2,0:0|0:1,0:0:0:0:
304,192,75280,2,0,P|336:124|304:96,1,127.600003894043,8|2,0:0|0:1,0:0:0:0:
80,192,75580,6,0,P|48:260|80:288,1,127.600003894043,2|2,0:0|0:1,0:0:0:0:
320,304,75880,2,0,L|192:304,1,127.600003894043,8|2,0:0|0:1,0:0:0:0:
432,192,76180,2,0,P|464:124|432:96,1,127.600003894043,2|2,0:0|0:1,0:0:0:0:
192,80,76480,2,0,L|320:80,1,127.600003894043,8|2,0:0|0:1,0:0:0:0:
96,192,76780,6,0,L|304:192,1,207.679992711426,2|2,0:0|0:1,0:0:0:0:
80,192,77080,2,0,L|320:192,1,240.240008064698,8|2,0:0|0:1,0:0:0:0:
64,192,77380,2,0,P|32:124|64:96,1,127.600003894043,2|2,0:0|0:1,0:0:0:0:
320,80,77680,2,0,L|192:80,1,127.600003894043,8|2,0:0|0:1,0:0:0:0:
448,192,77980,6,0,L|320:192,1,127.600003894043,2|2,0:0|0:1,0:0:0:0:
464,192,78280,2,0,L|304:192,1,160.160005376465,8|2,0:0|0:1,0:0:0:0:
48,192,78580,1,2,0:0:0:0:
256,192,78730,2,0,L|128:192,1,127.600003894043,2|8,0:1|0:0,0:0:0:0:
336,144,79030,1,2,0:0:0:0:
256,144,79105,1,2,0:0:0:0:
176,192,79180,5,4,0:2:0:0:
432,192,79330,1,4,0:2:0:0:
80,192,79630,1,8,0:1:0:0:
432,192,79930,1,8,0:1:0:0:
192,192,80080,2,0,L|320:192,1,127.600003894043,8|2,0:1|0:0,0:0:0:0:
192,192,80305,1,2,0:0:0:0:
64,192,80380,5,2,0:2:0:0:
40,192,80398,1,0,0:0:0:0:
60,192,80417,1,0,0:0:0:0:
44,192,80435,1,0,0:0:0:0:
64,192,80455,1,0,0:0:0:0:
40,192,80473,1,0,0:0:0:0:
60,192,80492,1,0,0:0:0:0:
44,192,80510,1,0,0:0:0:0:
64,192,80530,1,0,0:0:0:0:
40,192,80548,1,0,0:0:0:0:
60,192,80567,1,0,0:0:0:0:
44,192,80585,1,0,0:0:0:0:
64,192,80605,1,0,0:0:0:0:
384,192,80680,6,0,P|416:260|384:288,1,127.600003894043,4|2,0:0|0:1,0:0:0:0:
160,288,80980,1,2,0:0:0:0:
304,288,81130,2,0,L|176:288,1,127.600003894043,2|8,0:1|0:0,0:0:0:0:
320,288,81430,1,2,0:1:0:0:
96,192,81580,6,0,P|64:124|96:96,1,127.600003894043,2|2,0:0|0:1,0:0:0:0:
320,96,81880,1,8,0:0:0:0:
192,96,82030,1,2,0:1:0:0:
352,144,82180,1,2,0:0:0:0:
224,144,82330,1,2,0:1:0:0:
432,192,82480,2,0,L|304:192,1,127.600003894043,8|8,0:0|0:0,0:0:0:0:
304,144,82705,1,0,0:0:0:0:
432,192,82780,6,0,P|464:124|432:96,1,127.600003894043,2|2,0:0|0:1,0:0:0:0:
208,96,83080,1,8,0:0:0:0:
80,96,83230,1,2,0:1:0:0:
304,192,83380,1,2,0:0:0:0:
176,192,83530,1,2,0:1:0:0:
400,192,83680,2,0,P|432:124|400:96,1,127.600003894043,8|2,0:0|0:0,0:0:0:0:
336,96,83905,1,0,0:0:0:0:
208,192,83980,6,0,P|176:260|208:288,1,127.600003894043,2|2,0:0|0:1,0:0:0:0:
432,288,84280,2,0,L|304:288,1,127.600003894043,8|2,0:0|0:1,0:0:0:0:
80,192,84580,2,0,L|224:192,1,127.600003894043,2|2,0:0|0:1,0:0:0:0:
432,96,84880,1,8,0:0:0:0:
208,96,85030,2,0,L|208:160,1,63.8000019470215,8|0,0:0|0:0,0:0:0:0:
336,192,85180,6,0,L|208:192,1,127.600003894043,2|2,0:0|0:0,0:0:0:0:
432,96,85480,2,0,L|304:96,1,127.600003894043,8|2,0:0|0:1,0:0:0:0:
80,96,85780,2,0,L|208:96,1,127.600003894043,2|2,0:0|0:1,0:0:0:0:
207,96,86005,1,0,0:0:0:0:
64,192,86080,2,0,L|192:192,1,127.600003894043,8|2,0:0|0:1,0:0:0:0:
256,192,86305,1,0,0:0:0:0:
415,96,86380,6,0,L|207:96,1,207.679992711426,2|2,0:0|0:1,0:0:0:0:
431,96,86680,2,0,L|191:96,1,240.240008064698,8|2,0:0|0:1,0:0:0:0:
191,96,86905,1,0,0:0:0:0:
320,192,86980,2,0,L|192:192,1,127.600003894043,2|2,0:0|0:1,0:0:0:0:
400,192,87280,2,0,L|192:192,1,207.679992711426,8|8,0:0|0:0,0:0:0:0:
192,192,87505,1,0,0:0:0:0:
368,192,87580,5,2,0:0:0:0:
432,192,87655,2,0,L|432:128,1,63.8000019470215,0|8,0:0|0:1,0:0:0:0:
368,128,87805,1,0,0:0:0:0:
432,128,87880,2,0,L|432:64,1,63.8000019470215,0|0,0:0|0:0,0:0:0:0:
256,192,88030,5,8,0:1:0:0:
192,192,88105,2,0,L|192:128,1,63.8000019470215,0|2,0:0|0:0,0:0:0:0:
400,192,88255,1,0,0:0:0:0:
464,192,88330,2,0,L|400:192,1,63.8000019470215,8|0,0:1|0:0,0:0:0:0:
224,192,88480,2,0,L|160:192,1,63.8000019470215
336,192,88630,2,0,L|272:192,1,63.8000019470215,8|0,0:1|0:0,0:0:0:0:
96,192,88780,5,4,0:0:0:0:
256,192,89005,12,0,89023,0:0:0:0:
256,192,89230,12,0,89248,0:0:0:0:
256,192,89380,12,0,89398,0:0:0:0:
256,192,89530,12,0,89548,0:0:0:0:
320,192,89680,5,4,0:0:0:0:
308,168,89698,1,0,0:0:0:0:
332,192,89717,1,0,0:0:0:0:
320,168,89735,1,0,0:0:0:0:
344,192,89755,1,0,0:0:0:0:
320,216,89773,1,0,0:0:0:0:
332,192,89791,1,0,0:0:0:0:
308,216,89810,1,0,0:0:0:0:
320,192,89830,1,0,0:0:0:0:
112,192,89980,6,0,L|96:96,1,88,4|0,0:0|0:0,0:0:0:0:
224,192,90280,2,0,L|240:96,1,88,8|2,0:0|0:0,0:0:0:0:
160,48,90505,1,8,0:0:0:0:
144,48,90580,1,0,0:0:0:0:
160,48,90655,1,0,0:0:0:0:
240,48,90730,1,2,0:0:0:0:
368,48,90880,1,8,0:0:0:0:
240,48,91030,1,8,0:0:0:0:
256,48,91105,1,0,0:0:0:0:
336,176,91180,6,0,L|352:80,1,88,0|2,0:0|0:0,0:0:0:0:
336,64,91367,1,0,0:0:0:0:
320,48,91405,1,0,0:0:0:0:
240,176,91480,2,0,L|224:80,1,88,8|0,0:0|0:0,0:0:0:0:
304,48,91705,1,8,0:0:0:0:
320,48,91780,1,0,0:0:0:0:
160,192,91930,1,2,0:0:0:0:
320,336,92080,2,0,L|224:336,1,88,8|0,0:0|0:0,0:0:0:0:
400,192,92380,6,0,L|416:96,1,88,8|0,0:0|0:0,0:0:0:0:
400,80,92605,1,0,0:0:0:0:
320,192,92680,2,0,L|304:96,1,88,8|2,0:0|0:0,0:0:0:0:
384,48,92905,1,8,0:0:0:0:
400,48,92980,1,0,0:0:0:0:
384,48,93055,1,0,0:0:0:0:
304,48,93130,1,2,0:0:0:0:
432,48,93280,1,8,0:0:0:0:
304,48,93430,1,8,0:0:0:0:
320,48,93505,1,0,0:0:0:0:
400,48,93580,5,2,0:0:0:0:
272,48,93730,1,2,0:0:0:0:
224,48,93805,1,0,0:0:0:0:
304,192,93880,1,8,0:0:0:0:
352,192,93955,1,0,0:0:0:0:
304,192,94030,1,0,0:0:0:0:
352,192,94105,1,8,0:0:0:0:
272,192,94180,1,0,0:0:0:0:
400,192,94330,1,2,0:0:0:0:
192,192,94480,5,4,0:2:0:0:
177,171,94498,1,0,0:0:0:0:
168,151,94517,1,0,0:0:0:0:
161,130,94536,1,0,0:0:0:0:
161,109,94555,1,0,0:0:0:0:
165,87,94573,1,0,0:0:0:0:
173,65,94592,1,0,0:0:0:0:
184,47,94611,1,0,0:0:0:0:
199,31,94630,1,0,0:0:0:0:
214,16,94648,1,0,0:0:0:0:
199,31,94667,1,0,0:0:0:0:
214,16,94685,1,0,0:0:0:0:
199,31,94705,1,0,0:0:0:0:
400,192,94780,6,0,L|416:96,1,88,8|0,0:0|0:0,0:0:0:0:
288,192,95080,2,0,L|272:96,1,88,8|2,0:0|0:0,0:0:0:0:
352,48,95305,1,8,0:0:0:0:
368,48,95380,1,0,0:0:0:0:
352,48,95455,1,0,0:0:0:0:
272,48,95530,1,2,0:0:0:0:
144,48,95680,1,8,0:0:0:0:
272,48,95830,1,2,0:0:0:0:
256,48,95905,1,8,0:0:0:0:
176,176,95980,6,0,L|160:80,1,88,0|2,0:0|0:0,0:0:0:0:
176,64,96167,1,0,0:0:0:0:
192,48,96205,1,0,0:0:0:0:
272,176,96280,2,0,L|288:80,1,88,8|0,0:0|0:0,0:0:0:0:
208,48,96505,1,8,0:0:0:0:
192,48,96580,1,2,0:0:0:0:
352,192,96730,1,2,0:0:0:0:
192,336,96880,2,0,L|288:336,1,88,8|0,0:0|0:0,0:0:0:0:
112,192,97180,6,0,L|96:96,1,88,8|0,0:0|0:0,0:0:0:0:
112,80,97405,1,0,0:0:0:0:
192,192,97480,2,0,L|208:96,1,88,8|2,0:0|0:0,0:0:0:0:
128,48,97705,1,8,0:0:0:0:
112,48,97780,1,0,0:0:0:0:
128,48,97855,1,0,0:0:0:0:
208,48,97930,1,2,0:0:0:0:
80,48,98080,1,8,0:0:0:0:
208,48,98230,1,8,0:0:0:0:
192,48,98305,1,0,0:0:0:0:
112,48,98380,5,2,0:0:0:0:
240,48,98530,1,2,0:0:0:0:
288,48,98605,1,0,0:0:0:0:
208,192,98680,2,0,L|192:288,1,88,8|0,0:0|0:0,0:0:0:0:
272,192,98905,2,0,L|288:288,1,88,8|0,0:0|0:0,0:0:0:0:
208,192,99130,1,2,0:0:0:0:
416,192,99280,6,0,L|416:176,1,11,4|0,0:2|0:0,0:0:0:0:
392,192,99317,2,0,L|392:176,1,11,0|0,0:0|0:0,0:0:0:0:
416,192,99355,2,0,L|416:176,1,11,0|0,0:0|0:0,0:0:0:0:
392,192,99392,2,0,L|392:176,1,11,0|0,0:0|0:0,0:0:0:0:
416,192,99430,2,0,L|416:176,1,11,0|0,0:0|0:0,0:0:0:0:
392,192,99467,2,0,L|392:176,1,11,0|0,0:0|0:0,0:0:0:0:
416,192,99505,1,0,0:0:0:0:
208,96,99580,6,0,L|112:96,1,88,8|2,0:0|0:0,0:0:0:0:
272,96,99880,2,0,L|272:192,1,88,8|2,0:0|0:0,0:0:0:0:
176,176,100105,2,0,L|176:80,1,88,8|0,0:0|0:0,0:0:0:0:
272,80,100330,1,8,0:0:0:0:
64,96,100480,6,0,B|64:240,1,132,4|0,0:1|0:0,0:0:0:0:
304,96,100780,6,0,L|400:96,1,88,8|2,0:0|0:0,0:0:0:0:
316,96,101005,1,2,0:0:0:0:
240,96,101080,2,0,L|240:192,1,88,8|2,0:0|0:0,0:0:0:0:
336,176,101305,2,0,L|336:80,1,88,8|0,0:0|0:0,0:0:0:0:
240,80,101530,1,8,0:0:0:0:
448,192,101680,6,0,L|464:192,1,11,4|0,0:0|0:0,0:0:0:0:
400,96,101830,2,0,L|416:96,1,11,4|0,0:0|0:0,0:0:0:0:
208,96,101980,6,0,L|112:96,1,88,8|2,0:0|0:0,0:0:0:0:
272,96,102280,2,0,L|272:192,1,88,8|2,0:0|0:0,0:0:0:0:
176,176,102505,2,0,L|176:80,1,88,8|0,0:0|0:0,0:0:0:0:
272,80,102730,1,8,0:0:0:0:
64,96,102880,6,0,L|48:96,12,11,4|0|0|0|0|0|0|0|0|0|0|0|0,0:1|0:0|0:0|0:0|0:0|0:0|0:0|0:0|0:0|0:0|0:0|0:0|0:0,0:0:0:0:
304,96,103180,6,0,L|400:96,1,88,8|2,0:0|0:0,0:0:0:0:
240,96,103480,2,0,L|240:192,1,88,8|2,0:0|0:0,0:0:0:0:
336,176,103705,2,0,L|336:80,1,88,8|0,0:0|0:0,0:0:0:0:
240,80,103930,1,8,0:0:0:0:
480,192,104080,5,4,0:1:0:0:
472,192,104098,1,0,0:0:0:0:
480,192,104117,1,0,0:0:0:0:
96,192,104380,5,4,0:2:0:0:
32,192,104455,1,0,0:0:0:0:
32,128,104530,1,0,0:0:0:0:
96,128,104605,1,0,0:0:0:0:
240,192,104680,2,0,L|240:144,1,44,8|0,0:1|0:0,0:0:0:0:
176,112,104830,1,0,0:0:0:0:
336,160,104905,2,0,L|336:112,1,44,8|0,0:1|0:0,0:0:0:0:
272,80,105055,1,0,0:0:0:0:
416,192,105130,5,8,0:1:0:0:
480,192,105205,1,0,0:0:0:0:
480,256,105280,1,0,0:0:0:0:
416,256,105355,1,0,0:0:0:0:
272,192,105430,1,8,0:1:0:0:
208,192,105505,1,0,0:0:0:0:
208,256,105580,1,0,0:0:0:0:
272,256,105655,1,0,0:0:0:0:
416,192,105730,1,8,0:1:0:0:
480,192,105805,1,0,0:0:0:0:
336,128,105880,5,8,0:1:0:0:
272,128,105955,1,0,0:0:0:0:
272,192,106030,1,0,0:0:0:0:
336,192,106105,1,0,0:0:0:0:
192,192,106180,1,8,0:1:0:0:
128,192,106255,2,0,L|128:144,1,44,0|0,0:0|0:0,0:0:0:0:
320,192,106405,1,8,0:1:0:0:
384,192,106480,2,0,L|384:148,1,44,0|0,0:0|0:0,0:0:0:0:
144,192,106630,1,8,0:1:0:0:
80,192,106705,1,0,0:0:0:0:
368,192,106780,5,8,0:1:0:0:
416,192,106830,1,0,0:0:0:0:
432,160,106880,1,0,0:0:0:0:
432,112,106930,1,0,0:0:0:0:
416,80,106980,1,0,0:0:0:0:
368,80,107030,1,0,0:0:0:0:
232,192,107080,1,8,0:1:0:0:
200,144,107130,1,0,0:0:0:0:
232,96,107180,1,0,0:0:0:0:
280,192,107230,1,0,0:0:0:0:
312,144,107280,1,0,0:0:0:0:
280,96,107330,1,0,0:0:0:0:
144,192,107380,5,8,0:1:0:0:
112,160,107430,1,0,0:0:0:0:
112,128,107480,1,0,0:0:0:0:
144,96,107530,1,0,0:0:0:0:
256,192,107580,1,8,0:1:0:0:
264,160,107630,1,0,0:0:0:0:
248,128,107680,1,0,0:0:0:0:
256,96,107730,1,0,0:0:0:0:
368,192,107780,1,8,0:1:0:0:
400,160,107830,1,0,0:0:0:0:
400,128,107880,1,0,0:0:0:0:
368,96,107930,1,0,0:0:0:0:
64,176,107980,6,0,B|64:304|64:304|64:252|64:252|64:384|64:384|272:152|272:152|224:320|224:320|192:256|192:256|192:192|192:192|192:128|192:128|224:64|224:64|272:232|272:232|64:0|64:0|384:0|384:0|448:0|480:192|448:368|448:368|448:304,1,2336.4000757576,4|0,0:0|0:0,0:0:0:0:
256,316,109180,6,0,L|232:316,1,22,4|0,0:0|0:0,0:0:0:0:
332,228,109330,2,0,L|356:228,1,22,2|0,0:0|0:0,0:0:0:0:
180,140,109480,5,6,0:1:0:0:
148,148,109517,1,0,0:0:0:0:
124,172,109555,1,0,0:0:0:0:
116,204,109592,1,0,0:0:0:0:
124,236,109630,1,0,0:0:0:0:
148,260,109668,1,0,0:0:0:0:
180,268,109705,1,0,0:0:0:0:
332,268,109780,6,0,B|332:52|332:52|116:52,1,431.200004112244,0|2,0:0|0:0,0:0:0:0:
140,52,110117,5,0,0:0:0:0:
304,140,110230,1,6,0:1:0:0:
280,144,110267,1,0,0:0:0:0:
256,152,110305,1,0,0:0:0:0:
236,168,110342,1,0,0:0:0:0:
220,188,110380,1,0,0:0:0:0:
212,212,110417,1,0,0:0:0:0:
208,236,110455,1,0,0:0:0:0:
384,236,110530,6,0,L|408:236,1,22,2|0,0:0|0:0,0:0:0:0:
208,236,110680,1,6,0:1:0:0:
212,260,110718,1,0,0:0:0:0:
220,284,110755,1,0,0:0:0:0:
236,304,110793,1,0,0:0:0:0:
256,320,110830,1,0,0:0:0:0:
280,328,110868,1,0,0:0:0:0:
304,332,110905,1,0,0:0:0:0:
472,332,110980,6,0,L|40:332,1,431.200004112244,6|2,0:1|0:0,0:0:0:0:
64,332,111317,5,0,0:0:0:0:
228,244,111430,1,6,0:1:0:0:
260,236,111467,1,0,0:0:0:0:
284,212,111505,1,0,0:0:0:0:
292,180,111542,1,0,0:0:0:0:
284,148,111580,1,0,0:0:0:0:
260,124,111618,1,0,0:0:0:0:
228,116,111655,1,0,0:0:0:0:
404,28,111730,6,0,L|426:28,1,22,2|0,0:0|0:0,0:0:0:0:
228,28,111880,1,6,0:1:0:0:
196,36,111917,1,0,0:0:0:0:
172,60,111955,1,0,0:0:0:0:
164,92,111992,1,0,0:0:0:0:
172,124,112030,1,0,0:0:0:0:
196,148,112068,1,0,0:0:0:0:
228,156,112105,1,0,0:0:0:0:
404,28,112180,5,12,0:0:0:0:
411,50,112198,1,0,0:0:0:0:
396,50,112217,1,0,0:0:0:0:
416,82,112236,1,0,0:0:0:0:
391,82,112255,1,0,0:0:0:0:
419,117,112273,1,0,0:0:0:0:
388,116,112292,1,0,0:0:0:0:
422,156,112311,1,0,0:0:0:0:
386,157,112330,1,0,0:0:0:0:
419,193,112348,1,0,0:0:0:0:
389,194,112367,1,0,0:0:0:0:
416,228,112386,1,0,0:0:0:0:
391,226,112405,1,0,0:0:0:0:
412,264,112423,1,0,0:0:0:0:
398,266,112442,1,0,0:0:0:0:
208,352,112480,6,0,L|184:352,1,22,2|0,0:0|0:0,0:0:0:0:
352,264,112630,1,6,0:1:0:0:
348,240,112668,1,0,0:0:0:0:
340,216,112705,1,0,0:0:0:0:
324,196,112743,1,0,0:0:0:0:
304,180,112780,1,0,0:0:0:0:
280,172,112818,1,0,0:0:0:0:
256,168,112855,1,0,0:0:0:0:
92,168,112930,2,0,L|68:168,1,22,2|0,0:0|0:0,0:0:0:0:
256,80,113080,6,0,P|354:191|256:252,1,303.072004624512,6|0,0:0|0:0,0:0:0:0:
228,80,113380,2,0,P|356:198|228:252,1,377.300003598213,4|0,0:0|0:0,0:0:0:0:
200,80,113680,2,0,P|422:182|200:252,1,616,4|0,0:0|0:0,0:0:0:0:
224,252,113980,5,2,0:0:0:0:
352,164,114130,2,0,L|376:164,1,22,2|0,0:0|0:0,0:0:0:0:
200,80,114280,1,6,0:1:0:0:
176,96,114317,1,0,0:0:0:0:
164,124,114355,1,0,0:0:0:0:
176,152,114393,1,0,0:0:0:0:
200,168,114430,2,0,L|222:168,2,22,0|0|0,0:0|0:0|0:0,0:0:0:0:
40,324,114580,6,0,L|472:324,1,431.200004112244,6|2,0:1|0:0,0:0:0:0:
448,324,114917,5,0,0:0:0:0:
268,236,115030,1,6,0:1:0:0:
236,236,115067,1,0,0:0:0:0:
260,208,115105,1,0,0:0:0:0:
228,208,115142,1,0,0:0:0:0:
252,180,115180,1,0,0:0:0:0:
220,180,115217,1,0,0:0:0:0:
244,152,115255,1,0,0:0:0:0:
44,192,115330,6,0,L|22:192,1,22,2|0,0:0|0:0,0:0:0:0:
220,104,115480,1,6,0:1:0:0:
252,104,115517,1,0,0:0:0:0:
228,76,115555,1,0,0:0:0:0:
260,76,115592,1,0,0:0:0:0:
236,48,115630,1,0,0:0:0:0:
268,48,115667,1,0,0:0:0:0:
244,20,115705,1,0,0:0:0:0:
444,260,115780,5,6,0:1:0:0:
468,232,115798,1,0,0:0:0:0:
448,232,115817,1,0,0:0:0:0:
480,204,115836,1,0,0:0:0:0:
452,204,115855,1,0,0:0:0:0:
486,176,115873,1,0,0:0:0:0:
456,176,115892,1,0,0:0:0:0:
489,148,115911,1,0,0:0:0:0:
456,148,115930,1,0,0:0:0:0:
486,120,115948,1,0,0:0:0:0:
452,120,115967,1,0,0:0:0:0:
480,88,115986,1,0,0:0:0:0:
448,88,116005,1,0,0:0:0:0:
468,60,116023,1,0,0:0:0:0:
444,60,116042,1,0,0:0:0:0:
264,60,116080,5,4,0:1:0:0:
244,60,116098,1,0,0:0:0:0:
256,88,116117,1,0,0:0:0:0:
228,88,116136,1,0,0:0:0:0:
252,116,116155,1,0,0:0:0:0:
220,116,116173,1,0,0:0:0:0:
256,144,116192,1,0,0:0:0:0:
228,144,116211,1,0,0:0:0:0:
264,172,116230,1,0,0:0:0:0:
240,172,116248,1,0,0:0:0:0:
284,200,116267,1,0,0:0:0:0:
268,200,116286,1,0,0:0:0:0:
300,228,116305,1,0,0:0:0:0:
316,228,116323,1,0,0:0:0:0:
300,228,116342,1,0,0:0:0:0:
136,64,116380,6,0,P|52:152|136:224,1,260.040000595184,4|0,0:0|0:0,0:0:0:0:
364,296,116680,2,0,B|364:80|364:80|148:80|148:80|148:188,1,539.000005140305,4|0,0:0|0:0,0:0:0:0:
320,188,117130,2,0,B|448:188|448:188|472:313|472:313|456:252,1,319.000009735108,4|0,0:0|0:0,0:0:0:0:
256,56,117580,6,0,B|472:296|472:296|472:134|472:134|472:296|472:296|148:296|148:296|364:56|364:56|364:218|364:218|364:56|364:56|40:56|40:56|40:219|40:219|40:56,1,2266.87992390235,4|0,0:0|0:0,0:0:0:0:
84,56,118705,1,0,0:0:0:0:
252,56,118780,5,0,0:0:0:0:
260,56,118798,1,0,0:0:0:0:
249,144,118855,1,0,0:0:0:0:
263,144,118873,1,0,0:0:0:0:
246,232,118930,1,0,0:0:0:0:
266,232,118948,1,0,0:0:0:0:
243,320,119005,1,0,0:0:0:0:
269,320,119023,1,0,0:0:0:0:
240,100,119080,1,0,0:0:0:0:
272,100,119098,1,0,0:0:0:0:
237,188,119155,1,0,0:0:0:0:
275,188,119173,1,0,0:0:0:0:
234,276,119230,1,0,0:0:0:0:
278,276,119248,1,0,0:0:0:0:
231,364,119305,1,0,0:0:0:0:
281,364,119323,1,0,0:0:0:0:
448,276,119380,6,0,P|464:212|448:148,1,132,4|0,0:0|0:0,0:0:0:0:
256,104,119680,6,0,L|232:104,1,22,2|0,0:0|0:0,0:0:0:0:
408,16,119830,1,6,0:1:0:0:
432,32,119867,1,0,0:0:0:0:
444,60,119905,1,0,0:0:0:0:
432,88,119943,1,0,0:0:0:0:
408,104,119980,2,0,L|386:104,2,22,0|0|0,0:0|0:0|0:0,0:0:0:0:
188,280,120130,6,0,L|164:280,1,22,2|0,0:0|0:0,0:0:0:0:
340,192,120280,1,6,0:1:0:0:
352,220,120318,1,0,0:0:0:0:
340,248,120356,1,0,0:0:0:0:
316,264,120392,1,0,0:0:0:0:
292,280,120429,1,0,0:0:0:0:
280,308,120467,1,0,0:0:0:0:
292,336,120505,1,0,0:0:0:0:
444,248,120580,5,6,0:1:0:0:
468,220,120598,1,0,0:0:0:0:
448,220,120617,1,0,0:0:0:0:
480,192,120636,1,0,0:0:0:0:
452,192,120655,1,0,0:0:0:0:
486,164,120673,1,0,0:0:0:0:
456,164,120692,1,0,0:0:0:0:
489,136,120711,1,0,0:0:0:0:
456,136,120730,1,0,0:0:0:0:
486,108,120748,1,0,0:0:0:0:
452,108,120767,1,0,0:0:0:0:
480,76,120786,1,0,0:0:0:0:
448,76,120805,1,0,0:0:0:0:
468,48,120823,1,0,0:0:0:0:
444,48,120842,1,0,0:0:0:0:
312,48,120880,6,0,L|290:48,1,22,2|0,0:0|0:0,0:0:0:0:
116,48,121030,1,6,0:1:0:0:
120,72,121068,1,0,0:0:0:0:
128,96,121105,1,0,0:0:0:0:
144,116,121143,1,0,0:0:0:0:
164,132,121180,1,0,0:0:0:0:
188,140,121218,1,0,0:0:0:0:
212,144,121255,1,0,0:0:0:0:
36,144,121330,6,0,L|64:144,1,22,2|0,0:0|0:0,0:0:0:0:
256,144,121480,1,6,0:1:0:0:
280,148,121517,1,0,0:0:0:0:
304,156,121555,1,0,0:0:0:0:
324,172,121592,1,0,0:0:0:0:
340,192,121630,1,0,0:0:0:0:
348,216,121667,1,0,0:0:0:0:
352,240,121705,1,0,0:0:0:0:
176,328,121780,5,12,0:0:0:0:
173,306,121798,1,0,0:0:0:0:
158,306,121817,1,0,0:0:0:0:
172,272,121836,1,0,0:0:0:0:
149,274,121855,1,0,0:0:0:0:
171,240,121873,1,0,0:0:0:0:
143,240,121892,1,0,0:0:0:0:
170,200,121911,1,0,0:0:0:0:
139,199,121930,1,0,0:0:0:0:
171,164,121948,1,0,0:0:0:0:
145,162,121967,1,0,0:0:0:0:
173,128,121986,1,0,0:0:0:0:
151,130,122005,1,0,0:0:0:0:
176,92,122023,1,0,0:0:0:0:
171,90,122042,1,0,0:0:0:0:
324,132,122080,6,0,L|348:132,1,22,2|0,0:0|0:0,0:0:0:0:
172,44,122230,1,6,0:1:0:0:
148,60,122267,1,0,0:0:0:0:
136,88,122305,1,0,0:0:0:0:
148,116,122343,1,0,0:0:0:0:
172,132,122380,2,0,L|194:132,2,22,0|0|0,0:0|0:0|0:0,0:0:0:0:
384,220,122530,2,0,L|406:220,1,22,2|0,0:0|0:0,0:0:0:0:
232,308,122680,6,0,B|84:308|84:308|84:196,1,258.719992104492,6|0,0:0|0:0,0:0:0:0:
84,168,122980,2,0,B|84:20|84:20|196:20,1,258.719992104492,4|0,0:0|0:0,0:0:0:0:
236,20,123280,2,0,B|452:20|452:20|452:184,1,377.300003598213,4|0,0:0|0:0,0:0:0:0:
300,360,123580,5,4,0:0:0:0:
284,360,123598,1,0,0:0:0:0:
268,356,123617,1,0,0:0:0:0:
255,347,123636,1,0,0:0:0:0:
245,335,123655,1,0,0:0:0:0:
240,320,123673,1,0,0:0:0:0:
240,304,123692,1,0,0:0:0:0:
245,288,123711,1,0,0:0:0:0:
255,276,123730,1,0,0:0:0:0:
268,267,123748,1,0,0:0:0:0:
283,263,123767,1,0,0:0:0:0:
299,263,123786,1,0,0:0:0:0:
314,263,123804,1,0,0:0:0:0:
330,259,123823,1,0,0:0:0:0:
343,250,123842,1,0,0:0:0:0:
353,238,123861,1,0,0:0:0:0:
358,223,123879,5,2,0:0:0:0:
358,207,123898,1,0,0:0:0:0:
353,191,123917,1,0,0:0:0:0:
343,179,123936,1,0,0:0:0:0:
330,170,123954,1,0,0:0:0:0:
315,166,123973,1,0,0:0:0:0:
299,166,123992,1,0,0:0:0:0:
256,120,124030,1,8,0:1:0:0:
388,120,124105,1,0,0:0:0:0:
256,120,124180,6,0,B|108:120|108:120|108:268,1,295.679990976563,8|2,0:1|0:0,0:0:0:0:
132,268,124498,1,0,0:0:0:0:
104,192,124555,1,0,0:0:0:0:
136,192,124573,1,0,0:0:0:0:
100,104,124630,1,0,0:0:0:0:
140,104,124648,1,0,0:0:0:0:
96,16,124705,1,0,0:0:0:0:
144,16,124723,1,0,0:0:0:0:
360,16,124780,6,0,P|336:88|248:120,1,176,8|2,0:1|0:0,0:0:0:0:
376,208,125230,1,8,0:1:0:0:
244,208,125305,1,0,0:0:0:0:
376,208,125380,2,0,L|384:296,1,88,8|0,0:1|0:0,0:0:0:0:
256,384,125680,1,2,0:0:0:0:
472,384,125830,1,0,0:0:0:0:
256,296,125980,5,4,0:0:0:0:
40,208,126130,1,8,0:1:0:0:
184,208,126280,1,0,0:0:0:0:
40,208,126430,1,0,0:0:0:0:
256,120,126580,1,8,0:1:0:0:
400,120,126730,1,0,0:0:0:0:
256,120,126880,1,0,0:0:0:0:
472,32,127030,1,8,0:1:0:0:
256,32,127180,6,0,L|248:76,1,44,2|0,0:0|0:0,0:0:0:0:
176,76,127330,2,0,L|168:120,1,44
356,120,127480,2,0,L|364:164,1,44,8|0,0:1|0:0,0:0:0:0:
204,164,127630,2,0,L|204:208,1,44
44,208,127780,6,0,L|28:248,1,44,2|0,0:0|0:0,0:0:0:0:
208,260,127930,2,0,L|224:300,1,44,8|0,0:1|0:0,0:0:0:0:
40,296,128080,2,0,P|12:260|40:164,1,154,8|0,0:1|0:0,0:0:0:0:
84,164,128380,6,0,B|300:404|300:404|300:80|300:80|212:392|212:392|428:280,1,1214.3999592334,4|0,0:0|0:0,0:0:0:0:
472,280,128980,2,0,B|472:64|472:64|256:64,1,431.200004112244,8|4,0:1|0:0,0:0:0:0:
232,64,129317,5,0,0:0:0:0:
428,152,129430,1,6,0:1:0:0:
424,176,129468,1,0,0:0:0:0:
416,200,129505,1,0,0:0:0:0:
400,220,129543,1,0,0:0:0:0:
380,236,129580,1,0,0:0:0:0:
356,244,129618,1,0,0:0:0:0:
332,248,129655,1,0,0:0:0:0:
156,248,129730,6,0,L|132:248,1,22,2|0,0:0|0:0,0:0:0:0:
332,248,129880,1,6,0:1:0:0:
364,240,129917,1,0,0:0:0:0:
388,216,129955,1,0,0:0:0:0:
396,184,129992,1,0,0:0:0:0:
388,152,130030,1,0,0:0:0:0:
364,128,130068,1,0,0:0:0:0:
332,120,130105,1,0,0:0:0:0:
156,76,130180,6,0,B|372:76|372:76|156:76,1,431.200004112244,6|2,0:1|0:0,0:0:0:0:
180,76,130517,5,0,0:0:0:0:
276,164,130630,2,0,L|254:164,1,22,6|0,0:1|0:0,0:0:0:0:
56,164,130780,1,0,0:0:0:0:
276,164,130930,6,0,L|252:164,1,22,2|0,0:0|0:0,0:0:0:0:
56,248,131080,2,0,L|78:248,1,22,6|0,0:1|0:0,0:0:0:0:
176,248,131230,1,0,0:0:0:0:
396,336,131380,5,12,0:0:0:0:
414,336,131399,1,0,0:0:0:0:
390,308,131417,1,0,0:0:0:0:
420,308,131436,1,0,0:0:0:0:
388,280,131455,1,0,0:0:0:0:
422,280,131474,1,0,0:0:0:0:
387,252,131492,1,0,0:0:0:0:
424,251,131511,1,0,0:0:0:0:
388,223,131530,1,0,0:0:0:0:
421,223,131549,1,0,0:0:0:0:
390,196,131567,1,0,0:0:0:0:
420,196,131586,1,0,0:0:0:0:
396,168,131605,1,0,0:0:0:0:
414,168,131624,1,0,0:0:0:0:
407,140,131642,1,0,0:0:0:0:
276,140,131680,6,0,L|252:140,1,22,2|0,0:0|0:0,0:0:0:0:
452,52,131830,2,0,L|474:52,6,22,6|0|0|0|0|0|0,0:1|0:0|0:0|0:0|0:0|0:0|0:0,0:0:0:0:
276,228,132130,2,0,L|254:228,1,22,2|0,0:0|0:0,0:0:0:0:
56,316,132280,6,0,P|154:205|56:144,1,303.072004624512,6|0,0:0|0:0,0:0:0:0:
84,316,132580,2,0,P|212:198|84:144,1,377.300003598213,4|0,0:0|0:0,0:0:0:0:
112,316,132880,2,0,B|408:220|408:220|112:144,1,616,4|0,0:0|0:0,0:0:0:0:
88,144,133180,5,2,0:0:0:0:
216,56,133330,2,0,L|240:56,1,22,2|0,0:0|0:0,0:0:0:0:
40,144,133480,1,6,0:1:0:0:
44,168,133518,1,0,0:0:0:0:
52,192,133555,1,0,0:0:0:0:
68,212,133593,1,0,0:0:0:0:
88,228,133630,1,0,0:0:0:0:
112,236,133668,1,0,0:0:0:0:
136,240,133705,1,0,0:0:0:0:
312,284,133780,6,0,B|96:284|96:284|312:284,1,431.200004112244,6|2,0:1|0:0,0:0:0:0:
336,284,134117,1,0,0:0:0:0:
172,196,134230,1,6,0:1:0:0:
176,172,134268,1,0,0:0:0:0:
184,148,134305,1,0,0:0:0:0:
200,128,134343,1,0,0:0:0:0:
220,112,134380,1,0,0:0:0:0:
244,104,134418,1,0,0:0:0:0:
268,100,134455,1,0,0:0:0:0:
92,100,134530,6,0,L|68:100,1,22,2|0,0:0|0:0,0:0:0:0:
268,12,134680,1,6,0:1:0:0:
300,20,134717,1,0,0:0:0:0:
324,44,134755,1,0,0:0:0:0:
332,76,134792,1,0,0:0:0:0:
324,108,134830,1,0,0:0:0:0:
300,132,134868,1,0,0:0:0:0:
268,140,134905,1,0,0:0:0:0:
92,316,134980,5,6,0:1:0:0:
68,288,134998,1,0,0:0:0:0:
88,288,135017,1,0,0:0:0:0:
56,260,135036,1,0,0:0:0:0:
84,260,135055,1,0,0:0:0:0:
50,232,135073,1,0,0:0:0:0:
80,232,135092,1,0,0:0:0:0:
47,204,135111,1,0,0:0:0:0:
80,204,135130,1,0,0:0:0:0:
50,176,135148,1,0,0:0:0:0:
84,176,135167,1,0,0:0:0:0:
56,144,135186,1,0,0:0:0:0:
88,144,135205,1,0,0:0:0:0:
68,116,135223,1,0,0:0:0:0:
92,116,135242,1,0,0:0:0:0:
272,116,135280,5,4,0:1:0:0:
292,116,135298,1,0,0:0:0:0:
280,144,135317,1,0,0:0:0:0:
308,144,135336,1,0,0:0:0:0:
284,172,135355,1,0,0:0:0:0:
316,172,135373,1,0,0:0:0:0:
280,200,135392,1,0,0:0:0:0:
308,200,135411,1,0,0:0:0:0:
272,228,135430,1,0,0:0:0:0:
296,228,135448,1,0,0:0:0:0:
252,256,135467,1,0,0:0:0:0:
268,256,135486,1,0,0:0:0:0:
236,284,135505,1,0,0:0:0:0:
220,284,135523,1,0,0:0:0:0:
236,284,135542,1,0,0:0:0:0:
416,284,135580,6,0,P|500:196|416:124,1,260.040000595184,4|0,0:0|0:0,0:0:0:0:
256,36,135880,2,0,B|168:232|168:232|384:232|384:232|340:332,1,539.000005140305,4|0,0:0|0:0,0:0:0:0:
164,332,136330,2,0,P|56:240|164:156,1,319.000009735108,4|0,0:0|0:0,0:0:0:0:
368,56,136780,6,0,B|148:296|148:296|148:134|148:134|148:296|148:296|472:296|472:296|256:56|256:56|256:218|256:218|256:56|256:56|40:296|40:296|40:134|40:134|40:296,1,2266.87992390235,4|0,0:0|0:0,0:0:0:0:
84,296,137905,1,0,0:0:0:0:
304,340,137980,5,4,0:1:0:0:
310,331,137998,1,0,0:0:0:0:
316,321,138017,1,0,0:0:0:0:
319,311,138036,1,0,0:0:0:0:
321,300,138055,1,0,0:0:0:0:
322,289,138073,1,0,0:0:0:0:
320,278,138092,1,0,0:0:0:0:
316,268,138111,1,0,0:0:0:0:
311,258,138130,1,0,0:0:0:0:
305,249,138148,1,0,0:0:0:0:
297,242,138167,1,0,0:0:0:0:
288,236,138186,1,0,0:0:0:0:
278,231,138205,1,0,0:0:0:0:
267,229,138223,1,0,0:0:0:0:
256,228,138242,1,0,0:0:0:0:
245,228,138261,1,0,0:0:0:0:
234,231,138280,5,0,0:0:0:0:
224,235,138298,1,0,0:0:0:0:
215,241,138317,1,0,0:0:0:0:
207,249,138336,1,0,0:0:0:0:
200,257,138355,1,0,0:0:0:0:
195,267,138373,1,0,0:0:0:0:
191,277,138392,1,0,0:0:0:0:
189,288,138411,1,0,0:0:0:0:
190,299,138430,1,0,0:0:0:0:
191,310,138448,1,0,0:0:0:0:
195,320,138467,1,0,0:0:0:0:
200,330,138486,1,0,0:0:0:0:
207,339,138505,1,0,0:0:0:0:
256,340,138580,6,0,B|472:340|472:340|256:340,1,431.200004112244,4|2,0:0|0:0,0:0:0:0:
232,340,138917,1,0,0:0:0:0:
428,252,139030,1,6,0:1:0:0:
460,244,139067,1,0,0:0:0:0:
484,220,139105,1,0,0:0:0:0:
492,188,139142,1,0,0:0:0:0:
484,156,139180,1,0,0:0:0:0:
460,132,139218,1,0,0:0:0:0:
428,124,139255,1,0,0:0:0:0:
280,148,139330,6,0,L|258:148,1,22,2|0,0:0|0:0,0:0:0:0:
84,212,139480,1,6,0:1:0:0:
52,204,139517,1,0,0:0:0:0:
28,180,139555,1,0,0:0:0:0:
20,148,139592,1,0,0:0:0:0:
28,116,139630,1,0,0:0:0:0:
52,92,139668,1,0,0:0:0:0:
84,84,139705,1,0,0:0:0:0:
242,348,139780,5,6,0:1:0:0:
249,320,139798,1,0,0:0:0:0:
231,320,139817,1,0,0:0:0:0:
255,292,139836,1,0,0:0:0:0:
225,292,139855,1,0,0:0:0:0:
256,265,139873,1,0,0:0:0:0:
223,265,139892,1,0,0:0:0:0:
259,237,139911,1,0,0:0:0:0:
222,236,139930,1,0,0:0:0:0:
257,208,139948,1,0,0:0:0:0:
223,208,139967,1,0,0:0:0:0:
255,180,139986,1,0,0:0:0:0:
225,180,140005,1,0,0:0:0:0:
249,152,140023,1,0,0:0:0:0:
231,152,140042,1,0,0:0:0:0:
392,64,140080,6,0,L|414:64,1,22,2|0,0:0|0:0,0:0:0:0:
240,64,140230,1,6,0:1:0:0:
216,68,140267,1,0,0:0:0:0:
192,76,140305,1,0,0:0:0:0:
172,92,140342,1,0,0:0:0:0:
156,112,140380,1,0,0:0:0:0:
148,136,140417,1,0,0:0:0:0:
144,160,140455,1,0,0:0:0:0:
320,160,140530,6,0,L|298:160,1,22,2|0,0:0|0:0,0:0:0:0:
100,160,140680,1,6,0:1:0:0:
104,184,140718,1,0,0:0:0:0:
112,208,140755,1,0,0:0:0:0:
128,228,140793,1,0,0:0:0:0:
148,244,140830,1,0,0:0:0:0:
172,252,140868,1,0,0:0:0:0:
196,256,140905,1,0,0:0:0:0:
372,344,140980,5,12,0:0:0:0:
396,344,140999,1,0,0:0:0:0:
376,316,141017,1,0,0:0:0:0:
408,316,141036,1,0,0:0:0:0:
380,284,141055,1,0,0:0:0:0:
414,284,141074,1,0,0:0:0:0:
384,256,141092,1,0,0:0:0:0:
417,256,141111,1,0,0:0:0:0:
384,228,141130,1,0,0:0:0:0:
414,228,141149,1,0,0:0:0:0:
380,200,141167,1,0,0:0:0:0:
408,200,141186,1,0,0:0:0:0:
376,172,141205,1,0,0:0:0:0:
396,172,141224,1,0,0:0:0:0:
372,144,141242,1,0,0:0:0:0:
240,144,141280,6,0,L|218:144,1,22,2|0,0:0|0:0,0:0:0:0:
392,56,141430,1,6,0:1:0:0:
420,68,141467,1,0,0:0:0:0:
440,92,141505,1,0,0:0:0:0:
448,120,141543,1,0,0:0:0:0:
440,148,141580,1,0,0:0:0:0:
420,168,141617,1,0,0:0:0:0:
392,180,141655,1,0,0:0:0:0:
216,232,141730,2,0,L|238:232,1,22,2|0,0:0|0:0,0:0:0:0:
428,320,141880,6,0,B|428:172|428:172|314:172,1,260.260004864784,6|0,0:0|0:0,0:0:0:0:
288,172,142180,2,0,B|140:172|140:172|140:60,1,260.260004864784,4|0,0:0|0:0,0:0:0:0:
180,60,142480,2,0,B|472:60|472:60|256:60,1,508.200004846573,4|0,0:0|0:0,0:0:0:0:
216,60,142780,6,0,L|208:188,1,127.600003894043,4|0,0:0|0:0,0:0:0:0:
336,124,143005,2,0,L|336:252,1,127.600003894043,2|0,0:0|0:0,0:0:0:0:
464,252,143230,2,0,L|468:316,1,63.8000019470215,2|2,0:0|0:0,0:0:0:0:
412,384,143380,1,8,0:1:0:0:
467,383,143455,1,0,0:0:0:0:
264,384,143530,6,0,L|256:256,1,127.600003894043,2|0,0:0|0:0,0:0:0:0:
312,256,143755,1,0,0:0:0:0:
184,256,143830,2,0,L|176:128,1,127.600003894043,8|0,0:1|0:0,0:0:0:0:
232,128,144055,1,0,0:0:0:0:
104,128,144130,2,0,L|96:0,1,127.600003894043,8|0,0:1|0:0,0:0:0:0:
308,0,144355,6,0,L|436:0,1,127.600003894043,8|0,0:1|0:0,0:0:0:0:
224,128,144580,2,0,L|220:64,1,63.8000019470215,8|0,0:1|0:0,0:0:0:0:
348,256,144730,2,0,L|220:256,1,127.600003894043,8|0,0:1|0:0,0:0:0:0:
216,192,144955,1,2,0:0:0:0:
344,192,145030,1,8,0:1:0:0:
400,192,145105,1,0,0:0:0:0:
272,320,145180,6,0,L|56:320,1,215.600002056122,4|2,0:0|0:0,0:0:0:0:
120,320,145405,1,2,0:0:0:0:
332,320,145480,2,0,L|340:192,1,127.600003894043,8|2,0:1|0:0,0:0:0:0:
276,192,145705,1,2,0:0:0:0:
212,128,145780,6,0,L|428:128,1,215.600002056122,4|0,0:0|0:0,0:0:0:0:
364,128,146005,1,0,0:0:0:0:
152,128,146080,2,0,L|144:0,1,127.600003894043,8|2,0:1|0:0,0:0:0:0:
208,0,146305,1,0,0:0:0:0:
420,0,146380,6,0,L|484:0,1,63.8000019470215,4|0,0:0|0:0,0:0:0:0:
336,64,146530,1,2,0:0:0:0:
192,64,146605,1,0,0:0:0:0:
336,128,146680,2,0,L|400:128,1,63.8000019470215,4|0,0:0|0:0,0:0:0:0:
256,192,146830,1,2,0:0:0:0:
112,192,146905,1,0,0:0:0:0:
256,256,146980,6,0,B|336:56|336:56|336:272|336:272|256:72|256:72|472:72,1,862.400008224487,4|2,0:0|0:0,0:0:0:0:
256,192,147730,12,0,151780,2:0:0:0:
256,224,152380,5,2,2:0:0:0:
252,136,152530,1,0,0:0:0:0:
248,48,152680,1,0,0:0:0:0:
244,136,152830,1,0,0:0:0:0:
240,224,152980,1,0,0:0:0:0:
236,312,153130,1,0,0:0:0:0:
232,224,153280,1,0,0:0:0:0:
228,136,153430,1,0,0:0:0:0:
80,48,153580,5,2,2:0:0:0:
78,136,153730,1,0,0:0:0:0:
76,224,153880,1,0,0:0:0:0:
74,312,154030,1,0,0:0:0:0:
72,224,154180,1,0,0:0:0:0:
70,136,154330,1,0,0:0:0:0:
68,48,154480,1,0,0:0:0:0:
66,136,154630,1,0,0:0:0:0:
212,312,154780,6,0,L|216:224,1,88,2|0,2:0|0:0,0:0:0:0:
364,224,155080,2,0,L|368:136,1,88,2|0,2:0|0:0,0:0:0:0:
220,136,155380,1,2,2:0:0:0:
368,48,155530,2,0,L|280:40,1,88,2|0,2:0|0:0,0:0:0:0:
428,128,155830,5,2,2:0:0:0:
348,160,155980,1,0,0:0:0:0:
312,240,156130,1,0,0:0:0:0:
348,320,156280,1,0,0:0:0:0:
428,352,156430,1,0,0:0:0:0:
280,352,156580,2,0,L|276:264,1,88,2|0,2:0|0:0,0:0:0:0:
128,264,156880,2,0,L|124:176,1,88,2|0,2:0|0:0,0:0:0:0:
272,88,157180,5,2,2:0:0:0:
352,120,157330,1,0,0:0:0:0:
388,200,157480,1,0,0:0:0:0:
352,280,157630,1,0,0:0:0:0:
204,368,157780,2,0,L|200:280,1,88,0|0,0:0|0:0,0:0:0:0:
348,192,158080,2,0,L|352:280,1,88,0|0,0:0|0:0,0:0:0:0:
204,368,158380,5,2,2:0:0:0:
168,288,158530,1,0,0:0:0:0:
204,208,158680,1,0,0:0:0:0:
284,176,158830,1,0,0:0:0:0:
136,88,158980,2,0,L|224:84,1,88,0|0,0:0|0:0,0:0:0:0:
372,260,159280,2,0,L|460:256,1,88,0|0,0:0|0:0,0:0:0:0:
312,344,159580,6,0,L|308:256,1,88,2|0,2:0|0:0,0:0:0:0:
396,252,159880,1,0,0:0:0:0:
248,164,160030,1,2,2:0:0:0:
336,160,160180,2,0,L|340:72,1,88,0|0,0:0|0:0,0:0:0:0:
192,248,160480,2,0,L|188:160,1,88,2|0,2:0|0:0,0:0:0:0:
40,72,160780,5,2,2:0:0:0:
120,104,160930,1,0,0:0:0:0:
156,184,161080,1,0,0:0:0:0:
120,264,161230,1,0,0:0:0:0:
40,296,161380,2,0,B|40:0|40:0|40:148|40:148|188:148,1,591.359981953126,2|2,2:0|2:0,0:0:0:0:
192,176,162430,5,0,2:0:0:0:
196,204,162880,1,0,2:0:0:0:
316,204,163180,1,2,2:0:0:0:
320,232,163630,1,0,2:0:0:0:
324,260,164080,1,0,2:0:0:0:
444,260,164380,5,2,2:0:0:0:
448,288,164680,1,0,2:0:0:0:
328,288,164980,1,0,2:0:0:0:
324,316,165130,1,0,2:0:0:0:
204,316,165430,1,2,2:0:0:0:
200,344,165880,1,0,2:0:0:0:
80,344,166180,1,2,2:0:0:0:
76,372,166480,1,2,2:0:0:0:
472,92,166780,6,0,L|476:4,1,88,10|0,0:1|0:0,0:0:0:0:
328,180,167080,2,0,L|328:92,1,88,2|0,0:0|0:0,0:0:0:0:
180,268,167380,2,0,L|180:180,1,88,2|0,0:0|0:0,0:0:0:0:
32,356,167680,2,0,L|28:268,1,88,2|0,0:0|0:0,0:0:0:0:
300,92,167980,6,0,L|212:88,1,88,2|0,0:1|0:0,0:0:0:0:
428,264,168280,2,0,L|432:176,1,88,8|0,0:1|0:0,0:0:0:0:
284,264,168580,2,0,L|372:260,1,88,2|0,0:0|0:0,0:0:0:0:
156,172,168880,2,0,L|68:168,1,88,8|0,0:1|0:0,0:0:0:0:
284,80,169180,6,0,L|196:76,2,88,10|0|0,0:1|0:0|0:0,0:0:0:0:
68,344,169630,2,0,L|64:256,1,88,10|0,0:1|0:0,0:0:0:0:
152,252,169930,1,0,0:0:0:0:
368,164,170080,2,0,L|372:76,1,88,10|0,0:1|0:0,0:0:0:0:
160,72,170380,5,2,0:0:0:0:
108,76,170455,1,0,0:0:0:0:
256,120,170530,1,8,0:1:0:0:
308,124,170605,1,0,0:0:0:0:
256,168,170680,1,2,0:0:0:0:
308,172,170755,1,0,0:0:0:0:
456,216,170830,1,8,0:1:0:0:
404,220,170905,1,0,0:0:0:0:
256,264,170980,6,0,P|152:180|256:92,1,308,4|0,0:1|0:0,0:0:0:0:
428,80,171580,6,0,B|496:294|496:294|283:348,1,440,4|0,0:0|0:0,0:0:0:0:
84,80,172030,2,0,B|16:294|16:294|229:348,1,440,4|0,0:0|0:0,0:0:0:0:
368,92,172480,2,0,L|148:92,1,220,4|0,0:0|0:0,0:0:0:0:
405,49,172780,6,0,P|154:517|272:0,1,1540,2|0,2:0|0:0,0:0:0:0:
30,38,173980,6,0,B|120:244|120:244|336:244,1,440,4|2,0:0|2:0,0:0:0:0:
104,252,174430,2,0,B|28:40|28:40|244:40,1,440,4|0,0:0|0:0,0:0:0:0:
456,148,174880,6,0,P|172:514|229:68,1,1210,4|0,0:0|0:0,0:0:0:0:
348,152,175780,6,0,L|356:20,1,132,2|0,2:0|0:0,0:0:0:0:
432,20,176080,2,0,L|440:152,1,132,2|0,2:0|0:0,0:0:0:0:
248,64,176380,6,0,B|35:126|35:126|134:320,1,440,4|0,0:0|0:0,0:0:0:0:
384,316,176830,2,0,B|391:182|391:182|54:153,1,440,4|0,0:0|0:0,0:0:0:0:
232,96,177280,2,0,L|452:96,1,220,4|0,0:0|0:0,0:0:0:0:
204,213,177580,6,0,P|152:160|320:220,1,704,2|2,2:0|2:0,0:0:0:0:
492,208,178330,1,0,0:0:0:0:
256,224,178480,2,0,L|108:128,1,176,2|0,2:0|0:0,0:0:0:0:
328,56,178780,6,0,B|404:268|404:268|188:268,1,440,4|0,0:0|0:0,0:0:0:0:
408,72,179230,2,0,P|480:109|326:328,1,440,4|2,0:0|2:0,0:0:0:0:
124,304,179680,2,0,B|18:301|18:301|125:262,1,220,4|0,0:0|0:0,0:0:0:0:
256,144,179980,6,0,B|476:144|476:144|492:364|492:364|476:144,1,660,4|0,0:0|0:0,0:0:0:0:
200,356,180580,2,0,B|148:143|148:143|366:143|366:143|304:356,1,660,4|0,0:1|0:0,0:0:0:0:
90,220,181180,5,4,0:0:0:0:
75,190,181217,1,0,0:0:0:0:
75,157,181255,1,0,0:0:0:0:
88,127,181292,1,0,0:0:0:0:
113,106,181330,1,0,0:0:0:0:
145,97,181367,1,0,0:0:0:0:
177,103,181405,1,0,0:0:0:0:
204,121,181442,1,0,0:0:0:0:
220,149,181480,1,0,0:0:0:0:
224,182,181517,1,0,0:0:0:0:
213,213,181555,1,0,0:0:0:0:
42,220,181630,5,4,0:0:0:0:
27,190,181667,1,0,0:0:0:0:
27,157,181705,1,0,0:0:0:0:
40,127,181742,1,0,0:0:0:0:
65,106,181780,1,0,0:0:0:0:
97,97,181817,1,0,0:0:0:0:
129,103,181855,1,0,0:0:0:0:
156,121,181892,1,0,0:0:0:0:
172,149,181930,1,0,0:0:0:0:
176,182,181967,1,0,0:0:0:0:
165,213,182005,1,0,0:0:0:0:
330,213,182080,5,4,0:0:0:0:
326,180,182117,1,0,0:0:0:0:
312,150,182155,1,0,0:0:0:0:
290,126,182192,1,0,0:0:0:0:
262,109,182230,1,0,0:0:0:0:
230,102,182267,1,0,0:0:0:0:
197,105,182305,1,0,0:0:0:0:
49,333,182380,6,0,P|46:251|470:348,1,770,2|0,2:0|0:0,0:0:0:0:
316,316,182980,5,0,0:0:0:0:
304,292,183017,1,0,0:0:0:0:
300,264,183055,1,0,0:0:0:0:
304,236,183092,1,0,0:0:0:0:
316,208,183130,1,0,0:0:0:0:
340,180,183167,1,0,0:0:0:0:
376,172,183205,1,0,0:0:0:0:
449,171,183280,6,0,L|37:172,1,396.000015106202,0|0,0:0|0:0,0:0:0:0:
220,167,183580,5,4,0:0:0:0:
227,135,183617,1,0,0:0:0:0:
220,103,183655,1,0,0:0:0:0:
202,76,183692,1,0,0:0:0:0:
175,58,183730,1,0,0:0:0:0:
143,51,183767,1,0,0:0:0:0:
111,58,183805,1,0,0:0:0:0:
83,76,183842,1,0,0:0:0:0:
66,104,183880,1,2,2:0:0:0:
60,136,183917,1,0,0:0:0:0:
66,168,183955,1,0,0:0:0:0:
234,167,184030,5,4,0:0:0:0:
227,135,184067,1,0,0:0:0:0:
234,103,184105,1,0,0:0:0:0:
252,76,184142,1,0,0:0:0:0:
279,58,184180,1,2,2:0:0:0:
311,51,184217,1,0,0:0:0:0:
343,58,184255,1,0,0:0:0:0:
371,76,184292,1,0,0:0:0:0:
388,104,184330,1,2,2:0:0:0:
394,136,184367,1,0,0:0:0:0:
388,168,184405,1,0,0:0:0:0:
101,218,184480,6,0,P|82:119|397:257,1,770,4|0,0:0|0:0,0:0:0:0:
240,241,185080,2,0,L|335:241,1,66.0000025177003,0|0,0:0|0:0,0:0:0:0:
138,242,185230,2,0,L|227:242,1,66.0000025177003,0|0,0:0|0:0,0:0:0:0:
371,241,185380,6,0,B|437:186|437:186|327:129,1,198.000007553101,2|0,2:0|0:0,0:0:0:0:
122,239,185680,2,0,B|53:174|53:174|181:108,1,198.000007553101,2|0,2:0|0:0,0:0:0:0:
328,148,185980,5,4,0:0:0:0:
337,117,186018,1,0,0:0:0:0:
333,84,186055,1,0,0:0:0:0:
316,56,186093,1,0,0:0:0:0:
289,38,186130,1,0,0:0:0:0:
257,32,186168,1,0,0:0:0:0:
225,40,186205,1,0,0:0:0:0:
199,60,186243,1,0,0:0:0:0:
184,89,186280,1,0,0:0:0:0:
182,122,186318,1,0,0:0:0:0:
194,153,186355,1,4,0:0:0:0:
328,148,186430,5,4,0:0:0:0:
360,139,186467,1,0,0:0:0:0:
392,130,186505,1,0,0:0:0:0:
424,121,186542,1,0,0:0:0:0:
456,112,186580,1,0,0:0:0:0:
487,103,186617,1,0,0:0:0:0:
460,93,186655,1,0,0:0:0:0:
429,83,186692,1,0,0:0:0:0:
397,73,186730,1,0,0:0:0:0:
366,63,186767,1,0,0:0:0:0:
334,54,186805,1,0,0:0:0:0:
480,48,186880,5,4,0:0:0:0:
484,80,186917,1,0,0:0:0:0:
476,112,186955,1,0,0:0:0:0:
456,138,186992,1,0,0:0:0:0:
429,156,187030,1,0,0:0:0:0:
396,162,187067,1,0,0:0:0:0:
364,156,187105,1,0,0:0:0:0:
163,180,187180,6,0,B|292:162|292:162|203:133,1,198.000007553101,2|0,2:0|0:0,0:0:0:0:
62,134,187480,2,0,L|153:134,3,66.0000025177003,0|0|0|0,0:0|0:0|0:0|0:0,0:0:0:0:
295,135,187780,6,0,B|399:106|399:106|297:59,1,198.000007553101,2|0,2:0|0:0,0:0:0:0:
165,132,188080,2,0,B|61:103|61:103|163:56,1,198.000007553101,2|0,2:0|0:0,0:0:0:0:
307,72,188380,5,4,0:0:0:0:
339,76,188417,1,0,0:0:0:0:
369,90,188455,1,0,0:0:0:0:
394,111,188492,1,0,0:0:0:0:
412,138,188530,1,0,0:0:0:0:
422,170,188567,1,0,0:0:0:0:
423,203,188605,1,0,0:0:0:0:
414,234,188642,1,0,0:0:0:0:
397,262,188680,1,0,0:0:0:0:
373,285,188717,1,0,0:0:0:0:
343,299,188755,1,0,0:0:0:0:
179,309,188830,5,4,0:0:0:0:
209,321,188867,1,0,0:0:0:0:
242,326,188905,1,0,0:0:0:0:
274,325,188942,1,0,0:0:0:0:
306,317,188980,1,0,0:0:0:0:
336,302,189017,1,0,0:0:0:0:
361,281,189055,1,0,0:0:0:0:
382,256,189092,1,0,0:0:0:0:
397,226,189130,1,2,2:0:0:0:
405,194,189167,1,0,0:0:0:0:
407,162,189205,1,0,0:0:0:0:
242,161,189280,5,4,0:0:0:0:
237,193,189317,1,0,0:0:0:0:
245,225,189355,1,0,0:0:0:0:
265,251,189392,1,0,0:0:0:0:
294,267,189430,1,0,0:0:0:0:
326,270,189467,1,0,0:0:0:0:
358,260,189505,1,0,0:0:0:0:
40,80,189580,6,0,P|256:340|472:80,1,770,4|0,0:0|0:0,0:0:0:0:
472,81,190180,6,0,P|256:340|40:80,1,770,2|0,2:0|0:0,0:0:0:0:
272,124,190780,1,12,0:2:0:0:
60,68,190930,6,0,L|211:67,1,132.000005035401,0|8,0:0|0:2,0:0:0:0:
144,68,191155,1,0,0:0:0:0:
96,68,191230,1,2,0:0:0:0:
48,68,191305,1,0,0:0:0:0:
96,68,191380,1,8,0:2:0:0:
300,68,191530,6,0,P|328:80|280:148,1,132.000005035401,0|8,0:0|0:2,0:0:0:0:
236,152,191755,1,0,0:0:0:0:
296,152,191830,1,2,0:0:0:0:
356,152,191905,1,0,0:0:0:0:
296,152,191980,1,8,0:2:0:0:
92,108,192130,6,0,L|240:108,1,132.000005035401,0|8,0:0|0:2,0:0:0:0:
284,108,192355,1,0,0:0:0:0:
224,108,192430,1,2,0:0:0:0:
284,108,192505,1,0,0:0:0:0:
92,108,192580,6,0,L|296:108,2,198.000007553101,8|2|2,0:2|0:0|0:0,0:0:0:0:
152,108,193105,1,0,0:0:0:0:
212,108,193180,1,8,0:2:0:0:
416,108,193330,6,0,L|268:108,1,132.000005035401,0|8,0:0|0:2,0:0:0:0:
344,108,193555,1,0,0:0:0:0:
404,108,193630,1,2,0:0:0:0:
464,108,193705,1,0,0:0:0:0:
404,108,193780,1,8,0:2:0:0:
200,104,193930,6,0,L|48:104,1,132.000005035401,0|8,0:0|0:2,0:0:0:0:
128,104,194155,1,0,0:0:0:0:
188,104,194230,1,2,0:0:0:0:
248,104,194305,1,0,0:0:0:0:
188,104,194380,1,8,0:2:0:0:
392,104,194530,6,0,L|256:104,1,132.000005035401,0|8,0:0|0:2,0:0:0:0:
200,104,194755,1,0,0:0:0:0:
260,104,194830,1,2,0:0:0:0:
320,104,194905,1,0,0:0:0:0:
152,64,194980,6,0,L|368:64,2,198.000007553101,8|4|4,0:2|0:0|0:0,0:0:0:0:
212,64,195505,1,0,0:0:0:0:
152,64,195580,5,8,0:2:0:0:
354,258,195730,1,0,0:0:0:0:
240,257,195880,2,0,L|156:257,2,66.0000025177003,8|0|2,0:2|0:0|0:0,0:0:0:0:
443,255,196180,5,8,0:2:0:0:
240,257,196330,1,0,0:0:0:0:
354,258,196480,2,0,L|365:163,1,66.0000025177003,8|0,0:2|0:0,0:0:0:0:
296,186,196630,1,2,0:0:0:0:
94,187,196780,5,8,0:2:0:0:
296,186,196930,1,0,0:0:0:0:
186,186,197080,1,8,0:2:0:0:
134,169,197155,1,0,0:0:0:0:
186,186,197230,1,2,0:0:0:0:
388,191,197380,5,8,0:2:0:0:
186,186,197530,1,0,0:0:0:0:
158,128,197605,1,2,0:0:0:0:
180,67,197680,1,8,0:2:0:0:
238,41,197755,1,0,0:0:0:0:
298,64,197830,1,2,0:0:0:0:
96,70,197980,5,8,0:2:0:0:
298,64,198130,1,0,0:0:0:0:
233,63,198280,1,8,0:2:0:0:
298,64,198355,1,0,0:0:0:0:
364,65,198430,1,2,0:0:0:0:
162,75,198580,5,8,0:2:0:0:
364,80,198730,1,0,0:0:0:0:
256,76,198880,1,8,0:2:0:0:
201,49,198955,1,0,0:0:0:0:
256,76,199030,1,2,0:0:0:0:
479,102,199180,5,8,0:2:0:0:
277,98,199330,1,0,0:0:0:0:
479,102,199480,1,8,0:2:0:0:
483,166,199555,1,0,0:0:0:0:
450,222,199630,1,0,0:0:0:0:
392,250,199705,1,0,0:0:0:0:
327,240,199780,5,8,0:2:0:0:
280,195,199855,1,0,0:0:0:0:
422,177,199930,2,0,L|499:177,1,66.0000025177003,2|0,0:0|0:0,0:0:0:0:
324,116,200080,2,0,L|116:112,1,207.679992711426,4|0,0:0|0:0,0:0:0:0:
448,92,200380,5,4,0:0:0:0:
244,88,200530,1,0,0:0:0:0:
352,88,200680,1,0,0:0:0:0:
412,88,200755,1,0,0:0:0:0:
352,88,200830,1,0,0:0:0:0:
292,88,200905,1,0,0:0:0:0:
72,88,200980,6,0,L|292:88,1,220,2|0,0:0|0:0,0:0:0:0:
88,88,201280,1,0,0:0:0:0:
28,88,201355,1,0,0:0:0:0:
28,88,201430,1,0,0:0:0:0:
88,88,201505,1,0,0:0:0:0:
368,88,201580,6,0,L|148:88,1,220,2|0,0:0|0:0,0:0:0:0:
352,256,201880,1,0,0:0:0:0:
412,256,201955,1,0,0:0:0:0:
352,256,202030,1,0,0:0:0:0:
292,256,202105,1,0,0:0:0:0:
72,256,202180,6,0,L|292:256,1,220,2|0,0:0|0:0,0:0:0:0:
232,256,202405,1,4,0:0:0:0:
72,256,202480,1,0,0:0:0:0:
132,256,202555,1,0,0:0:0:0:
192,256,202630,1,4,0:0:0:0:
396,248,202780,6,0,L|148:248,1,220,4|0,0:0|0:0,0:0:0:0:
380,192,203080,1,0,0:0:0:0:
440,192,203155,1,0,0:0:0:0:
440,192,203230,1,0,0:0:0:0:
380,192,203305,1,0,0:0:0:0:
100,192,203380,6,0,L|344:192,1,220,2|0,0:0|0:0,0:0:0:0:
116,144,203680,1,0,0:0:0:0:
56,144,203755,1,0,0:0:0:0:
56,144,203830,1,0,0:0:0:0:
116,144,203905,1,0,0:0:0:0:
396,144,203980,6,0,L|164:144,1,220,2|0,0:0|0:0,0:0:0:0:
380,104,204280,1,0,0:0:0:0:
320,104,204355,1,0,0:0:0:0:
260,104,204430,1,0,0:0:0:0:
200,104,204505,1,0,0:0:0:0:
420,104,204580,6,0,L|168:104,1,220,2|0,0:0|0:0,0:0:0:0:
360,104,204805,1,4,0:0:0:0:
420,104,204880,1,0,0:0:0:0:
360,104,204955,1,0,0:0:0:0:
200,104,205030,1,4,0:0:0:0:
140,104,205105,1,0,0:0:0:0:
276,40,205180,6,0,L|384:40,1,66.0000025177003,4|0,0:0|0:0,0:0:0:0:
342,40,205330,2,0,L|256:40,1,66.0000025177003,8|0,0:1|0:0,0:0:0:0:
112,36,205480,2,0,L|112:140,1,66.0000025177003,2|0,0:0|0:0,0:0:0:0:
276,100,205630,2,0,L|276:184,1,66.0000025177003,8|0,0:1|0:0,0:0:0:0:
104,160,205780,5,2,0:0:0:0:
44,160,205855,1,0,0:0:0:0:
44,160,205930,1,8,0:1:0:0:
104,160,206005,1,0,0:0:0:0:
268,160,206080,1,2,0:0:0:0:
268,160,206155,1,0,0:0:0:0:
104,160,206230,1,8,0:1:0:0:
44,160,206305,1,0,0:0:0:0:
268,160,206380,6,0,L|380:160,1,66.0000025177003,4|0,0:0|0:0,0:0:0:0:
268,160,206530,2,0,L|172:160,1,66.0000025177003,8|0,0:1|0:0,0:0:0:0:
404,156,206680,1,2,0:0:0:0:
464,156,206755,1,0,0:0:0:0:
300,160,206830,1,8,0:1:0:0:
240,160,206905,1,0,0:0:0:0:
44,176,206980,5,2,0:0:0:0:
104,176,207055,1,0,0:0:0:0:
44,176,207130,1,8,0:1:0:0:
104,176,207205,1,0,0:0:0:0:
292,152,207280,1,2,0:0:0:0:
352,152,207355,1,0,0:0:0:0:
168,112,207430,1,8,0:1:0:0:
108,112,207505,1,0,0:0:0:0:
404,120,207580,5,4,0:0:0:0:
400,84,207630,1,0,0:0:0:0:
384,52,207680,1,0,0:0:0:0:
360,24,207730,1,8,0:1:0:0:
324,12,207780,1,0,0:0:0:0:
280,8,207830,1,0,0:0:0:0:
436,120,207880,5,2,0:0:0:0:
472,132,207930,1,0,0:0:0:0:
496,164,207980,1,0,0:0:0:0:
496,200,208030,1,8,0:1:0:0:
472,228,208080,1,0,0:0:0:0:
436,240,208130,1,0,0:0:0:0:
240,348,208180,5,4,0:0:0:0:
196,344,208230,1,0,0:0:0:0:
160,332,208280,1,8,0:1:0:0:
136,304,208330,1,0,0:0:0:0:
120,272,208380,1,0,0:0:0:0:
116,236,208430,1,4,0:0:0:0:
272,236,208480,5,2,0:0:0:0:
244,224,208530,1,0,0:0:0:0:
228,192,208580,1,0,0:0:0:0:
232,156,208630,1,8,0:1:0:0:
256,128,208680,1,0,0:0:0:0:
292,116,208730,1,0,0:0:0:0:
428,12,208780,6,0,B|464:216|464:216|428:12|428:12|280:160|280:160|132:304|132:304|96:100|96:100|304:100|304:100|344:304,1,1453.75994897998,4|0,0:0|0:0,0:0:0:0:
93,321,209980,6,0,P|87:274|156:225,1,127.600003894043,4|2,0:0|0:1,0:0:0:0:
207,224,210205,1,0,0:0:0:0:
335,213,210280,2,0,L|262:211,1,63.8000019470215,10|0,0:0|0:0,0:0:0:0:
401,292,210430,2,0,L|505:296,1,63.8000019470215,2|0,0:1|0:0,0:0:0:0:
274,319,210580,5,2,0:0:0:0:
222,286,210655,1,0,0:0:0:0:
224,225,210730,1,2,0:1:0:0:
278,197,210805,1,0,0:0:0:0:
214,187,210880,2,0,L|96:179,1,63.8000019470215,10|0,0:0|0:0,0:0:0:0:
278,158,211030,2,0,L|374:158,1,63.8000019470215,2|0,0:1|0:0,0:0:0:0:
98,81,211180,6,0,P|73:151|132:205,1,127.600003894043,6|2,0:0|0:1,0:0:0:0:
164,213,211405,1,0,0:0:0:0:
292,293,211480,2,0,L|298:205,1,63.8000019470215,10|0,0:0|0:0,0:0:0:0:
233,232,211630,2,0,L|228:150,1,63.8000019470215,2|0,0:1|0:0,0:0:0:0:
356,167,211780,6,0,P|347:117|278:81,1,127.600003894043,2|2,0:0|0:1,0:0:0:0:
125,97,212005,2,0,L|277:110,1,127.600003894043,8|0,0:0|0:0,0:0:0:0:
316,158,212230,2,0,L|241:153,1,63.8000019470215,8|0,0:0|0:0,0:0:0:0:
434,188,212380,5,2,0:0:0:0:
450,247,212455,1,0,0:0:0:0:
416,298,212530,1,2,0:1:0:0:
354,306,212605,1,0,0:0:0:0:
194,250,212680,2,0,L|123:246,1,63.8000019470215,14|0,0:0|0:0,0:0:0:0:
195,222,212830,2,0,L|284:217,1,63.8000019470215,2|0,0:1|0:0,0:0:0:0:
81,169,212980,6,0,L|240:160,1,127.600003894043,6|2,0:0|0:1,0:0:0:0:
336,185,213205,2,0,L|201:173,1,127.600003894043,4|0,0:0|0:0,0:0:0:0:
81,134,213430,2,0,L|160:137,1,63.8000019470215,4|0,0:0|0:0,0:0:0:0:
412,261,213580,6,0,L|489:261,2,63.8000019470215,2|0|2,0:0|0:0|0:1,0:0:0:0:
283,300,213805,1,0,0:0:0:0:
143,250,213880,2,0,L|54:250,2,63.8000019470215,10|0|2,0:0|0:0|0:1,0:0:0:0:
283,300,214105,1,0,0:0:0:0:
142,324,214180,6,0,L|54:325,1,63.8000019470215,6|0,0:0|0:0,0:0:0:0:
215,258,214330,2,0,L|300:258,1,63.8000019470215,2|0,0:1|0:0,0:0:0:0:
344,230,214480,2,0,L|251:230,1,63.8000019470215,10|0,0:0|0:0,0:0:0:0:
423,263,214630,2,0,L|512:263,1,63.8000019470215,4|0,0:0|0:0,0:0:0:0:
305,171,214780,6,0,P|211:201|196:263,1,127.600003894043,2|2,0:0|0:1,0:0:0:0:
196,289,215005,1,0,0:0:0:0:
337,345,215080,2,0,L|406:340,1,63.8000019470215,10|0,0:0|0:0,0:0:0:0:
253,248,215230,2,0,L|187:248,1,63.8000019470215,2|0,0:1|0:0,0:0:0:0:
61,253,215380,6,0,P|47:187|134:142,1,127.600003894043,6|2,0:0|0:1,0:0:0:0:
149,129,215605,1,0,0:0:0:0:
277,133,215680,2,0,L|378:128,1,63.8000019470215,10|0,0:0|0:0,0:0:0:0:
211,223,215830,2,0,L|119:220,1,63.8000019470215,4|0,0:0|0:0,0:0:0:0:
313,325,215980,5,2,0:0:0:0:
329,265,216055,1,0,0:0:0:0:
299,211,216130,1,2,0:1:0:0:
239,195,216205,1,0,0:0:0:0:
112,298,216280,2,0,L|220:293,1,63.8000019470215,10|0,0:0|0:0,0:0:0:0:
331,221,216430,2,0,L|244:216,1,63.8000019470215,4|0,0:0|0:0,0:0:0:0:
416,238,216580,6,0,P|433:148|402:125,1,127.600003894043,2|2,0:0|0:1,0:0:0:0:
285,114,216805,2,0,L|123:106,1,127.600003894043,4|0,0:0|0:0,0:0:0:0:
286,86,217030,2,0,L|360:87,1,63.8000019470215,0|0,0:0|0:0,0:0:0:0:
123,78,217180,6,0,P|99:194|145:234,1,191.400005841065,2|0,0:0|0:0,0:0:0:0:
274,251,217480,1,14,0:0:0:0:
146,267,217630,2,0,L|39:267,2,63.8000019470215,2|0|2,0:1|0:0|0:0,0:0:0:0:
363,327,217930,5,4,0:0:0:0:
235,327,218080,1,10,0:0:0:0:
452,243,218230,1,4,0:0:0:0:
388,245,218305,1,0,0:0:0:0:
246,185,218380,6,0,P|194:150|185:90,1,127.600003894043,4|0,0:1|0:0,0:0:0:0:
327,138,218605,2,0,L|174:134,1,127.600003894043,4|0,0:1|0:0,0:0:0:0:
340,299,218830,2,0,L|414:297,1,63.8000019470215,4|0,0:1|0:0,0:0:0:0:
210,328,218980,5,0,0:0:0:0:
146,327,219055,1,2,0:0:0:0:
210,328,219130,1,2,0:0:0:0:
146,327,219205,1,0,0:0:0:0:
338,219,219280,2,0,L|263:217,1,63.8000019470215,8|0,0:0|0:0,0:0:0:0:
146,194,219430,2,0,L|35:194,1,63.8000019470215,8|0,0:0|0:0,0:0:0:0:
273,117,219580,6,0,P|308:190|220:279,1,191.400005841065,4|0,0:1|0:0,0:0:0:0:
115,294,219880,6,0,L|38:286,1,63.8000019470215,4|0,0:0|0:0,0:0:0:0:
179,255,220030,2,0,L|251:252,1,63.8000019470215,2|0,0:1|0:0,0:0:0:0:
372,256,220180,5,2,0:0:0:0:
368,318,220255,1,0,0:0:0:0:
323,361,220330,1,2,0:1:0:0:
261,362,220405,1,0,0:0:0:0:
197,340,220480,2,0,L|296:338,1,63.8000019470215,10|0,0:0|0:0,0:0:0:0:
121,262,220630,2,0,L|7:259,1,63.8000019470215,2|0,0:1|0:0,0:0:0:0:
236,280,220780,5,6,0:0:0:0:
267,226,220855,1,0,0:0:0:0:
248,167,220930,1,2,0:1:0:0:
191,143,221005,1,0,0:0:0:0:
57,146,221080,2,0,L|153:146,1,63.8000019470215,10|0,0:0|0:0,0:0:0:0:
263,247,221230,2,0,L|192:247,1,63.8000019470215,2|0,0:1|0:0,0:0:0:0:
347,309,221380,6,0,L|477:308,1,127.600003894043,2|2,0:0|0:1,0:0:0:0:
347,234,221605,2,0,L|244:234,2,63.8000019470215,8|0|0,0:0|0:0|0:0,0:0:0:0:
205,172,221830,2,0,L|122:171,1,63.8000019470215,8|0,0:0|0:0,0:0:0:0:
306,102,221980,5,2,0:0:0:0:
333,157,222055,1,0,0:0:0:0:
314,216,222130,1,2,0:1:0:0:
258,243,222205,1,0,0:0:0:0:
69,314,222280,1,14,0:0:0:0:
55,253,222355,1,0,0:0:0:0:
87,199,222430,1,2,0:1:0:0:
147,182,222505,1,0,0:0:0:0:
326,174,222580,6,0,L|459:176,1,127.600003894043,6|2,0:0|0:1,0:0:0:0:
292,120,222805,1,4,0:0:0:0:
228,118,222880,1,10,0:0:0:0:
164,117,222955,1,0,0:0:0:0:
292,247,223030,2,0,L|369:247,1,63.8000019470215,4|0,0:0|0:0,0:0:0:0:
162,323,223180,6,0,L|68:321,2,63.8000019470215,2|0|2,0:0|0:0|0:1,0:0:0:0:
290,311,223405,1,0,0:0:0:0:
418,275,223480,2,0,L|521:275,2,63.8000019470215,10|0|2,0:0|0:0|0:1,0:0:0:0:
290,311,223705,1,0,0:0:0:0:
419,184,223780,6,0,L|425:120,1,63.8000019470215,6|0,0:0|0:0,0:0:0:0:
259,146,223930,2,0,L|254:59,1,63.8000019470215,2|0,0:1|0:0,0:0:0:0:
321,82,224080,1,14,0:0:0:0:
103,82,224230,1,2,0:1:0:0:
321,82,224380,5,4,0:0:0:0:
373,114,224455,1,0,0:0:0:0:
387,175,224530,1,0,0:0:0:0:
354,228,224605,1,0,0:0:0:0:
294,242,224680,1,2,0:1:0:0:
230,247,224755,1,0,0:0:0:0:
371,316,224830,2,0,L|308:318,1,63.8000019470215,8|0,0:1|0:0,0:0:0:0:
114,255,224980,5,8,0:1:0:0:
115,192,225055,1,0,0:0:0:0:
151,141,225130,1,0,0:0:0:0:
211,120,225205,1,0,0:0:0:0:
275,123,225280,2,0,L|159:124,1,63.8000019470215,2|0,0:1|0:0,0:0:0:0:
352,159,225430,2,0,L|358:223,1,63.8000019470215,2|0,0:0|0:0,0:0:0:0:
147,184,225580,5,8,0:1:0:0:
122,241,225655,1,0,0:0:0:0:
136,302,225730,1,0,0:0:0:0:
184,343,225805,1,0,0:0:0:0:
248,328,225880,2,0,L|156:313,1,63.8000019470215,2|0,0:1|0:0,0:0:0:0:
43,277,226030,2,0,L|150:270,1,63.8000019470215,8|0,0:1|0:0,0:0:0:0:
249,275,226180,6,0,L|373:280,2,63.8000019470215,8|0|0,0:1|0:0|0:0,0:0:0:0:
108,183,226405,2,0,L|99:118,1,63.8000019470215,2|2,0:0|0:1,0:0:0:0:
163,109,226555,1,0,0:0:0:0:
304,107,226630,2,0,L|368:104,1,63.8000019470215,8|0,0:1|0:0,0:0:0:0:
227,118,226780,5,8,0:1:0:0:
92,172,226930,1,0,0:0:0:0:
227,231,227080,1,0,0:0:0:0:
23,289,227230,1,8,0:1:0:0:
387,336,227380,6,0,L|445:311,1,63.8000019470215
272,240,227530,2,0,L|266:177,1,63.8000019470215,8|0,0:1|0:0,0:0:0:0:
93,149,227680,2,0,L|87:86,1,63.8000019470215
227,51,227830,2,0,L|148:17,1,63.8000019470215,8|0,0:1|0:0,0:0:0:0:
309,184,227980,6,0,L|381:181,2,63.8000019470215,4|0|0,0:1|0:0|0:0,0:0:0:0:
180,290,228205,2,0,L|94:289,2,63.8000019470215,4|0|0,0:1|0:0|0:0,0:0:0:0:
348,340,228430,2,0,P|262:191|36:144,1,382.800011682129,4|2,0:1|0:0,0:0:0:0:
476,205,229180,6,0,P|472:134|393:102,1,127.600003894043,4|2,0:0|0:1,0:0:0:0:
365,93,229405,1,0,0:0:0:0:
218,161,229480,2,0,L|146:158,1,63.8000019470215,8|0,0:0|0:0,0:0:0:0:
284,212,229630,2,0,L|370:217,1,63.8000019470215,2|0,0:1|0:0,0:0:0:0:
209,328,229780,5,2,0:0:0:0:
152,304,229855,1,0,0:0:0:0:
144,244,229930,1,2,0:1:0:0:
193,207,230005,1,0,0:0:0:0:
259,203,230080,2,0,L|168:199,1,63.8000019470215,8|0,0:0|0:0,0:0:0:0:
336,289,230230,2,0,L|399:284,1,63.8000019470215,2|0,0:1|0:0,0:0:0:0:
259,203,230380,6,0,L|129:157,1,127.600003894043,6|2,0:0|0:1,0:0:0:0:
203,149,230605,1,0,0:0:0:0:
331,208,230680,1,8,0:0:0:0:
329,270,230755,1,0,0:0:0:0:
290,320,230830,1,2,0:1:0:0:
230,337,230905,1,0,0:0:0:0:
358,337,230980,6,0,L|456:336,2,63.8000019470215,2|0|2,0:0|0:0|0:1,0:0:0:0:
230,273,231205,1,0,0:0:0:0:
166,269,231280,1,8,0:0:0:0:
102,265,231355,1,0,0:0:0:0:
230,245,231430,2,0,L|309:232,1,63.8000019470215,2|0,0:1|0:0,0:0:0:0:
73,286,231580,6,0,B|56:160|56:160|116:136,1,191.400005841065,2|0,0:0|0:0,0:0:0:0:
283,324,231880,2,0,B|300:198|300:198|240:174,1,191.400005841065,12|0,0:0|0:0,0:0:0:0:
430,238,232180,6,0,L|499:237,2,63.8000019470215,6|0|2,0:0|0:0|0:1,0:0:0:0:
265,198,232405,2,0,L|173:198,2,63.8000019470215,4|8|0,0:0|0:0|0:0,0:0:0:0:
102,265,232630,2,0,L|184:259,1,63.8000019470215,4|0,0:0|0:0,0:0:0:0:
327,346,232780,5,2,0:0:0:0:
344,286,232855,1,0,0:0:0:0:
315,230,232930,1,2,0:1:0:0:
256,210,233005,1,0,0:0:0:0:
103,177,233080,2,0,L|41:167,3,63.8000019470215,8|0|2|0,0:0|0:0|0:1|0:0,0:0:0:0:
211,133,233380,6,0,L|299:126,3,63.8000019470215,6|0|2|0,0:0|0:0|0:1|0:0,0:0:0:0:
415,218,233680,2,0,L|421:155,1,63.8000019470215,8|0,0:0|0:0,0:0:0:0:
280,272,233830,2,0,L|217:269,1,63.8000019470215,4|0,0:0|0:0,0:0:0:0:
403,259,233980,6,0,P|396:323|301:349,1,127.600003894043,2|2,0:0|0:1,0:0:0:0:
283,343,234205,1,0,0:0:0:0:
154,236,234280,2,0,L|219:194,1,63.8000019470215,8|0,0:0|0:0,0:0:0:0:
80,291,234430,2,0,L|2:281,1,63.8000019470215,2|0,0:1|0:0,0:0:0:0:
207,139,234580,6,0,P|239:202|165:258,1,127.600003894043,6|2,0:0|0:1,0:0:0:0:
149,248,234805,1,0,0:0:0:0:
21,191,234880,2,0,L|98:194,1,63.8000019470215,8|0,0:0|0:0,0:0:0:0:
238,217,235030,2,0,L|138:202,1,63.8000019470215,2|0,0:1|0:0,0:0:0:0:
316,341,235180,5,2,0:0:0:0:
375,321,235255,1,2,0:1:0:0:
404,265,235330,1,2,0:1:0:0:
387,205,235405,1,2,0:0:0:0:
234,163,235480,2,0,L|212:100,1,63.8000019470215,8|0,0:0|0:0,0:0:0:0:
64,108,235630,2,0,L|16:64,1,63.8000019470215,4|0,0:0|0:0,0:0:0:0:
234,198,235780,6,0,L|100:192,1,127.600003894043,2|2,0:0|0:1,0:0:0:0:
247,149,236005,2,0,L|377:146,1,127.600003894043,4|0,0:0|0:0,0:0:0:0:
202,67,236230,2,0,L|267:63,1,63.8000019470215
408,215,236380,5,12,0:2:0:0:
178,271,236530,1,12,0:2:0:0:
408,215,236830,5,12,0:2:0:0:
115,327,236980,1,12,0:2:0:0:
345,263,237280,5,8,0:0:0:0:
64,176,237430,1,8,0:1:0:0:
192,162,237505,1,8,0:1:0:0:
320,168,237580,5,12,0:2:0:0:
90,225,237730,1,8,0:1:0:0:
154,230,237805,1,0,0:0:0:0:
309,335,237880,1,4,0:2:0:0:
245,332,237955,1,0,0:0:0:0:
181,328,238030,1,8,0:1:0:0:
398,300,238180,6,0,L|416:215,1,63.8000019470215,4|0,0:2|0:0,0:0:0:0:
255,248,238330,2,0,L|254:156,1,63.8000019470215,8|0,0:1|0:0,0:0:0:0:
113,190,238480,2,0,L|94:108,1,63.8000019470215,4|0,0:2|0:0,0:0:0:0:
278,102,238630,2,0,L|293:40,1,63.8000019470215,8|0,0:1|0:0,0:0:0:0:
59,155,238780,6,0,P|32:232|124:298,1,191.400005841065,4|0,0:1|0:0,0:0:0:0:
286,189,239080,6,0,L|372:180,1,63.8000019470215,4|0,0:0|0:0,0:0:0:0:
190,155,239230,2,0,L|80:152,1,63.8000019470215,2|0,0:1|0:0,0:0:0:0:
350,193,239380,5,2,0:0:0:0:
365,253,239455,1,0,0:0:0:0:
333,306,239530,1,2,0:1:0:0:
273,322,239605,1,0,0:0:0:0:
414,311,239680,2,0,L|482:312,1,63.8000019470215,8|0,0:0|0:0,0:0:0:0:
329,237,239830,2,0,L|231:233,1,63.8000019470215,2|0,0:1|0:0,0:0:0:0:
84,201,239980,6,0,L|13:197,2,63.8000019470215,6|0|2,0:0|0:0|0:1,0:0:0:0:
211,258,240205,1,0,0:0:0:0:
339,187,240280,2,0,L|435:190,1,63.8000019470215,8|0,0:0|0:0,0:0:0:0:
273,136,240430,2,0,L|166:137,1,63.8000019470215,2|0,0:1|0:0,0:0:0:0:
390,344,240580,5,2,0:0:0:0:
430,298,240655,1,0,0:0:0:0:
418,237,240730,1,2,0:1:0:0:
363,211,240805,1,0,0:0:0:0:
204,195,240880,2,0,L|127:192,1,63.8000019470215,8|0,0:0|0:0,0:0:0:0:
205,157,241030,2,0,L|295:159,1,63.8000019470215,2|0,0:1|0:0,0:0:0:0:
86,316,241180,6,0,L|-8:304,1,63.8000019470215,2|0,0:0|0:0,0:0:0:0:
152,267,241330,2,0,L|223:268,1,63.8000019470215,2|0,0:1|0:0,0:0:0:0:
443,270,241480,2,0,L|361:264,1,63.8000019470215,12|0,0:0|0:0,0:0:0:0:
250,214,241630,2,0,L|353:211,1,63.8000019470215,2|0,0:1|0:0,0:0:0:0:
443,212,241780,6,0,L|443:134,1,63.8000019470215,6|0,0:0|0:0,0:0:0:0:
379,135,241930,1,2,0:1:0:0:
245,314,242005,2,0,L|158:313,2,63.8000019470215,4|8|0,0:0|0:0|0:0,0:0:0:0:
109,248,242230,2,0,L|107:140,1,63.8000019470215,4|0,0:0|0:0,0:0:0:0:
275,185,242380,6,0,L|366:182,2,63.8000019470215,2|0|2,0:0|0:0|0:1,0:0:0:0:
146,309,242605,1,0,0:0:0:0:
274,291,242680,2,0,L|361:282,1,63.8000019470215,8|0,0:0|0:0,0:0:0:0:
208,240,242830,2,0,L|302:228,1,63.8000019470215,2|0,0:1|0:0,0:0:0:0:
401,218,242980,6,0,L|506:213,1,63.8000019470215,6|0,0:0|0:0,0:0:0:0:
334,165,243130,2,0,L|253:166,1,63.8000019470215,2|0,0:1|0:0,0:0:0:0:
141,169,243280,2,0,L|51:166,1,63.8000019470215,8|0,0:0|0:0,0:0:0:0:
237,227,243430,2,0,L|339:233,1,63.8000019470215,4|0,0:0|0:0,0:0:0:0:
84,98,243580,5,4,0:0:0:0:
41,144,243655,1,0,0:0:0:0:
29,206,243730,1,0,0:0:0:0:
52,264,243805,1,0,0:0:0:0:
102,302,243880,1,2,0:1:0:0:
165,308,243955,1,0,0:0:0:0:
312,293,244030,2,0,L|216:287,1,63.8000019470215,8|0,0:1|0:0,0:0:0:0:
410,323,244180,5,8,0:1:0:0:
452,277,244255,1,0,0:0:0:0:
453,215,244330,1,0,0:0:0:0:
411,169,244405,1,0,0:0:0:0:
283,160,244480,2,0,L|377:159,1,63.8000019470215,2|0,0:1|0:0,0:0:0:0:
218,227,244630,2,0,L|116:220,1,63.8000019470215,0|0,0:0|0:0,0:0:0:0:
26,249,244780,5,8,0:1:0:0:
35,310,244855,1,0,0:0:0:0:
82,352,244930,1,0,0:0:0:0:
145,354,245005,1,0,0:0:0:0:
272,342,245080,2,0,L|362:344,1,63.8000019470215,2|0,0:1|0:0,0:0:0:0:
464,281,245230,2,0,L|388:276,1,63.8000019470215,8|0,0:1|0:0,0:0:0:0:
171,258,245380,5,8,0:1:0:0:
123,215,245455,1,0,0:0:0:0:
110,146,245530,1,0,0:0:0:0:
269,111,245605,2,0,L|349:110,2,63.8000019470215,0|2|0,0:0|0:1|0:0,0:0:0:0:
127,235,245830,2,0,L|42:230,1,63.8000019470215
298,337,245980,5,8,0:1:0:0:
163,305,246130,1,0,0:0:0:0:
298,283,246280,1,0,0:0:0:0:
75,242,246430,1,8,0:1:0:0:
381,184,246580,6,0,L|456:181,1,63.8000019470215,0|0,0:0|0:0,0:0:0:0:
285,124,246730,2,0,L|221:124,1,63.8000019470215,8|0,0:1|0:0,0:0:0:0:
30,275,246880,2,0,L|110:271,1,63.8000019470215,0|0,0:0|0:0,0:0:0:0:
288,271,247030,2,0,L|413:273,1,63.8000019470215,8|0,0:1|0:0,0:0:0:0:
58,79,247180,6,0,P|41:176|358:312,1,510.400015576172,4|2,0:0|0:0,0:0:0:0:
145,201,248080,1,8,0:1:0:0:
374,170,248380,5,4,0:1:0:0:
406,170,248398,1,0,0:0:0:0:
377,170,248417,1,0,0:0:0:0:
402,170,248435,1,0,0:0:0:0:
379,170,248455,1,0,0:0:0:0:
400,170,248473,1,0,0:0:0:0:
381,170,248492,1,0,0:0:0:0:
400,170,248511,1,0,0:0:0:0:
379,170,248529,1,0,0:0:0:0:
402,170,248549,1,0,0:0:0:0:
377,170,248567,1,0,0:0:0:0:
406,170,248586,1,0,0:0:0:0:
374,170,248604,1,0,0:0:0:0:
207,259,248680,6,0,B|427:259|427:259|172:259,1,440,4|2,0:0|0:0,0:0:0:0:
164,215,249030,1,0,0:0:0:0:
136,183,249080,1,0,0:0:0:0:
136,141,249130,1,2,0:1:0:0:
164,110,249180,1,0,0:0:0:0:
205,104,249230,1,0,0:0:0:0:
312,164,249280,2,0,L|328:164,1,15.9500004867554,8|0,0:0|0:0,0:0:0:0:
232,192,249430,2,0,L|248:192,1,15.9500004867554,2|0,0:1|0:0,0:0:0:0:
464,282,249580,5,2,0:0:0:0:
473,260,249598,1,0,0:0:0:0:
454,260,249617,1,0,0:0:0:0:
479,228,249636,1,0,0:0:0:0:
448,228,249655,1,0,0:0:0:0:
482,193,249673,1,0,0:0:0:0:
445,194,249692,1,0,0:0:0:0:
485,154,249711,1,0,0:0:0:0:
443,153,249730,1,2,0:1:0:0:
482,117,249749,1,0,0:0:0:0:
446,116,249768,1,0,0:0:0:0:
479,82,249787,1,0,0:0:0:0:
448,84,249805,1,0,0:0:0:0:
472,46,249823,1,0,0:0:0:0:
458,44,249842,1,0,0:0:0:0:
334,134,249880,6,0,L|334:117,1,15.9500004867554,12|0,0:0|0:0,0:0:0:0:
449,92,250030,2,0,L|449:70,1,15.9500004867554,4|0,0:0|0:0,0:0:0:0:
236,234,250180,6,0,B|4:232|4:232|158:233,1,330,6|0,0:0|0:0,0:0:0:0:
267,329,250480,2,0,P|342:202|240:72,1,330,12|0,0:0|0:0,0:0:0:0:
64,308,250780,5,4,0:1:0:0:
54,288,250798,1,0,0:0:0:0:
50,263,250817,1,0,0:0:0:0:
53,238,250836,1,0,0:0:0:0:
61,212,250855,1,0,0:0:0:0:
73,192,250873,1,0,0:0:0:0:
87,174,250892,1,0,0:0:0:0:
102,164,250911,1,0,0:0:0:0:
118,157,250930,1,2,0:1:0:0:
137,144,250948,1,0,0:0:0:0:
153,123,250967,1,0,0:0:0:0:
161,103,250986,1,0,0:0:0:0:
165,82,251005,1,0,0:0:0:0:
161,61,251023,1,0,0:0:0:0:
150,47,251042,1,0,0:0:0:0:
132,37,251061,1,0,0:0:0:0:
104,38,251080,6,0,B|324:38|324:38|69:38,1,440,8|2,0:0|0:0,0:0:0:0:
61,43,251430,1,0,0:0:0:0:
36,76,251480,1,0,0:0:0:0:
33,118,251530,1,2,0:1:0:0:
55,154,251580,1,0,0:0:0:0:
93,172,251630,1,0,0:0:0:0:
242,180,251680,2,0,P|294:217|232:316,1,191.400005841065,12|0,0:1|0:0,0:0:0:0:
419,309,251980,6,0,P|456:248|351:177,1,191.400005841065,2|0,0:0|0:0,0:0:0:0:
244,148,252280,2,0,L|314:141,1,63.8000019470215,8|0,0:0|0:0,0:0:0:0:
178,101,252430,2,0,L|94:96,1,63.8000019470215,2|0,0:1|0:0,0:0:0:0:
296,282,252580,6,0,P|313:188|241:101,1,191.400005841065,6|4,0:0|0:0,0:0:0:0:
118,141,252880,2,0,L|12:239,1,127.600003894043,8|4,0:0|0:0,0:0:0:0:
334,235,253180,6,0,L|314:228,8,15.9500004867554,2|0|0|0|0|0|0|0|2,0:0|0:0|0:0|0:0|0:0|0:0|0:0|0:0|0:1,0:0:0:0:
318,229,253348,1,0,0:0:0:0:
303,229,253367,1,0,0:0:0:0:
287,229,253386,1,0,0:0:0:0:
271,227,253405,1,0,0:0:0:0:
255,226,253423,1,0,0:0:0:0:
239,226,253442,1,0,0:0:0:0:
142,336,253480,5,8,0:0:0:0:
108,312,253530,1,0,0:0:0:0:
94,272,253580,1,0,0:0:0:0:
106,232,253630,1,2,0:1:0:0:
139,207,253680,1,0,0:0:0:0:
181,206,253730,1,0,0:0:0:0:
284,193,253780,6,0,B|510:193,1,220,6|2,0:0|0:1,0:0:0:0:
273,130,254080,2,0,B|49:129|49:129|281:130,1,440,12|6,0:1|0:0,0:0:0:0:
265,87,254398,1,0,0:0:0:0:
74,169,254680,6,0,L|74:193,1,15.9500004867554,8|0,0:0|0:0,0:0:0:0:
186,243,254830,2,0,L|186:268,1,15.9500004867554,2|0,0:0|0:0,0:0:0:0:
478,253,254980,2,0,L|478:226,1,15.9500004867554,2|0,0:0|0:0,0:0:0:0:
366,201,255130,2,0,L|366:179,1,15.9500004867554,2|0,0:1|0:0,0:0:0:0:
141,146,255280,5,8,0:0:0:0:
118,146,255298,1,0,0:0:0:0:
123,172,255317,1,0,0:0:0:0:
99,173,255336,1,0,0:0:0:0:
112,202,255355,1,0,0:0:0:0:
89,203,255373,1,0,0:0:0:0:
108,234,255392,1,0,0:0:0:0:
84,234,255411,1,0,0:0:0:0:
112,265,255430,1,2,0:1:0:0:
89,266,255448,1,0,0:0:0:0:
123,295,255467,1,0,0:0:0:0:
99,295,255486,1,0,0:0:0:0:
137,322,255505,1,0,0:0:0:0:
297,264,255580,6,0,L|269:264,12,15.9500004867554,6|0|0|0|0|0|0|0|2|0|0|0|0,0:0|0:0|0:0|0:0|0:0|0:0|0:0|0:0|0:1|0:0|0:0|0:0|0:0,0:0:0:0:
169,257,255880,6,0,L|169:286,1,15.9500004867554,12|0,0:0|0:0,0:0:0:0:
281,207,256030,2,0,L|281:180,1,15.9500004867554,12|0,0:0|0:0,0:0:0:0:
483,146,256180,5,6,0:0:0:0:
467,144,256198,1,0,0:0:0:0:
451,144,256217,1,0,0:0:0:0:
435,144,256235,1,0,0:0:0:0:
418,144,256255,1,0,0:0:0:0:
402,142,256273,1,0,0:0:0:0:
386,142,256292,1,0,0:0:0:0:
370,142,256310,1,0,0:0:0:0:
353,142,256330,1,2,0:1:0:0:
368,139,256348,1,0,0:0:0:0:
384,144,256367,1,0,0:0:0:0:
400,142,256386,1,0,0:0:0:0:
416,142,256405,1,0,0:0:0:0:
431,144,256423,1,0,0:0:0:0:
447,144,256442,1,0,0:0:0:0:
463,145,256461,1,0,0:0:0:0:
477,127,256480,6,0,L|242:125,1,220,12|2,0:0|0:1,0:0:0:0:
244,130,256648,1,0,0:0:0:0:
234,150,256666,1,0,0:0:0:0:
230,175,256685,1,0,0:0:0:0:
233,200,256704,1,0,0:0:0:0:
241,226,256723,1,0,0:0:0:0:
253,246,256741,1,0,0:0:0:0:
267,264,256760,1,0,0:0:0:0:
282,278,256780,6,0,B|416:260|416:260|334:256,1,191.400005841065,2|0,0:0|0:0,0:0:0:0:
141,331,257080,2,0,P|92:295|141:187,1,191.400005841065,8|0,0:0|0:0,0:0:0:0:
294,223,257380,6,0,P|316:161|204:103,1,191.400005841065,2|0,0:0|0:0,0:0:0:0:
422,336,257680,2,0,P|447:258|345:202,1,191.400005841065,8|0,0:0|0:0,0:0:0:0:
115,128,257980,5,4,0:1:0:0:
103,149,257998,1,0,0:0:0:0:
95,173,258017,1,0,0:0:0:0:
97,196,258036,1,0,0:0:0:0:
104,217,258055,1,0,0:0:0:0:
118,232,258073,1,0,0:0:0:0:
135,241,258092,1,0,0:0:0:0:
151,183,258111,1,0,0:0:0:0:
167,194,258130,1,0,0:0:0:0:
179,215,258148,1,0,0:0:0:0:
187,239,258167,1,0,0:0:0:0:
185,262,258186,1,0,0:0:0:0:
173,283,258205,1,0,0:0:0:0:
36,323,258280,6,0,L|489:310,1,440,12|2,0:0|0:0,0:0:0:0:
475,310,258630,1,0,0:0:0:0:
455,272,258680,1,0,0:0:0:0:
425,242,258730,1,2,0:1:0:0:
387,223,258780,1,0,0:0:0:0:
345,217,258830,1,0,0:0:0:0:
93,182,258880,2,0,L|92:197,1,15.9500004867554,8|0,0:0|0:0,0:0:0:0:
203,113,259030,2,0,L|203:87,1,15.9500004867554,2|0,0:1|0:0,0:0:0:0:
396,152,259180,6,0,B|179:152|179:152|405:152,1,440,2|12,0:0|0:0,0:0:0:0:
402,115,259498,1,0,0:0:0:0:
267,248,259630,2,0,L|267:275,1,27.5,4|0,0:0|0:0,0:0:0:0:
74,339,259780,6,0,P|7:250|132:87,1,330,6|0,0:0|0:0,0:0:0:0:
281,182,260080,2,0,B|64:182|64:182|290:182,1,440,12|4,0:0|0:1,0:0:0:0:
314,162,260398,6,0,L|274:162,11,27.5,0|0|0|0|0|0|0|2|0|0|0|0,0:0|0:0|0:0|0:0|0:0|0:0|0:0|0:1|0:0|0:0|0:0|0:0,0:0:0:0:
120,257,260680,6,0,L|82:257,7,27.5,8|0|0|0|0|0|0|0,0:0|0:0|0:0|0:0|0:0|0:0|0:0|0:0,0:0:0:0:
120,257,260830,1,2,0:1:0:0:
141,256,260848,1,0,0:0:0:0:
163,254,260867,1,0,0:0:0:0:
185,253,260886,1,0,0:0:0:0:
207,254,260905,1,0,0:0:0:0:
335,299,260980,5,6,0:0:0:0:
352,260,261030,1,0,0:0:0:0:
350,218,261080,1,0,0:0:0:0:
330,181,261130,1,2,0:1:0:0:
295,157,261180,1,0,0:0:0:0:
254,151,261230,1,0,0:0:0:0:
105,85,261280,6,0,L|76:322,1,191.400005841065,12|0,0:1|0:0,0:0:0:0:
273,318,261580,6,0,L|406:315,1,127.600003894043,6|2,0:0|0:1,0:0:0:0:
273,241,261880,2,0,L|191:241,1,63.8000019470215,8|0,0:0|0:0,0:0:0:0:
82,185,262030,2,0,L|175:184,1,63.8000019470215,2|0,0:1|0:0,0:0:0:0:
308,122,262180,6,0,P|343:187|255:249,1,191.400005841065,6|4,0:0|0:0,0:0:0:0:
133,321,262480,2,0,L|300:328,1,127.600003894043,8|4,0:0|0:0,0:0:0:0:
31,327,262780,5,4,0:0:0:0:
18,307,262798,1,0,0:0:0:0:
13,281,262817,1,0,0:0:0:0:
15,256,262836,1,0,0:0:0:0:
22,232,262855,1,0,0:0:0:0:
30,214,262873,1,0,0:0:0:0:
44,198,262892,1,0,0:0:0:0:
58,188,262911,1,0,0:0:0:0:
71,280,262930,1,0,0:0:0:0:
84,260,262948,1,0,0:0:0:0:
89,234,262967,1,0,0:0:0:0:
87,209,262986,1,0,0:0:0:0:
80,185,263005,1,0,0:0:0:0:
72,167,263023,1,0,0:0:0:0:
58,151,263042,1,0,0:0:0:0:
44,141,263061,1,0,0:0:0:0:
31,197,263080,5,2,0:0:0:0:
18,177,263098,1,0,0:0:0:0:
13,151,263117,1,0,0:0:0:0:
15,126,263136,1,0,0:0:0:0:
22,102,263155,1,0,0:0:0:0:
30,84,263173,1,0,0:0:0:0:
44,68,263192,1,0,0:0:0:0:
58,58,263211,1,0,0:0:0:0:
74,52,263230,1,8,0:1:0:0:
202,63,263305,1,0,0:0:0:0:
330,179,263380,6,0,B|174:180|174:180|174:120,1,191.400005841065,8|0,0:1|0:0,0:0:0:0:
366,139,263680,2,0,P|391:224|273:268,1,191.400005841065,2|0,0:0|0:0,0:0:0:0:
190,286,263980,6,0,L|184:359,1,63.8000019470215,8|0,0:1|0:0,0:0:0:0:
57,282,264130,2,0,L|52:193,1,63.8000019470215
196,225,264280,2,0,L|203:162,1,63.8000019470215,2|0,0:0|0:0,0:0:0:0:
343,217,264430,2,0,L|354:142,1,63.8000019470215,8|0,0:1|0:0,0:0:0:0:
495,305,264580,6,0,L|489:232,1,63.8000019470215,8|0,0:1|0:0,0:0:0:0:
311,168,264730,2,0,L|305:105,1,63.8000019470215
125,290,264880,2,0,L|133:213,1,63.8000019470215,8|0,0:1|0:0,0:0:0:0:
311,168,265030,1,0,0:0:0:0:
87,135,265180,6,0,P|43:205|132:270,1,191.400005841065,8|0,0:1|0:0,0:0:0:0:
270,237,265480,2,0,L|186:237,1,63.8000019470215
366,222,265630,2,0,L|431:221,1,63.8000019470215,8|0,0:1|0:0,0:0:0:0:
269,149,265780,6,0,L|206:148,1,63.8000019470215,8|0,0:1|0:0,0:0:0:0:
73,236,265930,2,0,L|136:235,1,63.8000019470215
269,312,266080,2,0,L|332:312,1,63.8000019470215,8|0,0:0|0:0,0:0:0:0:
200,187,266230,2,0,L|137:187,1,63.8000019470215
396,104,266380,5,4,0:1:0:0:
133,48,266830,1,0,0:0:0:0:
396,104,267280,1,0,0:0:0:0:
36,188,267580,6,0,B|124:188|124:188|36:188|36:188|124:188,1,264,4|0,0:0|0:0,0:0:0:0:
212,164,268180,2,0,B|300:164|300:164|212:164|212:164|300:164,1,264
388,136,268780,2,0,B|476:136|476:136|388:136|388:136|476:136,1,264
256,36,269380,6,0,B|168:36|168:36|256:36|256:36|168:36,1,264,2|0,2:0|0:0,0:0:0:0:
476,208,269980,6,0,B|388:208|388:208|476:208|476:208|388:208|388:208|476:208|476:208|388:208|388:208|476:208|476:208|388:208,1,616,2|0,2:0|0:0,0:0:0:0:
184,208,271180,6,0,B|112:208|112:208|184:208|184:208|112:208,1,213.840005220703,2|0,2:0|0:0,0:0:0:0:
328,136,271780,2,0,B|400:136|400:136|328:136|328:136|400:136,1,213.840005220703,2|0,2:0|0:0,0:0:0:0:
112,56,272380,6,0,B|56:56|56:56|112:56|112:56|56:56|56:56|112:56|112:56|56:56|56:56|112:56|112:56|52:56,1,394.24,2|0,2:0|0:0,0:0:0:0:
160,56,273580,2,0,B|216:56|216:56|161:56|161:56|220:56,1,168.96
458,56,274180,6,0,B|402:56|402:56|457:56|457:56|398:56,1,168.96,2|0,2:0|0:0,0:0:0:0:
196,56,274780,6,0,B|252:56|252:56|196:56|196:56|252:56|252:56|196:56|196:56|252:56|252:56|196:56|196:56|256:56,1,394.24,2|0,2:0|0:0,0:0:0:0:
48,56,275980,6,0,B|136:56|136:56|48:56|48:56|136:56,1,264,2|2,0:2|0:2,0:0:0:0:
464,104,276580,2,0,P|276:200|464:328,1,528.000020141602,2|2,2:0|2:0,0:0:0:0:
468,300,277630,5,2,2:0:0:0:
472,272,278080,1,0,2:0:0:0:
272,272,278830,1,0,2:0:0:0:
270,244,278905,1,0,2:0:0:0:
160,244,279092,1,0,2:0:0:0:
156,216,279355,1,0,2:0:0:0:
376,212,279580,5,2,2:0:0:0:
380,184,280030,1,0,2:0:0:0:
64,156,280480,1,2,2:0:0:0:
156,112,281042,1,0,2:0:0:0:
160,84,281192,1,0,2:0:0:0:
476,84,281530,1,2,2:0:0:0:
344,84,281980,5,0,2:0:0:0:
28,84,282430,1,2,2:0:0:0:
344,84,282880,1,2,2:0:0:0:
192,84,283517,1,0,2:0:0:0:
190,112,283592,1,0,2:0:0:0:
372,112,283780,1,2,2:0:0:0:
376,140,284042,1,0,2:0:0:0:
108,140,284380,5,2,2:0:0:0:
256,192,284530,12,0,286555,2:0:0:0:
256,192,286592,12,0,287005,2:0:0:0:
256,192,287042,12,0,287061,0:0:0:0:
256,192,287117,12,0,287136,0:0:0:0:
256,192,287342,12,0,287605,2:0:0:0:
256,192,287792,12,0,287867,2:0:0:0:
256,192,287961,12,0,288017,2:0:0:0:
256,192,288055,12,0,288073,0:0:0:0:
256,192,288280,12,0,288392,2:0:0:0:
256,192,288805,12,0,288823,0:0:0:0:
256,192,288880,12,0,288898,0:0:0:0:
