osu file format v14

[General]
AudioFilename: audio.mp3
AudioLeadIn: 0
PreviewTime: 50305
Countdown: 0
SampleSet: Soft
StackLeniency: 0.7
Mode: 2
LetterboxInBreaks: 0
WidescreenStoryboard: 0

[Editor]
Bookmarks: 51880,89980,128380,171580,209980,229180,248680,283517,286580
DistanceSpacing: 4.6
BeatDivisor: 4
GridSize: 32
TimelineZoom: 5.299995

[Metadata]
Title:Fu Xiang Di Xin De Luo Ri Liu Hao ~ Little Raven
TitleUnicode:浮向地心的落日六号 ~ Little Raven
Artist:SEPHID feat. darkxixin
ArtistUnicode:SEPHID feat. darkxixin
Creator:Jemzuu
Version:Team Philippines' Overdose
Source:東方地霊殿 ~ Subterranean Animism.
Tags:featured artist fa ajamez crowley -momox nosuri -rustyy bastian -vale autofanboy afb alienflybot deif autols Hanikawa Kurose osu!catch mapping world cup cmwc Kagamine Ren Suiyu 叶紫蝉 清则 NoisiestLunatic 千年戦争~iek loin staim haf il dis o-del al 東方Project Touhou Chireiden 11 th11 霊知の太陽信仰 Reichi no Taiyou Shinkou Solar Sect of Mystic Wisdom ~ Nuclear Fusion 霊烏路 空 Reiuji Utsuho okuu drumstep j-core electronic chinese hanikawa_kurose
BeatmapID:3304146
BeatmapSetID:1618365

[Difficulty]
HPDrainRate:5
CircleSize:4
OverallDifficulty:9.7
ApproachRate:9.7
SliderMultiplier:2.1
SliderTickRate:2

[Events]
//Background and Video events
0,0,"littleraven.jpg",0,0
//Break Periods
//Storyboard Layer 0 (Background)
//Storyboard Layer 1 (Fail)
//Storyboard Layer 2 (Pass)
//Storyboard Layer 3 (Foreground)
//Storyboard Layer 4 (Overlay)
//Storyboard Sound Samples
Sample,1780,0,"Touhou_Utsuho_Reiuji_Alarm_Klaxon.wav",50
Sample,1780,0,"Touhou_Utsuho_Reiuji_Alarm_Klaxon.wav",50

[TimingPoints]
7780,300,4,2,26,50,1,0
7780,-111.111111111111,4,2,26,50,0,0
8380,-111.111111111111,4,2,26,30,0,0
9580,-111.111111111111,4,2,26,40,0,0
10780,-111.111111111111,4,2,26,43,0,0
11830,-111.111111111111,4,2,26,46,0,0
13180,-111.111111111111,4,2,26,50,0,0
14380,-111.111111111111,4,2,26,53,0,0
15580,-111.111111111111,4,2,26,56,0,0
16780,-111.111111111111,4,2,26,50,0,0
17980,-100,4,2,26,90,0,0
18130,-100,4,2,26,50,0,0
22780,-105.263157894737,4,2,26,60,0,0
26980,-105.263157894737,4,2,50,80,0,0
27055,-105.263157894737,4,2,26,80,0,0
27580,-100,4,2,27,60,0,0
28030,-100,4,2,26,60,0,0
34180,-90.9090909090909,4,2,26,60,0,0
34705,-100,4,2,26,60,0,0
37180,-100,4,2,27,60,0,0
37330,-100,4,2,26,60,0,0
41680,-100,4,2,27,60,0,0
41755,-100,4,2,26,60,0,0
46480,-100,4,2,27,60,0,0
46555,-100,4,2,26,60,0,0
50455,-100,4,2,26,60,0,0
50980,-100,4,2,27,60,0,0
51280,-100,4,2,26,60,0,0
51580,-100,4,2,40,80,0,0
51655,-100,4,2,26,60,0,0
51880,-100,4,2,26,80,0,1
52780,-100,4,2,40,80,0,1
53380,-36.3636363636364,4,2,26,80,0,1
53980,-36.3636363636364,4,2,41,80,0,1
54017,-36.3636363636364,4,2,26,80,0,1
54280,-83.3333333333333,4,2,40,55,0,1
54317,-83.3333333333333,4,2,26,80,0,1
55180,-88.4955752212389,4,2,26,80,0,1
56380,-88.4955752212389,4,2,40,80,0,1
56417,-88.4955752212389,4,2,26,80,0,1
56980,-88.4955752212389,4,2,41,80,0,1
57017,-88.4955752212389,4,2,26,80,0,1
57580,-88.4955752212389,4,2,40,80,0,1
57617,-88.4955752212389,4,2,26,80,0,1
57880,-88.4955752212389,4,2,40,80,0,1
57917,-88.4955752212389,4,2,26,80,0,1
58030,-88.4955752212389,4,2,40,80,0,1
58067,-88.4955752212389,4,2,26,80,0,1
58780,-88.4955752212389,4,2,41,80,0,1
58817,-88.4955752212389,4,2,26,80,0,1
58855,-41.6666666666667,4,2,26,80,0,1
59080,-41.6666666666667,4,2,41,80,0,1
59117,-41.6666666666667,4,2,26,80,0,1
59230,-41.6666666666667,4,2,41,80,0,1
59267,-41.6666666666667,4,2,26,80,0,1
59380,-41.6666666666667,4,2,41,80,0,1
59455,-41.6666666666667,4,2,26,80,0,1
59680,-41.6666666666667,4,2,41,80,0,1
59717,-41.6666666666667,4,2,26,80,0,1
59980,-41.6666666666667,4,2,42,80,0,1
60505,-41.6666666666667,4,2,26,80,0,1
60580,-35.3356890459364,4,2,42,80,0,1
61180,-35.3356890459364,4,2,43,80,0,0
61217,-35.3356890459364,4,2,26,80,0,0
61480,-83.3333333333333,4,2,26,80,0,1
62380,-83.3333333333333,4,2,40,80,0,1
62980,-36.3636363636364,4,2,26,80,0,1
63580,-83.3333333333333,4,2,41,80,0,1
63617,-83.3333333333333,4,2,26,80,0,1
63880,-83.3333333333333,4,2,40,55,0,1
63917,-83.3333333333333,4,2,26,80,0,1
64780,-40,4,2,26,80,0,1
65080,-83.3333333333333,4,2,26,80,0,1
65980,-83.3333333333333,4,2,40,80,0,1
66017,-83.3333333333333,4,2,26,80,0,1
66580,-83.3333333333333,4,2,41,80,0,1
66617,-83.3333333333333,4,2,26,80,0,1
67180,-83.3333333333333,4,2,40,80,0,1
67217,-83.3333333333333,4,2,26,80,0,1
67480,-83.3333333333333,4,2,40,80,0,1
67517,-83.3333333333333,4,2,26,80,0,1
67630,-83.3333333333333,4,2,40,80,0,1
67667,-83.3333333333333,4,2,26,80,0,1
68380,-83.3333333333333,4,2,41,80,0,1
68417,-83.3333333333333,4,2,26,80,0,1
68680,-83.3333333333333,4,2,41,80,0,1
68717,-83.3333333333333,4,2,26,80,0,1
68830,-83.3333333333333,4,2,41,80,0,1
68867,-83.3333333333333,4,2,26,80,0,1
68980,-83.3333333333333,4,2,41,80,0,1
69055,-83.3333333333333,4,2,26,80,0,1
69280,-83.3333333333333,4,2,41,80,0,1
69317,-83.3333333333333,4,2,26,80,0,1
69580,-40,4,2,26,80,0,0
70498,-83.3333333333333,4,2,26,5,0,0
70780,-87.719298245614,4,2,26,80,0,0
76780,-76.9230769230769,4,2,27,80,0,0
77080,-42.7350427350427,4,2,27,80,0,0
77380,-86.9565217391304,4,2,26,80,0,0
80380,-86.9565217391304,4,2,28,80,0,0
80680,-86.9565217391304,4,2,26,80,0,0
89080,-86.9565217391304,4,2,50,50,0,0
89155,-86.9565217391304,4,2,26,80,0,0
89980,-100,4,2,29,80,0,0
90130,-100,4,2,29,60,0,0
99280,-100,4,2,30,60,0,0
99317,-100,4,2,29,60,0,0
100480,-100,4,2,28,60,0,0
100555,-100,4,2,29,60,0,0
101680,-100,4,2,30,40,0,0
101980,-100,4,2,29,60,0,0
104080,-66.6666666666667,4,2,26,80,0,0
104380,-100,4,2,26,40,0,0
106780,-100,4,2,26,20,0,0
107980,-100,4,2,41,50,0,0
108055,-100,4,2,26,80,0,0
108880,-66.6666666666667,4,2,26,80,0,0
109180,-50,4,2,26,80,0,1
109780,-100,4,2,26,80,0,0
112180,-37.037037037037,4,2,28,80,0,0
112198,-37.037037037037,4,2,26,80,0,0
112630,-100,4,2,26,80,0,0
115780,-83.3333333333333,4,2,37,80,0,0
116380,-37.037037037037,4,2,26,80,0,1
117130,-47.6190476190476,4,2,26,80,0,1
118780,-100,4,2,37,80,0,0
119380,-66.6666666666667,4,2,26,80,0,1
119680,-90.9090909090909,4,2,26,80,0,1
120580,-66.6666666666667,4,2,26,80,0,1
120880,-90.9090909090909,4,2,26,80,0,1
121780,-62.5,4,2,42,80,0,1
121798,-62.5,4,2,26,80,0,1
122080,-90.9090909090909,4,2,26,80,0,1
123580,-90.9090909090909,4,2,38,80,0,1
123617,-90.9090909090909,4,2,26,80,0,1
124480,-71.4285714285714,4,2,26,80,0,1
124780,-71.4285714285714,4,2,40,80,0,1
124855,-45.4545454545455,4,2,26,80,0,1
125080,-45.4545454545455,4,2,40,80,0,1
125155,-25,4,2,26,80,0,1
125230,-25,4,2,40,80,0,1
125380,-66.6666666666667,4,2,40,80,0,1
125455,-45.4545454545455,4,2,26,80,0,1
125680,-45.4545454545455,4,2,40,80,0,1
125717,-66.6666666666667,4,2,26,80,0,1
125980,-100,4,2,27,80,0,0
126130,-100,4,2,26,80,0,0
128117,-100,4,2,26,80,0,0
128380,-66.6666666666667,4,2,32,80,0,1
128755,-66.6666666666667,4,2,32,68,0,1
128830,-66.6666666666667,4,2,32,72,0,1
128905,-66.6666666666667,4,2,32,74,0,1
128980,-100,4,2,32,80,0,0
129280,-66.6666666666667,4,2,32,80,0,1
129505,-66.6666666666667,4,2,32,68,0,1
129580,-66.6666666666667,4,2,32,72,0,1
129655,-66.6666666666667,4,2,32,74,0,1
129730,-66.6666666666667,4,2,32,80,0,1
129805,-66.6666666666667,4,2,32,68,0,1
129880,-66.6666666666667,4,2,32,72,0,1
129955,-66.6666666666667,4,2,32,74,0,1
130030,-66.6666666666667,4,2,32,80,0,1
130105,-66.6666666666667,4,2,32,68,0,1
130180,-66.6666666666667,4,2,32,72,0,1
130255,-66.6666666666667,4,2,32,74,0,1
130330,-66.6666666666667,4,2,32,80,0,1
130405,-66.6666666666667,4,2,32,68,0,1
130480,-66.6666666666667,4,2,32,72,0,1
130555,-66.6666666666667,4,2,32,74,0,1
130630,-66.6666666666667,4,2,32,80,0,1
130705,-66.6666666666667,4,2,32,68,0,1
130780,-66.6666666666667,4,2,32,72,0,1
130855,-66.6666666666667,4,2,32,74,0,1
130930,-66.6666666666667,4,2,32,80,0,1
131005,-66.6666666666667,4,2,32,68,0,1
131080,-66.6666666666667,4,2,32,72,0,1
131155,-66.6666666666667,4,2,32,74,0,1
131230,-66.6666666666667,4,2,32,80,0,1
131305,-66.6666666666667,4,2,32,68,0,1
131380,-66.6666666666667,4,2,32,72,0,1
131455,-66.6666666666667,4,2,32,74,0,1
131530,-66.6666666666667,4,2,32,80,0,1
131605,-66.6666666666667,4,2,32,68,0,1
131680,-66.6666666666667,4,2,32,72,0,1
131755,-66.6666666666667,4,2,32,74,0,1
131830,-66.6666666666667,4,2,32,80,0,1
131905,-66.6666666666667,4,2,32,68,0,1
131980,-66.6666666666667,4,2,32,72,0,1
132055,-66.6666666666667,4,2,32,74,0,1
132130,-66.6666666666667,4,2,32,80,0,1
132205,-66.6666666666667,4,2,32,68,0,1
132280,-66.6666666666667,4,2,32,72,0,1
132355,-66.6666666666667,4,2,32,74,0,1
132430,-66.6666666666667,4,2,32,80,0,1
132505,-66.6666666666667,4,2,32,68,0,1
132580,-66.6666666666667,4,2,32,72,0,1
132655,-66.6666666666667,4,2,32,74,0,1
132730,-66.6666666666667,4,2,32,80,0,1
132805,-66.6666666666667,4,2,32,68,0,1
132880,-66.6666666666667,4,2,32,72,0,1
132955,-66.6666666666667,4,2,32,74,0,1
133030,-66.6666666666667,4,2,32,80,0,1
133105,-66.6666666666667,4,2,32,68,0,1
133180,-66.6666666666667,4,2,32,72,0,1
133255,-66.6666666666667,4,2,32,74,0,1
133330,-66.6666666666667,4,2,32,80,0,1
133405,-66.6666666666667,4,2,32,68,0,1
133480,-66.6666666666667,4,2,32,72,0,1
133555,-66.6666666666667,4,2,32,74,0,1
133630,-66.6666666666667,4,2,32,80,0,1
133705,-66.6666666666667,4,2,32,68,0,1
133780,-66.6666666666667,4,2,32,72,0,1
133855,-66.6666666666667,4,2,32,74,0,1
133930,-66.6666666666667,4,2,32,80,0,1
134005,-66.6666666666667,4,2,32,68,0,1
134080,-66.6666666666667,4,2,32,72,0,1
134155,-66.6666666666667,4,2,32,74,0,1
134230,-66.6666666666667,4,2,32,80,0,1
134305,-66.6666666666667,4,2,32,68,0,1
134380,-66.6666666666667,4,2,32,72,0,1
134455,-66.6666666666667,4,2,32,74,0,1
134530,-66.6666666666667,4,2,32,80,0,1
134605,-66.6666666666667,4,2,32,68,0,1
134680,-66.6666666666667,4,2,32,72,0,1
134755,-66.6666666666667,4,2,32,74,0,1
134830,-66.6666666666667,4,2,32,80,0,1
134905,-66.6666666666667,4,2,32,68,0,1
134980,-66.6666666666667,4,2,32,72,0,1
135055,-66.6666666666667,4,2,32,74,0,1
135130,-66.6666666666667,4,2,32,80,0,1
135205,-66.6666666666667,4,2,32,68,0,1
135280,-66.6666666666667,4,2,32,72,0,1
135355,-66.6666666666667,4,2,32,74,0,1
135430,-66.6666666666667,4,2,32,80,0,1
135505,-66.6666666666667,4,2,32,68,0,1
135580,-43.4782608695652,4,2,32,80,0,1
135655,-43.4782608695652,4,2,32,74,0,1
135880,-45.4545454545455,4,2,32,80,0,1
136330,-45.4545454545455,4,2,32,80,0,1
136780,-43.4782608695652,4,2,32,80,0,1
137230,-43.4782608695652,4,2,32,80,0,1
137680,-41.6666666666667,4,2,32,80,0,1
137980,-100,4,2,49,80,0,0
138130,-100,4,2,32,80,0,0
138205,-100,4,2,32,68,0,0
138280,-100,4,2,32,72,0,0
138355,-100,4,2,32,74,0,0
138580,-66.6666666666667,4,2,32,80,0,1
138955,-66.6666666666667,4,2,32,68,0,1
139030,-66.6666666666667,4,2,32,72,0,1
139105,-66.6666666666667,4,2,32,74,0,1
139180,-66.6666666666667,4,2,32,80,0,1
139255,-66.6666666666667,4,2,32,68,0,1
139330,-66.6666666666667,4,2,32,72,0,1
139405,-66.6666666666667,4,2,32,74,0,1
139480,-66.6666666666667,4,2,32,80,0,1
139555,-66.6666666666667,4,2,32,68,0,1
139630,-66.6666666666667,4,2,32,72,0,1
139705,-66.6666666666667,4,2,32,74,0,1
139780,-66.6666666666667,4,2,32,80,0,1
139855,-66.6666666666667,4,2,32,68,0,1
139930,-66.6666666666667,4,2,32,72,0,1
140005,-66.6666666666667,4,2,32,74,0,1
140080,-66.6666666666667,4,2,32,80,0,1
140155,-66.6666666666667,4,2,32,68,0,1
140230,-66.6666666666667,4,2,32,72,0,1
140305,-66.6666666666667,4,2,32,74,0,1
140380,-66.6666666666667,4,2,32,80,0,1
140455,-66.6666666666667,4,2,32,68,0,1
140530,-66.6666666666667,4,2,32,72,0,1
140605,-66.6666666666667,4,2,32,74,0,1
140680,-66.6666666666667,4,2,32,80,0,1
140755,-66.6666666666667,4,2,32,68,0,1
140830,-66.6666666666667,4,2,32,72,0,1
140905,-66.6666666666667,4,2,32,74,0,1
140980,-66.6666666666667,4,2,32,80,0,1
141055,-66.6666666666667,4,2,32,68,0,1
141130,-66.6666666666667,4,2,32,72,0,1
141205,-66.6666666666667,4,2,32,74,0,1
141280,-66.6666666666667,4,2,32,80,0,1
141355,-66.6666666666667,4,2,32,68,0,1
141430,-66.6666666666667,4,2,32,72,0,1
141505,-66.6666666666667,4,2,32,74,0,1
141580,-66.6666666666667,4,2,32,80,0,1
141655,-66.6666666666667,4,2,32,68,0,1
141730,-66.6666666666667,4,2,32,72,0,1
141805,-66.6666666666667,4,2,32,74,0,1
141880,-66.6666666666667,4,2,32,80,0,1
141955,-66.6666666666667,4,2,32,68,0,1
142030,-66.6666666666667,4,2,32,72,0,1
142105,-66.6666666666667,4,2,32,74,0,1
142180,-66.6666666666667,4,2,32,80,0,1
142255,-66.6666666666667,4,2,32,68,0,1
142330,-66.6666666666667,4,2,32,72,0,1
142405,-66.6666666666667,4,2,32,74,0,1
142480,-66.6666666666667,4,2,32,80,0,1
142555,-66.6666666666667,4,2,32,68,0,1
142630,-66.6666666666667,4,2,32,72,0,1
142705,-66.6666666666667,4,2,32,74,0,1
142780,-66.6666666666667,4,2,32,80,0,1
142855,-66.6666666666667,4,2,32,68,0,1
142930,-66.6666666666667,4,2,32,72,0,1
143005,-66.6666666666667,4,2,32,74,0,1
143155,-66.6666666666667,4,2,32,80,0,1
143230,-66.6666666666667,4,2,32,68,0,1
143305,-66.6666666666667,4,2,32,72,0,1
143380,-66.6666666666667,4,2,32,74,0,1
143455,-66.6666666666667,4,2,32,68,0,1
143530,-66.6666666666667,4,2,32,72,0,1
143605,-66.6666666666667,4,2,32,74,0,1
143830,-66.6666666666667,4,2,32,80,0,1
143905,-66.6666666666667,4,2,32,68,0,1
143980,-66.6666666666667,4,2,32,72,0,1
144055,-66.6666666666667,4,2,32,74,0,1
144130,-66.6666666666667,4,2,32,80,0,1
144205,-66.6666666666667,4,2,32,68,0,1
144280,-66.6666666666667,4,2,32,72,0,1
144355,-66.6666666666667,4,2,32,74,0,1
144505,-66.6666666666667,4,2,32,80,0,1
144580,-66.6666666666667,4,2,32,68,0,1
144655,-66.6666666666667,4,2,32,72,0,1
144730,-66.6666666666667,4,2,32,74,0,1
145030,-66.6666666666667,4,2,32,80,0,1
145105,-66.6666666666667,4,2,32,68,0,1
145180,-66.6666666666667,4,2,32,72,0,1
145255,-66.6666666666667,4,2,32,74,0,1
145330,-66.6666666666667,4,2,32,80,0,1
145405,-66.6666666666667,4,2,32,68,0,1
145480,-66.6666666666667,4,2,32,72,0,1
145555,-66.6666666666667,4,2,32,74,0,1
145630,-66.6666666666667,4,2,32,80,0,1
145705,-66.6666666666667,4,2,32,68,0,1
145780,-66.6666666666667,4,2,32,72,0,1
145855,-66.6666666666667,4,2,32,74,0,1
146005,-66.6666666666667,4,2,32,80,0,1
146080,-66.6666666666667,4,2,32,68,0,1
146155,-66.6666666666667,4,2,32,72,0,1
146230,-66.6666666666667,4,2,32,74,0,1
146305,-66.6666666666667,4,2,32,80,0,1
146380,-66.6666666666667,4,2,32,68,0,1
146455,-66.6666666666667,4,2,32,72,0,1
146530,-66.6666666666667,4,2,32,74,0,1
146605,-66.6666666666667,4,2,32,68,0,1
146680,-66.6666666666667,4,2,32,72,0,1
146755,-66.6666666666667,4,2,32,74,0,1
147580,-100,4,2,31,50,0,0
147655,-100,4,2,31,15,0,0
152380,-100,4,2,26,30,0,0
153580,-100,4,2,26,35,0,0
154780,-100,4,2,26,40,0,0
157180,-100,4,2,26,43,0,0
158380,-100,4,2,26,46,0,0
159580,-100,4,2,26,50,0,0
160480,-100,4,2,26,54,0,0
161380,-100,4,2,26,59,0,0
161980,-100,4,2,26,50,0,0
162880,-133.333333333333,4,2,26,50,0,0
164380,-100,4,2,26,50,0,0
166780,-100,4,2,26,50,0,0
167980,-100,4,2,26,60,0,0
169180,-100,4,2,26,65,0,0
170380,-76.9230769230769,4,2,26,70,0,0
170980,-76.9230769230769,4,2,50,90,0,0
171017,-76.9230769230769,4,2,26,75,0,0
171580,-100,4,2,27,60,0,0
171880,-100,4,2,26,60,0,0
180580,-100,4,2,50,60,0,0
181180,-100,4,2,26,60,0,0
190780,-100,4,2,27,60,0,0
190855,-100,4,2,26,60,0,0
200380,-100,4,2,30,60,0,0
205180,-100,4,2,31,60,0,0
208817,-100,4,2,31,60,0,0
209380,-100,4,2,27,60,0,0
209680,-100,4,2,26,60,0,0
209980,-100,4,2,26,80,0,1
210055,-100,4,2,31,80,0,1
210580,-83.3333333333333,4,2,31,80,0,1
211180,-45.4545454545455,4,2,31,80,0,1
211630,-100,4,2,31,80,0,1
212680,-71.4285714285714,4,2,31,80,0,1
212980,-83.3333333333333,4,2,31,80,0,1
213130,-55.5555555555556,4,2,31,80,0,1
213880,-83.3333333333333,4,2,31,80,0,1
214780,-45.4545454545455,4,2,31,80,0,1
215080,-83.3333333333333,4,2,31,80,0,1
215380,-71.4285714285714,4,2,31,80,0,1
215680,-83.3333333333333,4,2,31,80,0,1
215980,-100,4,2,31,80,0,1
218380,-40,4,2,31,80,0,1
218605,-66.6666666666667,4,2,31,80,0,1
219130,-100,4,2,31,80,0,1
219580,-33.3333333333333,4,2,31,80,0,0
219880,-100,4,2,26,80,0,1
219955,-100,4,2,31,80,0,1
220180,-83.3333333333333,4,2,31,80,0,1
220780,-45.4545454545455,4,2,31,80,0,1
221230,-83.3333333333333,4,2,31,80,0,1
221380,-100,4,2,31,80,0,1
221980,-100,4,2,31,80,0,1
222280,-71.4285714285714,4,2,31,80,0,1
222580,-83.3333333333333,4,2,31,80,0,1
222730,-47.6190476190476,4,2,31,80,0,1
223480,-83.3333333333333,4,2,31,80,0,1
224380,-100,4,2,31,80,0,0
227980,-100,4,2,41,50,0,0
228017,-100,4,2,31,50,0,0
229180,-45.4545454545455,4,2,26,80,0,1
229255,-45.4545454545455,4,2,31,80,0,1
229330,-100,4,2,31,80,0,1
229780,-41.6666666666667,4,2,31,80,0,1
229930,-100,4,2,31,80,0,1
230380,-37.037037037037,4,2,31,80,0,1
230530,-100,4,2,31,80,0,1
232330,-47.6190476190476,4,2,31,80,0,1
232480,-100,4,2,31,80,0,1
233980,-37.037037037037,4,2,31,80,0,1
234130,-100,4,2,31,80,0,1
234580,-40.8163265306122,4,2,31,80,0,1
234730,-100,4,2,31,80,0,1
235180,-47.6190476190476,4,2,31,80,0,1
235330,-100,4,2,31,80,0,1
238780,-33.3333333333333,4,2,31,80,0,0
239080,-100,4,2,26,80,0,1
239155,-100,4,2,31,80,0,1
239380,-45.4545454545455,4,2,31,80,0,1
239530,-100,4,2,31,80,0,1
239980,-40,4,2,31,80,0,1
240130,-100,4,2,31,80,0,1
241930,-47.6190476190476,4,2,31,80,0,1
242080,-100,4,2,31,80,0,1
243580,-100,4,2,31,80,0,0
247180,-37.037037037037,4,2,26,80,0,0
247780,-37.037037037037,4,2,50,80,0,0
247855,-37.037037037037,4,2,0,80,0,0
248080,-37.037037037037,4,2,50,80,0,0
248155,-37.037037037037,4,2,0,80,0,0
248230,-100,4,2,26,80,0,0
248380,-100,4,2,40,80,0,0
248455,-100,4,2,26,60,0,0
248680,-100,4,2,26,80,0,1
249580,-100,4,2,40,80,0,1
250180,-36.3636363636364,4,2,26,80,0,1
250780,-36.3636363636364,4,2,41,80,0,1
250817,-36.3636363636364,4,2,26,80,0,1
251080,-83.3333333333333,4,2,40,55,0,1
251117,-83.3333333333333,4,2,26,80,0,1
251980,-88.4955752212389,4,2,26,80,0,1
253180,-88.4955752212389,4,2,40,80,0,1
253217,-88.4955752212389,4,2,26,80,0,1
253780,-88.4955752212389,4,2,41,80,0,1
253817,-88.4955752212389,4,2,26,80,0,1
254380,-88.4955752212389,4,2,40,80,0,1
254417,-88.4955752212389,4,2,26,80,0,1
254680,-88.4955752212389,4,2,40,80,0,1
254717,-88.4955752212389,4,2,26,80,0,1
254830,-88.4955752212389,4,2,40,80,0,1
254867,-88.4955752212389,4,2,26,80,0,1
255580,-88.4955752212389,4,2,41,80,0,1
255617,-88.4955752212389,4,2,26,80,0,1
255655,-41.6666666666667,4,2,26,80,0,1
255880,-41.6666666666667,4,2,41,80,0,1
255917,-41.6666666666667,4,2,26,80,0,1
256030,-41.6666666666667,4,2,41,80,0,1
256067,-41.6666666666667,4,2,26,80,0,1
256180,-41.6666666666667,4,2,41,80,0,1
256255,-41.6666666666667,4,2,26,80,0,1
256480,-41.6666666666667,4,2,41,80,0,1
256517,-41.6666666666667,4,2,26,80,0,1
256780,-41.6666666666667,4,2,42,80,0,1
257305,-41.6666666666667,4,2,26,80,0,1
257380,-35.3356890459364,4,2,42,80,0,1
257980,-35.3356890459364,4,2,43,80,0,0
258017,-35.3356890459364,4,2,26,80,0,0
258280,-40,4,2,26,80,0,1
258580,-83.3333333333333,4,2,26,80,0,1
259180,-83.3333333333333,4,2,40,80,0,1
259780,-36.3636363636364,4,2,26,80,0,1
260380,-83.3333333333333,4,2,41,80,0,1
260417,-83.3333333333333,4,2,26,80,0,1
260680,-83.3333333333333,4,2,40,55,0,1
260717,-83.3333333333333,4,2,26,80,0,1
261580,-40,4,2,26,80,0,1
261880,-83.3333333333333,4,2,26,80,0,1
262780,-83.3333333333333,4,2,40,80,0,1
262817,-83.3333333333333,4,2,26,80,0,1
263380,-83.3333333333333,4,2,41,80,0,1
263417,-83.3333333333333,4,2,26,80,0,1
263980,-83.3333333333333,4,2,40,80,0,1
264017,-83.3333333333333,4,2,26,80,0,1
264280,-83.3333333333333,4,2,40,80,0,1
264317,-83.3333333333333,4,2,26,80,0,1
264430,-83.3333333333333,4,2,40,80,0,1
264467,-83.3333333333333,4,2,26,80,0,1
265180,-83.3333333333333,4,2,41,80,0,1
265217,-83.3333333333333,4,2,26,80,0,1
265480,-83.3333333333333,4,2,41,80,0,1
265517,-83.3333333333333,4,2,26,80,0,1
265630,-83.3333333333333,4,2,41,80,0,1
265667,-83.3333333333333,4,2,26,80,0,1
265780,-83.3333333333333,4,2,41,80,0,1
265855,-83.3333333333333,4,2,26,80,0,1
266080,-83.3333333333333,4,2,41,80,0,1
266117,-83.3333333333333,4,2,26,80,0,1
266380,-100,4,2,26,80,0,0
267298,-83.3333333333333,4,2,26,80,0,0
267580,-100,4,2,26,80,0,0
267730,-100,4,2,26,70,0,0
268780,-100,4,2,26,60,0,0
269380,-100,4,2,26,57,0,0
269980,-100,4,2,26,53,0,0
270580,-100,4,2,26,49,0,0
271180,-100,4,2,26,46,0,0
271780,-100,4,2,26,40,0,0
272380,-100,4,2,26,34,0,0
272980,-100,4,2,26,30,0,0
273580,-100,4,2,26,25,0,0
274180,-100,4,2,26,20,0,0
274780,-100,4,2,26,15,0,0
275380,-100,4,2,26,12,0,0
275980,-100,4,2,26,35,0,0
276130,-100,4,2,26,48,0,0
276280,-100,4,2,26,59,0,0
276430,-100,4,2,26,69,0,0
276580,-100,4,2,26,74,0,0
277180,-100,4,2,26,30,0,0
278098,-100,4,2,26,5,0,0
278830,-100,4,2,26,30,0,0
280498,-100,4,2,26,5,0,0
281042,-100,4,2,26,30,0,0
284380,-133.333333333333,4,2,26,30,0,0

[Colours]
Combo1 : 255,169,128
Combo2 : 128,255,128
Combo3 : 255,255,128

[HitObjects]
342,361,7780,6,0,P|383:308|242:86,1,377.999988464356,2|2,0:3|0:3,0:0:0:0:
159,39,8530,1,0,0:0:0:0:
244,25,8680,1,2,0:0:0:0:
329,82,8830,1,0,0:0:0:0:
244,128,8980,1,2,0:0:0:0:
226,224,9130,1,0,0:0:0:0:
311,263,9280,1,2,0:0:0:0:
330,317,9430,1,0,0:0:0:0:
190,348,9580,5,2,0:3:0:0:
128,289,9730,1,0,0:0:0:0:
97,207,9880,1,2,0:0:0:0:
128,289,10030,1,0,0:0:0:0:
190,348,10180,1,2,0:0:0:0:
106,308,10330,1,0,0:0:0:0:
191,264,10480,1,2,0:0:0:0:
106,308,10630,1,0,0:0:0:0:
246,359,10780,5,2,0:3:0:0:
331,304,10930,1,0,0:0:0:0:
191,251,11080,1,2,0:3:0:0:
172,158,11230,1,0,0:0:0:0:
312,106,11380,1,2,0:3:0:0:
175,31,11530,1,2,0:3:0:0:
156,128,11680,1,0,0:0:0:0:
293,146,11830,5,2,0:3:0:0:
325,232,11980,1,2,0:0:0:0:
298,321,12130,1,0,0:0:0:0:
222,374,12280,1,2,0:0:0:0:
129,370,12430,1,0,0:0:0:0:
272,314,12580,1,2,0:3:0:0:
187,258,12730,1,0,0:0:0:0:
329,225,12880,1,2,0:3:0:0:
414,182,13030,1,0,0:0:0:0:
272,62,13180,5,2,0:3:0:0:
253,182,13330,1,0,0:0:0:0:
338,231,13480,1,2,0:0:0:0:
357,301,13630,1,0,0:0:0:0:
272,267,13780,1,2,0:0:0:0:
253,356,13930,1,0,0:0:0:0:
338,337,14080,1,2,0:0:0:0:
252,307,14230,1,0,0:0:0:0:
109,265,14380,5,2,0:3:0:0:
187,205,14530,1,0,0:0:0:0:
238,120,14680,1,2,0:0:0:0:
187,205,14830,1,0,0:0:0:0:
109,265,14980,1,2,0:0:0:0:
194,301,15130,1,0,0:0:0:0:
109,265,15280,1,2,0:0:0:0:
90,347,15430,1,0,0:0:0:0:
232,286,15580,5,2,0:3:0:0:
317,241,15730,1,0,0:0:0:0:
232,286,15880,1,0,0:0:0:0:
374,361,16030,1,2,0:3:0:0:
393,275,16180,1,0,0:0:0:0:
308,233,16330,1,0,0:0:0:0:
449,214,16480,1,2,0:3:0:0:
468,127,16630,1,0,0:0:0:0:
326,49,16780,5,2,0:3:0:0:
301,137,16930,1,0,0:0:0:0:
347,217,17080,1,2,0:0:0:0:
436,240,17230,1,0,0:0:0:0:
294,350,17380,1,2,0:3:0:0:
275,249,17530,1,0,0:0:0:0:
417,263,17680,1,2,0:0:0:0:
436,149,17830,1,0,0:0:0:0:
181,36,17980,5,4,0:3:0:0:
133,125,18130,1,0,0:0:0:0:
171,209,18280,1,2,0:0:0:0:
260,244,18430,1,0,0:0:0:0:
175,287,18580,1,2,0:0:0:0:
156,362,18730,1,0,0:0:0:0:
241,335,18880,1,2,0:0:0:0:
260,236,19030,1,0,0:0:0:0:
118,293,19180,5,2,0:3:0:0:
76,211,19330,1,0,0:0:0:0:
114,128,19480,1,2,0:0:0:0:
203,107,19630,1,0,0:0:0:0:
288,42,19780,1,2,0:0:0:0:
203,87,19930,1,0,0:0:0:0:
288,160,20080,1,2,0:0:0:0:
373,212,20230,1,0,0:0:0:0:
231,241,20380,5,2,0:3:0:0:
212,346,20530,1,0,0:0:0:0:
354,366,20680,1,2,0:3:0:0:
269,308,20830,1,0,0:0:0:0:
411,278,20980,1,2,0:3:0:0:
269,232,21130,1,2,0:3:0:0:
250,134,21280,1,0,0:0:0:0:
394,39,21430,5,2,0:3:0:0:
442,118,21580,1,0,0:0:0:0:
427,209,21730,1,0,0:0:0:0:
357,270,21880,1,2,0:0:0:0:
265,271,22030,1,0,0:0:0:0:
406,373,22180,1,2,0:3:0:0:
425,277,22330,1,0,0:0:0:0:
282,201,22480,1,2,0:3:0:0:
367,151,22630,1,0,0:0:0:0:
129,59,22780,6,0,L|119:192,1,99.7499973363877,2|0,3:3|0:0,0:0:0:0:
261,190,23080,2,0,L|266:308,1,99.7499973363877,2|0,3:2|0:2,0:0:0:0:
127,345,23380,2,0,L|232:310,1,99.7499973363877,2|0,3:2|0:0,0:0:0:0:
86,371,23680,2,0,L|82:244,1,99.7499973363877,2|0,3:2|0:0,0:0:0:0:
293,218,23980,6,0,L|411:192,1,99.7499973363877,2|0,3:0|0:0,0:0:0:0:
251,65,24280,2,0,L|244:187,1,99.7499973363877,2|0,3:2|0:0,0:0:0:0:
453,200,24580,2,0,L|461:313,1,99.7499973363877,2|0,3:2|0:0,0:0:0:0:
325,349,24880,2,0,L|426:372,1,99.7499973363877,2|0,3:2|0:0,0:0:0:0:
205,253,25180,6,0,L|310:274,2,99.7499973363877,2|0|2,3:0|3:0|3:2,0:0:0:0:
414,160,25630,2,0,L|311:131,2,99.7499973363877,2|2|0,3:0|3:2|3:0,0:0:0:0:
205,87,26080,1,2,3:0:0:0:
115,57,26230,1,0,3:0:0:0:
346,138,26380,6,0,L|347:192,1,49.8749986681939,2|0,3:0|3:0,0:0:0:0:
417,210,26530,2,0,L|421:268,1,49.8749986681939,0|0,3:0|3:0,0:0:0:0:
238,243,26680,2,0,L|241:297,1,49.8749986681939,2|0,3:2|3:0,0:0:0:0:
171,299,26830,2,0,L|172:348,1,49.8749986681939,0|0,3:0|3:0,0:0:0:0:
395,361,26980,6,0,P|451:300|301:106,1,349.124990677357,2|0,3:2|0:0,0:0:0:0:
127,32,27580,6,0,P|69:78|149:168,1,210,4|0,3:2|0:0,0:0:0:0:
358,240,28030,2,0,L|167:356,1,210,4|0,3:2|0:0,0:0:0:0:
412,348,28480,2,0,L|419:243,1,105,4|0,3:2|0:0,0:0:0:0:
149,339,28780,6,0,P|113:266|417:341,1,787.5,2|0,3:0|0:0,0:0:0:0:
206,363,29980,6,0,P|141:319|215:233,1,210,4|0,3:2|0:0,0:0:0:0:
427,183,30430,1,4,3:2:0:0:
204,141,30580,2,0,L|311:91,1,105,2|2,0:0|0:0,0:0:0:0:
71,51,30880,1,4,3:2:0:0:
313,348,31030,6,0,B|370:333|400:307|392:264|387:255|368:246|351:239|328:232|320:235|296:242|237:239|230:189|255:129|291:91|377:103,1,420,2|0,0:2|0:0,0:0:0:0:
152,61,31780,6,0,L|257:41,1,105,2|0,0:3|0:0,0:0:0:0:
32,103,32080,2,0,L|32:217,1,105,2|0,0:3|0:0,0:0:0:0:
299,265,32380,6,0,L|103:367,1,210,4|0,3:2|0:0,0:0:0:0:
336,351,32830,2,0,L|135:253,1,210,4|0,3:2|0:0,0:0:0:0:
389,237,33280,2,0,L|395:124,1,105,4|0,3:2|0:0,0:0:0:0:
162,37,33580,6,0,P|111:108|258:308,1,367.5,2|0,0:3|0:0,0:0:0:0:
429,346,34180,2,0,B|331:299|331:299|404:293|436:285|453:270|468:249|481:184|443:146|363:133,1,404.250012336731,2|0,0:3|0:0,0:0:0:0:
125,151,34780,6,0,L|326:264,1,210,4|0,3:2|0:0,0:0:0:0:
90,364,35230,2,0,P|45:327|136:226,1,210,4|0,3:2|0:0,0:0:0:0:
334,130,35680,2,0,L|218:86,1,105,4|0,3:2|0:0,0:0:0:0:
457,47,35980,6,0,P|474:119|260:274,1,367.5,4|0,3:2|0:0,0:0:0:0:
106,303,36580,2,0,B|161:285|220:263|222:216|201:196|179:187|136:185|106:188|62:169|39:147|78:84|130:75,1,367.5,2|0,0:3|0:0,0:0:0:0:
341,67,37180,5,6,3:2:0:0:
205,112,37330,2,0,L|199:228,1,105,2|0,0:0|0:0,0:0:0:0:
347,250,37630,2,0,L|357:364,1,105,2|0,0:0|0:0,0:0:0:0:
229,367,37930,2,0,L|226:257,1,105,2|0,0:0|0:0,0:0:0:0:
331,248,38230,2,0,L|336:124,1,105,2|0,0:0|0:0,0:0:0:0:
111,78,38530,6,0,L|220:51,1,105,2|0,0:0|0:0,0:0:0:0:
350,88,38830,2,0,L|223:53,1,105,2|0,0:0|0:0,0:0:0:0:
127,145,39130,2,0,L|234:121,1,105,2|0,0:0|0:0,0:0:0:0:
338,142,39430,2,0,L|221:119,1,105,2|0,0:0|0:0,0:0:0:0:
456,173,39730,6,0,L|457:280,1,105,2|0,0:0|0:0,0:0:0:0:
310,338,40030,2,0,L|310:218,1,105,2|0,0:0|0:0,0:0:0:0:
184,233,40330,2,0,L|183:122,1,105,2|0,0:0|0:0,0:0:0:0:
324,101,40630,2,0,L|225:65,1,105,2|0,0:0|0:0,0:0:0:0:
472,78,40930,6,0,L|478:189,1,105,2|0,0:0|0:0,0:0:0:0:
332,192,41230,2,0,L|319:308,1,105,2|0,0:0|0:0,0:0:0:0:
169,349,41530,1,2,3:2:0:0:
455,311,41680,2,0,P|481:267|410:203,1,157.5,8|0,3:3|0:0,0:0:0:0:
206,157,41980,5,4,3:2:0:0:
342,78,42130,2,0,L|349:196,1,105,2|0,3:2|3:0,0:0:0:0:
199,258,42430,2,0,L|79:235,1,105,2|0,3:2|3:0,0:0:0:0:
318,321,42730,2,0,L|188:335,1,105,2|0,3:2|3:0,0:0:0:0:
363,360,43030,2,0,L|366:224,1,105,2|0,3:2|3:0,0:0:0:0:
143,162,43330,6,0,L|249:117,1,105,2|0,3:2|3:0,0:0:0:0:
93,103,43630,2,0,L|196:59,1,105,2|0,3:2|3:0,0:0:0:0:
410,93,43930,2,0,L|304:120,1,105,2|0,3:2|3:0,0:0:0:0:
173,141,44230,2,0,L|168:267,1,105,2|0,3:2|3:0,0:0:0:0:
383,341,44530,6,0,L|486:312,1,105,2|0,3:2|3:0,0:0:0:0:
338,267,44830,2,0,L|448:243,1,105,2|0,3:2|3:0,0:0:0:0:
215,219,45130,2,0,L|210:102,1,105,2|0,3:2|3:0,0:0:0:0:
356,42,45430,2,0,L|366:147,1,105,2|0,3:2|3:0,0:0:0:0:
150,280,45730,6,0,L|36:249,1,105,2|0,3:2|3:0,0:0:0:0:
196,208,46030,2,0,L|75:184,1,105,2|0,3:2|3:0,0:0:0:0:
311,113,46330,1,2,3:2:0:0:
63,44,46480,2,0,P|31:95|104:147,1,157.5,8|0,3:0|0:0,0:0:0:0:
317,220,46780,6,0,L|391:230,1,52.5,4|0,3:2|3:0,0:0:0:0:
201,293,46930,2,2,L|138:288,1,52.5,0|0,3:2|3:2,3:2:0:0:
217,273,47080,2,0,L|294:260,1,52.5,0|0,3:2|3:2,3:2:0:0:
90,229,47230,5,2,3:2:0:0:
62,192,47305,1,0,3:2:0:0:
90,229,47380,1,0,3:2:0:0:
148,235,47455,1,0,3:2:0:0:
335,176,47530,2,0,L|279:134,1,52.5,2|0,3:2|3:2,3:2:0:0:
236,131,47680,2,0,L|146:133,1,52.5,0|0,3:2|3:2,3:2:0:0:
366,93,47830,5,2,3:2:0:0:
422,97,47905,1,0,3:2:0:0:
450,135,47980,1,0,3:2:0:0:
422,97,48055,1,0,3:2:0:0:
235,246,48130,2,0,L|291:288,1,52.5,2|0,3:2|3:2,3:2:0:0:
334,291,48280,2,0,L|424:289,1,52.5,0|0,3:2|3:2,3:2:0:0:
217,313,48430,5,2,3:2:0:0:
161,317,48505,1,0,3:2:0:0:
133,355,48580,1,0,3:2:0:0:
161,317,48655,1,0,3:2:0:0:
362,171,48730,5,2,3:2:0:0:
390,209,48805,1,0,3:2:0:0:
362,171,48880,1,0,3:2:0:0:
299,167,48955,1,0,3:2:0:0:
112,106,49030,2,0,L|164:99,1,52.5,2|0,3:2|3:2,3:2:0:0:
367,52,49180,6,0,L|413:52,2,26.25,0|0|0,3:0|3:0|3:0,0:0:0:0:
253,85,49292,1,0,3:0:0:0:
136,137,49330,1,2,3:2:0:0:
112,149,49367,1,0,3:0:0:0:
97,170,49405,1,0,3:0:0:0:
93,195,49442,1,0,3:0:0:0:
100,220,49480,1,0,3:0:0:0:
118,239,49517,1,0,3:0:0:0:
142,249,49555,1,0,3:0:0:0:
253,85,49592,5,0,3:0:0:0:
370,135,49630,1,2,3:2:0:0:
394,147,49667,1,0,3:0:0:0:
409,168,49705,1,0,3:0:0:0:
413,193,49742,1,0,3:0:0:0:
406,218,49780,1,0,3:0:0:0:
388,237,49817,1,0,3:0:0:0:
364,247,49855,1,0,3:0:0:0:
253,85,49892,5,0,3:0:0:0:
136,248,49930,2,0,L|92:260,2,26.25,2|0|0,3:2|3:0|3:0,0:0:0:0:
253,85,50042,1,0,3:0:0:0:
383,264,50080,2,0,L|419:264,2,26.25,0|0|0,3:0|3:0|3:0,0:0:0:0:
253,85,50192,1,0,3:0:0:0:
115,264,50230,2,0,L|83:266,2,26.25,2|0|0,3:2|3:0|3:0,0:0:0:0:
253,85,50342,1,0,3:0:0:0:
418,298,50380,6,0,P|454:278|403:196,1,157.5,14|0,3:2|0:0,0:0:0:0:
360,173,50680,2,0,L|477:160,1,105,0|0,0:0|0:0,0:0:0:0:
243,117,50980,2,0,L|91:66,1,157.5,8|0,3:3|0:0,0:0:0:0:
304,39,51280,2,0,L|462:9,1,157.5,8|0,0:1|0:0,0:0:0:0:
169,48,51580,5,2,3:0:0:0:
133,49,51617,1,0,0:0:0:0:
169,48,51655,1,0,0:0:0:0:
133,49,51692,1,0,0:0:0:0:
169,48,51730,1,0,0:0:0:0:
133,49,51767,1,0,0:0:0:0:
169,48,51805,1,0,0:0:0:0:
354,188,51880,5,4,3:1:0:0:
388,192,51917,1,0,0:0:0:0:
426,195,51955,1,0,0:0:0:0:
443,234,51992,1,0,0:0:0:0:
430,265,52030,1,0,0:0:0:0:
463,290,52067,1,0,0:0:0:0:
430,308,52105,1,0,0:0:0:0:
225,349,52180,6,0,L|160:347,2,35,2|0|2,3:2|0:0|0:2,0:0:0:0:
270,353,52330,1,0,0:0:0:0:
317,354,52380,1,2,0:2:0:0:
184,283,52430,1,0,0:0:0:0:
43,253,52480,2,0,L|38:94,1,157.5,8|0,3:2|0:0,0:0:0:0:
244,52,52780,5,10,3:1:0:0:
215,52,52817,1,0,0:0:0:0:
186,52,52855,1,0,0:0:0:0:
157,53,52892,1,0,0:0:0:0:
128,53,52930,1,0,0:0:0:0:
194,130,53005,1,0,0:0:0:0:
390,183,53080,2,0,L|407:159,2,26.25,14|0|0,3:1|0:0|0:0,0:0:0:0:
189,242,53230,2,0,L|172:218,2,26.25,10|0|0,0:1|0:0|0:0,0:0:0:0:
411,337,53380,6,0,B|132:255|132:255|185:123|185:123|242:255,2,577.500005507469,2|10|6,3:2|3:2|3:2,0:0:0:0:
453,339,54017,5,0,0:0:0:0:
471,305,54055,1,0,0:0:0:0:
452,274,54092,1,0,0:0:0:0:
479,266,54130,1,0,0:0:0:0:
441,250,54167,1,0,0:0:0:0:
480,245,54205,1,0,0:0:0:0:
255,231,54280,6,0,L|224:193,2,31.4999990386963,12|0|0,3:2|0:0|0:0,0:0:0:0:
353,239,54392,1,0,0:0:0:0:
452,233,54430,2,0,L|471:196,2,31.4999990386963,0|0|0,0:0|0:0|0:0,0:0:0:0:
256,126,54580,2,0,L|189:112,1,62.9999980773926,2|2,3:2|0:2,0:0:0:0:
384,59,54730,2,0,L|302:49,1,62.9999980773926,2|2,0:2|0:2,0:0:0:0:
122,24,54880,2,0,L|282:150,1,188.999994232178,8|0,3:2|0:0,0:0:0:0:
59,278,55180,6,0,L|56:60,1,177.975000543137,0|0,3:0|0:0,0:0:0:0:
237,161,55480,2,0,L|260:124,2,29.6625000905228,10|0|2,3:2|0:0|0:0,0:0:0:0:
188,176,55592,1,0,0:0:0:0:
131,172,55630,2,0,L|114:137,2,29.6625000905228,2|0|2,0:0|0:0|0:0,0:0:0:0:
315,215,55780,6,0,L|454:221,1,118.650000362091,2|0,3:1|0:0,0:0:0:0:
259,265,56005,2,0,L|250:392,1,118.650000362091,2|0,0:1|0:0,0:0:0:0:
87,363,56230,2,0,L|18:353,1,59.3250001810455,2|0,0:1|0:0,0:0:0:0:
235,341,56380,5,4,3:0:0:0:
269,338,56417,1,0,0:0:0:0:
239,320,56455,1,0,0:0:0:0:
260,312,56492,1,0,0:0:0:0:
235,293,56530,1,0,0:0:0:0:
198,278,56567,1,0,0:0:0:0:
160,273,56605,1,0,0:0:0:0:
346,230,56680,2,0,L|431:227,1,59.3250001810455,8|0,3:2|0:0,0:0:0:0:
208,143,56830,2,0,L|291:146,1,59.3250001810455,0|0,0:0|0:0,0:0:0:0:
454,148,56980,5,4,3:0:0:0:
493,148,57017,1,0,0:0:0:0:
450,130,57055,1,0,0:0:0:0:
490,124,57092,1,0,0:0:0:0:
457,112,57130,1,0,0:0:0:0:
483,110,57167,1,0,0:0:0:0:
469,94,57205,1,0,0:0:0:0:
283,244,57280,6,0,L|272:44,1,177.975000543137,8|0,3:2|0:0,0:0:0:0:
463,34,57580,5,10,3:1:0:0:
433,36,57617,1,0,0:0:0:0:
445,56,57655,1,0,0:0:0:0:
405,64,57692,1,0,0:0:0:0:
427,79,57730,1,0,0:0:0:0:
382,83,57767,1,0,0:0:0:0:
339,92,57805,1,0,0:0:0:0:
144,203,57880,6,0,L|120:238,2,29.6625000905228,14|0|0,3:1|0:0|0:0,0:0:0:0:
342,212,58030,2,0,L|366:247,2,29.6625000905228,10|0|0,0:1|0:0|0:0,0:0:0:0:
141,116,58180,5,2,3:0:0:0:
170,113,58217,1,0,0:0:0:0:
200,110,58255,1,0,0:0:0:0:
229,107,58292,1,0,0:0:0:0:
259,104,58330,1,0,0:0:0:0:
288,101,58367,1,0,0:0:0:0:
318,99,58405,1,0,0:0:0:0:
112,26,58480,5,14,3:2:0:0:
73,30,58517,1,0,0:0:0:0:
41,38,58555,1,0,0:0:0:0:
21,59,58592,1,0,0:0:0:0:
10,87,58630,1,0,0:0:0:0:
10,116,58667,1,0,0:0:0:0:
21,143,58705,1,0,0:0:0:0:
255,203,58780,5,4,3:1:0:0:
274,238,58817,1,0,0:0:0:0:
255,203,58855,2,0,L|0:143,1,251.999992309571,0|0,0:0|0:0,0:0:0:0:
39,131,59042,1,0,0:0:0:0:
76,124,59080,6,0,L|359:128,1,251.999992309571,12|4,3:1|0:1,0:0:0:0:
299,110,59267,1,0,0:0:0:0:
262,103,59305,1,0,0:0:0:0:
84,44,59380,5,4,3:1:0:0:
263,68,59455,1,0,0:0:0:0:
299,81,59492,1,0,0:0:0:0:
312,122,59530,1,0,0:0:0:0:
300,148,59567,1,0,0:0:0:0:
261,159,59605,1,0,0:0:0:0:
80,235,59680,5,12,3:1:0:0:
144,240,59755,1,0,0:0:0:0:
172,252,59792,1,0,0:0:0:0:
188,297,59830,1,0,0:0:0:0:
172,337,59867,1,0,0:0:0:0:
143,341,59905,1,0,0:0:0:0:
72,250,59980,6,0,B|304:151|304:151|226:47,1,377.999988464356,4|0,3:1|0:0,0:0:0:0:
170,40,60280,2,0,B|402:139|402:139|324:243,1,377.999988464356,12|0,3:1|0:0,0:0:0:0:
265,243,60580,6,0,B|-2:112|-2:112|168:120,1,445.724993708868,4|0,3:3|0:0,0:0:0:0:
306,127,60880,2,0,B|39:258|39:258|209:250,1,445.724993708868,12|0,3:3|0:0,0:0:0:0:
413,248,61180,5,4,3:0:0:0:
436,273,61217,1,0,0:0:0:0:
413,248,61255,1,0,0:0:0:0:
446,294,61292,1,0,0:0:0:0:
413,248,61330,1,0,0:0:0:0:
455,319,61367,1,0,0:0:0:0:
413,248,61405,1,0,0:0:0:0:
181,333,61480,6,0,B|59:293|59:293|57:224,1,188.999994232178,12|0,3:2|0:0,0:0:0:0:
234,178,61780,2,0,L|263:139,2,41.9999987182618,2|0|0,3:2|0:0|0:0,0:0:0:0:
57,123,61930,2,0,L|12:123,2,41.9999987182618,0|2|0,0:0|0:2|0:0,0:0:0:0:
230,60,62080,6,0,P|191:118|70:131,1,188.999994232178,8|0,3:2|0:0,0:0:0:0:
299,208,62380,1,10,3:1:0:0:
333,212,62417,1,0,0:0:0:0:
367,216,62455,1,0,0:0:0:0:
401,220,62492,1,0,0:0:0:0:
435,224,62530,1,0,0:0:0:0:
370,268,62605,1,0,0:0:0:0:
168,299,62680,2,0,L|144:254,2,31.4999990386963,14|0|0,3:1|0:0|0:0,0:0:0:0:
374,358,62830,2,0,L|398:313,2,31.4999990386963,10|0|0,0:1|0:0|0:0,0:0:0:0:
158,138,62980,6,0,B|437:220|437:220|384:352|384:352|327:220,2,577.500005507469,2|10|6,3:2|3:2|3:2,0:0:0:0:
117,135,63617,5,0,0:0:0:0:
74,133,63655,1,0,0:0:0:0:
54,92,63692,1,0,0:0:0:0:
75,53,63730,1,0,0:0:0:0:
40,47,63767,1,0,0:0:0:0:
78,38,63805,1,0,0:0:0:0:
299,122,63880,6,0,L|330:84,2,31.4999990386963,12|0|0,3:2|0:0|0:0,0:0:0:0:
203,132,63992,1,0,0:0:0:0:
103,131,64030,2,0,L|84:94,2,31.4999990386963,0|0|0,0:0|0:0|0:0,0:0:0:0:
287,212,64180,6,0,L|208:224,1,62.9999980773926,0|2,3:2|0:2,0:0:0:0:
399,302,64330,2,0,L|486:313,1,62.9999980773926,2|2,0:2|0:2,0:0:0:0:
277,368,64480,6,0,L|266:160,1,188.999994232178,8|0,3:2|0:0,0:0:0:0:
340,171,64780,6,0,B|79:119|79:119|146:3,1,393.75,0|0,3:0|0:0,0:0:0:0:
309,46,65080,2,0,L|246:83,1,62.9999980773926,10|2,3:2|0:0,0:0:0:0:
82,175,65230,2,0,L|153:204,1,62.9999980773926,2|2,0:0|0:0,0:0:0:0:
320,257,65380,6,0,L|457:268,1,125.999996154785,2|0,3:1|0:0,0:0:0:0:
258,360,65605,2,0,L|249:208,1,125.999996154785,2|0,0:1|0:0,0:0:0:0:
81,200,65830,2,0,L|-4:186,1,62.9999980773926,2|0,0:1|0:0,0:0:0:0:
250,217,65980,5,4,3:0:0:0:
281,217,66017,1,0,0:0:0:0:
309,204,66055,1,0,0:0:0:0:
329,179,66092,1,0,0:0:0:0:
336,149,66130,1,0,0:0:0:0:
329,119,66167,1,0,0:0:0:0:
310,94,66205,1,0,0:0:0:0:
277,82,66242,1,0,0:0:0:0:
232,78,66280,1,8,3:2:0:0:
290,63,66355,1,0,0:0:0:0:
475,40,66430,2,0,L|396:24,1,62.9999980773926,0|0,3:0|0:0,0:0:0:0:
240,32,66580,6,0,L|232:231,1,188.999994232178,4|0,3:0|0:0,0:0:0:0:
152,233,66880,2,0,L|369:261,1,188.999994232178,8|0,3:2|0:0,0:0:0:0:
150,326,67180,5,10,3:1:0:0:
118,322,67217,1,0,0:0:0:0:
87,319,67255,1,0,0:0:0:0:
55,316,67292,1,0,0:0:0:0:
24,313,67330,1,0,0:0:0:0:
85,292,67405,1,0,0:0:0:0:
257,274,67480,2,0,L|274:239,2,31.4999990386963,14|0|0,3:1|0:0|0:0,0:0:0:0:
76,209,67630,2,0,L|59:174,2,31.4999990386963,10|0|0,0:1|0:0|0:0,0:0:0:0:
278,177,67780,6,0,P|299:106|208:64,1,188.999994232178,2|0,3:0|0:0,0:0:0:0:
140,65,68080,2,0,L|372:94,1,188.999994232178,14|0,3:2|0:0,0:0:0:0:
122,145,68380,5,4,3:1:0:0:
90,146,68417,1,0,0:0:0:0:
64,162,68455,1,0,0:0:0:0:
50,190,68492,1,0,0:0:0:0:
52,221,68530,1,0,0:0:0:0:
117,249,68605,1,0,0:0:0:0:
301,309,68680,2,0,L|314:237,1,62.9999980773926,12|0,3:1|0:0,0:0:0:0:
117,359,68830,2,0,L|103:284,1,62.9999980773926,4|0,0:1|0:0,0:0:0:0:
321,237,68980,5,4,3:1:0:0:
306,209,69017,1,0,0:0:0:0:
283,188,69055,1,0,3:0:0:0:
254,176,69092,1,0,0:0:0:0:
222,175,69130,1,0,3:0:0:0:
154,180,69205,1,0,3:0:0:0:
368,154,69280,5,12,3:1:0:0:
354,126,69317,1,0,0:0:0:0:
333,105,69355,1,0,3:0:0:0:
307,93,69392,1,0,0:0:0:0:
278,92,69430,1,0,3:0:0:0:
216,97,69505,1,0,3:0:0:0:
442,44,69580,6,0,B|180:37|180:37|136:162|136:162|180:38|180:38|460:46,2,787.5,4|2|2,3:2|0:3|0:3,0:0:0:0:
468,46,70498,6,0,P|486:77|403:160,1,173.24999471283
202,201,70780,6,0,L|405:231,1,179.549997808228,4|0,3:2|0:0,0:0:0:0:
307,249,71080,2,0,L|125:278,1,179.549997808228,10|0,0:0|0:0,0:0:0:0:
306,352,71380,1,2,3:2:0:0:
97,371,71530,2,0,L|91:231,1,119.699998538818,2|8,0:2|0:0,0:0:0:0:
302,213,71830,1,2,0:2:0:0:
78,175,71980,6,0,L|125:56,1,119.699998538818,2|0,3:2|0:0,0:0:0:0:
336,69,72280,1,10,0:2:0:0:
94,77,72430,2,0,L|188:2,1,119.699998538818,2|0,0:2|3:0,0:0:0:0:
442,68,72730,1,2,0:0:0:0:
182,134,72880,2,0,L|1:151,1,179.549997808228,10|0,0:0|0:0,0:0:0:0:
215,208,73180,6,0,P|246:266|151:329,1,179.549997808228,2|0,3:2|0:0,0:0:0:0:
109,333,73480,1,10,0:2:0:0:
239,353,73630,1,2,0:2:0:0:
484,303,73780,1,2,3:2:0:0:
227,257,73930,2,0,P|203:195|292:142,1,179.549997808228,2|0,0:0|0:0,0:0:0:0:
464,139,74230,5,2,0:0:0:0:
242,52,74380,2,0,L|105:69,1,119.699998538818,2|0,3:2|0:0,0:0:0:0:
361,173,74680,1,10,0:2:0:0:
123,162,74830,1,2,0:2:0:0:
371,201,74980,2,0,P|446:217|449:318,1,179.549997808228,2|0,3:2|0:0,0:0:0:0:
280,360,75280,2,0,L|266:172,1,179.549997808228,10|0,0:0|0:0,0:0:0:0:
76,106,75580,6,0,L|200:95,1,119.699998538818,2|0,3:2|0:0,0:0:0:0:
407,56,75880,1,10,0:0:0:0:
190,43,76030,1,2,0:0:0:0:
423,88,76180,2,0,P|446:147|361:208,1,179.549997808228,2|0,3:2|0:0,0:0:0:0:
183,222,76480,2,0,P|109:244|100:350,1,179.549997808228,10|0,0:2|0:0,0:0:0:0:
307,329,76780,6,0,L|134:312,1,136.499993751526,2|0,3:1|0:0,0:0:0:0:
426,248,77080,2,0,L|143:218,1,245.700000937271,10|0,0:1|0:0,0:0:0:0:
443,243,77380,6,0,L|456:-6,1,241.500004606247,0|8,3:0|0:0,0:0:0:0:
326,51,77830,1,0,0:0:0:0:
76,108,77980,6,0,L|274:157,1,181.125003454685,0|0,3:0|0:0,0:0:0:0:
321,174,78280,2,0,L|124:217,1,181.125003454685,8|0,0:0|0:0,0:0:0:0:
334,296,78580,5,0,3:0:0:0:
99,342,78730,2,0,L|83:220,1,120.750002303124,0|8,0:0|0:0,0:0:0:0:
321,174,79030,2,0,L|406:164,1,60.3750011515618,0|0,3:0|3:0,0:0:0:0:
185,126,79180,1,8,3:0:0:0:
454,85,79330,2,0,L|459:239,1,120.750002303124,8|0,3:0|0:0,0:0:0:0:
217,263,79630,6,0,L|410:271,1,181.125003454685,8|0,3:0|0:0,0:0:0:0:
173,344,79930,1,8,3:0:0:0:
38,332,80080,1,8,3:0:0:0:
321,184,80230,2,0,L|235:182,1,60.3750011515618,8|8,3:0|0:0,0:0:0:0:
48,238,80380,5,2,0:0:0:0:
23,220,80417,1,0,0:0:0:0:
61,218,80455,1,0,0:0:0:0:
34,195,80492,1,0,0:0:0:0:
88,201,80530,1,0,0:0:0:0:
62,174,80567,1,0,0:0:0:0:
115,169,80605,1,0,0:0:0:0:
339,97,80680,6,0,L|349:304,1,181.125003454685,12|0,0:0|0:0,0:0:0:0:
183,293,80980,1,2,3:2:0:0:
417,174,81130,2,0,L|422:295,1,120.750002303124,2|8,0:0|0:0,0:0:0:0:
196,178,81430,1,2,0:0:0:0:
433,131,81580,6,0,L|387:255,1,120.750002303124,2|0,3:2|0:0,0:0:0:0:
180,78,81880,1,10,0:0:0:0:
437,68,82030,2,0,L|303:140,1,120.750002303124,2|2,0:2|3:2,0:0:0:0:
76,181,82330,1,2,0:2:0:0:
338,240,82480,1,10,0:2:0:0:
210,265,82630,2,0,L|136:275,1,60.3750011515618,0|0,3:0|3:0,0:0:0:0:
361,343,82780,6,0,P|446:325|398:185,1,241.500004606247,2|8,3:2|0:0,0:0:0:0:
305,189,83230,1,2,0:2:0:0:
68,172,83380,1,2,3:2:0:0:
305,100,83530,2,0,L|142:92,1,120.750002303124,2|8,0:2|0:0,0:0:0:0:
431,44,83830,2,0,L|501:40,1,60.3750011515618,2|0,3:2|3:0,0:0:0:0:
270,19,83980,5,2,3:2:0:0:
253,144,84130,1,0,3:0:0:0:
492,182,84280,1,10,0:0:0:0:
364,200,84430,1,0,0:0:0:0:
97,278,84580,5,2,3:2:0:0:
231,311,84730,2,0,L|245:236,1,60.3750011515618,0|0,3:0|3:0,0:0:0:0:
54,205,84880,1,8,3:0:0:0:
25,148,84955,1,0,3:0:0:0:
54,205,85030,1,0,3:0:0:0:
116,215,85105,1,0,3:0:0:0:
320,127,85180,5,0,3:2:0:0:
194,113,85330,1,0,3:2:0:0:
450,57,85480,1,8,3:2:0:0:
463,181,85630,1,0,0:0:0:0:
231,261,85780,1,0,3:0:0:0:
365,313,85930,2,0,L|296:329,1,60.3750011515618,0|0,3:0|3:0,0:0:0:0:
109,357,86080,5,8,3:2:0:0:
141,306,86155,1,0,3:2:0:0:
193,277,86230,1,0,3:2:0:0:
253,277,86305,1,0,3:2:0:0:
50,260,86380,5,10,3:3:0:0:
37,156,86530,1,0,3:0:0:0:
272,133,86680,1,10,0:3:0:0:
139,76,86830,2,0,L|217:68,1,60.3750011515618,0|0,3:0|3:0,0:0:0:0:
424,42,86980,5,2,3:2:0:0:
292,29,87130,1,0,3:0:0:0:
35,77,87280,1,10,0:2:0:0:
299,136,87430,2,0,L|377:146,1,60.3750011515618,0|0,3:0|3:0,0:0:0:0:
130,316,87580,6,0,L|111:241,1,60.3750011515618,0|2,3:2|3:2,0:0:0:0:
192,258,87730,2,0,L|195:174,1,60.3750011515618,2|2,3:2|3:2,0:0:0:0:
276,206,87880,2,0,L|304:140,1,60.3750011515618,10|2,3:2|3:2,0:0:0:0:
382,161,88030,2,0,L|445:126,1,60.3750011515618,2|2,3:2|3:2,0:0:0:0:
152,149,88180,6,0,L|123:88,1,60.3750011515618,2|2,3:2|3:2,0:0:0:0:
284,96,88330,2,0,L|288:18,1,60.3750011515618,2|2,3:2|3:2,0:0:0:0:
448,77,88480,2,0,L|496:16,1,60.3750011515618,10|2,3:2|3:2,0:0:0:0:
241,238,88630,2,0,L|145:228,1,60.3750011515618,2|2,3:2|3:2,0:0:0:0:
439,358,88780,6,0,L|451:224,1,120.750002303124,4|0,3:0|0:0,0:0:0:0:
294,225,89080,2,0,L|260:158,2,60.3750011515618,8|0|0,3:2|3:0|3:0,0:0:0:0:
436,158,89380,2,0,L|469:90,2,60.3750011515618,0|0|0,3:0|3:0|3:0,0:0:0:0:
288,156,89680,1,0,3:0:0:0:
284,125,89717,1,0,3:0:0:0:
281,95,89755,1,0,3:0:0:0:
278,65,89792,1,0,3:0:0:0:
275,35,89830,1,0,3:0:0:0:
18,177,89980,6,0,L|148:213,1,105,12|0,0:0|0:0,0:0:0:0:
18,159,90280,1,8,0:0:0:0:
137,173,90430,1,0,0:0:0:0:
136,122,90505,2,0,P|78:47|4:37,1,157.5,8|0,0:0|0:0,0:0:0:0:
178,18,90880,2,0,L|158:89,1,52.5,8|0,0:0|0:0,0:0:0:0:
89,65,91030,2,0,L|69:136,1,52.5,0|8,0:0|0:0,0:0:0:0:
152,145,91180,5,0,0:0:0:0:
30,190,91330,2,0,L|24:146,2,35,2|2|2,0:0|0:0|0:0,0:0:0:0:
71,201,91480,2,0,L|189:192,1,105,10|0,0:0|0:0,0:0:0:0:
116,182,91705,2,0,L|114:115,1,52.5,8|0,0:0|0:0,0:0:0:0:
240,62,91930,2,0,L|170:64,1,52.5,8|0,0:0|0:0,0:0:0:0:
240,62,92080,1,8,0:0:0:0:
365,151,92230,2,0,L|312:159,1,52.5,8|0,0:0|0:0,0:0:0:0:
180,340,92380,6,0,L|161:209,1,105,8|0,0:0|0:0,0:0:0:0:
219,222,92605,1,0,0:0:0:0:
276,215,92680,2,0,L|298:66,1,105,8|0,0:0|0:0,0:0:0:0:
208,96,92905,2,0,P|153:111|107:227,1,157.5,8|0,0:0|0:0,0:0:0:0:
234,277,93280,1,8,0:0:0:0:
103,193,93430,6,0,L|181:194,2,52.5,2|10|0,0:0|0:0|0:0,0:0:0:0:
91,214,93730,2,0,L|162:214,1,52.5,2|2,0:0|0:0,0:0:0:0:
328,317,93880,1,10,0:0:0:0:
360,268,93955,1,0,0:0:0:0:
326,225,94030,1,0,0:0:0:0:
236,206,94105,1,8,0:0:0:0:
206,175,94180,2,0,L|244:116,1,52.5
327,103,94330,2,0,L|257:94,1,52.5,8|0,0:0|0:0,0:0:0:0:
124,340,94480,5,14,3:0:0:0:
81,334,94517,1,2,0:0:0:0:
45,309,94555,1,2,0:0:0:0:
27,227,94592,1,2,0:0:0:0:
27,227,94630,1,2,0:0:0:0:
49,189,94667,1,2,0:0:0:0:
85,166,94705,1,2,0:0:0:0:
301,150,94780,6,0,L|173:149,1,105,8|0,0:0|0:0,0:0:0:0:
323,94,95080,1,8,0:0:0:0:
196,149,95230,1,0,0:0:0:0:
198,204,95305,6,0,P|228:254|334:279,1,157.5,8|0,0:0|0:0,0:0:0:0:
183,296,95680,2,0,L|174:172,1,105,8|0,0:0|0:0,0:0:0:0:
261,181,95905,2,0,P|303:214|239:292,1,157.5,8|2,0:0|0:0,0:0:0:0:
227,296,96180,1,2,0:0:0:0:
195,298,96230,1,2,0:0:0:0:
264,358,96280,6,0,L|406:348,1,105,10|0,0:0|0:0,0:0:0:0:
303,330,96505,2,0,L|299:249,1,52.5,8|0,0:0|0:0,0:0:0:0:
171,197,96730,2,0,L|252:198,1,52.5,8|0,0:0|0:0,0:0:0:0:
171,197,96880,1,8,0:0:0:0:
46,125,97030,2,0,L|120:124,1,52.5,8|0,0:0|0:0,0:0:0:0:
265,138,97180,6,0,L|276:12,1,105,8|0,0:0|0:0,0:0:0:0:
205,27,97405,1,0,0:0:0:0:
133,27,97480,2,0,L|-9:29,1,105,8|0,0:0|0:0,0:0:0:0:
107,98,97705,2,0,P|152:143|77:194,1,157.5,8|0,0:0|0:0,0:0:0:0:
234,258,98080,1,8,0:0:0:0:
98,199,98230,2,0,L|172:199,2,52.5,10|10|2,0:0|0:0|0:0,0:0:0:0:
234,258,98530,2,0,L|246:181,1,52.5,0|0,0:0|0:0,0:0:0:0:
169,189,98680,6,0,L|31:180,1,105,8|0,0:0|0:0,0:0:0:0:
232,124,98905,2,0,L|414:103,1,157.5,8|8,0:0|0:0,0:0:0:0:
129,350,99280,1,14,3:1:0:0:
171,341,99317,1,2,0:0:0:0:
205,314,99355,1,2,0:0:0:0:
218,271,99392,1,2,0:0:0:0:
206,228,99430,1,2,0:0:0:0:
168,203,99467,1,2,0:0:0:0:
121,195,99505,1,2,0:0:0:0:
292,144,99580,5,10,0:0:0:0:
415,140,99730,1,2,0:0:0:0:
247,266,99880,1,8,0:0:0:0:
375,264,100030,1,2,0:0:0:0:
327,264,100105,1,10,0:0:0:0:
375,264,100180,1,2,0:0:0:0:
247,266,100330,1,8,0:0:0:0:
496,368,100480,2,0,L|495:190,1,157.5,12|0,3:0|0:0,0:0:0:0:
266,198,100780,5,10,0:0:0:0:
143,199,100930,1,2,0:0:0:0:
200,199,101005,1,0,0:0:0:0:
266,198,101080,1,8,0:0:0:0:
143,199,101230,1,2,0:0:0:0:
201,199,101305,2,0,L|200:133,1,52.5,10|2,0:0|0:0,0:0:0:0:
68,145,101530,1,10,0:0:0:0:
303,234,101680,2,0,L|348:234,2,26.25,6|6|6,0:3|0:3|0:3,0:0:0:0:
164,308,101830,2,0,L|119:308,2,26.25,0|0|0,0:3|0:3|0:3,0:0:0:0:
359,360,101980,5,10,0:0:0:0:
233,358,102130,1,2,0:0:0:0:
381,277,102280,1,8,0:0:0:0:
259,279,102430,1,2,0:0:0:0:
306,279,102505,1,10,0:0:0:0:
259,279,102580,1,2,0:0:0:0:
402,194,102730,1,10,0:0:0:0:
402,194,102805,1,0,0:0:0:0:
247,119,102880,1,10,3:0:0:0:
231,108,102917,1,2,0:0:0:0:
262,108,102955,1,2,0:0:0:0:
224,90,102992,1,2,0:0:0:0:
269,90,103030,1,2,0:0:0:0:
228,72,103067,1,2,0:0:0:0:
265,72,103105,1,2,0:0:0:0:
91,25,103180,5,10,0:0:0:0:
207,29,103330,1,2,0:0:0:0:
71,99,103480,5,8,0:0:0:0:
192,101,103630,1,2,0:0:0:0:
143,100,103705,1,10,0:0:0:0:
192,101,103780,1,2,0:0:0:0:
65,164,103930,1,10,0:0:0:0:
301,316,104080,2,0,P|371:274|287:172,1,236.250009012223,12|0,0:0|0:0,0:0:0:0:
123,168,104380,5,10,1:0:0:0:
168,220,104455,1,8,1:0:0:0:
231,248,104530,1,8,1:0:0:0:
300,246,104605,1,8,1:0:0:0:
140,355,104680,2,0,L|70:355,1,52.5,10|8,1:0|1:0,0:0:0:0:
164,326,104830,1,8,1:0:0:0:
329,214,104905,1,10,1:0:0:0:
276,214,104980,1,8,1:0:0:0:
224,215,105055,1,8,1:0:0:0:
402,140,105130,1,10,1:0:0:0:
435,184,105205,1,8,1:0:0:0:
418,236,105280,1,8,1:0:0:0:
365,252,105355,1,8,1:0:0:0:
177,276,105430,5,10,1:0:0:0:
255,276,105505,1,8,1:0:0:0:
334,276,105580,1,8,1:0:0:0:
256,232,105655,1,8,1:0:0:0:
435,199,105730,2,0,L|532:197,1,52.5,10|8,1:0|1:0,0:0:0:0:
340,180,105880,1,10,1:0:0:0:
301,125,105955,1,8,1:0:0:0:
330,66,106030,1,8,1:0:0:0:
397,64,106105,1,8,1:0:0:0:
219,179,106180,5,10,1:0:0:0:
170,159,106255,1,8,1:0:0:0:
132,123,106330,1,8,1:0:0:0:
317,323,106405,1,10,1:0:0:0:
366,303,106480,1,8,1:0:0:0:
404,267,106555,1,8,1:0:0:0:
229,259,106630,2,0,L|166:260,1,52.5,10|8,1:0|1:0,0:0:0:0:
346,356,106780,5,10,1:0:0:0:
350,339,106817,1,8,1:0:0:0:
354,321,106855,1,8,1:0:0:0:
305,314,106892,1,8,1:0:0:0:
260,310,106930,5,8,1:0:0:0:
256,293,106967,1,8,1:0:0:0:
252,275,107005,1,8,1:0:0:0:
307,266,107042,1,8,1:0:0:0:
359,262,107080,5,10,1:0:0:0:
369,247,107117,1,8,1:0:0:0:
367,227,107155,1,8,1:0:0:0:
306,219,107192,1,8,1:0:0:0:
244,215,107230,5,8,1:0:0:0:
233,199,107267,1,8,1:0:0:0:
236,180,107305,1,8,1:0:0:0:
336,161,107342,1,8,1:0:0:0:
441,148,107380,5,10,1:0:0:0:
458,134,107417,1,8,1:0:0:0:
449,113,107455,1,8,1:0:0:0:
349,91,107492,1,8,1:0:0:0:
232,71,107530,5,8,1:0:0:0:
213,59,107567,1,8,1:0:0:0:
224,36,107605,1,10,1:0:0:0:
324,14,107642,1,8,1:0:0:0:
459,191,107680,5,8,1:0:0:0:
486,178,107717,1,8,1:0:0:0:
467,156,107755,1,8,1:0:0:0:
341,130,107792,1,8,1:0:0:0:
161,107,107830,5,10,1:0:0:0:
128,92,107867,1,8,1:0:0:0:
153,72,107905,1,8,1:0:0:0:
277,51,107942,1,8,1:0:0:0:
482,31,107980,6,0,L|358:31,2,105,8|0|8,3:2|3:2|0:3,0:0:0:0:
352,22,108430,1,0,3:2:0:0:
354,74,108505,1,8,3:3:0:0:
356,126,108580,1,0,3:3:0:0:
359,178,108655,1,0,3:2:0:0:
361,231,108730,1,8,0:3:0:0:
138,342,108880,2,0,L|418:338,1,236.250009012223,8|0,0:0|0:0,0:0:0:0:
133,260,109180,6,0,L|133:220,1,26.25,4|0,3:2|0:0,0:0:0:0:
376,255,109330,2,0,L|376:215,1,26.25,0|0,3:0|0:0,0:0:0:0:
175,133,109480,1,8,1:0:0:0:
211,132,109517,1,0,0:0:0:0:
247,132,109555,1,0,0:0:0:0:
284,131,109592,1,0,0:0:0:0:
321,131,109630,1,0,0:0:0:0:
113,222,109780,1,0,3:0:0:0:
381,217,110080,5,0,3:0:0:0:
153,291,110230,1,8,1:0:0:0:
177,259,110267,1,0,0:0:0:0:
212,235,110305,1,0,0:0:0:0:
253,224,110342,1,0,0:0:0:0:
294,228,110380,1,0,0:0:0:0:
162,218,110530,1,0,2:0:0:0:
371,194,110680,1,8,1:0:0:0:
347,162,110717,1,0,0:0:0:0:
312,138,110755,1,0,0:0:0:0:
271,127,110792,1,0,0:0:0:0:
230,131,110830,1,0,0:0:0:0:
452,239,110980,2,0,L|454:71,1,157.5,8|0,1:0|0:0,0:0:0:0:
386,342,111280,5,0,3:0:0:0:
162,345,111430,1,8,1:0:0:0:
182,302,111467,1,0,0:0:0:0:
215,269,111505,1,0,0:0:0:0:
258,251,111542,1,0,0:0:0:0:
306,249,111580,1,0,0:0:0:0:
456,241,111730,1,0,3:0:0:0:
231,209,111880,1,8,1:0:0:0:
182,179,111917,1,0,0:0:0:0:
165,139,111955,1,0,0:0:0:0:
188,100,111992,1,0,0:0:0:0:
256,76,112030,1,0,0:0:0:0:
19,59,112180,6,0,L|46:35,12,35.4375001351833,4|0|0|0|0|0|0|0|0|0|0|0|0,3:2|0:0|0:0|0:0|0:0|0:0|0:0|0:0|0:0|0:0|0:0|0:0|0:0,0:0:0:0:
88,62,112480,1,0,3:0:0:0:
323,66,112630,5,8,1:0:0:0:
301,113,112667,1,0,0:0:0:0:
264,149,112705,1,0,0:0:0:0:
215,169,112742,1,0,0:0:0:0:
163,170,112780,1,0,0:0:0:0:
301,175,112930,1,0,3:0:0:0:
83,368,113080,5,8,1:0:0:0:
42,353,113117,1,0,0:0:0:0:
14,320,113155,1,0,0:0:0:0:
5,278,113192,1,0,0:0:0:0:
18,236,113230,1,0,0:0:0:0:
49,207,113267,1,0,0:0:0:0:
91,196,113305,1,0,0:0:0:0:
255,194,113380,5,8,1:0:0:0:
255,167,113417,1,0,0:0:0:0:
255,141,113455,1,0,0:0:0:0:
255,115,113492,1,0,0:0:0:0:
255,89,113530,1,0,0:0:0:0:
255,62,113567,1,0,0:0:0:0:
255,36,113605,1,0,0:0:0:0:
429,368,113680,5,8,1:0:0:0:
469,353,113717,1,0,0:0:0:0:
497,320,113755,1,0,0:0:0:0:
506,278,113792,1,0,0:0:0:0:
493,236,113830,1,0,0:0:0:0:
462,207,113867,1,0,0:0:0:0:
420,196,113905,1,0,0:0:0:0:
215,285,113980,6,0,L|214:267,1,13.125,0|0,3:0|0:0,0:0:0:0:
445,283,114130,2,0,L|446:265,1,13.125,0|0,3:0|0:0,0:0:0:0:
218,179,114280,1,8,1:0:0:0:
259,179,114317,1,0,0:0:0:0:
301,179,114355,1,0,0:0:0:0:
342,179,114392,1,0,0:0:0:0:
386,179,114430,1,0,0:0:0:0:
164,122,114580,1,0,3:0:0:0:
161,174,114617,1,0,0:0:0:0:
159,226,114655,1,0,0:0:0:0:
156,279,114692,1,0,0:0:0:0:
154,331,114730,1,0,0:0:0:0:
303,345,114880,1,0,3:0:0:0:
80,361,115030,5,8,1:0:0:0:
105,327,115067,1,0,0:0:0:0:
139,304,115105,1,0,0:0:0:0:
180,292,115142,1,0,0:0:0:0:
221,295,115180,1,0,0:0:0:0:
123,285,115330,1,0,3:0:0:0:
344,283,115480,1,8,1:0:0:0:
390,261,115517,1,0,0:0:0:0:
408,213,115555,1,0,0:0:0:0:
388,166,115592,1,0,0:0:0:0:
341,146,115630,1,0,0:0:0:0:
145,171,115780,2,0,P|230:157|331:108,1,188.999994232178,4|0,3:0|0:0,0:0:0:0:
92,158,116080,5,0,3:0:0:0:
75,146,116098,1,0,0:0:0:0:
58,149,116117,1,0,0:0:0:0:
63,120,116136,1,0,0:0:0:0:
42,126,116155,1,0,0:0:0:0:
65,93,116173,1,0,0:0:0:0:
37,99,116192,1,0,0:0:0:0:
79,68,116211,1,0,0:0:0:0:
47,73,116230,1,0,0:0:0:0:
102,53,116248,1,0,0:0:0:0:
66,54,116267,1,0,0:0:0:0:
105,44,116286,1,0,0:0:0:0:
147,38,116305,1,0,0:0:0:0:
368,200,116380,6,0,L|54:198,1,283.500001081467,4|0,3:2|0:0,0:0:0:0:
44,338,116680,6,0,L|358:336,1,283.500001081467,4|0,3:2|0:0,0:0:0:0:
406,225,117130,6,0,P|254:226|29:225,1,330.749989906311,4|0,3:2|0:0,0:0:0:0:
29,73,117580,6,0,P|181:74|406:73,1,330.749989906311,4|0,3:2|0:0,0:0:0:0:
406,225,118030,6,0,P|254:226|29:225,1,330.749989906311,4|0,3:2|0:0,0:0:0:0:
29,73,118480,6,0,P|181:74|406:73,1,330.749989906311,4|0,3:2|0:0,0:0:0:0:
412,73,118780,6,0,L|359:73,7,52.5,6|2|2|2|2|2|2|2,0:0|0:0|0:0|0:0|0:0|0:0|0:0|0:0,0:0:0:0:
119,365,119380,6,0,P|182:297|332:253,1,236.250009012223,4|0,3:2|0:0,0:0:0:0:
112,242,119680,6,0,L|101:195,2,28.8750008811951,0|0|0,3:0|0:0|0:0,0:0:0:0:
285,364,119830,2,0,L|296:317,2,28.8750008811951,8|0|0,1:0|0:0|0:0,0:0:0:0:
474,291,120130,2,0,L|485:244,2,28.8750008811951,0|0|0,3:0|0:0|0:0,0:0:0:0:
274,188,120280,1,8,1:0:0:0:
244,167,120317,1,0,0:0:0:0:
234,134,120355,1,0,0:0:0:0:
247,101,120392,1,0,0:0:0:0:
277,83,120430,1,0,0:0:0:0:
23,35,120580,2,0,L|281:36,1,236.250009012223,8|0,1:0|0:0,0:0:0:0:
460,261,120880,6,0,L|471:214,2,28.8750008811951,0|0|0,3:0|0:0|0:0,0:0:0:0:
287,383,121030,2,0,L|276:336,2,28.8750008811951,8|0|0,1:0|0:0|0:0,0:0:0:0:
94,311,121330,2,0,L|83:264,2,28.8750008811951,0|0|0,3:0|0:0|0:0,0:0:0:0:
298,207,121480,1,8,1:0:0:0:
328,186,121517,1,0,0:0:0:0:
338,153,121555,1,0,0:0:0:0:
325,120,121592,1,0,0:0:0:0:
295,102,121630,1,0,0:0:0:0:
37,92,121780,5,4,3:3:0:0:
56,94,121798,1,0,0:0:0:0:
71,110,121817,1,0,0:0:0:0:
77,134,121836,1,0,0:0:0:0:
70,157,121855,1,0,0:0:0:0:
55,173,121873,1,0,0:0:0:0:
35,175,121892,1,0,0:0:0:0:
55,173,121911,1,0,0:0:0:0:
70,157,121930,1,0,0:0:0:0:
77,134,121948,1,0,0:0:0:0:
71,110,121967,1,0,0:0:0:0:
56,94,121986,1,0,0:0:0:0:
37,92,122005,1,0,0:0:0:0:
219,65,122080,6,0,L|225:36,2,28.8750008811951,0|0|0,3:0|0:0|0:0,0:0:0:0:
46,187,122230,2,0,L|39:158,2,28.8750008811951,8|0|0,1:0|0:0|0:0,0:0:0:0:
215,265,122530,6,0,L|221:236,2,28.8750008811951,0|0|0,3:0|0:0|0:0,0:0:0:0:
429,368,122680,5,8,1:0:0:0:
470,353,122717,1,0,0:0:0:0:
498,320,122755,1,0,0:0:0:0:
507,278,122792,1,0,0:0:0:0:
494,236,122830,1,0,0:0:0:0:
463,207,122867,1,0,0:0:0:0:
421,196,122905,1,0,0:0:0:0:
257,194,122980,5,8,1:0:0:0:
257,167,123017,1,0,0:0:0:0:
257,141,123055,1,0,0:0:0:0:
257,115,123092,1,0,0:0:0:0:
257,89,123130,1,0,0:0:0:0:
257,62,123167,1,0,0:0:0:0:
257,36,123205,1,0,0:0:0:0:
83,368,123280,5,8,1:0:0:0:
43,353,123317,1,0,0:0:0:0:
15,320,123355,1,0,0:0:0:0:
6,278,123392,1,0,0:0:0:0:
19,236,123430,1,0,0:0:0:0:
50,207,123467,1,0,0:0:0:0:
92,196,123505,1,0,0:0:0:0:
321,191,123580,5,6,3:3:0:0:
347,179,123617,1,0,0:0:0:0:
368,160,123655,1,0,0:0:0:0:
381,134,123692,1,0,0:0:0:0:
385,106,123730,1,0,0:0:0:0:
378,78,123767,1,0,0:0:0:0:
362,54,123805,1,0,0:0:0:0:
319,37,123842,1,0,0:0:0:0:
274,29,123880,1,0,0:0:0:0:
302,29,123917,1,0,0:0:0:0:
331,29,123955,1,0,0:0:0:0:
487,32,124030,1,0,3:0:0:0:
253,92,124180,5,8,0:0:0:0:
239,81,124217,1,0,0:0:0:0:
267,81,124255,1,0,0:0:0:0:
233,64,124292,1,0,0:0:0:0:
273,64,124330,1,0,0:0:0:0:
237,47,124367,1,0,0:0:0:0:
269,47,124405,1,0,0:0:0:0:
439,189,124480,2,0,L|188:189,1,220.499993270874,8|0,1:0|0:0,0:0:0:0:
55,180,124780,6,0,L|48:129,1,36.749998878479,10|0,3:1|0:0,0:0:0:0:
55,180,124855,2,0,L|391:59,1,346.500010574341,0|10,0:0|3:1,0:0:0:0:
394,28,125117,1,0,0:0:0:0:
381,62,125155,2,0,L|203:174,1,210,0|10,0:0|3:1,0:0:0:0:
183,173,125267,1,0,0:0:0:0:
203,173,125305,1,0,0:0:0:0:
352,192,125380,6,0,L|356:136,1,39.3750015020371,10|0,3:1|0:0,0:0:0:0:
352,192,125455,2,0,L|29:53,1,346.500010574341,0|10,0:0|3:1,0:0:0:0:
8,54,125717,1,0,0:0:0:0:
8,55,125755,2,0,P|55:144|126:155,1,157.500006008148
333,357,125980,5,4,3:2:0:0:
331,251,126130,1,2,3:2:0:0:
204,231,126280,1,2,3:2:0:0:
74,245,126430,1,2,3:2:0:0:
281,122,126580,1,2,3:2:0:0:
413,120,126730,1,2,3:2:0:0:
137,322,126880,1,2,3:2:0:0:
269,320,127030,1,2,3:2:0:0:
496,339,127180,6,0,L|486:280,1,52.5,2|2,3:2|3:2,0:0:0:0:
353,292,127330,2,0,L|343:218,1,52.5,2|2,3:2|3:2,0:0:0:0:
498,206,127480,2,0,L|451:134,1,52.5,2|2,3:2|3:2,0:0:0:0:
299,174,127630,2,0,L|259:130,1,52.5,2|2,3:2|3:2,0:0:0:0:
451,73,127780,2,0,L|365:70,1,52.5,2|2,3:2|3:2,0:0:0:0:
258,227,127930,2,0,L|159:228,1,52.5,2|2,3:2|3:2,0:0:0:0:
22,374,128080,2,0,L|22:172,1,157.5,10|0,3:2|0:0,0:0:0:0:
301,17,128380,6,0,P|213:84|307:179,1,275.62501051426,4|0,3:2|0:0,0:0:0:0:
335,173,128680,1,0,1:0:0:0:
340,211,128717,1,0,0:0:0:0:
334,250,128755,1,0,0:0:0:0:
317,285,128792,1,0,0:0:0:0:
290,314,128830,1,0,0:0:0:0:
256,334,128867,1,0,0:0:0:0:
218,343,128905,1,0,0:0:0:0:
179,340,128942,1,0,0:0:0:0:
25,201,128980,5,8,1:0:0:0:
257,97,129280,6,0,L|282:152,2,39.3750015020371,2|0|0,3:0|0:0|0:0,0:0:0:0:
92,82,129430,1,0,0:3:0:0:
80,119,129467,1,0,0:0:0:0:
83,158,129505,1,0,0:3:0:0:
100,193,129542,1,0,0:0:0:0:
130,218,129580,1,0,0:0:0:0:
167,231,129617,1,0,0:0:0:0:
206,228,129655,1,0,0:0:0:0:
379,214,129730,6,0,L|404:269,2,39.3750015020371,0|0|0,0:0|0:0|0:0,0:0:0:0:
211,86,129880,1,2,3:0:0:0:
174,96,129917,1,0,0:0:0:0:
147,123,129955,1,0,0:0:0:0:
137,161,129992,1,0,0:0:0:0:
149,198,130030,1,0,0:0:0:0:
177,225,130067,1,0,0:0:0:0:
215,233,130105,1,0,0:0:0:0:
411,54,130180,5,8,1:0:0:0:
366,47,130217,1,0,0:0:0:0:
324,59,130255,1,0,0:0:0:0:
288,85,130292,1,0,0:0:0:0:
264,124,130330,1,0,0:0:0:0:
257,168,130367,1,0,0:0:0:0:
264,213,130405,1,0,0:0:0:0:
443,264,130480,6,0,L|468:319,2,39.3750015020371,2|0|0,0:3|0:0|0:0,0:0:0:0:
269,131,130630,1,0,0:0:0:0:
257,168,130667,1,0,0:0:0:0:
260,207,130705,1,0,0:0:0:0:
277,242,130742,1,0,0:0:0:0:
307,267,130780,1,0,3:0:0:0:
344,280,130817,1,0,0:0:0:0:
383,277,130855,1,0,0:0:0:0:
216,302,130930,6,0,L|191:247,2,39.3750015020371,0|0|0,0:0|0:0|0:0,0:0:0:0:
383,80,131080,1,2,0:3:0:0:
420,90,131117,1,0,0:0:0:0:
447,117,131155,1,0,0:0:0:0:
457,155,131192,1,0,0:0:0:0:
445,192,131230,1,0,0:0:0:0:
417,219,131267,1,0,0:0:0:0:
379,227,131305,1,0,0:0:0:0:
184,84,131380,5,8,1:0:0:0:
233,78,131398,1,0,0:0:0:0:
220,121,131417,1,0,0:0:0:0:
260,117,131436,1,0,0:0:0:0:
256,158,131455,1,0,0:0:0:0:
290,159,131473,1,0,0:0:0:0:
292,197,131492,1,0,0:0:0:0:
319,204,131511,1,0,0:0:0:0:
328,234,131530,1,0,0:0:0:0:
348,246,131548,1,0,0:0:0:0:
366,271,131567,1,0,0:0:0:0:
381,289,131586,1,0,0:0:0:0:
401,310,131605,1,0,0:0:0:0:
226,288,131680,5,2,3:0:0:0:
196,261,131717,1,0,0:0:0:0:
167,235,131755,1,0,0:0:0:0:
340,321,131830,1,0,0:0:0:0:
379,319,131867,1,0,0:0:0:0:
414,303,131905,1,0,0:0:0:0:
442,275,131942,1,0,0:0:0:0:
456,239,131980,1,0,0:0:0:0:
456,200,132017,1,0,0:0:0:0:
441,164,132055,1,0,0:0:0:0:
269,242,132130,2,0,L|244:187,2,39.3750015020371,0|0|0,0:0|0:0|0:0,0:0:0:0:
477,327,132280,5,2,3:0:0:0:
375,332,132317,1,0,0:0:0:0:
272,329,132355,1,0,0:0:0:0:
163,307,132392,1,0,0:0:0:0:
66,245,132430,1,0,0:0:0:0:
39,143,132467,1,0,0:0:0:0:
74,47,132505,1,0,0:0:0:0:
254,52,132580,5,8,1:0:0:0:
298,48,132617,1,0,0:0:0:0:
340,48,132655,1,0,0:0:0:0:
386,59,132692,1,0,0:0:0:0:
425,88,132730,1,0,0:0:0:0:
437,131,132767,1,0,0:0:0:0:
421,177,132805,1,0,0:0:0:0:
232,219,132880,5,2,3:3:0:0:
206,220,132917,1,0,0:0:0:0:
181,213,132955,1,0,0:0:0:0:
160,198,132992,1,0,0:0:0:0:
144,177,133030,1,0,0:0:0:0:
136,152,133067,1,0,0:0:0:0:
137,126,133105,1,0,0:0:0:0:
338,201,133180,6,0,L|353:240,2,39.3750015020371,0|0|0,3:0|0:0|0:0,0:0:0:0:
175,149,133330,1,0,0:0:0:0:
140,165,133367,1,0,0:0:0:0:
105,182,133405,1,0,0:0:0:0:
335,151,133480,1,2,0:3:0:0:
340,189,133517,1,0,0:0:0:0:
334,228,133555,1,0,0:0:0:0:
317,263,133592,1,0,0:0:0:0:
290,292,133630,1,0,0:0:0:0:
256,312,133667,1,0,0:0:0:0:
218,321,133705,1,0,0:0:0:0:
25,49,133780,5,8,1:0:0:0:
70,48,133817,1,0,0:0:0:0:
114,62,133855,1,0,0:0:0:0:
151,89,133892,1,0,0:0:0:0:
178,126,133930,1,0,0:0:0:0:
193,169,133967,1,0,0:0:0:0:
187,214,134005,1,0,0:0:0:0:
32,241,134080,6,0,L|19:296,2,39.3750015020371,2|0|0,3:0|0:0|0:0,0:0:0:0:
199,114,134230,1,0,0:0:0:0:
238,113,134267,1,0,0:0:0:0:
274,126,134305,1,0,0:0:0:0:
304,152,134342,1,0,0:0:0:0:
321,187,134380,1,0,0:0:0:0:
325,226,134417,1,0,0:0:0:0:
315,264,134455,1,0,0:0:0:0:
149,296,134530,6,0,L|136:351,2,39.3750015020371,0|0|0,0:0|0:0|0:0,0:0:0:0:
322,297,134680,1,2,3:0:0:0:
360,294,134717,1,0,0:0:0:0:
391,270,134755,1,0,0:0:0:0:
403,233,134792,1,0,0:0:0:0:
392,196,134830,1,0,0:0:0:0:
362,172,134867,1,0,0:0:0:0:
323,168,134905,1,0,0:0:0:0:
175,65,134980,5,8,1:0:0:0:
151,103,134998,1,0,0:0:0:0:
122,70,135017,1,0,0:0:0:0:
127,111,135036,1,0,0:0:0:0:
82,98,135055,1,0,0:0:0:0:
112,131,135073,1,0,0:0:0:0:
66,141,135092,1,0,0:0:0:0:
113,156,135111,1,0,0:0:0:0:
83,184,135130,1,0,0:0:0:0:
128,176,135148,1,0,0:0:0:0:
125,210,135167,1,0,0:0:0:0:
152,183,135186,1,0,0:0:0:0:
177,216,135205,1,0,0:0:0:0:
323,334,135280,5,2,3:3:0:0:
370,334,135298,1,0,0:0:0:0:
326,281,135317,1,0,0:0:0:0:
368,281,135335,1,0,0:0:0:0:
326,229,135355,1,0,0:0:0:0:
368,229,135373,1,0,0:0:0:0:
327,179,135392,1,0,0:0:0:0:
365,179,135410,1,0,0:0:0:0:
333,129,135430,1,0,0:0:0:0:
361,129,135448,1,0,0:0:0:0:
338,77,135467,1,0,0:0:0:0:
356,77,135486,1,0,0:0:0:0:
347,24,135505,1,0,0:0:0:0:
155,124,135580,6,0,B|397:125|397:125|496:41,1,362.250006909371,4|0,3:2|0:0,0:0:0:0:
489,48,135880,6,0,B|26:50,1,462.000014099122,4|0,3:2|0:0,0:0:0:0:
27,196,136330,2,0,L|488:194,1,462.000014099122,4|0,3:2|0:0,0:0:0:0:
236,96,136780,6,0,B|479:95|479:95|481:365,1,483.000009212494,4|0,3:2|0:0,0:0:0:0:
236,96,137230,2,0,B|479:95|479:95|481:365,1,483.000009212494,4|0,3:2|0:0,0:0:0:0:
218,66,137680,2,0,B|451:166|451:166|451:307,1,377.999988464356,4|0,3:2|0:0,0:0:0:0:
213,59,137980,5,10,3:2:0:0:
198,80,138017,1,0,0:0:0:0:
187,104,138055,1,0,0:0:0:0:
180,129,138092,1,0,0:0:0:0:
178,155,138130,1,0,0:0:0:0:
181,182,138167,1,0,0:0:0:0:
188,207,138205,1,0,0:0:0:0:
200,230,138242,1,0,0:0:0:0:
215,252,138280,1,0,0:0:0:0:
234,270,138317,1,0,0:0:0:0:
256,284,138355,1,0,0:0:0:0:
280,295,138392,1,0,0:0:0:0:
305,301,138430,1,0,0:0:0:0:
331,302,138467,1,0,0:0:0:0:
357,299,138505,1,0,0:0:0:0:
180,90,138580,5,8,1:0:0:0:
140,90,138617,1,0,0:0:0:0:
104,104,138655,1,0,0:0:0:0:
75,131,138692,1,0,0:0:0:0:
57,165,138730,1,0,0:0:0:0:
52,204,138767,1,0,0:0:0:0:
62,242,138805,1,0,0:0:0:0:
231,254,138880,2,0,L|261:320,2,39.3750015020371,2|0|0,3:0|0:0|0:0,0:0:0:0:
60,62,139030,5,0,0:0:0:0:
51,100,139067,1,0,0:0:0:0:
57,138,139105,1,0,0:0:0:0:
76,173,139142,1,0,0:0:0:0:
106,197,139180,1,0,0:0:0:0:
143,210,139217,1,0,0:0:0:0:
182,208,139255,1,0,0:0:0:0:
348,197,139330,2,0,L|378:263,2,39.3750015020371,0|0|0,0:0|0:0|0:0,0:0:0:0:
180,90,139480,5,2,3:0:0:0:
143,102,139517,1,0,0:0:0:0:
117,131,139555,1,0,0:0:0:0:
108,169,139592,1,0,0:0:0:0:
120,206,139630,1,0,0:0:0:0:
148,233,139667,1,0,0:0:0:0:
186,242,139705,1,0,0:0:0:0:
363,64,139780,5,8,1:0:0:0:
314,58,139798,1,0,0:0:0:0:
327,101,139817,1,0,0:0:0:0:
287,97,139836,1,0,0:0:0:0:
291,138,139855,1,0,0:0:0:0:
257,139,139873,1,0,0:0:0:0:
255,177,139892,1,0,0:0:0:0:
228,184,139911,1,0,0:0:0:0:
219,214,139930,1,0,0:0:0:0:
199,226,139948,1,0,0:0:0:0:
181,251,139967,1,0,0:0:0:0:
166,269,139986,1,0,0:0:0:0:
146,290,140005,1,0,0:0:0:0:
323,212,140080,6,0,L|345:268,2,39.3750015020371,2|0|0,0:3|0:0|0:0,0:0:0:0:
158,91,140230,1,0,0:0:0:0:
142,126,140267,1,0,0:0:0:0:
142,166,140305,1,0,0:0:0:0:
157,202,140342,1,0,0:0:0:0:
185,229,140380,1,0,3:0:0:0:
222,243,140417,1,0,0:0:0:0:
261,242,140455,1,0,0:0:0:0:
99,221,140530,2,0,L|77:165,2,39.3750015020371,0|0|0,0:0|0:0|0:0,0:0:0:0:
260,77,140680,5,2,0:3:0:0:
297,85,140717,1,0,0:0:0:0:
325,113,140755,1,0,0:0:0:0:
335,150,140792,1,0,0:0:0:0:
324,187,140830,1,0,0:0:0:0:
295,213,140867,1,0,0:0:0:0:
256,220,140905,1,0,0:0:0:0:
436,223,140980,5,8,1:0:0:0:
443,261,141017,1,0,0:0:0:0:
437,299,141055,1,0,0:0:0:0:
417,333,141092,1,0,0:0:0:0:
386,357,141130,1,0,0:0:0:0:
349,369,141167,1,0,0:0:0:0:
310,366,141205,1,0,0:0:0:0:
142,290,141280,2,0,L|120:346,2,39.3750015020371,2|0|0,3:3|0:0|0:0,0:0:0:0:
313,39,141430,5,0,0:0:0:0:
325,75,141467,1,0,0:0:0:0:
325,113,141505,1,0,0:0:0:0:
311,150,141542,1,0,0:0:0:0:
284,179,141580,1,0,0:0:0:0:
249,196,141617,1,0,0:0:0:0:
210,199,141655,1,0,0:0:0:0:
41,86,141730,2,0,L|26:140,2,39.3750015020371,0|0|0,0:0|0:0|0:0,0:0:0:0:
231,51,141880,5,2,3:0:0:0:
344,60,141917,1,0,0:0:0:0:
447,96,141955,1,0,0:0:0:0:
494,168,141992,1,0,0:0:0:0:
447,96,142030,1,0,0:0:0:0:
344,60,142067,1,0,0:0:0:0:
231,51,142105,1,0,0:0:0:0:
391,85,142180,5,8,1:0:0:0:
395,156,142217,1,0,0:0:0:0:
383,224,142255,1,0,0:0:0:0:
353,273,142292,1,0,0:0:0:0:
313,296,142330,1,0,0:0:0:0:
270,301,142367,1,0,0:0:0:0:
228,296,142405,1,0,0:0:0:0:
397,320,142480,5,2,3:0:0:0:
428,314,142517,1,0,0:0:0:0:
453,285,142555,1,0,0:0:0:0:
462,242,142592,1,0,0:0:0:0:
453,199,142630,1,0,0:0:0:0:
428,170,142667,1,0,0:0:0:0:
397,165,142705,1,0,0:0:0:0:
186,103,142780,5,0,3:0:0:0:
147,109,142817,1,0,0:0:0:0:
118,135,142855,1,0,0:0:0:0:
109,172,142892,1,0,0:0:0:0:
121,209,142930,1,0,0:0:0:0:
293,192,143005,2,0,P|343:249|257:280,1,157.500006008148,0|0,3:0|0:0,0:0:0:0:
202,194,143230,1,0,3:0:0:0:
293,192,143305,1,0,3:0:0:0:
468,199,143380,5,0,3:0:0:0:
428,198,143417,1,0,0:0:0:0:
389,198,143455,1,0,0:0:0:0:
232,126,143530,2,0,L|217:169,2,39.3750015020371,0|0|0,3:0|0:0|0:0,0:0:0:0:
405,49,143830,5,0,3:0:0:0:
443,56,143867,1,0,0:0:0:0:
471,82,143905,1,0,0:0:0:0:
482,120,143942,1,0,0:0:0:0:
471,157,143980,1,0,0:0:0:0:
443,184,144017,1,0,0:0:0:0:
405,191,144055,1,0,0:0:0:0:
266,171,144130,2,0,L|265:351,1,157.500006008148,0|0,3:0|0:0,0:0:0:0:
104,154,144355,2,0,L|274:91,1,157.500006008148,0|0,3:0|0:0,0:0:0:0:
29,214,144580,6,0,L|11:265,2,39.3750015020371,0|0|0,3:0|0:0|0:0,0:0:0:0:
197,208,144730,2,0,L|223:252,2,39.3750015020371,0|0|0,3:0|0:0|0:0,0:0:0:0:
38,57,145030,6,0,L|37:144,1,78.7500030040742,0|0,3:0|3:0,0:0:0:0:
288,172,145180,2,0,L|127:176,1,157.500006008148,4|0,3:2|3:0,0:0:0:0:
210,230,145405,1,0,3:0:0:0:
419,118,145480,2,0,P|468:142|398:199,1,157.500006008148,0|0,3:0|3:0,0:0:0:0:
343,205,145705,1,0,3:0:0:0:
175,83,145780,5,4,3:2:0:0:
255,84,145855,2,0,P|304:108|234:165,1,157.500006008148,0|0,3:0|3:0,0:0:0:0:
84,181,146080,2,0,P|35:205|105:262,1,157.500006008148,0|0,3:0|3:0,0:0:0:0:
160,268,146305,1,0,3:0:0:0:
359,63,146380,2,0,L|361:153,1,78.7500030040742,4|0,3:2|3:0,0:0:0:0:
172,149,146530,2,0,L|170:237,1,78.7500030040742,0|0,3:0|3:0,0:0:0:0:
363,184,146680,2,0,L|265:214,1,78.7500030040742,4|0,3:2|3:0,0:0:0:0:
109,188,146830,2,0,L|14:216,1,78.7500030040742,0|0,3:0|3:0,0:0:0:0:
216,43,146980,5,4,3:3:0:0:
240,60,146998,1,0,0:0:0:0:
258,51,147017,1,0,0:0:0:0:
267,73,147036,1,0,0:0:0:0:
298,64,147055,1,0,0:0:0:0:
292,89,147073,1,0,0:0:0:0:
335,81,147092,1,0,0:0:0:0:
313,108,147111,1,0,0:0:0:0:
355,103,147130,1,0,0:0:0:0:
330,128,147148,1,0,0:0:0:0:
379,129,147167,1,0,0:0:0:0:
343,149,147186,1,0,0:0:0:0:
395,157,147205,1,0,0:0:0:0:
351,171,147223,1,0,0:0:0:0:
399,187,147242,1,0,0:0:0:0:
349,193,147261,5,0,0:0:0:0:
395,217,147280,1,0,0:0:0:0:
339,215,147298,1,0,0:0:0:0:
379,245,147317,1,0,0:0:0:0:
326,236,147336,1,0,0:0:0:0:
358,271,147355,1,0,0:0:0:0:
308,256,147373,1,0,0:0:0:0:
335,292,147392,1,0,0:0:0:0:
286,274,147411,1,0,0:0:0:0:
298,309,147430,1,0,0:0:0:0:
261,289,147448,1,0,0:0:0:0:
257,320,147467,1,0,0:0:0:0:
232,302,147486,1,0,0:0:0:0:
213,326,147505,1,0,0:0:0:0:
43,304,147580,5,4,3:3:0:0:
256,192,147655,12,0,151780,0:0:0:0:
39,64,152380,6,0,L|40:181,1,105,2|0,0:3|0:0,0:0:0:0:
130,185,152680,2,0,L|131:302,1,105,2|0,0:0|0:0,0:0:0:0:
221,66,152980,2,0,L|222:183,1,105,2|0,0:0|0:0,0:0:0:0:
312,182,153280,2,0,L|413:241,1,105,2|0,0:0|0:0,0:0:0:0:
243,167,153580,6,0,L|243:291,1,105,2|0,0:3|0:0,0:0:0:0:
332,51,153880,2,0,L|332:175,1,105,2|0,0:0|0:0,0:0:0:0:
243,167,154180,2,0,L|345:104,1,105,2|0,0:0|0:0,0:0:0:0:
243,167,154480,2,0,L|141:230,1,105,2|0,0:0|0:0,0:0:0:0:
393,84,154780,6,0,L|392:201,1,105,2|0,0:3|0:0,0:0:0:0:
302,205,155080,2,0,L|301:322,1,105,2|0,0:3|0:0,0:0:0:0:
211,86,155380,2,0,L|323:152,1,105,2|2,0:3|0:3,0:0:0:0:
301,139,155680,1,0,0:0:0:0:
143,175,155830,6,0,L|248:227,2,105,2|2|0,0:3|0:0|0:0,0:0:0:0:
237,221,156280,2,0,L|238:332,1,105,2|0,0:0|0:0,0:0:0:0:
79,125,156580,2,0,L|184:177,1,105,2|0,0:3|0:0,0:0:0:0:
336,226,156880,2,0,L|231:174,1,105,2|0,0:3|0:0,0:0:0:0:
34,190,157180,6,0,L|139:242,1,105,2|0,0:3|0:0,0:0:0:0:
201,306,157480,2,0,L|96:254,1,105,2|0,0:0|0:0,0:0:0:0:
265,117,157780,2,0,L|160:169,1,105,2|0,0:0|0:0,0:0:0:0:
248,147,158080,2,0,L|353:95,1,105,2|0,0:0|0:0,0:0:0:0:
129,70,158380,6,0,L|129:184,1,105,2|0,0:3|0:0,0:0:0:0:
218,181,158680,2,0,L|219:295,1,105,2|0,0:0|0:0,0:0:0:0:
381,311,158980,2,0,L|381:197,1,105,2|0,0:0|0:0,0:0:0:0:
292,200,159280,2,0,L|291:86,1,105,2|0,0:0|0:0,0:0:0:0:
80,45,159580,6,0,L|191:111,2,105,2|0|2,0:3|0:0|0:0,0:0:0:0:
170,98,160030,2,0,L|271:157,1,105,2|2,0:3|0:0,0:0:0:0:
261,151,160330,1,0,0:0:0:0:
163,187,160480,2,0,L|64:237,1,105,2|0,0:3|0:0,0:0:0:0:
363,228,160780,6,0,L|249:232,3,105,2|0|2|0,0:3|0:0|0:0|0:0,0:0:0:0:
416,56,161380,2,0,P|469:120|345:281,1,315,2|0,0:3|0:0,0:0:0:0:
97,228,161980,5,2,0:3:0:0:
317,124,162430,1,2,0:0:0:0:
118,17,162880,2,0,P|229:177|115:306,1,393.750015020371,2|2,0:0|0:0,0:0:0:0:
182,298,163705,2,0,L|312:278,2,118.125004506111,2|2|2,0:0|0:0|0:0,0:0:0:0:
412,93,164380,6,0,P|392:211|318:222,1,210,2|0,0:0|0:0,0:0:0:0:
165,66,164830,2,0,L|331:197,1,210,2|0,0:0|0:0,0:0:0:0:
172,49,165280,2,0,P|141:194|279:264,1,315,2|2,0:0|0:0,0:0:0:0:
354,245,165805,2,0,L|469:191,2,105,2|2|2,0:0|0:0|0:0,0:0:0:0:
130,91,166330,2,0,P|58:211|135:246,1,262.5,2|0,0:0|0:0,0:0:0:0:
339,120,166780,6,0,L|339:242,1,105,2|0,3:3|0:0,0:0:0:0:
188,59,167080,2,0,L|189:181,1,105,2|0,3:2|0:2,0:0:0:0:
340,118,167380,2,0,L|234:117,1,105,2|0,3:2|0:0,0:0:0:0:
81,178,167680,2,0,L|187:177,1,105,2|0,3:2|0:0,0:0:0:0:
398,238,167980,6,0,L|280:238,1,105,2|0,3:0|0:0,0:0:0:0:
450,122,168280,2,0,L|332:122,1,105,2|0,3:2|0:0,0:0:0:0:
123,128,168580,2,0,L|241:128,1,105,2|0,3:2|0:0,0:0:0:0:
71,244,168880,2,0,L|189:244,1,105,2|0,3:2|0:0,0:0:0:0:
398,185,169180,5,2,3:0:0:0:
240,155,169330,1,0,3:0:0:0:
398,185,169480,1,2,3:2:0:0:
240,155,169630,1,2,3:0:0:0:
82,125,169780,1,2,3:2:0:0:
240,155,169930,1,0,3:0:0:0:
398,185,170080,1,2,3:0:0:0:
240,155,170230,1,0,3:0:0:0:
478,154,170380,6,0,L|477:235,1,68.2499968757631,2|0,3:0|3:0,0:0:0:0:
318,248,170530,2,0,L|318:325,1,68.2499968757631,0|0,3:0|3:0,0:0:0:0:
478,154,170680,2,0,L|384:152,1,68.2499968757631,2|0,3:2|3:0,0:0:0:0:
246,200,170830,2,0,L|152:198,1,68.2499968757631,0|0,3:0|3:0,0:0:0:0:
349,51,170980,5,2,3:2:0:0:
376,53,171017,1,0,0:0:0:0:
400,62,171055,1,0,0:0:0:0:
422,76,171092,1,0,0:0:0:0:
441,95,171130,1,0,0:0:0:0:
455,117,171167,1,0,0:0:0:0:
463,142,171205,1,0,0:0:0:0:
466,168,171242,1,0,0:0:0:0:
463,194,171280,1,0,0:0:0:0:
454,218,171317,1,0,0:0:0:0:
440,240,171355,1,0,0:0:0:0:
421,259,171392,1,0,0:0:0:0:
398,272,171430,1,0,0:0:0:0:
374,281,171467,1,0,0:0:0:0:
348,283,171505,1,0,0:0:0:0:
151,354,171580,6,0,L|356:296,1,210,4|0,3:2|0:0,0:0:0:0:
120,257,172030,2,0,P|71:213|146:111,1,210,4|0,3:2|0:0,0:0:0:0:
348,51,172480,2,0,L|229:40,1,105,4|0,3:2|0:0,0:0:0:0:
470,50,172780,6,0,P|486:129|95:54,1,787.5,2|0,3:0|0:0,0:0:0:0:
274,99,173980,6,0,P|332:148|252:234,1,210,4|0,3:2|0:0,0:0:0:0:
41,282,174430,1,4,3:2:0:0:
268,351,174580,2,0,L|280:232,1,105,0|0,0:0|0:0,0:0:0:0:
56,172,174880,1,4,3:2:0:0:
287,358,175030,6,0,P|334:314|152:54,1,472.5,2|0,0:2|0:0,0:0:0:0:
322,140,175780,2,0,L|438:174,1,105,2|0,0:0|0:0,0:0:0:0:
190,194,176080,2,0,L|77:213,1,105,2|0,0:0|0:0,0:0:0:0:
347,336,176380,6,0,P|398:290|322:192,1,210,4|0,3:2|0:0,0:0:0:0:
110,208,176830,2,0,P|72:161|157:66,1,210,4|0,3:2|0:0,0:0:0:0:
361,138,177280,2,0,L|478:130,1,105,4|0,3:2|0:0,0:0:0:0:
237,355,177580,6,0,B|199:349|157:343|117:318|99:271|106:205|130:174|173:152|201:168|245:181|328:176|336:148|392:118|386:74|378:57|285:19,1,577.5,2|0,3:0|0:0,0:0:0:0:
128,68,178480,2,0,P|97:103|160:177,1,157.5,2|0,0:0|0:0,0:0:0:0:
341,259,178780,6,0,L|123:304,1,210,4|0,3:2|0:0,0:0:0:0:
357,335,179230,2,0,L|463:341,1,105,4|0,3:2|0:0,0:0:0:0:
239,232,179530,1,0,0:0:0:0:
457,187,179680,2,0,L|341:182,1,105,4|0,3:2|0:0,0:0:0:0:
128,367,179980,6,0,P|94:334|206:76,1,367.5,2|0,3:0|0:0,0:0:0:0:
376,364,180580,5,2,3:2:0:0:
413,363,180617,1,0,0:0:0:0:
415,329,180655,1,0,0:0:0:0:
452,328,180692,1,0,0:0:0:0:
439,283,180730,1,0,0:0:0:0:
476,282,180767,1,0,0:0:0:0:
445,231,180805,1,0,0:0:0:0:
482,230,180842,1,0,0:0:0:0:
433,180,180880,1,0,0:0:0:0:
470,179,180917,1,0,0:0:0:0:
403,137,180955,1,0,0:0:0:0:
440,136,180992,1,0,0:0:0:0:
360,108,181030,1,0,0:0:0:0:
397,107,181067,1,0,0:0:0:0:
321,97,181105,1,0,0:0:0:0:
131,43,181180,5,4,3:2:0:0:
104,63,181217,1,0,0:0:0:0:
131,88,181255,1,0,0:0:0:0:
87,113,181292,1,0,0:0:0:0:
131,137,181330,1,0,0:0:0:0:
87,113,181367,1,0,0:0:0:0:
131,188,181405,1,0,0:0:0:0:
104,63,181442,1,0,0:0:0:0:
131,232,181480,1,0,0:0:0:0:
363,272,181630,5,4,3:2:0:0:
338,281,181667,1,0,0:0:0:0:
313,290,181705,1,0,0:0:0:0:
289,299,181742,1,0,0:0:0:0:
264,308,181780,1,0,0:0:0:0:
239,317,181817,1,0,0:0:0:0:
215,326,181855,1,0,0:0:0:0:
190,335,181892,1,0,0:0:0:0:
166,345,181930,1,0,0:0:0:0:
393,351,182080,5,4,3:2:0:0:
394,324,182117,1,0,0:0:0:0:
396,298,182155,1,0,0:0:0:0:
398,272,182192,1,0,0:0:0:0:
400,246,182230,1,0,0:0:0:0:
147,370,182380,5,2,3:0:0:0:
124,366,182417,1,0,0:0:0:0:
126,323,182455,1,0,0:0:0:0:
103,319,182492,1,0,0:0:0:0:
145,275,182530,1,0,0:0:0:0:
122,271,182567,1,0,0:0:0:0:
191,254,182605,1,0,0:0:0:0:
168,250,182642,1,0,0:0:0:0:
245,249,182680,1,0,0:0:0:0:
222,245,182717,1,0,0:0:0:0:
292,228,182755,1,0,0:0:0:0:
269,224,182792,1,0,0:0:0:0:
310,181,182830,1,0,0:0:0:0:
287,177,182867,1,0,0:0:0:0:
304,132,182905,1,0,0:0:0:0:
108,178,182980,5,2,0:0:0:0:
100,152,183017,1,0,0:0:0:0:
101,126,183055,1,0,0:0:0:0:
111,102,183092,1,0,0:0:0:0:
128,82,183130,1,0,0:0:0:0:
150,69,183167,1,0,0:0:0:0:
176,63,183205,1,0,0:0:0:0:
336,175,183280,1,2,0:0:0:0:
310,181,183317,1,0,0:0:0:0:
285,188,183355,1,0,0:0:0:0:
260,195,183392,1,0,0:0:0:0:
234,202,183430,1,0,0:0:0:0:
209,209,183467,1,0,0:0:0:0:
184,216,183505,1,0,0:0:0:0:
370,315,183580,5,4,3:2:0:0:
395,320,183617,1,0,0:0:0:0:
421,325,183655,1,0,0:0:0:0:
447,331,183692,1,0,0:0:0:0:
472,336,183730,1,0,0:0:0:0:
233,285,183880,1,0,0:0:0:0:
447,226,184030,5,4,3:2:0:0:
420,223,184067,1,0,0:0:0:0:
394,220,184105,1,0,0:0:0:0:
368,217,184142,1,0,0:0:0:0:
342,214,184180,1,0,0:0:0:0:
129,190,184330,1,0,0:0:0:0:
361,46,184480,5,6,3:2:0:0:
370,70,184517,1,2,0:0:0:0:
373,96,184555,1,2,0:0:0:0:
367,121,184592,1,2,0:0:0:0:
354,144,184630,1,2,0:0:0:0:
335,162,184667,1,2,0:0:0:0:
312,173,184705,1,2,0:0:0:0:
286,177,184742,1,2,0:0:0:0:
312,311,184780,1,2,0:0:0:0:
335,300,184817,1,2,0:0:0:0:
354,282,184855,1,2,0:0:0:0:
367,259,184892,1,2,0:0:0:0:
373,234,184930,1,2,0:0:0:0:
370,208,184967,1,2,0:0:0:0:
361,184,185005,1,2,0:0:0:0:
175,165,185080,6,0,L|145:171,2,26.25,2|2|2,0:0|0:0|0:0,0:0:0:0:
339,123,185230,2,0,L|373:131,2,26.25,2|2|2,0:0|0:0|0:0,0:0:0:0:
142,86,185380,5,0,0:0:0:0:
111,76,185417,1,0,0:0:0:0:
79,66,185455,1,0,0:0:0:0:
96,47,185492,1,0,0:0:0:0:
61,47,185530,1,0,0:0:0:0:
103,36,185567,1,0,0:0:0:0:
54,38,185605,1,0,0:0:0:0:
238,198,185680,5,2,0:0:0:0:
269,188,185717,1,0,0:0:0:0:
301,178,185755,1,0,0:0:0:0:
284,159,185792,1,0,0:0:0:0:
319,159,185830,1,0,0:0:0:0:
277,148,185867,1,0,0:0:0:0:
326,150,185905,1,0,0:0:0:0:
116,373,185980,5,4,3:2:0:0:
97,354,186017,1,0,0:0:0:0:
86,330,186055,1,0,0:0:0:0:
82,304,186092,1,0,0:0:0:0:
86,279,186130,1,0,0:0:0:0:
98,255,186167,1,0,0:0:0:0:
116,237,186205,1,0,0:0:0:0:
139,225,186242,1,0,0:0:0:0:
165,220,186280,1,0,0:0:0:0:
389,307,186430,5,4,3:2:0:0:
409,291,186467,1,0,0:0:0:0:
424,269,186505,1,0,0:0:0:0:
432,244,186542,1,0,0:0:0:0:
431,218,186580,1,0,0:0:0:0:
422,193,186617,1,0,0:0:0:0:
406,173,186655,1,0,0:0:0:0:
385,158,186692,1,0,0:0:0:0:
360,150,186730,1,0,0:0:0:0:
131,40,186880,5,4,3:2:0:0:
129,66,186917,1,0,0:0:0:0:
128,92,186955,1,0,0:0:0:0:
126,118,186992,1,0,0:0:0:0:
125,144,187030,1,0,0:0:0:0:
347,173,187180,5,2,3:0:0:0:
370,184,187217,1,0,0:0:0:0:
385,205,187255,1,0,0:0:0:0:
388,231,187292,1,0,0:0:0:0:
379,255,187330,1,0,0:0:0:0:
359,272,187367,1,0,0:0:0:0:
334,277,187405,1,0,0:0:0:0:
165,329,187480,6,0,L|134:336,2,26.25,2|2|2,0:0|0:0|0:0,0:0:0:0:
338,345,187630,2,0,L|388:353,2,26.25,2|2|2,0:0|0:0|0:0,0:0:0:0:
144,371,187780,5,2,0:0:0:0:
126,329,187817,1,2,0:0:0:0:
139,317,187855,1,2,0:0:0:0:
111,283,187892,1,2,0:0:0:0:
134,260,187930,1,2,0:0:0:0:
97,234,187967,1,2,0:0:0:0:
129,210,188005,1,2,0:0:0:0:
298,162,188080,5,2,0:0:0:0:
271,160,188117,1,2,0:0:0:0:
246,155,188155,1,2,0:0:0:0:
221,147,188192,1,2,0:0:0:0:
197,136,188230,1,2,0:0:0:0:
174,123,188267,1,2,0:0:0:0:
154,106,188305,1,2,0:0:0:0:
350,279,188380,5,4,3:2:0:0:
369,271,188417,1,0,0:0:0:0:
384,240,188455,1,0,0:0:0:0:
403,232,188492,1,0,0:0:0:0:
391,189,188530,1,0,0:0:0:0:
410,181,188567,1,0,0:0:0:0:
366,144,188605,1,0,0:0:0:0:
385,136,188642,1,0,0:0:0:0:
329,122,188680,1,0,0:0:0:0:
113,253,188830,5,4,3:2:0:0:
91,245,188867,1,0,0:0:0:0:
79,214,188905,1,0,0:0:0:0:
60,206,188942,1,0,0:0:0:0:
72,163,188980,1,0,0:0:0:0:
53,155,189017,1,0,0:0:0:0:
97,118,189055,1,0,0:0:0:0:
78,110,189092,1,0,0:0:0:0:
134,96,189130,1,0,0:0:0:0:
356,137,189280,5,4,3:2:0:0:
324,161,189317,1,0,0:0:0:0:
361,187,189355,1,0,0:0:0:0:
338,210,189393,1,0,0:0:0:0:
366,244,189430,1,0,0:0:0:0:
353,256,189468,1,0,0:0:0:0:
371,298,189505,1,0,0:0:0:0:
178,360,189580,5,2,3:0:0:0:
156,344,189617,1,0,0:0:0:0:
144,322,189655,1,0,0:0:0:0:
143,296,189692,1,0,0:0:0:0:
154,272,189730,1,0,0:0:0:0:
174,255,189767,1,0,0:0:0:0:
199,250,189805,1,0,0:0:0:0:
371,239,189880,6,0,L|400:249,2,26.25,2|2|2,0:0|0:0|0:0,0:0:0:0:
182,163,190030,2,0,L|156:170,2,26.25,2|2|2,0:0|0:0|0:0,0:0:0:0:
377,364,190180,5,2,0:0:0:0:
408,355,190217,5,2,0:0:0:0:
409,322,190255,1,2,0:0:0:0:
440,313,190292,1,2,0:0:0:0:
426,273,190330,1,2,0:0:0:0:
457,264,190367,1,2,0:0:0:0:
426,221,190405,1,2,0:0:0:0:
457,212,190442,1,2,0:0:0:0:
408,172,190480,1,2,0:0:0:0:
439,163,190517,1,2,0:0:0:0:
375,131,190555,1,2,0:0:0:0:
406,122,190592,1,2,0:0:0:0:
331,103,190630,1,2,0:0:0:0:
362,94,190667,1,2,0:0:0:0:
292,90,190705,1,2,0:0:0:0:
116,74,190780,6,0,P|75:126|133:183,1,157.5,6|0,3:2|0:0,0:0:0:0:
181,219,191080,2,0,L|110:222,1,52.5,10|2,0:0|0:0,0:0:0:0:
76,246,191230,2,0,L|17:250,1,52.5,2|2,0:0|0:0,0:0:0:0:
202,318,191380,6,0,L|375:299,1,157.5,10|0,0:0|0:0,0:0:0:0:
306,270,191680,2,0,L|297:208,1,52.5,10|2,0:0|0:0,0:0:0:0:
364,202,191830,2,0,L|371:135,1,52.5,2|2,0:0|0:0,0:0:0:0:
206,144,191980,6,0,P|198:79|286:41,1,157.5,10|0,0:0|0:0,0:0:0:0:
322,25,192280,2,0,L|324:87,1,52.5,10|2,0:0|0:0,0:0:0:0:
265,114,192430,2,0,L|207:117,1,52.5,2|2,0:0|0:0,0:0:0:0:
372,165,192580,6,0,L|378:277,1,105,10|0,0:0|0:0,0:0:0:0:
299,345,192805,2,0,L|290:231,1,105,2|0,0:0|0:0,0:0:0:0:
370,221,193030,2,0,L|431:211,1,52.5,2|0,0:0|0:0,0:0:0:0:
239,167,193180,6,0,L|62:119,1,157.5,10|0,0:0|0:0,0:0:0:0:
140,98,193480,2,0,L|196:83,1,52.5,10|2,0:0|0:0,0:0:0:0:
352,29,193630,2,0,L|350:115,1,52.5,2|2,0:0|0:0,0:0:0:0:
179,127,193780,6,0,P|158:179|233:250,1,157.5,10|0,0:0|0:0,0:0:0:0:
271,282,194080,2,0,L|209:286,1,52.5,10|2,0:0|0:0,0:0:0:0:
59,361,194230,2,0,L|131:363,1,52.5,2|2,0:0|0:0,0:0:0:0:
271,354,194380,6,0,P|304:295|234:233,1,157.5,10|0,0:0|0:0,0:0:0:0:
198,213,194680,2,0,L|266:209,1,52.5,10|2,0:0|0:0,0:0:0:0:
415,157,194830,2,0,L|347:131,1,52.5,2|2,0:0|0:0,0:0:0:0:
204,78,194980,6,0,L|319:58,1,105,10|0,0:0|0:0,0:0:0:0:
149,28,195205,2,0,L|139:156,1,105,2|0,0:0|0:0,0:0:0:0:
215,150,195430,2,0,L|272:154,1,52.5,2|0,0:0|0:0,0:0:0:0:
104,243,195580,6,0,P|83:294|159:363,1,157.5,10|0,0:0|0:0,0:0:0:0:
312,339,195880,2,0,L|315:272,1,52.5,10|2,0:0|0:0,0:0:0:0:
249,260,196030,2,0,L|182:257,1,52.5,2|2,0:0|0:0,0:0:0:0:
386,217,196180,6,0,P|440:174|379:101,1,157.5,10|0,0:0|0:0,0:0:0:0:
243,36,196480,2,0,L|237:100,1,52.5,10|2,0:0|0:0,0:0:0:0:
303,104,196630,2,0,L|314:164,1,52.5,2|2,0:0|0:0,0:0:0:0:
153,207,196780,6,0,L|15:296,1,157.5,10|0,0:0|0:0,0:0:0:0:
182,320,197080,2,0,L|272:344,1,52.5,10|2,0:0|0:0,0:0:0:0:
182,320,197230,2,0,L|129:320,1,52.5,2|2,0:0|0:0,0:0:0:0:
315,264,197380,6,0,L|428:246,1,105,10|0,0:0|0:0,0:0:0:0:
257,206,197605,2,0,L|255:86,1,105,2|0,0:0|0:0,0:0:0:0:
426,68,197830,2,0,L|357:55,1,52.5,2|0,0:0|0:0,0:0:0:0:
203,35,197980,6,0,L|364:82,1,157.5,10|0,0:0|0:0,0:0:0:0:
195,131,198280,2,0,L|127:147,1,52.5,10|2,0:0|0:0,0:0:0:0:
299,202,198430,2,0,L|358:232,1,52.5,2|2,0:0|0:0,0:0:0:0:
170,363,198580,6,0,P|135:320|199:250,1,157.5,10|0,0:0|0:0,0:0:0:0:
354,182,198880,2,0,L|303:174,1,52.5,10|2,0:0|0:0,0:0:0:0:
144,141,199030,2,0,L|209:129,1,52.5,2|2,0:0|0:0,0:0:0:0:
369,47,199180,6,0,P|410:98|349:152,1,157.5,10|0,0:0|0:0,0:0:0:0:
161,231,199480,2,0,L|235:232,1,52.5,10|2,0:0|0:0,0:0:0:0:
392,283,199630,2,0,L|323:289,1,52.5,2|2,0:0|0:0,0:0:0:0:
164,336,199780,1,8,0:0:0:0:
306,317,199930,1,0,3:0:0:0:
50,288,200080,2,0,P|29:226|107:170,1,157.5,8|0,0:0|0:0,0:0:0:0:
305,97,200380,5,10,0:0:0:0:
305,97,200530,2,0,L|298:163,1,52.5,8|0,0:0|0:0,0:0:0:0:
225,164,200680,2,0,L|227:217,1,52.5,10|2,0:0|0:0,0:0:0:0:
403,281,200830,2,0,L|322:286,1,52.5,10|2,0:0|0:0,0:0:0:0:
176,337,200980,5,10,0:0:0:0:
176,337,201130,2,0,L|231:340,1,52.5,8|0,0:0|0:0,0:0:0:0:
176,337,201280,2,0,L|98:336,1,52.5,10|2,0:0|0:0,0:0:0:0:
290,261,201430,2,0,L|371:256,1,52.5,10|2,0:0|0:0,0:0:0:0:
171,184,201580,5,10,0:0:0:0:
171,184,201730,2,0,L|174:109,1,52.5,8|0,0:0|0:0,0:0:0:0:
231,103,201880,2,0,L|309:93,1,52.5,10|2,0:0|0:0,0:0:0:0:
122,51,202030,2,0,L|58:53,1,52.5,10|2,0:0|0:0,0:0:0:0:
260,190,202180,6,0,L|321:195,2,52.5,10|0|8,0:0|0:0|0:0,0:0:0:0:
92,269,202405,2,0,L|156:278,2,52.5,2|8|0,0:0|0:0|0:0,0:0:0:0:
278,341,202630,2,0,L|349:339,1,52.5,10|0,0:0|0:0,0:0:0:0:
133,245,202780,5,10,0:0:0:0:
133,245,202930,2,0,L|73:246,1,52.5,8|0,0:0|0:0,0:0:0:0:
133,245,203080,2,0,L|195:242,1,52.5,10|2,0:0|0:0,0:0:0:0:
360,237,203230,2,0,L|365:164,1,52.5,10|2,0:0|0:0,0:0:0:0:
203,111,203380,5,10,0:0:0:0:
203,111,203530,2,0,L|196:41,1,52.5,8|0,0:0|0:0,0:0:0:0:
259,41,203680,2,0,L|316:28,1,52.5,10|2,0:0|0:0,0:0:0:0:
132,154,203830,2,0,L|206:148,1,52.5,10|2,0:0|0:0,0:0:0:0:
368,199,203980,5,10,0:0:0:0:
368,199,204130,2,0,L|370:263,1,52.5,8|0,0:0|0:0,0:0:0:0:
301,263,204280,2,0,L|290:342,1,52.5,10|2,0:0|0:0,0:0:0:0:
460,343,204430,2,0,L|407:358,1,52.5,10|2,0:0|0:0,0:0:0:0:
227,291,204580,5,10,0:0:0:0:
278,278,204655,1,0,0:0:0:0:
329,266,204730,1,8,0:0:0:0:
167,197,204805,2,0,L|104:209,2,52.5,2|8|0,0:0|0:0|0:0,0:0:0:0:
328,138,205030,2,0,L|250:133,1,52.5,10|0,0:0|0:0,0:0:0:0:
434,96,205180,6,0,L|509:91,1,52.5,4|0,3:2|3:0,0:0:0:0:
272,38,205330,1,0,3:0:0:0:
245,81,205405,1,0,3:0:0:0:
259,130,205480,1,0,3:0:0:0:
304,154,205555,1,0,3:0:0:0:
357,186,205630,2,0,L|296:199,1,52.5,0|0,3:0|3:0,0:0:0:0:
128,246,205780,6,0,L|67:245,1,52.5,0|0,3:0|3:0,0:0:0:0:
266,320,205930,2,0,L|180:316,1,52.5,0|0,3:0|3:0,0:0:0:0:
150,321,206080,2,0,L|145:251,1,52.5,0|0,3:0|3:0,0:0:0:0:
316,233,206230,2,0,L|384:237,1,52.5,0|0,3:0|3:0,0:0:0:0:
175,173,206380,6,0,L|91:170,1,52.5,4|0,3:2|3:0,0:0:0:0:
293,142,206530,2,0,L|292:84,1,52.5,0|0,3:0|3:0,0:0:0:0:
126,87,206680,2,0,L|189:81,1,52.5,0|0,3:0|3:0,0:0:0:0:
349,74,206830,2,0,L|271:72,1,52.5,0|0,3:0|3:0,0:0:0:0:
138,137,206980,6,0,L|71:146,2,52.5,0|0|0,3:0|3:0|3:0,0:0:0:0:
300,216,207205,1,0,3:0:0:0:
247,223,207280,1,0,3:0:0:0:
195,230,207355,1,0,3:0:0:0:
359,291,207430,2,0,L|416:291,1,52.5,0|0,3:0|3:0,0:0:0:0:
174,362,207580,5,4,3:2:0:0:
149,354,207617,1,0,3:0:0:0:
130,336,207655,1,0,3:0:0:0:
123,311,207692,1,0,3:0:0:0:
128,286,207730,1,0,3:0:0:0:
145,266,207767,1,0,3:0:0:0:
170,257,207805,1,0,3:0:0:0:
265,199,207842,1,0,3:0:0:0:
362,197,207880,2,0,L|405:201,2,26.25,0|0|0,3:0|3:0|3:0,0:0:0:0:
265,199,207992,1,0,3:0:0:0:
168,171,208030,2,0,L|130:176,2,26.25,0|0|0,3:0|3:0|3:0,0:0:0:0:
265,199,208142,1,0,3:0:0:0:
389,146,208180,5,4,3:2:0:0:
412,135,208217,1,0,3:0:0:0:
429,115,208255,1,0,3:0:0:0:
434,90,208292,1,0,3:0:0:0:
427,65,208330,1,0,3:0:0:0:
409,46,208367,1,0,3:0:0:0:
384,38,208405,1,0,3:0:0:0:
265,199,208442,1,0,3:0:0:0:
150,207,208480,2,0,L|114:208,2,26.25,0|0|0,3:0|3:0|3:0,0:0:0:0:
265,199,208592,1,0,3:0:0:0:
398,220,208630,2,0,L|442:221,2,26.25,0|0|0,3:0|3:0|3:0,0:0:0:0:
265,199,208742,1,0,3:0:0:0:
111,254,208780,6,0,P|73:287|111:372,1,157.5,4|0,3:2|0:0,0:0:0:0:
164,354,209080,1,2,0:0:0:0:
393,306,209230,1,2,0:0:0:0:
183,221,209380,2,0,L|30:168,1,157.5,8|0,0:3|0:0,0:0:0:0:
231,85,209680,2,0,L|407:53,1,157.5,8|0,0:1|0:0,0:0:0:0:
197,309,209980,6,0,L|80:307,1,105,4|0,3:1|0:0,0:0:0:0:
305,253,210280,1,10,0:0:0:0:
354,208,210355,1,2,0:0:0:0:
361,142,210430,1,2,0:0:0:0:
321,88,210505,1,2,0:0:0:0:
238,77,210580,2,0,L|80:46,1,125.999996154785,2|0,3:0|0:0,0:0:0:0:
372,37,210880,1,10,0:0:0:0:
406,87,210955,1,2,0:0:0:0:
385,143,211030,1,2,0:0:0:0:
326,159,211105,1,2,0:0:0:0:
175,203,211180,6,0,L|461:203,1,231.000007049561,2|0,3:0|0:0,0:0:0:0:
474,206,211405,1,0,0:0:0:0:
406,203,211480,2,0,L|407:68,1,115.50000352478,10|2,0:0|0:0,0:0:0:0:
211,88,211630,1,2,0:0:0:0:
430,292,211780,2,0,L|306:292,1,105,2|0,3:0|0:0,0:0:0:0:
259,365,212005,2,0,L|376:365,1,105,2|0,0:0|0:0,0:0:0:0:
506,372,212230,2,0,L|434:371,1,52.5,2|0,0:0|0:0,0:0:0:0:
285,358,212380,6,0,L|164:359,1,105,2|2,3:0|0:0,0:0:0:0:
115,358,212605,1,2,0:0:0:0:
262,312,212680,2,0,L|450:311,1,146.999995513916,10|2,0:0|0:0,0:0:0:0:
483,312,212905,1,2,0:0:0:0:
332,274,212980,2,0,L|231:273,1,62.9999980773926,2|0,3:0|0:0,0:0:0:0:
436,201,213130,2,0,P|497:137|426:95,1,188.999994232178,2|8,0:0|0:0,0:0:0:0:
284,202,213430,1,2,0:0:0:0:
436,201,213505,1,2,0:0:0:0:
257,80,213580,6,0,P|190:134|257:171,1,188.999994232178,2|0,3:0|0:0,0:0:0:0:
311,175,213805,1,0,0:0:0:0:
383,94,213880,2,0,L|381:8,1,62.9999980773926,10|2,0:0|0:0,0:0:0:0:
228,279,214030,2,0,L|150:237,1,62.9999980773926,2|2,0:0|0:0,0:0:0:0:
340,359,214180,1,2,3:0:0:0:
492,364,214255,1,2,0:0:0:0:
327,328,214330,2,0,L|252:280,2,62.9999980773926,2|2|10,0:0|0:0|0:0,0:0:0:0:
381,330,214555,1,0,0:0:0:0:
171,374,214630,2,0,L|265:374,1,62.9999980773926,2|2,0:0|0:0,0:0:0:0:
441,272,214780,6,0,L|149:272,1,231.000007049561,2|0,3:0|0:0,0:0:0:0:
275,262,215005,1,0,0:0:0:0:
206,258,215080,2,0,L|206:160,1,62.9999980773926,10|2,0:0|0:0,0:0:0:0:
376,151,215230,2,0,L|286:151,1,62.9999980773926,2|2,0:0|0:0,0:0:0:0:
128,121,215380,2,0,L|329:121,1,146.999995513916,2|0,3:0|0:0,0:0:0:0:
345,125,215605,1,0,0:0:0:0:
275,121,215680,2,0,L|190:121,1,62.9999980773926,10|2,0:0|0:0,0:0:0:0:
406,27,215830,1,2,0:0:0:0:
171,202,215980,6,0,L|301:203,1,105,2|0,3:0|0:0,0:0:0:0:
32,368,216280,1,10,0:0:0:0:
3,313,216355,1,2,0:0:0:0:
24,256,216430,1,2,0:0:0:0:
81,233,216505,1,2,0:0:0:0:
219,231,216580,2,0,L|103:180,1,105,2|0,3:0|0:0,0:0:0:0:
209,189,216805,2,0,L|336:138,1,105,2|0,0:0|0:0,0:0:0:0:
142,138,217030,2,0,L|142:73,1,52.5,2|2,0:0|0:0,0:0:0:0:
336,68,217180,5,2,3:0:0:0:
229,163,217330,2,0,L|290:117,1,52.5,2|2,0:0|0:0,0:0:0:0:
465,141,217480,1,10,0:0:0:0:
377,307,217630,2,0,L|453:288,1,52.5,2|2,0:0|0:0,0:0:0:0:
253,364,217780,2,0,L|188:335,1,52.5,2|2,3:0|0:0,0:0:0:0:
377,279,217930,2,0,L|501:259,1,105,2|8,0:0|0:0,0:0:0:0:
366,195,218230,1,2,0:0:0:0:
95,357,218380,6,0,P|43:284|110:129,1,262.5,2|0,3:3|0:0,0:0:0:0:
260,9,218605,2,0,P|307:59|257:126,1,157.500006008148,2|0,3:0|0:0,0:0:0:0:
73,177,218830,2,0,L|250:177,1,157.500006008148,2|0,3:0|0:0,0:0:0:0:
165,169,219055,1,2,3:0:0:0:
333,162,219130,2,0,L|406:161,1,52.5,2|2,3:0|3:0,0:0:0:0:
214,335,219280,2,0,L|230:249,1,52.5,2|2,3:2|3:2,0:0:0:0:
302,293,219430,2,0,L|318:207,1,52.5,2|0,3:2|3:2,0:0:0:0:
117,371,219580,6,0,B|-18:277|53:128|98:95|98:95|486:95,1,630.000024032594,0|4,3:0|3:1,0:0:0:0:
433,138,219955,1,2,0:0:0:0:
417,186,220030,1,2,0:0:0:0:
370,205,220105,1,2,0:0:0:0:
284,202,220180,2,0,L|430:169,1,125.999996154785,2|0,3:0|0:0,0:0:0:0:
188,366,220480,1,10,0:0:0:0:
154,315,220555,1,2,0:0:0:0:
176,258,220630,1,2,0:0:0:0:
234,243,220705,1,2,0:0:0:0:
396,239,220780,2,0,L|82:238,1,231.000007049561,2|0,3:0|0:0,0:0:0:0:
88,236,221005,1,0,0:0:0:0:
165,238,221080,2,0,L|165:83,1,115.50000352478,10|2,0:0|0:0,0:0:0:0:
357,113,221230,1,2,0:0:0:0:
139,346,221380,6,0,L|-12:345,1,105,2|0,3:0|0:0,0:0:0:0:
138,327,221605,2,0,L|220:328,2,52.5,2|8|0,0:0|0:0|0:0,0:0:0:0:
316,260,221830,2,0,L|385:260,1,52.5,2|0,0:0|0:0,0:0:0:0:
204,358,221980,6,0,L|73:358,1,105,2|2,3:0|0:0,0:0:0:0:
34,358,222205,1,2,0:0:0:0:
181,312,222280,2,0,L|363:311,1,146.999995513916,10|2,0:0|0:0,0:0:0:0:
401,312,222505,1,2,0:0:0:0:
251,274,222580,2,0,L|150:273,1,62.9999980773926,2|2,3:0|0:0,0:0:0:0:
340,171,222730,2,0,P|398:111|330:2,1,220.499993270874,2|8,0:0|0:0,0:0:0:0:
188,172,223030,1,2,0:0:0:0:
340,171,223105,1,2,0:0:0:0:
171,60,223180,6,0,P|132:143|183:282,1,220.499993270874,2|0,3:0|0:0,0:0:0:0:
231,60,223405,1,2,0:0:0:0:
172,170,223480,2,0,L|68:170,1,62.9999980773926,10|2,0:0|0:0,0:0:0:0:
268,282,223630,2,0,L|387:282,1,62.9999980773926,2|2,0:0|0:0,0:0:0:0:
155,368,223780,1,2,3:0:0:0:
12,370,223855,1,2,0:0:0:0:
163,358,223930,2,0,L|170:286,1,62.9999980773926,2|0,0:0|0:0,0:0:0:0:
89,283,224080,2,0,L|77:148,1,125.999996154785,10|2,0:0|0:0,0:0:0:0:
339,46,224380,6,0,P|381:76|306:187,1,210,6|2,3:2|0:0,0:0:0:0:
106,180,224830,1,2,3:0:0:0:
74,73,224980,2,0,L|185:55,1,105,10|0,0:0|0:0,0:0:0:0:
65,23,225280,1,10,0:1:0:0:
36,65,225355,1,2,0:0:0:0:
49,114,225430,1,2,0:0:0:0:
94,138,225505,1,2,0:0:0:0:
252,228,225580,6,0,L|361:202,1,105,2|0,3:0|0:0,0:0:0:0:
254,336,225880,2,0,L|342:316,1,52.5,2|2,0:0|0:0,0:0:0:0:
247,313,226030,2,0,L|174:302,1,52.5,2|2,3:0|0:0,0:0:0:0:
358,251,226180,2,0,L|488:227,1,105,10|0,0:0|0:0,0:0:0:0:
475,188,226405,1,2,0:0:0:0:
494,139,226480,1,8,0:1:0:0:
363,124,226630,1,2,0:0:0:0:
125,187,226780,5,0,3:0:0:0:
259,159,226930,1,0,3:0:0:0:
158,121,227080,5,0,3:0:0:0:
407,74,227230,1,0,3:0:0:0:
193,41,227380,6,0,L|266:28,1,52.5,0|0,3:0|3:0,0:0:0:0:
439,157,227530,2,0,L|516:141,1,52.5,0|0,3:0|3:0,0:0:0:0:
297,287,227680,1,0,3:0:0:0:
143,287,227755,1,0,3:0:0:0:
317,283,227830,1,0,3:0:0:0:
471,283,227905,1,0,3:0:0:0:
249,288,227980,6,0,L|224:156,1,105,8|0,3:2|0:0,0:0:0:0:
337,182,228205,2,0,L|358:59,1,105,2|0,0:0|0:0,0:0:0:0:
136,369,228430,2,0,L|85:36,1,315,2|0,0:0|0:0,0:0:0:0:
447,45,229180,6,0,L|175:62,1,231.000007049561,4|0,3:1|0:0,0:0:0:0:
167,87,229405,1,2,0:0:0:0:
153,146,229480,1,10,0:0:0:0:
175,189,229555,1,2,0:0:0:0:
237,220,229630,2,0,L|166:221,1,52.5,2|2,0:0|0:0,0:0:0:0:
29,304,229780,6,0,L|326:290,1,251.999992309571,2|0,3:0|0:0,0:0:0:0:
333,258,230005,1,2,0:0:0:0:
280,230,230080,2,0,L|220:225,1,52.5,10|2,0:0|0:0,0:0:0:0:
175,200,230230,2,0,L|258:199,1,52.5,2|2,0:0|0:0,0:0:0:0:
404,124,230380,6,0,L|101:84,1,283.500001081467,2|0,3:0|0:0,0:0:0:0:
176,67,230605,1,2,0:0:0:0:
228,37,230680,2,0,L|157:33,1,52.5,10|2,0:0|0:0,0:0:0:0:
342,114,230830,2,0,L|410:103,1,52.5,2|2,0:0|0:0,0:0:0:0:
208,142,230980,6,0,L|199:267,1,105,2|0,3:0|0:0,0:0:0:0:
366,290,231205,2,0,L|230:316,1,105,2|0,0:0|0:0,0:0:0:0:
438,348,231430,2,0,L|501:360,1,52.5,2|2,0:0|0:0,0:0:0:0:
304,247,231580,6,0,L|189:224,1,105,2|2,3:0|0:0,0:0:0:0:
150,212,231805,1,2,0:0:0:0:
329,180,231880,2,0,L|336:75,1,105,10|2,0:0|0:0,0:0:0:0:
284,59,232105,1,2,0:0:0:0:
94,42,232180,6,0,L|171:42,1,52.5,2|2,3:0|0:0,0:0:0:0:
311,127,232330,2,0,L|56:163,1,220.499993270874,2|8,0:0|0:0,0:0:0:0:
40,163,232555,1,2,0:0:0:0:
227,216,232630,2,0,L|301:218,1,52.5,2|2,0:0|0:0,0:0:0:0:
87,288,232780,6,0,L|31:297,1,52.5,2|2,3:0|0:0,0:0:0:0:
198,302,232930,2,0,L|268:304,1,52.5,2|2,0:0|0:0,0:0:0:0:
198,302,233080,2,0,L|137:312,3,52.5,10|2|2|2,0:0|0:0|0:0|0:0,0:0:0:0:
322,256,233380,6,0,L|387:259,2,52.5,2|2|2,3:0|0:0|0:0,0:0:0:0:
165,186,233605,1,2,0:0:0:0:
325,150,233680,2,0,L|412:147,1,52.5,10|0,0:0|0:0,0:0:0:0:
188,86,233830,2,0,L|282:75,1,52.5,2|0,0:0|0:0,0:0:0:0:
439,30,233980,6,0,L|150:66,1,283.500001081467,2|0,3:0|0:0,0:0:0:0:
98,73,234205,1,2,0:0:0:0:
166,120,234280,2,0,L|166:178,1,52.5,10|2,0:0|0:0,0:0:0:0:
240,194,234430,2,0,L|243:266,1,52.5,2|2,0:0|0:0,0:0:0:0:
75,337,234580,6,0,L|344:317,1,257.250002453327,2|0,3:0|0:0,0:0:0:0:
279,293,234805,1,2,0:0:0:0:
332,262,234880,2,0,L|390:262,1,52.5,10|2,0:0|0:0,0:0:0:0:
319,212,235030,2,0,L|319:152,1,52.5,2|2,0:0|0:0,0:0:0:0:
455,75,235180,6,0,L|225:74,1,220.499993270874,2|0,3:0|0:0,0:0:0:0:
234,74,235405,1,2,0:0:0:0:
290,109,235480,2,0,L|292:186,1,52.5,10|2,0:0|0:0,0:0:0:0:
239,218,235630,2,0,L|177:234,1,52.5,2|2,0:0|0:0,0:0:0:0:
27,288,235780,6,0,L|176:280,1,105,2|0,3:0|0:0,0:0:0:0:
303,328,236005,2,0,L|172:345,1,105,2|0,0:0|0:0,0:0:0:0:
372,267,236230,2,0,L|437:266,1,52.5,2|2,0:0|0:0,0:0:0:0:
210,197,236380,6,0,L|108:193,1,52.5,6|0,3:2|0:0,0:0:0:0:
315,133,236530,2,0,L|152:109,1,157.5,6|0,3:2|0:0,0:0:0:0:
344,75,236830,2,0,L|429:74,1,52.5,6|0,3:2|0:0,0:0:0:0:
236,33,236980,6,0,L|410:27,1,157.5,6|0,3:2|0:0,0:0:0:0:
203,113,237280,2,0,L|79:127,1,105,6|2,3:2|3:0,0:0:0:0:
151,151,237505,1,2,3:0:0:0:
310,233,237580,6,0,L|425:219,1,105,2|0,3:0|3:0,0:0:0:0:
241,305,237805,2,0,L|157:275,2,52.5,2|0|0,0:0|3:0|0:0,0:0:0:0:
403,328,238030,2,0,L|328:340,1,52.5,2|0,3:0|0:0,0:0:0:0:
180,238,238180,6,0,L|301:222,1,105,0|0,3:0|3:0,0:0:0:0:
337,203,238405,1,0,3:0:0:0:
173,164,238480,1,0,3:0:0:0:
151,118,238555,1,0,3:0:0:0:
170,70,238630,1,0,3:0:0:0:
218,53,238705,1,0,3:0:0:0:
395,371,238780,6,0,B|530:277|459:128|414:95|414:95|26:95,1,630.000024032594,0|4,3:0|3:1,0:0:0:0:
52,92,239155,1,2,0:0:0:0:
104,138,239230,2,0,L|183:137,1,52.5,2|2,0:0|0:0,0:0:0:0:
326,217,239380,6,0,L|91:274,1,231.000007049561,2|0,3:0|0:0,0:0:0:0:
49,280,239605,1,2,0:0:0:0:
101,312,239680,2,0,L|187:311,1,52.5,10|2,0:0|0:0,0:0:0:0:
206,347,239830,2,0,L|149:347,1,52.5,2|2,0:0|0:0,0:0:0:0:
17,319,239980,6,0,L|332:300,1,262.5,2|0,3:0|0:0,0:0:0:0:
227,280,240205,1,2,0:0:0:0:
168,255,240280,2,0,L|166:191,1,52.5,10|2,0:0|0:0,0:0:0:0:
225,166,240430,2,0,L|291:158,1,52.5,2|2,0:0|0:0,0:0:0:0:
452,99,240580,6,0,L|337:90,1,105,2|0,3:0|0:0,0:0:0:0:
167,157,240805,2,0,L|56:152,1,105,2|0,0:0|0:0,0:0:0:0:
245,76,241030,2,0,L|183:68,1,52.5,2|2,0:0|0:0,0:0:0:0:
33,51,241180,6,0,L|158:41,1,105,2|2,3:0|0:0,0:0:0:0:
84,41,241405,1,2,0:0:0:0:
260,106,241480,2,0,L|261:221,1,105,10|2,0:0|0:0,0:0:0:0:
209,234,241705,1,2,0:0:0:0:
384,306,241780,6,0,L|331:308,1,52.5,2|2,3:0|0:0,0:0:0:0:
138,362,241930,2,0,L|378:344,1,220.499993270874,2|8,0:0|0:0,0:0:0:0:
306,318,242155,1,2,0:0:0:0:
126,250,242230,2,0,L|61:233,1,52.5,2|2,0:0|0:0,0:0:0:0:
261,200,242380,5,2,3:0:0:0:
309,208,242455,1,2,0:0:0:0:
336,167,242530,1,2,0:0:0:0:
307,127,242605,1,2,0:0:0:0:
135,86,242680,2,0,L|83:94,1,52.5,10|2,0:0|0:0,0:0:0:0:
227,151,242830,1,2,0:0:0:0:
369,199,242905,1,2,0:0:0:0:
227,254,242980,5,2,3:0:0:0:
179,242,243055,1,2,0:0:0:0:
151,282,243130,1,2,0:0:0:0:
179,323,243205,1,2,0:0:0:0:
362,341,243280,2,0,L|306:341,1,52.5,10|0,0:0|0:0,0:0:0:0:
141,293,243430,2,0,L|206:290,1,52.5,2|0,0:0|0:0,0:0:0:0:
389,268,243580,6,0,P|422:208|300:136,1,210,6|2,3:2|0:0,0:0:0:0:
111,91,244030,1,2,3:0:0:0:
245,31,244180,2,0,L|252:144,1,105,10|0,0:0|0:0,0:0:0:0:
115,157,244480,2,0,L|106:273,1,105,8|0,1:0|0:0,0:0:0:0:
343,328,244780,6,0,L|123:356,1,210,2|2,3:0|0:0,0:0:0:0:
357,260,245230,1,2,3:0:0:0:
122,217,245380,2,0,L|234:197,1,105,10|0,0:0|0:0,0:0:0:0:
336,134,245680,2,0,L|188:130,1,105,8|2,1:0|0:0,0:0:0:0:
443,50,245980,5,0,3:0:0:0:
317,52,246130,1,0,3:0:0:0:
443,50,246280,1,0,3:0:0:0:
317,52,246430,1,0,3:0:0:0:
69,128,246580,2,0,L|134:127,1,52.5,0|0,3:0|3:0,0:0:0:0:
287,174,246730,2,0,L|357:172,1,52.5,0|0,3:0|3:0,0:0:0:0:
166,243,246880,2,0,L|223:245,1,52.5,0|0,3:0|3:0,0:0:0:0:
387,281,247030,2,0,L|469:283,1,52.5,0|0,3:0|3:0,0:0:0:0:
184,356,247180,6,0,B|123:83|123:83|184:357|184:357|466:355|466:355|182:357|182:357|176:72|176:72|459:67|459:67|463:380,1,1984.50000757027,4|0,3:2|0:0,0:0:0:0:
191,267,248380,5,2,3:0:0:0:
160,261,248417,1,0,0:0:0:0:
128,253,248455,1,0,0:0:0:0:
116,235,248492,1,0,0:0:0:0:
138,235,248530,1,0,0:0:0:0:
108,222,248567,1,0,0:0:0:0:
145,222,248605,1,0,0:0:0:0:
354,188,248680,5,4,3:1:0:0:
388,192,248717,1,0,0:0:0:0:
426,195,248755,1,0,0:0:0:0:
443,234,248792,1,0,0:0:0:0:
430,265,248830,1,0,0:0:0:0:
463,290,248867,1,0,0:0:0:0:
430,308,248905,1,0,0:0:0:0:
225,349,248980,6,0,L|167:344,2,35,2|0|2,3:2|0:0|0:2,0:0:0:0:
386,309,249130,2,0,L|334:308,1,35,0|2,0:0|0:2,0:0:0:0:
211,271,249230,1,0,0:0:0:0:
63,279,249280,2,0,L|58:120,1,157.5,8|0,3:2|0:0,0:0:0:0:
262,65,249580,5,10,3:1:0:0:
233,65,249617,1,0,0:0:0:0:
204,65,249655,1,0,0:0:0:0:
175,66,249692,1,0,0:0:0:0:
146,66,249730,1,0,0:0:0:0:
205,144,249805,1,0,0:0:0:0:
390,183,249880,2,0,L|407:159,2,26.25,14|0|0,3:1|0:0|0:0,0:0:0:0:
204,255,250030,2,0,L|187:231,2,26.25,10|0|0,0:1|0:0|0:0,0:0:0:0:
411,337,250180,6,0,B|149:215|149:215|215:88|215:88|281:226,2,577.500005507469,2|10|6,3:2|3:2|3:2,0:0:0:0:
453,339,250817,5,0,0:0:0:0:
471,305,250855,1,0,0:0:0:0:
452,274,250892,1,0,0:0:0:0:
479,266,250930,1,0,0:0:0:0:
441,250,250967,1,0,0:0:0:0:
480,245,251005,1,0,0:0:0:0:
255,231,251080,6,0,L|224:193,2,31.4999990386963,12|0|0,3:2|0:0|0:0,0:0:0:0:
353,239,251192,1,0,0:0:0:0:
452,233,251230,2,0,L|471:196,2,31.4999990386963,0|0|0,0:0|0:0|0:0,0:0:0:0:
287,155,251380,2,0,L|280:85,1,62.9999980773926,2|2,3:2|0:2,0:0:0:0:
114,54,251530,2,0,L|32:44,1,62.9999980773926,2|2,0:2|0:2,0:0:0:0:
245,17,251680,2,0,L|252:213,1,188.999994232178,8|0,3:2|0:0,0:0:0:0:
53,292,251980,6,0,L|279:298,1,177.975000543137,0|0,3:0|0:0,0:0:0:0:
37,154,252280,2,0,L|19:121,2,29.6625000905228,10|0|2,3:2|0:0|0:0,0:0:0:0:
76,162,252392,1,0,0:0:0:0:
118,170,252430,1,2,0:0:0:0:
77,187,252467,1,0,0:0:0:0:
36,193,252505,1,2,0:0:0:0:
269,66,252580,6,0,L|393:88,1,118.650000362091,2|0,3:1|0:0,0:0:0:0:
215,161,252805,2,0,L|338:204,1,118.650000362091,2|0,0:1|0:0,0:0:0:0:
146,280,253030,2,0,L|218:273,1,59.3250001810455,2|0,0:1|0:0,0:0:0:0:
379,356,253180,5,4,3:0:0:0:
413,353,253217,1,0,0:0:0:0:
383,335,253255,1,0,0:0:0:0:
404,327,253292,1,0,0:0:0:0:
374,311,253330,1,0,0:0:0:0:
332,289,253367,1,0,0:0:0:0:
286,287,253405,1,0,0:0:0:0:
481,281,253480,2,0,L|490:202,1,59.3250001810455,8|0,3:2|0:0,0:0:0:0:
316,200,253630,2,0,L|309:132,1,59.3250001810455,0|0,0:0|0:0,0:0:0:0:
122,120,253780,5,4,3:0:0:0:
140,96,253817,1,0,0:0:0:0:
163,77,253855,1,0,0:0:0:0:
189,63,253892,1,0,0:0:0:0:
217,55,253930,1,0,0:0:0:0:
247,53,253967,1,0,0:0:0:0:
276,57,254005,1,0,0:0:0:0:
91,354,254080,6,0,L|80:154,1,177.975000543137,8|0,3:2|0:0,0:0:0:0:
309,140,254380,5,10,3:1:0:0:
290,164,254417,1,0,0:0:0:0:
266,186,254455,1,0,0:0:0:0:
238,203,254492,1,0,0:0:0:0:
207,216,254530,1,0,0:0:0:0:
174,224,254567,1,0,0:0:0:0:
140,226,254605,1,0,0:0:0:0:
332,292,254680,6,0,L|368:292,2,29.6625000905228,14|0|0,3:1|0:0|0:0,0:0:0:0:
134,332,254830,2,0,L|98:332,2,29.6625000905228,10|0|0,0:1|0:0|0:0,0:0:0:0:
339,114,254980,5,2,3:0:0:0:
310,111,255017,1,0,0:0:0:0:
280,108,255055,1,0,0:0:0:0:
251,105,255092,1,0,0:0:0:0:
221,102,255130,1,0,0:0:0:0:
192,99,255167,1,0,0:0:0:0:
162,97,255205,1,0,0:0:0:0:
369,37,255280,5,14,3:2:0:0:
408,41,255317,1,0,0:0:0:0:
440,49,255355,1,0,0:0:0:0:
460,70,255392,1,0,0:0:0:0:
471,98,255430,1,0,0:0:0:0:
471,127,255467,1,0,0:0:0:0:
460,154,255505,1,0,0:0:0:0:
227,204,255580,5,4,3:1:0:0:
208,169,255617,1,0,0:0:0:0:
227,204,255655,2,0,L|482:264,1,251.999992309571,0|0,0:0|0:0,0:0:0:0:
443,276,255842,1,0,0:0:0:0:
406,283,255880,6,0,L|123:279,1,251.999992309571,12|4,3:1|0:1,0:0:0:0:
183,297,256067,1,0,0:0:0:0:
220,304,256105,1,0,0:0:0:0:
398,363,256180,5,4,3:1:0:0:
219,339,256255,1,0,0:0:0:0:
183,326,256292,1,0,0:0:0:0:
170,285,256330,1,0,0:0:0:0:
182,259,256367,1,0,0:0:0:0:
221,248,256405,1,0,0:0:0:0:
402,172,256480,5,12,3:1:0:0:
338,167,256555,1,0,0:0:0:0:
310,155,256592,1,0,0:0:0:0:
294,110,256630,1,0,0:0:0:0:
310,70,256667,1,0,0:0:0:0:
339,66,256705,1,0,0:0:0:0:
401,247,256780,6,0,B|169:148|169:148|247:44,1,377.999988464356,4|0,3:1|0:0,0:0:0:0:
303,37,257080,2,0,B|71:136|71:136|149:240,1,377.999988464356,12|0,3:1|0:0,0:0:0:0:
208,240,257380,6,0,B|475:109|475:109|305:117,1,445.724993708868,4|0,3:3|0:0,0:0:0:0:
167,124,257680,2,0,B|434:255|434:255|264:247,1,445.724993708868,12|0,3:3|0:0,0:0:0:0:
71,254,257980,5,4,3:0:0:0:
24,255,258017,1,0,0:0:0:0:
70,293,258055,1,0,0:0:0:0:
31,292,258092,1,0,0:0:0:0:
62,331,258130,1,0,0:0:0:0:
39,330,258167,1,0,0:0:0:0:
50,352,258205,1,0,0:0:0:0:
287,354,258280,6,0,B|60:219|60:219|61:84,1,393.75,12|0,3:2|0:0,0:0:0:0:
239,159,258580,2,0,L|268:120,2,41.9999987182618,2|0|0,3:2|0:0|0:0,0:0:0:0:
60,89,258730,2,0,L|15:89,2,41.9999987182618,0|2|0,0:0|0:2|0:0,0:0:0:0:
234,49,258880,6,0,L|249:258,1,188.999994232178,8|0,3:2|0:0,0:0:0:0:
449,301,259180,1,10,3:1:0:0:
415,305,259217,1,0,0:0:0:0:
381,309,259255,1,0,0:0:0:0:
347,313,259292,1,0,0:0:0:0:
313,317,259330,1,0,0:0:0:0:
373,356,259405,1,0,0:0:0:0:
206,365,259480,2,0,L|159:363,2,31.4999990386963,14|0|0,3:1|0:0|0:0,0:0:0:0:
373,356,259630,2,0,L|420:354,2,31.4999990386963,10|0|0,0:1|0:0|0:0,0:0:0:0:
166,142,259780,6,0,B|445:224|445:224|392:356|392:356|335:224,2,577.500005507469,2|10|6,3:2|3:2|3:2,0:0:0:0:
125,139,260417,5,0,0:0:0:0:
82,137,260455,1,0,0:0:0:0:
62,96,260492,1,0,0:0:0:0:
83,57,260530,1,0,0:0:0:0:
48,51,260567,1,0,0:0:0:0:
86,42,260605,1,0,0:0:0:0:
299,122,260680,6,0,L|330:84,2,31.4999990386963,12|0|0,3:2|0:0|0:0,0:0:0:0:
203,132,260792,1,0,0:0:0:0:
103,131,260830,2,0,L|56:124,2,31.4999990386963,0|0|0,0:0|0:0|0:0,0:0:0:0:
270,202,260980,6,0,L|278:282,1,62.9999980773926,2|2,3:2|0:2,0:0:0:0:
458,352,261130,2,0,L|371:363,1,62.9999980773926,2|2,0:2|0:2,0:0:0:0:
205,329,261280,6,0,L|393:270,1,188.999994232178,8|0,3:2|0:0,0:0:0:0:
317,243,261580,6,0,B|56:191|56:191|123:75,1,393.75,0|0,3:0|0:0,0:0:0:0:
309,46,261880,2,0,L|397:52,1,62.9999980773926,10|2,3:2|0:0,0:0:0:0:
197,145,262030,2,0,L|189:245,1,62.9999980773926,2|2,0:0|0:0,0:0:0:0:
18,290,262180,6,0,L|152:326,1,125.999996154785,2|0,3:1|0:0,0:0:0:0:
320,359,262405,2,0,L|292:205,1,125.999996154785,2|0,0:1|0:0,0:0:0:0:
99,205,262630,2,0,L|14:191,1,62.9999980773926,2|0,0:1|0:0,0:0:0:0:
250,217,262780,5,4,3:0:0:0:
281,217,262817,1,0,0:0:0:0:
309,204,262855,1,0,0:0:0:0:
329,179,262892,1,0,0:0:0:0:
336,149,262930,1,0,0:0:0:0:
329,119,262967,1,0,0:0:0:0:
310,94,263005,1,0,0:0:0:0:
277,82,263042,1,0,0:0:0:0:
232,78,263080,1,8,3:2:0:0:
290,63,263155,1,0,0:0:0:0:
103,33,263230,2,0,L|164:45,1,62.9999980773926,0|0,3:0|0:0,0:0:0:0:
362,52,263380,6,0,L|375:254,1,188.999994232178,4|0,3:0|0:0,0:0:0:0:
446,282,263680,2,0,L|258:257,1,188.999994232178,8|0,3:2|0:0,0:0:0:0:
48,356,263980,5,10,3:1:0:0:
80,352,264017,1,0,0:0:0:0:
111,349,264055,1,0,0:0:0:0:
143,346,264092,1,0,0:0:0:0:
174,343,264130,1,0,0:0:0:0:
113,322,264205,1,0,0:0:0:0:
291,301,264280,2,0,L|308:266,2,31.4999990386963,14|0|0,3:1|0:0|0:0,0:0:0:0:
107,234,264430,2,0,L|90:199,2,31.4999990386963,10|0|0,0:1|0:0|0:0,0:0:0:0:
314,191,264580,6,0,P|328:112|225:68,1,188.999994232178,2|0,3:0|0:0,0:0:0:0:
460,42,264880,2,0,L|474:252,1,188.999994232178,14|0,3:2|0:0,0:0:0:0:
167,344,265180,5,4,3:1:0:0:
136,336,265217,1,0,0:0:0:0:
114,314,265255,1,0,0:0:0:0:
107,284,265292,1,0,0:0:0:0:
116,253,265330,1,0,0:0:0:0:
187,229,265405,1,0,0:0:0:0:
339,350,265480,2,0,L|262:339,1,62.9999980773926,12|0,3:1|0:0,0:0:0:0:
431,144,265630,2,0,L|501:135,1,62.9999980773926,4|0,0:1|0:0,0:0:0:0:
243,164,265780,5,4,3:1:0:0:
228,136,265817,1,0,0:0:0:0:
205,115,265855,1,0,3:0:0:0:
176,103,265892,1,0,0:0:0:0:
144,102,265930,1,0,3:0:0:0:
76,107,266005,1,0,3:0:0:0:
296,301,266080,5,12,3:1:0:0:
310,273,266117,1,0,0:0:0:0:
331,252,266155,1,0,3:0:0:0:
357,240,266192,1,0,0:0:0:0:
386,239,266230,1,0,3:0:0:0:
457,235,266305,1,0,3:0:0:0:
247,46,266380,6,0,P|166:62|269:191,2,315,4|0|0,3:2|0:0|0:0,0:0:0:0:
262,46,267298,2,0,L|441:45,1,173.24999471283,0|0,0:0|0:0,0:0:0:0:
214,18,267580,5,6,3:2:0:0:
116,41,267730,1,0,0:0:0:0:
74,134,267880,1,2,0:0:0:0:
122,223,268030,1,0,0:0:0:0:
221,241,268180,1,2,0:0:0:0:
324,223,268330,1,0,0:0:0:0:
372,117,268480,1,2,0:0:0:0:
324,35,268630,1,0,0:0:0:0:
213,28,268780,5,2,0:3:0:0:
324,35,268930,1,0,0:0:0:0:
372,117,269080,1,2,0:0:0:0:
326,226,269230,1,0,0:0:0:0:
197,245,269380,5,2,0:3:0:0:
310,302,269530,1,0,0:0:0:0:
441,319,269680,1,2,0:0:0:0:
317,357,269830,1,0,0:0:0:0:
173,368,269980,5,2,0:3:0:0:
164,269,270130,1,0,0:0:0:0:
296,267,270280,1,2,0:0:0:0:
300,171,270430,1,0,0:0:0:0:
441,184,270580,1,2,0:0:0:0:
453,78,270730,1,0,0:0:0:0:
318,115,270880,1,2,0:0:0:0:
310,19,271030,1,0,0:0:0:0:
161,19,271180,5,2,0:3:0:0:
264,88,271330,1,0,0:0:0:0:
384,126,271480,1,2,0:0:0:0:
257,189,271630,1,0,0:0:0:0:
125,232,271780,5,2,0:3:0:0:
84,122,271930,1,0,0:0:0:0:
137,29,272080,1,2,0:0:0:0:
258,13,272230,1,0,0:0:0:0:
132,56,272380,5,2,0:3:0:0:
126,154,272530,1,0,0:0:0:0:
258,154,272680,1,2,0:0:0:0:
267,261,272830,1,0,0:0:0:0:
388,258,272980,1,2,0:0:0:0:
401,378,273130,1,0,0:0:0:0:
284,272,273280,1,2,0:0:0:0:
275,366,273430,1,0,0:0:0:0:
412,375,273580,5,2,0:3:0:0:
462,270,273730,1,0,0:0:0:0:
410,157,273880,1,2,0:0:0:0:
299,135,274030,1,0,0:0:0:0:
166,133,274180,5,2,0:3:0:0:
267,73,274330,1,0,0:0:0:0:
375,53,274480,1,2,0:0:0:0:
493,55,274630,1,0,0:0:0:0:
367,99,274780,5,2,0:3:0:0:
362,195,274930,1,0,0:0:0:0:
240,173,275080,1,2,0:0:0:0:
228,283,275230,1,0,0:0:0:0:
109,227,275380,1,2,0:0:0:0:
96,328,275530,1,0,0:0:0:0:
226,302,275680,1,2,0:0:0:0:
233,206,275830,1,0,0:0:0:0:
92,148,275980,5,2,0:3:0:0:
208,108,276130,1,0,0:0:0:0:
357,83,276280,1,2,0:0:0:0:
247,35,276430,1,0,0:0:0:0:
80,37,276580,6,0,L|68:382,1,315,2|0,0:3|0:0,0:0:0:0:
312,362,277180,6,0,L|311:35,2,315,2|2|2,0:0|0:0|0:0,0:0:0:0:
312,362,278098,6,0,P|272:360|337:68,1,511.875,2|2,0:0|0:0,0:0:0:0:
329,66,278905,1,2,0:0:0:0:
329,66,279080,1,2,0:0:0:0:
329,66,279330,1,2,0:0:0:0:
329,66,279580,2,0,L|334:391,2,315,2|2|2,0:0|0:0|0:0,0:0:0:0:
329,66,280498,6,0,P|393:68|373:298,1,380.625,2|2,0:0|0:0,0:0:0:0:
377,297,281192,1,2,0:0:0:0:
119,146,281530,2,0,L|437:126,1,315,2|2,0:0|0:0,0:0:0:0:
96,71,282430,1,2,0:0:0:0:
444,350,282880,6,0,P|472:267|240:53,1,446.25,2|2,0:0|0:0,0:0:0:0:
172,54,283605,1,2,0:0:0:0:
336,126,283780,1,2,0:0:0:0:
336,126,284030,1,2,0:0:0:0:
39,343,284380,6,0,P|215:-63|423:364,1,1155.00004405976,2|2,0:0|0:0,0:0:0:0:
256,192,287042,12,0,287061,0:0:0:0:
256,192,287117,12,0,287136,0:0:0:0:
256,192,287330,12,0,287580,0:0:0:0:
256,192,287780,12,0,287855,0:0:0:0:
256,192,287980,12,0,287998,0:0:0:0:
256,192,288055,12,0,288073,0:0:0:0:
256,192,288255,12,0,288380,0:0:0:0:
256,192,288786,12,0,288805,0:0:0:0:
256,192,288861,12,0,288880,0:0:0:0:
