osu file format v14

[General]
AudioFilename: audio.mp3
AudioLeadIn: 0
PreviewTime: 50305
Countdown: 0
SampleSet: Soft
StackLeniency: 0.7
Mode: 2
LetterboxInBreaks: 0
WidescreenStoryboard: 1

[Editor]
Bookmarks: 51880,89980,128380,171580,209980,229180,248680,283517,286580
DistanceSpacing: 4.6
BeatDivisor: 4
GridSize: 32
TimelineZoom: 3.699997

[Metadata]
Title:Fu Xiang Di Xin De Luo Ri Liu Hao ~ Little Raven
TitleUnicode:浮向地心的落日六号 ~ Little Raven
Artist:SEPHID feat. darkxixin
ArtistUnicode:SEPHID feat. darkxixin
Creator:Jemzuu
Version:Rain
Source:東方地霊殿 ~ Subterranean Animism.
Tags:featured artist fa ajamez crowley -momox nosuri -rustyy bastian -vale autofanboy afb alienflybot deif autols Hanikawa Kurose osu!catch mapping world cup cmwc Kagamine Ren Suiyu 叶紫蝉 清则 NoisiestLunatic 千年戦争~iek loin staim haf il dis o-del al 東方Project Touhou Chireiden 11 th11 霊知の太陽信仰 Reichi no Taiyou Shinkou Solar Sect of Mystic Wisdom ~ Nuclear Fusion 霊烏路 空 Reiuji Utsuho okuu drumstep j-core electronic chinese hanikawa_kurose
BeatmapID:3307129
BeatmapSetID:1618365

[Difficulty]
HPDrainRate:5
CircleSize:3.7
OverallDifficulty:9.2
ApproachRate:9.2
SliderMultiplier:1.82
SliderTickRate:2

[Events]
//Background and Video events
0,0,"littleraven.jpg",0,0
//Break Periods
2,162180,166210
//Storyboard Layer 0 (Background)
//Storyboard Layer 1 (Fail)
//Storyboard Layer 2 (Pass)
//Storyboard Layer 3 (Foreground)
//Storyboard Layer 4 (Overlay)
//Storyboard Sound Samples
Sample,1780,0,"Touhou_Utsuho_Reiuji_Alarm_Klaxon.wav",50
Sample,1780,0,"Touhou_Utsuho_Reiuji_Alarm_Klaxon.wav",50
Sample,1780,0,"Touhou_Utsuho_Reiuji_Alarm_Klaxon.wav",50
Sample,1780,0,"Touhou_Utsuho_Reiuji_Alarm_Klaxon.wav",50

[TimingPoints]
7780,300,4,2,26,50,1,0
7780,-100,4,2,26,50,0,0
8380,-100,4,2,26,30,0,0
9580,-100,4,2,26,40,0,0
10780,-100,4,2,26,43,0,0
11830,-100,4,2,26,46,0,0
13180,-100,4,2,26,50,0,0
14380,-100,4,2,26,53,0,0
15580,-100,4,2,26,56,0,0
16780,-100,4,2,26,50,0,0
17980,-100,4,2,26,90,0,0
18130,-100,4,2,26,50,0,0
22780,-100,4,2,26,60,0,0
26980,-100,4,2,50,80,0,0
27055,-100,4,2,26,80,0,0
27580,-100,4,2,27,60,0,0
28030,-100,4,2,26,60,0,0
34180,-100,4,2,26,60,0,0
34705,-100,4,2,26,60,0,0
37180,-100,4,2,27,60,0,0
37330,-100,4,2,26,60,0,0
41680,-100,4,2,27,60,0,0
41755,-100,4,2,26,60,0,0
46480,-100,4,2,27,60,0,0
46555,-100,4,2,26,60,0,0
50980,-100,4,2,27,60,0,0
51280,-100,4,2,26,60,0,0
51580,-100,4,2,40,80,0,0
51655,-100,4,2,26,60,0,0
51880,-100,4,2,26,80,0,1
52780,-100,4,2,40,80,0,1
53380,-100,4,2,26,80,0,1
53980,-100,4,2,41,80,0,1
54017,-100,4,2,26,80,0,1
54280,-100,4,2,40,55,0,1
54317,-100,4,2,26,80,0,1
55180,-100,4,2,26,80,0,1
56380,-100,4,2,40,80,0,1
56417,-100,4,2,26,80,0,1
56980,-100,4,2,41,80,0,1
57017,-100,4,2,26,80,0,1
57580,-100,4,2,40,80,0,1
57617,-100,4,2,26,80,0,1
57880,-100,4,2,40,80,0,1
57917,-100,4,2,26,80,0,1
58030,-100,4,2,40,80,0,1
58067,-100,4,2,26,80,0,1
58780,-100,4,2,41,80,0,1
58817,-100,4,2,26,80,0,1
58855,-100,4,2,26,80,0,1
59080,-100,4,2,41,80,0,1
59117,-100,4,2,26,80,0,1
59230,-100,4,2,41,80,0,1
59267,-100,4,2,26,80,0,1
59380,-100,4,2,41,80,0,1
59455,-100,4,2,26,80,0,1
59680,-100,4,2,41,80,0,1
59717,-100,4,2,26,80,0,1
59980,-100,4,2,42,80,0,1
60505,-100,4,2,26,80,0,1
60580,-100,4,2,42,80,0,1
61180,-100,4,2,43,80,0,0
61217,-100,4,2,26,80,0,0
61480,-100,4,2,26,80,0,1
62380,-100,4,2,40,80,0,1
62980,-100,4,2,26,80,0,1
63580,-100,4,2,41,80,0,1
63617,-100,4,2,26,80,0,1
63880,-100,4,2,40,55,0,1
63917,-100,4,2,26,80,0,1
64780,-100,4,2,26,80,0,1
65080,-100,4,2,26,80,0,1
65980,-100,4,2,40,80,0,1
66017,-100,4,2,26,80,0,1
66580,-100,4,2,41,80,0,1
66617,-100,4,2,26,80,0,1
67180,-100,4,2,40,80,0,1
67217,-100,4,2,26,80,0,1
67480,-100,4,2,40,80,0,1
67517,-100,4,2,26,80,0,1
67630,-100,4,2,40,80,0,1
67667,-100,4,2,26,80,0,1
68380,-100,4,2,41,80,0,1
68417,-100,4,2,26,80,0,1
68680,-100,4,2,41,80,0,1
68717,-100,4,2,26,80,0,1
68830,-100,4,2,41,80,0,1
68867,-100,4,2,26,80,0,1
68980,-100,4,2,41,80,0,1
69055,-100,4,2,26,80,0,1
69280,-100,4,2,41,80,0,1
69317,-100,4,2,26,80,0,1
69580,-83.3333333333333,4,2,26,80,0,0
70498,-100,4,2,26,5,0,0
70780,-100,4,2,26,80,0,0
76780,-100,4,2,27,80,0,0
77080,-100,4,2,27,80,0,0
77380,-100,4,2,26,80,0,0
80380,-100,4,2,28,80,0,0
80680,-100,4,2,26,80,0,0
89080,-100,4,2,50,50,0,0
89155,-100,4,2,26,80,0,0
89980,-100,4,2,29,80,0,0
90130,-100,4,2,29,60,0,0
99280,-100,4,2,30,60,0,0
99317,-100,4,2,29,60,0,0
100480,-100,4,2,28,60,0,0
100555,-100,4,2,29,60,0,0
101680,-100,4,2,30,40,0,0
101980,-100,4,2,29,60,0,0
104080,-100,4,2,26,80,0,0
104380,-100,4,2,26,40,0,0
106780,-100,4,2,26,20,0,0
107980,-100,4,2,26,80,0,0
108880,-100,4,2,26,80,0,0
109180,-100,4,2,26,80,0,1
109780,-100,4,2,26,80,0,0
112180,-100,4,2,28,80,0,0
112198,-100,4,2,26,80,0,0
112630,-100,4,2,26,80,0,0
115780,-100,4,2,37,80,0,0
116380,-100,4,2,26,80,0,1
117130,-100,4,2,26,80,0,1
118780,-100,4,2,37,80,0,0
119380,-100,4,2,26,80,0,1
119680,-100,4,2,26,80,0,1
120580,-100,4,2,26,80,0,1
120880,-100,4,2,26,80,0,1
121780,-100,4,2,42,80,0,1
121798,-100,4,2,26,80,0,1
122080,-100,4,2,26,80,0,1
123580,-100,4,2,38,80,0,1
123617,-100,4,2,26,80,0,1
124480,-100,4,2,26,80,0,1
124780,-100,4,2,40,80,0,1
124855,-100,4,2,26,80,0,1
125080,-100,4,2,40,80,0,1
125155,-100,4,2,26,80,0,1
125230,-100,4,2,40,80,0,1
125380,-100,4,2,40,80,0,1
125455,-100,4,2,26,80,0,1
125680,-100,4,2,40,80,0,1
125717,-100,4,2,26,80,0,1
125755,-100,4,2,26,80,0,1
125980,-100,4,2,27,80,0,0
126130,-100,4,2,26,80,0,0
128380,-100,4,2,32,80,0,1
128755,-100,4,2,32,68,0,1
128830,-100,4,2,32,72,0,1
128905,-100,4,2,32,74,0,1
128980,-100,4,2,32,80,0,0
129280,-100,4,2,32,80,0,1
129505,-100,4,2,32,68,0,1
129580,-100,4,2,32,72,0,1
129655,-100,4,2,32,74,0,1
129730,-100,4,2,32,80,0,1
129805,-100,4,2,32,68,0,1
129880,-100,4,2,32,72,0,1
129955,-100,4,2,32,74,0,1
130030,-100,4,2,32,80,0,1
130105,-100,4,2,32,68,0,1
130180,-100,4,2,32,72,0,1
130255,-100,4,2,32,74,0,1
130330,-100,4,2,32,80,0,1
130405,-100,4,2,32,68,0,1
130480,-100,4,2,32,72,0,1
130555,-100,4,2,32,74,0,1
130630,-100,4,2,32,80,0,1
130705,-100,4,2,32,68,0,1
130780,-100,4,2,32,72,0,1
130855,-100,4,2,32,74,0,1
130930,-100,4,2,32,80,0,1
131005,-100,4,2,32,68,0,1
131080,-100,4,2,32,72,0,1
131155,-100,4,2,32,74,0,1
131230,-100,4,2,32,80,0,1
131305,-100,4,2,32,68,0,1
131380,-100,4,2,32,72,0,1
131455,-100,4,2,32,74,0,1
131530,-100,4,2,32,80,0,1
131605,-100,4,2,32,68,0,1
131680,-100,4,2,32,72,0,1
131755,-100,4,2,32,74,0,1
131830,-100,4,2,32,80,0,1
131905,-100,4,2,32,68,0,1
131980,-100,4,2,32,72,0,1
132055,-100,4,2,32,74,0,1
132130,-100,4,2,32,80,0,1
132205,-100,4,2,32,68,0,1
132280,-100,4,2,32,72,0,1
132355,-100,4,2,32,74,0,1
132430,-100,4,2,32,80,0,1
132505,-100,4,2,32,68,0,1
132580,-100,4,2,32,72,0,1
132655,-100,4,2,32,74,0,1
132730,-100,4,2,32,80,0,1
132805,-100,4,2,32,68,0,1
132880,-100,4,2,32,72,0,1
132955,-100,4,2,32,74,0,1
133030,-100,4,2,32,80,0,1
133105,-100,4,2,32,68,0,1
133180,-100,4,2,32,72,0,1
133255,-100,4,2,32,74,0,1
133330,-100,4,2,32,80,0,1
133405,-100,4,2,32,68,0,1
133480,-100,4,2,32,72,0,1
133555,-100,4,2,32,74,0,1
133630,-100,4,2,32,80,0,1
133705,-100,4,2,32,68,0,1
133780,-100,4,2,32,72,0,1
133855,-100,4,2,32,74,0,1
133930,-100,4,2,32,80,0,1
134005,-100,4,2,32,68,0,1
134080,-100,4,2,32,72,0,1
134155,-100,4,2,32,74,0,1
134230,-100,4,2,32,80,0,1
134305,-100,4,2,32,68,0,1
134380,-100,4,2,32,72,0,1
134455,-100,4,2,32,74,0,1
134530,-100,4,2,32,80,0,1
134605,-100,4,2,32,68,0,1
134680,-100,4,2,32,72,0,1
134755,-100,4,2,32,74,0,1
134830,-100,4,2,32,80,0,1
134905,-100,4,2,32,68,0,1
134980,-100,4,2,32,72,0,1
135055,-100,4,2,32,74,0,1
135130,-100,4,2,32,80,0,1
135205,-100,4,2,32,68,0,1
135280,-100,4,2,32,72,0,1
135355,-100,4,2,32,74,0,1
135430,-100,4,2,32,80,0,1
135505,-100,4,2,32,68,0,1
135580,-100,4,2,32,80,0,1
135655,-100,4,2,32,74,0,1
135880,-100,4,2,32,80,0,1
136330,-100,4,2,32,80,0,1
136780,-100,4,2,32,80,0,1
137230,-100,4,2,32,80,0,1
137680,-100,4,2,32,80,0,1
137980,-100,4,2,49,80,0,0
138130,-100,4,2,32,80,0,0
138205,-100,4,2,32,68,0,0
138280,-100,4,2,32,72,0,0
138355,-100,4,2,32,74,0,0
138580,-100,4,2,32,80,0,1
138955,-100,4,2,32,68,0,1
139030,-100,4,2,32,72,0,1
139105,-100,4,2,32,74,0,1
139180,-100,4,2,32,80,0,1
139255,-100,4,2,32,68,0,1
139330,-100,4,2,32,72,0,1
139405,-100,4,2,32,74,0,1
139480,-100,4,2,32,80,0,1
139555,-100,4,2,32,68,0,1
139630,-100,4,2,32,72,0,1
139705,-100,4,2,32,74,0,1
139780,-100,4,2,32,80,0,1
139855,-100,4,2,32,68,0,1
139930,-100,4,2,32,72,0,1
140005,-100,4,2,32,74,0,1
140080,-100,4,2,32,80,0,1
140155,-100,4,2,32,68,0,1
140230,-100,4,2,32,72,0,1
140305,-100,4,2,32,74,0,1
140380,-100,4,2,32,80,0,1
140455,-100,4,2,32,68,0,1
140530,-100,4,2,32,72,0,1
140605,-100,4,2,32,74,0,1
140680,-100,4,2,32,80,0,1
140755,-100,4,2,32,68,0,1
140830,-100,4,2,32,72,0,1
140905,-100,4,2,32,74,0,1
140980,-100,4,2,32,80,0,1
141055,-100,4,2,32,68,0,1
141130,-100,4,2,32,72,0,1
141205,-100,4,2,32,74,0,1
141280,-100,4,2,32,80,0,1
141355,-100,4,2,32,68,0,1
141430,-100,4,2,32,72,0,1
141505,-100,4,2,32,74,0,1
141580,-100,4,2,32,80,0,1
141655,-100,4,2,32,68,0,1
141730,-100,4,2,32,72,0,1
141805,-100,4,2,32,74,0,1
141880,-100,4,2,32,80,0,1
141955,-100,4,2,32,68,0,1
142030,-100,4,2,32,72,0,1
142105,-100,4,2,32,74,0,1
142180,-100,4,2,32,80,0,1
142255,-100,4,2,32,68,0,1
142330,-100,4,2,32,72,0,1
142405,-100,4,2,32,74,0,1
142480,-100,4,2,32,80,0,1
142555,-100,4,2,32,68,0,1
142630,-100,4,2,32,72,0,1
142705,-100,4,2,32,74,0,1
142780,-100,4,2,32,80,0,1
142855,-100,4,2,32,68,0,1
142930,-100,4,2,32,72,0,1
143005,-100,4,2,32,74,0,1
143155,-100,4,2,32,80,0,1
143230,-100,4,2,32,68,0,1
143305,-100,4,2,32,72,0,1
143380,-100,4,2,32,74,0,1
143455,-100,4,2,32,68,0,1
143530,-100,4,2,32,72,0,1
143605,-100,4,2,32,74,0,1
143830,-100,4,2,32,80,0,1
143905,-100,4,2,32,68,0,1
143980,-100,4,2,32,72,0,1
144055,-100,4,2,32,74,0,1
144130,-100,4,2,32,80,0,1
144205,-100,4,2,32,68,0,1
144280,-100,4,2,32,72,0,1
144355,-100,4,2,32,74,0,1
144505,-100,4,2,32,80,0,1
144580,-100,4,2,32,68,0,1
144655,-100,4,2,32,72,0,1
144730,-100,4,2,32,74,0,1
145030,-100,4,2,32,80,0,1
145105,-100,4,2,32,68,0,1
145180,-100,4,2,32,72,0,1
145255,-100,4,2,32,74,0,1
145330,-100,4,2,32,80,0,1
145405,-100,4,2,32,68,0,1
145480,-100,4,2,32,72,0,1
145555,-100,4,2,32,74,0,1
145630,-100,4,2,32,80,0,1
145705,-100,4,2,32,68,0,1
145780,-100,4,2,32,72,0,1
145855,-100,4,2,32,74,0,1
146005,-100,4,2,32,80,0,1
146080,-100,4,2,32,68,0,1
146155,-100,4,2,32,72,0,1
146230,-100,4,2,32,74,0,1
146305,-100,4,2,32,80,0,1
146380,-100,4,2,32,68,0,1
146455,-100,4,2,32,72,0,1
146530,-100,4,2,32,74,0,1
146605,-100,4,2,32,68,0,1
146680,-100,4,2,32,72,0,1
146755,-100,4,2,32,74,0,1
146980,-68.9655172413793,4,2,32,74,0,1
147580,-100,4,2,31,50,0,0
147655,-100,4,2,31,15,0,0
152380,-100,4,2,26,30,0,0
153580,-100,4,2,26,35,0,0
154780,-100,4,2,26,40,0,0
157180,-100,4,2,26,43,0,0
158380,-100,4,2,26,46,0,0
159580,-100,4,2,26,50,0,0
160480,-100,4,2,26,54,0,0
161380,-100,4,2,26,59,0,0
161980,-100,4,2,26,50,0,0
162880,-100,4,2,26,50,0,0
164380,-100,4,2,26,50,0,0
166780,-100,4,2,26,50,0,0
167980,-100,4,2,26,60,0,0
169180,-100,4,2,26,65,0,0
170380,-100,4,2,26,70,0,0
170980,-100,4,2,50,90,0,0
171017,-100,4,2,26,75,0,0
171580,-100,4,2,27,60,0,0
171880,-100,4,2,26,60,0,0
180580,-100,4,2,50,60,0,0
181180,-100,4,2,26,60,0,0
190780,-100,4,2,27,60,0,0
190855,-100,4,2,26,60,0,0
200380,-100,4,2,30,60,0,0
205180,-100,4,2,31,60,0,0
209380,-100,4,2,27,60,0,0
209680,-100,4,2,26,60,0,0
209980,-100,4,2,26,80,0,1
210055,-100,4,2,31,80,0,1
210580,-100,4,2,31,80,0,1
211180,-100,4,2,31,80,0,1
211630,-100,4,2,31,80,0,1
212680,-100,4,2,31,80,0,1
212980,-100,4,2,31,80,0,1
213130,-100,4,2,31,80,0,1
213880,-100,4,2,31,80,0,1
214780,-100,4,2,31,80,0,1
215080,-100,4,2,31,80,0,1
215380,-100,4,2,31,80,0,1
215680,-100,4,2,31,80,0,1
215980,-100,4,2,31,80,0,1
218380,-100,4,2,31,80,0,1
218605,-100,4,2,31,80,0,1
219130,-100,4,2,31,80,0,1
219580,-100,4,2,31,80,0,0
219880,-100,4,2,26,80,0,1
219955,-100,4,2,31,80,0,1
220180,-100,4,2,31,80,0,1
220780,-100,4,2,31,80,0,1
221230,-100,4,2,31,80,0,1
221380,-100,4,2,31,80,0,1
221980,-100,4,2,31,80,0,1
222280,-100,4,2,31,80,0,1
222580,-100,4,2,31,80,0,1
222730,-100,4,2,31,80,0,1
223480,-100,4,2,31,80,0,1
224380,-100,4,2,31,80,0,0
229180,-100,4,2,26,80,0,1
229255,-100,4,2,31,80,0,1
229330,-100,4,2,31,80,0,1
229780,-100,4,2,31,80,0,1
229930,-100,4,2,31,80,0,1
230380,-100,4,2,31,80,0,1
230530,-100,4,2,31,80,0,1
232330,-100,4,2,31,80,0,1
232480,-100,4,2,31,80,0,1
233980,-100,4,2,31,80,0,1
234130,-100,4,2,31,80,0,1
234580,-100,4,2,31,80,0,1
234730,-100,4,2,31,80,0,1
235180,-100,4,2,31,80,0,1
235330,-100,4,2,31,80,0,1
238780,-100,4,2,31,80,0,0
239080,-100,4,2,26,80,0,1
239155,-100,4,2,31,80,0,1
239380,-100,4,2,31,80,0,1
239530,-100,4,2,31,80,0,1
239980,-100,4,2,31,80,0,1
240130,-100,4,2,31,80,0,1
241930,-100,4,2,31,80,0,1
242080,-100,4,2,31,80,0,1
243580,-100,4,2,31,80,0,0
247180,-100,4,2,26,80,0,0
247780,-100,4,2,50,80,0,0
247855,-100,4,2,0,80,0,0
248080,-100,4,2,50,80,0,0
248155,-100,4,2,0,80,0,0
248230,-100,4,2,26,80,0,0
248380,-100,4,2,40,80,0,0
248455,-100,4,2,26,60,0,0
248680,-100,4,2,26,80,0,1
249580,-100,4,2,40,80,0,1
250180,-100,4,2,26,80,0,1
250780,-100,4,2,41,80,0,1
250817,-100,4,2,26,80,0,1
251080,-100,4,2,40,55,0,1
251117,-100,4,2,26,80,0,1
251980,-100,4,2,26,80,0,1
253180,-100,4,2,40,80,0,1
253217,-100,4,2,26,80,0,1
253780,-100,4,2,41,80,0,1
253817,-100,4,2,26,80,0,1
254380,-100,4,2,40,80,0,1
254417,-100,4,2,26,80,0,1
254680,-100,4,2,40,80,0,1
254717,-100,4,2,26,80,0,1
254830,-100,4,2,40,80,0,1
254867,-100,4,2,26,80,0,1
255580,-100,4,2,41,80,0,1
255617,-100,4,2,26,80,0,1
255655,-100,4,2,26,80,0,1
255880,-100,4,2,41,80,0,1
255917,-100,4,2,26,80,0,1
256030,-100,4,2,41,80,0,1
256067,-100,4,2,26,80,0,1
256180,-100,4,2,41,80,0,1
256255,-100,4,2,26,80,0,1
256480,-100,4,2,41,80,0,1
256517,-100,4,2,26,80,0,1
256780,-100,4,2,42,80,0,1
257305,-100,4,2,26,80,0,1
257380,-100,4,2,42,80,0,1
257980,-100,4,2,43,80,0,0
258017,-100,4,2,26,80,0,0
258280,-100,4,2,26,80,0,1
258580,-100,4,2,26,80,0,1
259180,-100,4,2,40,80,0,1
259780,-100,4,2,26,80,0,1
260380,-100,4,2,41,80,0,1
260417,-100,4,2,26,80,0,1
260680,-100,4,2,40,55,0,1
260717,-100,4,2,26,80,0,1
261580,-100,4,2,26,80,0,1
261880,-100,4,2,26,80,0,1
262780,-100,4,2,40,80,0,1
262817,-100,4,2,26,80,0,1
263380,-100,4,2,41,80,0,1
263417,-100,4,2,26,80,0,1
263980,-100,4,2,40,80,0,1
264017,-100,4,2,26,80,0,1
264280,-100,4,2,40,80,0,1
264317,-100,4,2,26,80,0,1
264430,-100,4,2,40,80,0,1
264467,-100,4,2,26,80,0,1
265180,-100,4,2,41,80,0,1
265217,-100,4,2,26,80,0,1
265480,-100,4,2,41,80,0,1
265517,-100,4,2,26,80,0,1
265630,-100,4,2,41,80,0,1
265667,-100,4,2,26,80,0,1
265780,-100,4,2,41,80,0,1
265855,-100,4,2,26,80,0,1
266080,-100,4,2,41,80,0,1
266117,-100,4,2,26,80,0,1
266380,-100,4,2,26,80,0,0
267298,-100,4,2,26,80,0,0
267580,-100,4,2,26,80,0,0
267730,-100,4,2,26,70,0,0
268780,-100,4,2,26,60,0,0
269380,-100,4,2,26,57,0,0
269980,-100,4,2,26,53,0,0
270580,-100,4,2,26,49,0,0
271180,-100,4,2,26,46,0,0
271780,-100,4,2,26,40,0,0
272380,-100,4,2,26,34,0,0
272980,-100,4,2,26,30,0,0
273580,-100,4,2,26,25,0,0
274180,-100,4,2,26,20,0,0
274780,-100,4,2,26,15,0,0
275380,-100,4,2,26,12,0,0
275980,-100,4,2,26,35,0,0
276130,-100,4,2,26,48,0,0
276280,-100,4,2,26,59,0,0
276430,-100,4,2,26,69,0,0
276580,-100,4,2,26,74,0,0
277180,-100,4,2,26,30,0,0
278098,-100,4,2,26,5,0,0
278830,-100,4,2,26,30,0,0
280498,-100,4,2,26,5,0,0
281042,-100,4,2,26,30,0,0
284380,-117.647058823529,4,2,26,30,0,0

[Colours]
Combo1 : 255,169,128
Combo2 : 128,255,128
Combo3 : 255,255,128

[HitObjects]
307,329,7780,6,0,P|338:239|175:57,1,364,2|2,0:3|0:3,0:0:0:0:
97,91,8530,1,0,0:0:0:0:
66,174,8680,1,2,0:0:0:0:
105,253,8830,1,0,0:0:0:0:
190,279,8980,1,2,0:0:0:0:
274,254,9130,1,0,0:0:0:0:
308,173,9280,1,2,0:0:0:0:
268,94,9430,1,0,0:0:0:0:
138,158,9580,5,2,0:3:0:0:
134,75,9730,1,0,0:0:0:0:
235,122,9880,1,2,0:0:0:0:
238,46,10030,1,0,0:0:0:0:
358,88,10180,1,2,0:0:0:0:
370,183,10330,1,0,0:0:0:0:
249,208,10480,1,2,0:0:0:0:
242,298,10630,1,0,0:0:0:0:
364,318,10780,5,2,0:3:0:0:
379,224,10930,1,0,0:0:0:0:
257,205,11080,1,2,0:3:0:0:
250,108,11230,1,0,0:0:0:0:
128,76,11380,1,2,0:3:0:0:
250,108,11530,1,2,0:3:0:0:
255,196,11680,1,0,0:0:0:0:
132,283,11830,5,2,0:3:0:0:
49,250,11980,1,2,0:0:0:0:
15,168,12130,1,0,0:0:0:0:
49,87,12280,1,2,0:0:0:0:
132,55,12430,1,0,0:0:0:0:
256,96,12580,1,2,0:3:0:0:
260,190,12730,1,0,0:0:0:0:
138,208,12880,1,2,0:3:0:0:
131,307,13030,1,0,0:0:0:0:
254,327,13180,5,2,0:3:0:0:
337,297,13330,1,0,0:0:0:0:
371,215,13480,1,2,0:0:0:0:
333,135,13630,1,0,0:0:0:0:
249,109,13780,1,2,0:0:0:0:
162,125,13930,1,0,0:0:0:0:
125,205,14080,1,2,0:0:0:0:
168,281,14230,1,0,0:0:0:0:
296,306,14380,5,2,0:3:0:0:
304,214,14530,1,0,0:0:0:0:
200,207,14680,1,2,0:0:0:0:
192,122,14830,1,0,0:0:0:0:
73,124,14980,1,2,0:0:0:0:
62,38,15130,1,0,0:0:0:0:
182,21,15280,1,2,0:0:0:0:
193,115,15430,1,0,0:0:0:0:
317,138,15580,5,2,0:3:0:0:
264,217,15730,1,0,0:0:0:0:
162,252,15880,1,0,0:0:0:0:
266,258,16030,1,2,0:3:0:0:
321,161,16180,1,0,0:0:0:0:
265,70,16330,1,0,0:0:0:0:
150,89,16480,1,2,0:3:0:0:
143,182,16630,1,0,0:0:0:0:
261,204,16780,5,2,0:3:0:0:
268,298,16930,1,0,0:0:0:0:
391,251,17080,1,2,0:0:0:0:
410,342,17230,1,0,0:0:0:0:
294,357,17380,5,2,0:3:0:0:
177,355,17530,1,0,0:0:0:0:
292,326,17680,1,2,0:0:0:0:
410,301,17830,1,0,0:0:0:0:
139,349,17980,6,0,P|127:166|388:322,1,637,4|0,0:3|0:0,0:0:0:0:
273,321,19180,6,0,P|104:294|221:-48,1,637,2|0,0:3|0:0,0:0:0:0:
327,56,20380,5,2,0:3:0:0:
333,151,20530,1,0,0:0:0:0:
207,166,20680,1,2,0:3:0:0:
199,257,20830,1,0,0:0:0:0:
319,291,20980,1,2,0:3:0:0:
199,257,21130,1,2,0:3:0:0:
188,357,21280,1,0,0:0:0:0:
315,364,21430,6,0,P|386:358|378:104,1,364,2|0,0:3|0:0,0:0:0:0:
288,168,22180,1,2,0:3:0:0:
278,69,22330,1,0,0:0:0:0:
407,104,22480,1,2,0:3:0:0:
409,14,22630,1,0,0:0:0:0:
155,164,22780,6,0,L|334:196,1,182,2|2,3:3|3:2,0:0:0:0:
77,308,23380,2,0,L|70:87,1,182,2|2,3:2|3:2,0:0:0:0:
335,50,23980,5,2,3:0:0:0:
377,127,24130,1,0,0:0:0:0:
345,209,24280,1,2,3:2:0:0:
261,236,24430,1,0,0:0:0:0:
145,263,24580,2,0,L|135:147,1,91,2|0,3:2|0:0,0:0:0:0:
253,133,24880,2,0,L|350:125,1,91,2|0,3:2|0:0,0:0:0:0:
113,329,25180,5,2,3:0:0:0:
114,220,25330,1,0,3:0:0:0:
238,217,25480,1,2,3:2:0:0:
114,220,25630,1,2,3:0:0:0:
64,92,25780,1,2,3:2:0:0:
114,220,25930,1,0,3:0:0:0:
238,217,26080,1,2,3:0:0:0:
114,220,26230,1,0,3:0:0:0:
366,97,26380,5,2,3:0:0:0:
408,108,26455,1,0,3:0:0:0:
426,148,26530,1,0,3:0:0:0:
407,188,26605,1,0,3:0:0:0:
365,199,26680,2,0,L|297:198,1,45.5,2|0,3:2|3:0,0:0:0:0:
168,318,26830,2,0,L|92:323,1,45.5,0|0,3:0|3:0,0:0:0:0:
303,365,26980,6,0,P|354:356|284:184,1,318.5,2|0,3:2|0:0,0:0:0:0:
133,222,27580,6,0,P|50:200|55:104,1,182,4|0,3:2|0:0,0:0:0:0:
273,62,28030,2,0,L|82:41,1,182,4|0,3:2|0:0,0:0:0:0:
320,190,28480,2,0,L|440:176,1,91,4|0,3:2|0:0,0:0:0:0:
291,285,28780,6,0,P|215:263|384:237,1,637,2|0,3:0|0:0,0:0:0:0:
138,315,29980,6,0,P|72:306|81:196,1,182,4|0,3:2|0:0,0:0:0:0:
310,169,30430,1,4,3:2:0:0:
200,167,30580,2,0,L|194:53,1,91,2|2,0:0|0:0,0:0:0:0:
433,26,30880,6,0,P|352:29|461:233,1,455,4|0,3:2|0:0,0:0:0:0:
320,310,31780,2,0,L|210:291,1,91,2|0,0:3|0:0,0:0:0:0:
364,141,32080,2,0,L|471:131,1,91,2|0,0:3|0:0,0:0:0:0:
208,278,32380,6,0,P|188:211|285:159,1,182,4|0,3:2|0:0,0:0:0:0:
38,193,32830,2,0,P|24:139|128:82,1,182,4|0,3:2|0:0,0:0:0:0:
365,41,33280,2,0,L|248:30,1,91,4|0,3:2|0:0,0:0:0:0:
141,179,33580,6,0,P|214:282|359:307,1,273,2|0,0:3|0:0,0:0:0:0:
210,352,34180,2,0,P|80:321|74:187,1,273,2|0,0:3|0:0,0:0:0:0:
314,136,34780,6,0,L|117:111,1,182,4|0,3:2|0:0,0:0:0:0:
377,49,35230,2,0,P|448:66|457:166,1,182,4|0,3:2|0:0,0:0:0:0:
228,221,35680,2,0,L|123:224,1,91,4|0,3:2|0:0,0:0:0:0:
399,323,35980,6,0,P|415:242|273:121,1,273,4|0,3:2|0:0,0:0:0:0:
156,104,36580,2,0,P|143:163|328:257,1,273,2|0,0:3|0:0,0:0:0:0:
30,340,37180,5,6,3:2:0:0:
256,192,37330,12,2,41230,0:0:0:0:
306,181,41530,5,2,3:2:0:0:
63,264,41680,2,0,L|52:110,1,136.5,8|0,3:3|0:0,0:0:0:0:
248,60,41980,5,4,3:2:0:0:
338,60,42130,1,2,3:2:0:0:
248,60,42280,1,0,3:0:0:0:
128,73,42430,1,2,3:2:0:0:
114,184,42580,1,0,3:0:0:0:
239,197,42730,1,2,3:2:0:0:
249,303,42880,1,0,3:0:0:0:
374,341,43030,5,2,3:2:0:0:
379,232,43180,1,0,3:0:0:0:
244,215,43330,1,2,3:2:0:0:
235,117,43480,1,0,3:0:0:0:
352,99,43630,1,2,3:2:0:0:
470,112,43780,1,0,3:0:0:0:
348,132,43930,1,2,3:2:0:0:
339,226,44080,1,0,3:0:0:0:
463,233,44230,5,2,3:2:0:0:
474,331,44380,1,0,3:0:0:0:
348,298,44530,1,2,3:2:0:0:
341,370,44680,1,0,3:0:0:0:
214,261,44830,1,2,3:2:0:0:
201,351,44980,1,0,3:0:0:0:
72,249,45130,1,2,3:2:0:0:
52,346,45280,1,0,3:0:0:0:
163,353,45430,5,2,3:2:0:0:
279,355,45580,1,0,3:0:0:0:
155,306,45730,1,2,3:2:0:0:
147,205,45880,1,0,3:0:0:0:
276,220,46030,1,2,3:2:0:0:
283,110,46180,1,0,3:0:0:0:
160,80,46330,1,2,3:2:0:0:
428,43,46480,6,0,L|436:205,1,136.5,8|0,3:0|0:0,0:0:0:0:
228,294,46780,6,0,L|194:244,2,45.5,4|0|2,3:2|3:0|3:2,0:0:0:0:
276,307,47005,1,0,3:0:0:0:
325,310,47080,2,0,L|359:260,2,45.5,0|0|2,3:0|3:0|3:2,0:0:0:0:
276,307,47305,1,0,3:0:0:0:
126,154,47380,6,0,L|92:104,2,45.5,0|0|2,3:0|3:0|3:2,0:0:0:0:
183,180,47605,1,0,3:0:0:0:
241,189,47680,2,0,L|275:139,2,45.5,0|0|2,3:0|3:0|3:2,0:0:0:0:
189,191,47905,1,0,3:0:0:0:
31,190,47980,5,0,3:0:0:0:
46,147,48055,1,0,3:0:0:0:
81,119,48130,1,2,3:2:0:0:
126,113,48205,1,0,3:0:0:0:
180,111,48280,2,0,L|186:48,1,45.5,0|0,3:0|3:0,0:0:0:0:
120,61,48430,2,0,L|116:8,1,45.5,2|0,3:2|3:0,0:0:0:0:
290,24,48580,5,0,3:0:0:0:
339,37,48655,2,0,L|362:87,2,45.5,0|2|0,3:0|3:2|3:0,0:0:0:0:
283,47,48880,1,0,3:0:0:0:
227,67,48955,2,0,L|178:77,2,45.5,0|2|0,3:0|3:2|3:0,0:0:0:0:
414,115,49180,5,0,3:0:0:0:
435,136,49230,1,0,3:0:0:0:
450,162,49280,1,0,3:0:0:0:
457,192,49330,1,2,3:2:0:0:
456,222,49380,1,0,3:0:0:0:
447,251,49430,1,0,3:0:0:0:
430,276,49480,5,0,3:0:0:0:
407,295,49530,1,0,3:0:0:0:
380,308,49580,1,0,3:0:0:0:
350,313,49630,1,2,3:2:0:0:
320,309,49680,1,0,3:0:0:0:
292,298,49730,1,0,3:0:0:0:
268,279,49780,5,0,3:0:0:0:
250,255,49830,1,0,3:0:0:0:
240,226,49880,1,0,3:0:0:0:
237,196,49930,1,2,3:2:0:0:
243,167,49980,1,0,3:0:0:0:
257,140,50030,1,0,3:0:0:0:
277,117,50080,1,0,3:0:0:0:
404,95,50230,1,2,3:2:0:0:
160,360,50380,6,0,P|144:295|248:233,1,182,6|0,3:2|0:0,0:0:0:0:
342,209,50830,1,0,0:0:0:0:
223,203,50980,2,0,L|118:194,1,91,8|0,3:3|0:0,0:0:0:0:
405,315,51280,6,0,L|412:157,1,136.5,8|0,0:1|0:0,0:0:0:0:
361,174,51580,1,2,3:0:0:0:
336,123,51655,1,0,0:0:0:0:
361,174,51730,1,0,0:0:0:0:
411,178,51805,1,0,0:0:0:0:
226,39,51880,6,0,L|32:55,1,182,4|2,3:1|3:2,0:0:0:0:
84,105,52255,1,0,0:0:0:0:
135,129,52330,2,0,L|222:124,1,45.5,0|0,0:0|0:0,0:0:0:0:
124,152,52480,2,0,P|59:171|58:238,1,136.5,8|0,3:2|0:0,0:0:0:0:
234,311,52780,6,0,P|245:256|168:216,1,136.5,10|0,3:1|0:0,0:0:0:0:
135,211,53080,2,0,L|30:204,1,91,14|10,3:1|0:1,0:0:0:0:
301,127,53380,6,0,L|424:110,1,91,2|0,3:2|0:0,0:0:0:0:
255,314,53680,2,0,P|238:261|297:213,1,136.5,10|0,3:2|0:0,0:0:0:0:
464,233,53980,6,0,L|494:180,2,45.5,6|0|0,3:2|0:0|0:0,0:0:0:0:
417,258,54205,1,0,0:0:0:0:
367,265,54280,1,12,3:2:0:0:
474,342,54430,1,0,0:0:0:0:
230,360,54580,5,2,3:2:0:0:
186,351,54655,1,2,0:2:0:0:
167,312,54730,1,2,0:2:0:0:
189,273,54805,1,2,0:2:0:0:
242,268,54880,2,0,L|246:122,1,136.5,8|0,3:2|0:0,0:0:0:0:
63,232,55180,6,0,L|51:49,1,182,0|10,3:0|3:2,0:0:0:0:
95,86,55555,1,2,0:0:0:0:
145,96,55630,1,2,0:0:0:0:
398,117,55780,2,0,L|280:213,1,136.5,2|2,3:1|0:1,0:0:0:0:
138,233,56230,1,2,0:1:0:0:
394,328,56380,6,0,P|462:310|457:208,1,182,4|8,3:0|3:2,0:0:0:0:
422,187,56755,1,0,0:0:0:0:
371,180,56830,2,0,L|310:178,1,45.5,0|0,0:0|0:0,0:0:0:0:
162,233,56980,6,0,P|142:184|214:144,1,136.5,4|0,3:0|0:0,0:0:0:0:
253,142,57280,2,0,L|360:141,1,91,8|0,3:2|0:0,0:0:0:0:
98,167,57580,6,0,P|78:118|150:78,1,136.5,10|0,3:1|0:0,0:0:0:0:
188,73,57880,1,14,3:1:0:0:
307,79,58030,1,10,0:1:0:0:
186,181,58180,2,0,L|86:195,1,91,2|0,3:0|0:0,0:0:0:0:
236,266,58480,2,0,L|337:273,1,91,14|0,3:2|0:0,0:0:0:0:
60,356,58780,6,0,P|48:304|124:260,1,136.5,4|0,3:1|0:0,0:0:0:0:
158,257,59080,1,12,3:1:0:0:
44,194,59230,1,4,0:1:0:0:
296,139,59380,2,0,L|352:138,2,45.5,4|0|0,3:1|0:0|0:0,0:0:0:0:
165,116,59680,2,0,L|135:64,2,45.5,12|0|0,3:1|0:0|0:0,0:0:0:0:
423,184,59980,6,0,L|430:285,1,91,4|0,3:1|0:0,0:0:0:0:
291,260,60280,2,0,L|279:362,1,91,12|0,3:1|0:0,0:0:0:0:
45,346,60580,2,0,L|146:338,1,91,4|0,3:3|0:0,0:0:0:0:
360,76,60880,2,0,L|486:63,1,91,12|0,3:3|0:0,0:0:0:0:
186,200,61180,5,4,3:0:0:0:
135,197,61255,2,0,L|109:150,2,45.5,0|0|0,0:0|0:0|0:0,0:0:0:0:
314,265,61480,6,0,L|474:278,1,136.5,12|0,3:2|0:0,0:0:0:0:
383,313,61780,2,0,L|374:254,1,45.5,2|0,3:2|0:0,0:0:0:0:
451,258,61930,2,0,L|457:192,1,45.5,0|0,0:0|0:0,0:0:0:0:
378,188,62080,2,0,L|229:169,1,136.5,8|0,3:2|0:0,0:0:0:0:
72,251,62380,6,0,P|55:191|124:161,1,136.5,10|0,3:1|0:0,0:0:0:0:
168,152,62680,2,0,L|268:157,1,91,14|10,3:1|0:1,0:0:0:0:
23,47,62980,2,0,L|120:41,1,91,2|0,3:2|0:0,0:0:0:0:
245,72,63280,6,0,L|256:217,1,136.5,10|0,3:2|0:0,0:0:0:0:
200,234,63580,1,6,3:2:0:0:
144,251,63655,2,0,L|110:201,2,45.5,0|0|0,0:0|0:0|0:0,0:0:0:0:
200,234,63880,1,12,3:2:0:0:
319,293,64030,1,0,0:0:0:0:
76,358,64180,5,0,3:2:0:0:
33,346,64255,1,2,0:2:0:0:
16,306,64330,1,2,0:2:0:0:
36,267,64405,1,2,0:2:0:0:
79,259,64480,2,0,L|235:256,1,136.5,8|0,3:2|0:0,0:0:0:0:
386,226,64780,6,0,P|401:159|306:95,1,182,0|10,3:0|3:2,0:0:0:0:
273,83,65155,1,2,0:0:0:0:
219,79,65230,1,2,0:0:0:0:
466,36,65380,2,0,L|316:56,2,136.5,2|2|2,3:1|0:1|0:1,0:0:0:0:
191,38,65980,6,0,P|168:101|320:205,1,273,4|0,3:0|3:0,0:0:0:0:
179,238,66580,2,0,L|15:259,1,136.5,4|0,3:0|0:0,0:0:0:0:
44,298,66880,2,0,L|151:307,1,91,8|0,3:2|0:0,0:0:0:0:
390,351,67180,6,0,P|399:302|318:264,1,136.5,10|0,3:1|0:0,0:0:0:0:
281,260,67480,1,14,3:1:0:0:
398,200,67630,1,10,0:1:0:0:
278,163,67780,2,0,L|172:152,1,91,2|0,3:0|0:0,0:0:0:0:
434,40,68080,2,0,L|445:138,1,91,14|0,3:2|0:0,0:0:0:0:
203,101,68380,5,4,3:1:0:0:
150,226,68530,1,0,0:0:0:0:
203,101,68680,1,12,3:1:0:0:
329,79,68830,1,4,0:1:0:0:
95,53,68980,5,4,3:1:0:0:
41,71,69055,2,0,L|19:120,2,45.5,0|0|0,3:0|3:0|3:0,0:0:0:0:
190,169,69280,2,0,L|258:170,1,45.5,12|0,3:1|3:0,0:0:0:0:
75,264,69430,2,0,L|10:276,1,45.5,0|0,3:0|3:0,0:0:0:0:
194,329,69580,6,2,P|297:276|187:157,2,327.599990002442,4|2|2,3:2|0:3|0:3,0:0:0:0:
179,329,70498,2,0,L|177:199,1,125.125
347,110,70780,6,0,L|515:209,2,182,4|10|2,3:2|0:0|3:2,0:0:0:0:
225,139,71530,2,0,L|218:21,1,91,2|8,0:2|0:0,0:0:0:0:
343,66,71830,1,2,0:2:0:0:
112,136,71980,6,0,L|6:148,1,91,2|0,3:2|0:0,0:0:0:0:
132,217,72280,1,10,0:2:0:0:
252,228,72430,2,0,L|259:332,1,91,2|0,0:2|3:0,0:0:0:0:
142,341,72730,1,2,0:0:0:0:
267,350,72880,2,0,L|368:342,1,91,10|0,0:0|0:0,0:0:0:0:
104,348,73180,6,0,P|88:287|186:229,1,182,2|10,3:2|0:2,0:0:0:0:
280,228,73630,1,2,0:2:0:0:
169,207,73780,1,2,3:2:0:0:
55,187,73930,2,0,L|44:84,1,91,2|0,0:0|0:0,0:0:0:0:
163,69,74230,1,2,0:0:0:0:
402,62,74380,6,0,L|213:145,1,182,2|10,3:2|0:2,0:0:0:0:
126,152,74830,1,2,0:2:0:0:
244,196,74980,2,0,L|345:196,1,91,2|0,3:2|0:0,0:0:0:0:
204,280,75280,2,0,L|195:171,1,91,10|0,0:0|0:0,0:0:0:0:
438,256,75580,6,0,P|459:179|361:136,1,182,2|10,3:2|0:0,0:0:0:0:
284,131,76030,1,2,0:0:0:0:
162,50,76180,2,0,L|278:45,1,91,2|0,3:2|0:0,0:0:0:0:
386,29,76480,2,0,L|290:25,1,91,10|0,0:2|0:0,0:0:0:0:
75,113,76780,6,0,L|61:224,1,91,2|0,3:1|0:0,0:0:0:0:
291,218,77080,2,0,L|300:324,1,91,10|0,0:1|0:0,0:0:0:0:
185,340,77380,1,0,3:0:0:0:
96,305,77530,1,0,0:0:0:0:
52,184,77680,1,8,0:0:0:0:
96,305,77830,1,0,0:0:0:0:
331,359,77980,6,0,L|430:346,1,91,0|0,3:0|0:0,0:0:0:0:
301,255,78280,2,0,L|195:242,1,91,8|0,0:0|0:0,0:0:0:0:
453,201,78580,1,0,3:0:0:0:
344,187,78730,2,0,L|333:74,1,91,0|8,0:0|0:0,0:0:0:0:
439,61,79030,2,0,L|507:52,1,45.5,0|0,3:0|3:0,0:0:0:0:
309,23,79180,6,0,L|217:14,1,91,8|8,3:0|3:0,0:0:0:0:
21,175,79630,2,0,L|222:204,1,182,8|8,3:0|3:0,0:0:0:0:
314,234,80080,1,8,3:0:0:0:
203,295,80230,2,0,L|148:308,1,45.5,8|8,3:0|0:0,0:0:0:0:
324,361,80380,5,2,0:0:0:0:
346,364,80417,1,0,0:0:0:0:
367,357,80455,1,0,0:0:0:0:
384,342,80492,1,0,0:0:0:0:
392,321,80530,1,0,0:0:0:0:
390,298,80567,1,0,0:0:0:0:
379,279,80605,1,0,0:0:0:0:
201,200,80680,6,0,L|12:173,1,182,12|2,0:0|3:2,0:0:0:0:
138,148,81130,1,2,0:0:0:0:
20,174,81280,2,0,L|18:62,1,91,8|2,0:0|0:0,0:0:0:0:
265,38,81580,6,0,P|289:96|189:147,1,182,2|10,3:2|0:0,0:0:0:0:
93,164,82030,1,2,0:2:0:0:
205,216,82180,1,2,3:2:0:0:
329,237,82330,1,2,0:2:0:0:
201,324,82480,2,0,L|191:206,1,91,10|0,0:2|3:0,0:0:0:0:
241,223,82705,1,0,3:0:0:0:
405,139,82780,6,0,L|517:120,1,91,2|0,3:2|0:0,0:0:0:0:
372,58,83080,2,0,L|363:177,1,91,8|2,0:0|0:2,0:0:0:0:
245,172,83380,1,2,3:2:0:0:
365,202,83530,2,0,L|486:199,1,91,2|8,0:2|0:0,0:0:0:0:
361,293,83830,2,0,L|288:297,1,45.5,2|0,3:2|3:0,0:0:0:0:
165,356,83980,6,0,L|43:348,1,91,2|0,3:2|3:0,0:0:0:0:
194,261,84280,2,0,L|300:250,1,91,10|0,0:0|0:0,0:0:0:0:
47,221,84580,2,0,L|40:122,1,91,2|0,3:2|3:0,0:0:0:0:
92,117,84805,1,0,3:0:0:0:
149,114,84880,1,8,3:0:0:0:
33,42,85030,1,0,3:0:0:0:
283,86,85180,6,0,L|389:82,1,91,0|0,3:2|3:2,0:0:0:0:
246,157,85480,2,0,L|242:265,1,91,8|0,3:2|0:0,0:0:0:0:
377,284,85780,2,0,L|259:301,1,91,0|0,3:0|3:0,0:0:0:0:
261,346,86005,1,0,3:0:0:0:
286,296,86080,1,8,3:2:0:0:
413,352,86230,1,0,3:2:0:0:
163,220,86380,6,0,L|59:209,1,91,10|0,3:3|3:0,0:0:0:0:
316,144,86680,2,0,L|422:129,1,91,10|0,0:3|3:0,0:0:0:0:
158,41,86980,6,0,L|148:157,1,91,2|0,3:2|3:0,0:0:0:0:
279,155,87280,2,0,L|287:248,1,91,10|0,0:2|3:0,0:0:0:0:
239,255,87505,1,0,3:0:0:0:
85,338,87580,6,0,L|45:271,2,45.5,0|2|2,3:2|3:2|3:2,0:0:0:0:
140,346,87805,1,2,3:2:0:0:
200,348,87880,2,0,L|231:298,2,45.5,10|2|2,3:2|3:2|3:2,0:0:0:0:
140,346,88105,1,2,3:2:0:0:
77,342,88180,6,0,L|48:290,2,45.5,2|2|2,3:2|3:2|3:2,0:0:0:0:
126,348,88405,1,2,3:2:0:0:
281,254,88480,2,0,L|341:242,1,45.5,10|2,3:2|3:2,0:0:0:0:
173,158,88630,2,0,L|110:153,1,45.5,2|2,3:2|3:2,0:0:0:0:
308,137,88780,6,0,L|500:107,1,182,4|8,3:0|3:2,0:0:0:0:
390,84,89230,1,0,3:0:0:0:
259,71,89380,2,0,L|232:20,2,45.5,0|0|0,3:0|3:0|3:0,0:0:0:0:
390,109,89680,2,0,L|397:73,4,22.75,0|0|0|0|0,3:0|3:0|3:0|3:0|3:0,0:0:0:0:
128,227,89980,6,0,L|339:218,1,182,12|8,0:0|0:0,0:0:0:0:
198,304,90430,1,0,0:0:0:0:
146,313,90505,2,0,L|137:137,1,136.5,8|0,0:0|0:0,0:0:0:0:
263,142,90880,6,0,L|291:101,2,45.5,8|0|0,0:0|0:0|0:0,0:0:0:0:
202,160,91105,2,0,L|28:146,1,136.5,8|2,0:0|0:0,0:0:0:0:
184,239,91480,1,10,0:0:0:0:
65,149,91630,2,0,L|34:108,2,45.5,0|8|0,0:0|0:0|0:0,0:0:0:0:
175,262,91930,1,8,0:0:0:0:
290,302,92080,5,8,0:0:0:0:
169,342,92230,1,8,0:0:0:0:
290,302,92380,1,8,0:0:0:0:
294,256,92455,1,0,0:0:0:0:
299,211,92530,1,0,0:0:0:0:
421,178,92680,1,8,0:0:0:0:
299,127,92830,5,0,0:0:0:0:
249,126,92905,2,0,L|78:115,1,136.5,8|0,0:0|0:0,0:0:0:0:
218,50,93280,1,8,0:0:0:0:
339,53,93430,2,0,L|364:9,2,45.5,2|10|0,0:0|0:0|0:0,0:0:0:0:
225,125,93730,1,2,0:0:0:0:
105,146,93880,5,10,0:0:0:0:
61,152,93955,1,0,0:0:0:0:
43,192,94030,1,0,0:0:0:0:
65,229,94105,1,8,0:0:0:0:
111,250,94180,2,0,L|208:251,1,91,0|8,0:0|0:0,0:0:0:0:
467,300,94480,6,0,L|473:162,1,136.5,14|2,3:0|0:0,0:0:0:0:
304,129,94780,6,0,L|112:97,1,182,8|8,0:0|0:0,0:0:0:0:
240,52,95230,1,0,0:0:0:0:
288,54,95305,2,0,L|300:201,1,136.5,8|0,0:0|0:0,0:0:0:0:
176,213,95680,6,0,L|148:263,2,45.5,8|0|0,0:0|0:0|0:0,0:0:0:0:
228,197,95905,2,0,L|396:213,1,136.5,8|2,0:0|0:0,0:0:0:0:
260,283,96280,1,10,0:0:0:0:
136,304,96430,1,0,0:0:0:0:
88,308,96505,2,0,L|75:153,1,136.5,8|8,0:0|0:0,0:0:0:0:
179,122,96880,1,8,0:0:0:0:
291,117,97030,1,8,0:0:0:0:
174,93,97180,6,0,L|52:86,1,91,8|0,0:0|0:0,0:0:0:0:
201,58,97480,1,8,0:0:0:0:
323,56,97630,1,0,0:0:0:0:
372,72,97705,2,0,L|228:117,1,136.5,8|0,0:0|0:0,0:0:0:0:
123,156,98080,5,8,0:0:0:0:
243,113,98230,2,0,L|278:64,2,45.5,10|10|2,0:0|0:0|0:0,0:0:0:0:
123,156,98530,1,0,0:0:0:0:
239,207,98680,1,8,0:0:0:0:
366,225,98830,1,0,0:0:0:0:
415,232,98905,2,0,L|422:380,1,136.5,8|8,0:0|0:0,0:0:0:0:
160,346,99280,6,0,L|314:322,1,136.5,14|2,3:1|0:0,0:0:0:0:
464,272,99580,6,0,L|468:181,1,91,10|2,0:0|0:0,0:0:0:0:
337,175,99880,2,0,L|325:75,1,91,8|2,0:0|0:0,0:0:0:0:
271,72,100105,1,10,0:0:0:0:
215,66,100180,1,2,0:0:0:0:
337,28,100330,1,8,0:0:0:0:
71,30,100480,2,0,L|61:184,1,136.5,12|0,3:0|0:0,0:0:0:0:
236,202,100780,6,0,L|348:215,1,91,10|2,0:0|0:0,0:0:0:0:
350,255,101005,1,0,0:0:0:0:
326,212,101080,1,8,0:0:0:0:
199,286,101230,2,0,L|176:240,2,45.5,2|10|2,0:0|0:0|0:0,0:0:0:0:
328,332,101530,1,10,0:0:0:0:
72,365,101680,6,0,L|45:363,1,22.75,6|6,0:3|0:3,0:0:0:0:
49,363,101830,2,0,L|72:365,1,22.75,0|0,0:3|0:3,0:0:0:0:
266,143,101980,6,0,L|167:135,1,91,10|2,0:0|0:0,0:0:0:0:
46,151,102280,2,0,L|37:54,1,91,8|2,0:0|0:0,0:0:0:0:
92,48,102505,1,10,0:0:0:0:
153,46,102580,1,2,0:0:0:0:
37,173,102730,2,0,L|29:242,1,45.5,10|0,0:0|0:0,0:0:0:0:
205,240,102880,5,10,3:0:0:0:
227,236,102917,1,2,0:0:0:0:
248,243,102955,1,2,0:0:0:0:
265,259,102992,1,2,0:0:0:0:
272,280,103030,1,2,0:0:0:0:
270,302,103067,1,2,0:0:0:0:
258,321,103105,1,2,0:0:0:0:
88,355,103180,6,0,L|77:240,1,91,10|2,0:0|0:0,0:0:0:0:
208,206,103480,2,0,L|314:189,1,91,8|2,0:0|0:0,0:0:0:0:
322,148,103705,1,10,0:0:0:0:
297,191,103780,1,2,0:0:0:0:
174,133,103930,1,10,0:0:0:0:
448,41,104080,6,0,L|457:209,1,136.5,12|0,0:0|0:0,0:0:0:0:
280,295,104380,5,10,1:0:0:0:
226,295,104455,2,0,L|201:249,2,45.5,8|8|8,1:0|1:0|1:0,0:0:0:0:
280,305,104680,2,0,L|332:307,2,45.5,10|8|8,1:0|1:0|1:0,0:0:0:0:
215,300,104905,2,0,L|165:299,2,45.5,10|8|8,1:0|1:0|1:0,0:0:0:0:
280,295,105130,6,0,L|283:236,3,45.5,10|8|8|8,1:0|1:0|1:0|1:0,0:0:0:0:
348,241,105430,1,10,1:0:0:0:
371,206,105505,1,8,1:0:0:0:
350,174,105580,1,8,1:0:0:0:
303,162,105655,1,8,1:0:0:0:
233,161,105730,2,0,L|225:95,1,45.5,10|8,1:0|1:0,0:0:0:0:
290,101,105880,5,10,1:0:0:0:
331,83,105955,1,8,1:0:0:0:
353,42,106030,1,8,1:0:0:0:
331,83,106105,1,8,1:0:0:0:
168,42,106180,6,0,L|107:40,2,45.5,10|8|8,1:0|1:0|1:0,0:0:0:0:
226,54,106405,2,0,L|257:105,2,45.5,10|8|8,1:0|1:0|1:0,0:0:0:0:
78,145,106630,2,0,L|20:149,1,45.5,10|8,1:0|1:0,0:0:0:0:
205,337,106780,5,10,1:0:0:0:
235,334,106830,1,8,1:0:0:0:
262,322,106880,1,8,1:0:0:0:
286,303,106930,1,8,1:0:0:0:
302,277,106980,1,8,1:0:0:0:
310,248,107030,1,8,1:0:0:0:
309,218,107080,5,10,1:0:0:0:
299,189,107130,1,8,1:0:0:0:
281,165,107180,1,8,1:0:0:0:
256,147,107230,1,8,1:0:0:0:
228,138,107280,1,8,1:0:0:0:
197,137,107330,1,8,1:0:0:0:
164,140,107380,5,10,1:0:0:0:
134,142,107430,1,8,1:0:0:0:
106,154,107480,1,8,1:0:0:0:
83,173,107530,1,8,1:0:0:0:
67,199,107580,1,8,1:0:0:0:
59,228,107630,1,8,1:0:0:0:
60,258,107680,5,8,1:0:0:0:
70,287,107730,1,8,1:0:0:0:
88,311,107780,1,8,1:0:0:0:
112,329,107830,1,10,1:0:0:0:
141,338,107880,1,8,1:0:0:0:
386,347,107980,5,4,3:2:0:0:
271,339,108130,2,0,L|243:246,2,91,0|8|0,3:2|0:3|3:2,0:0:0:0:
386,347,108580,2,0,L|496:342,1,91,0|8,3:3|0:3,0:0:0:0:
203,271,108880,6,0,L|191:114,1,136.5,8|0,0:0|0:0,0:0:0:0:
377,101,109180,6,0,L|472:90,1,91,4|0,3:2|3:0,0:0:0:0:
211,26,109480,1,8,1:0:0:0:
189,34,109517,1,0,0:0:0:0:
180,54,109555,1,0,0:0:0:0:
189,74,109592,1,0,0:0:0:0:
212,82,109630,1,0,0:0:0:0:
343,102,109780,5,0,3:0:0:0:
348,236,110080,1,0,3:0:0:0:
112,211,110230,5,8,1:0:0:0:
90,219,110267,1,0,0:0:0:0:
81,239,110305,1,0,0:0:0:0:
90,259,110342,1,0,0:0:0:0:
113,267,110380,1,0,0:0:0:0:
226,287,110530,1,0,2:0:0:0:
102,362,110680,6,0,L|88:224,1,136.5,8|0,1:0|0:0,0:0:0:0:
264,202,110980,6,0,P|278:156|205:107,1,136.5,8|0,1:0|0:0,0:0:0:0:
162,106,111280,1,0,3:0:0:0:
395,42,111430,5,8,1:0:0:0:
417,50,111467,1,0,0:0:0:0:
426,70,111505,1,0,0:0:0:0:
417,90,111542,1,0,0:0:0:0:
394,98,111580,1,0,0:0:0:0:
276,116,111730,1,0,3:0:0:0:
50,216,111880,5,8,1:0:0:0:
28,224,111917,1,0,0:0:0:0:
19,244,111955,1,0,0:0:0:0:
28,264,111992,1,0,0:0:0:0:
51,272,112030,1,0,0:0:0:0:
174,302,112180,6,0,L|183:266,4,22.75,4|0|0|0|0,3:2|0:0|0:0|0:0|0:0,0:0:0:0:
423,224,112480,5,0,3:0:0:0:
304,149,112630,1,8,1:0:0:0:
282,157,112667,1,0,0:0:0:0:
273,177,112705,1,0,0:0:0:0:
282,197,112742,1,0,0:0:0:0:
305,205,112780,1,0,0:0:0:0:
423,224,112930,1,0,3:0:0:0:
191,300,113080,6,0,L|85:311,1,91,8|0,1:0|0:0,0:0:0:0:
347,354,113380,2,0,L|463:351,1,91,8|0,1:0|0:0,0:0:0:0:
308,247,113680,2,0,L|193:243,1,91,8|0,1:0|0:0,0:0:0:0:
463,225,113980,6,0,L|467:132,1,91,0|0,3:0|3:0,0:0:0:0:
340,124,114280,2,0,L|335:98,4,22.75,8|0|0|0|0,1:0|0:0|0:0|0:0|0:0,0:0:0:0:
92,74,114580,6,0,L|232:117,1,136.5,0|0,3:0|0:0,0:0:0:0:
277,118,114880,1,0,3:0:0:0:
161,187,115030,1,8,1:0:0:0:
139,195,115067,1,0,0:0:0:0:
130,215,115105,1,0,0:0:0:0:
139,235,115142,1,0,0:0:0:0:
162,243,115180,1,0,0:0:0:0:
277,118,115330,1,0,3:0:0:0:
47,322,115480,6,0,L|37:288,4,22.75,8|0|0|0|0,1:0|0:0|0:0|0:0|0:0,0:0:0:0:
308,299,115780,5,4,3:0:0:0:
330,307,115817,1,0,0:0:0:0:
339,327,115855,1,0,0:0:0:0:
330,347,115892,1,0,0:0:0:0:
307,355,115930,1,0,0:0:0:0:
241,353,116005,1,0,0:0:0:0:
174,283,116080,5,0,3:0:0:0:
152,291,116117,1,0,0:0:0:0:
143,311,116155,1,0,0:0:0:0:
152,331,116192,1,0,0:0:0:0:
175,339,116230,1,0,0:0:0:0:
405,176,116380,6,0,L|526:160,1,91,4|0,3:2|0:0,0:0:0:0:
255,106,116680,6,0,L|445:76,1,182,4|0,3:2|0:0,0:0:0:0:
205,198,117130,6,0,L|-2:147,1,182,4|0,3:2|0:0,0:0:0:0:
265,84,117580,6,0,L|280:278,1,182,4|0,3:2|0:0,0:0:0:0:
47,179,118030,6,0,L|28:371,1,182,4|0,3:2|0:0,0:0:0:0:
304,364,118480,6,0,P|311:300|217:248,1,182,4|6,3:2|0:0,0:0:0:0:
175,245,118855,1,2,0:0:0:0:
136,221,118930,1,2,0:0:0:0:
121,179,119005,1,2,0:0:0:0:
135,136,119080,1,2,0:0:0:0:
172,111,119155,1,2,0:0:0:0:
217,107,119230,1,2,0:0:0:0:
463,55,119380,6,0,P|483:101|381:174,1,182,4|0,3:2|3:0,0:0:0:0:
281,201,119830,1,8,1:0:0:0:
259,209,119867,1,0,0:0:0:0:
250,229,119905,1,0,0:0:0:0:
259,249,119942,1,0,0:0:0:0:
282,257,119980,1,0,0:0:0:0:
400,180,120130,1,0,3:0:0:0:
281,260,120280,6,0,L|274:229,4,22.75,8|0|0|0|0,1:0|0:0|0:0|0:0|0:0,0:0:0:0:
43,166,120580,6,0,L|201:128,1,136.5,8|0,1:0|0:0,0:0:0:0:
226,128,120880,1,0,3:0:0:0:
104,70,121030,5,8,1:0:0:0:
82,78,121067,1,0,0:0:0:0:
73,98,121105,1,0,0:0:0:0:
82,118,121142,1,0,0:0:0:0:
105,126,121180,1,0,0:0:0:0:
226,128,121330,1,0,3:0:0:0:
105,128,121480,6,0,L|98:170,4,22.75,8|0|0|0|0,1:0|0:0|0:0|0:0|0:0,0:0:0:0:
339,228,121780,5,4,3:0:0:0:
361,236,121817,1,0,0:0:0:0:
370,256,121855,1,0,0:0:0:0:
361,276,121892,1,0,0:0:0:0:
338,284,121930,1,0,0:0:0:0:
222,303,122080,1,0,3:0:0:0:
457,349,122230,6,0,L|465:324,4,22.75,8|0|0|0|0,1:0|0:0|0:0|0:0|0:0,0:0:0:0:
342,367,122530,1,0,3:0:0:0:
89,346,122680,6,0,L|81:222,1,91,8|0,1:0|0:0,0:0:0:0:
315,207,122980,2,0,L|423:196,1,91,8|0,1:0|0:0,0:0:0:0:
264,117,123280,2,0,L|146:116,1,91,8|0,1:0|0:0,0:0:0:0:
431,37,123580,5,6,3:3:0:0:
453,42,123617,1,0,0:0:0:0:
471,55,123655,1,0,0:0:0:0:
483,74,123692,1,0,0:0:0:0:
487,96,123730,1,0,0:0:0:0:
482,118,123767,1,0,0:0:0:0:
469,136,123805,1,0,0:0:0:0:
450,148,123842,1,0,0:0:0:0:
427,152,123880,5,0,0:0:0:0:
372,159,123955,1,0,0:0:0:0:
308,173,124030,1,0,3:0:0:0:
285,220,124105,1,0,0:0:0:0:
310,270,124180,1,8,0:0:0:0:
419,283,124330,1,0,0:0:0:0:
167,356,124480,6,0,L|161:208,1,136.5,8|0,1:0|0:0,0:0:0:0:
336,200,124780,6,0,P|343:147|270:111,1,136.5,10|0,3:1|0:0,0:0:0:0:
226,109,125080,1,10,3:1:0:0:
343,55,125230,1,10,3:1:0:0:
109,47,125380,2,0,L|-4:56,1,91,10|0,3:1|0:0,0:0:0:0:
270,254,125680,2,0,L|376:263,1,91,10|0,3:1|0:0,0:0:0:0:
90,356,125980,5,4,3:2:0:0:
41,229,126130,1,2,3:2:0:0:
90,356,126280,1,2,3:2:0:0:
215,368,126430,1,2,3:2:0:0:
90,356,126580,1,2,3:2:0:0:
41,229,126730,1,2,3:2:0:0:
90,356,126880,1,2,3:2:0:0:
215,368,127030,1,2,3:2:0:0:
450,340,127180,6,0,L|476:293,2,45.5,2|2|2,3:2|3:2|3:2,0:0:0:0:
392,344,127405,1,2,3:2:0:0:
334,346,127480,2,0,L|305:299,2,45.5,2|2|2,3:2|3:2|3:2,0:0:0:0:
388,359,127705,1,2,3:2:0:0:
443,318,127780,6,0,L|385:309,1,45.5,2|2,3:2|3:2,0:0:0:0:
245,220,127930,2,0,L|177:213,1,45.5,2|2,3:2|3:2,0:0:0:0:
358,145,128080,6,0,L|497:106,1,136.5,2|0,3:2|0:0,0:0:0:0:
311,75,128380,6,0,P|276:111|419:197,1,273,4|0,3:2|0:0,0:0:0:0:
120,338,128980,5,8,1:0:0:0:
44,160,129280,1,2,3:0:0:0:
280,70,129430,5,0,0:3:0:0:
302,78,129467,1,0,0:0:0:0:
311,98,129505,1,0,0:3:0:0:
302,118,129542,1,0,0:0:0:0:
279,126,129580,1,0,0:0:0:0:
161,141,129730,1,0,0:0:0:0:
392,210,129880,5,2,3:0:0:0:
414,218,129917,1,0,0:0:0:0:
423,238,129955,1,0,0:0:0:0:
414,258,129992,1,0,0:0:0:0:
391,266,130030,1,0,0:0:0:0:
156,321,130180,6,0,L|290:261,1,136.5,8|0,1:0|0:0,0:0:0:0:
329,258,130480,1,2,0:3:0:0:
210,153,130630,5,0,0:0:0:0:
188,161,130667,1,0,0:0:0:0:
179,181,130705,1,0,0:0:0:0:
188,201,130742,1,0,0:0:0:0:
211,209,130780,1,0,3:0:0:0:
329,258,130930,1,0,0:0:0:0:
99,257,131080,5,2,0:3:0:0:
77,265,131117,1,0,0:0:0:0:
68,285,131155,1,0,0:0:0:0:
77,305,131192,1,0,0:0:0:0:
100,313,131230,1,0,0:0:0:0:
333,275,131380,5,8,1:0:0:0:
355,283,131417,1,0,0:0:0:0:
364,303,131455,1,0,0:0:0:0:
355,323,131492,1,0,0:0:0:0:
332,331,131530,1,0,0:0:0:0:
212,337,131680,1,2,3:0:0:0:
331,333,131830,6,0,L|334:308,4,22.75,0|0|0|0|0,0:0|0:0|0:0|0:0|0:0,0:0:0:0:
452,336,132130,1,0,0:0:0:0:
225,165,132280,6,0,L|126:156,1,91,2|0,3:0|0:0,0:0:0:0:
378,85,132580,2,0,L|493:65,1,91,8|0,1:0|0:0,0:0:0:0:
348,175,132880,2,0,L|454:180,1,91,2|0,3:3|0:0,0:0:0:0:
209,306,133180,6,0,L|105:303,1,91,0|0,3:0|0:0,0:0:0:0:
241,281,133480,1,2,0:3:0:0:
263,289,133517,1,0,0:0:0:0:
272,309,133555,1,0,0:0:0:0:
263,329,133592,1,0,0:0:0:0:
240,337,133630,1,0,0:0:0:0:
29,235,133780,6,0,P|23:177|92:144,1,136.5,8|0,1:0|0:0,0:0:0:0:
133,142,134080,1,2,3:0:0:0:
263,64,134230,5,0,0:0:0:0:
285,72,134267,1,0,0:0:0:0:
294,92,134305,1,0,0:0:0:0:
285,112,134342,1,0,0:0:0:0:
262,120,134380,1,0,0:0:0:0:
143,160,134530,1,0,0:0:0:0:
376,188,134680,6,0,L|482:198,1,91,2|0,3:0|0:0,0:0:0:0:
235,278,134980,5,8,1:0:0:0:
213,286,135017,1,0,0:0:0:0:
204,306,135055,1,0,0:0:0:0:
213,326,135092,1,0,0:0:0:0:
236,334,135130,1,0,0:0:0:0:
293,342,135205,1,0,0:0:0:0:
357,346,135280,6,0,L|375:293,3,45.5,2|0|0|0,3:3|0:0|0:0|0:0,0:0:0:0:
211,184,135580,6,0,L|89:183,1,91,4|0,3:2|0:0,0:0:0:0:
388,201,135880,6,0,P|406:143|295:86,1,182,4|0,3:2|0:0,0:0:0:0:
82,52,136330,6,0,L|273:55,1,182,4|0,3:2|0:0,0:0:0:0:
36,82,136780,6,0,L|20:279,1,182,4|0,3:2|0:0,0:0:0:0:
249,146,137230,6,0,L|257:344,1,182,4|0,3:2|0:0,0:0:0:0:
489,323,137680,6,0,L|297:307,1,182,4|10,3:2|3:2,0:0:0:0:
262,308,138055,1,0,0:0:0:0:
224,285,138130,1,0,0:0:0:0:
209,243,138205,1,0,0:0:0:0:
224,200,138280,1,0,0:0:0:0:
262,177,138355,1,0,0:0:0:0:
308,174,138430,1,0,0:0:0:0:
54,274,138580,6,0,P|41:212|147:161,1,182,8|2,1:0|3:0,0:0:0:0:
252,79,139030,5,0,0:0:0:0:
274,87,139067,1,0,0:0:0:0:
283,107,139105,1,0,0:0:0:0:
274,127,139142,1,0,0:0:0:0:
251,135,139180,1,0,0:0:0:0:
128,155,139330,1,0,0:0:0:0:
355,189,139480,5,2,3:0:0:0:
377,197,139517,1,0,0:0:0:0:
386,217,139555,1,0,0:0:0:0:
377,237,139592,1,0,0:0:0:0:
354,245,139630,1,0,0:0:0:0:
128,322,139780,6,0,L|268:294,1,136.5,8|0,1:0|0:0,0:0:0:0:
317,298,140080,1,2,0:3:0:0:
197,237,140230,2,0,L|185:204,4,22.75,0|0|0|0|0,0:0|0:0|0:0|0:0|3:0,0:0:0:0:
317,298,140530,1,0,0:0:0:0:
84,66,140680,5,2,0:3:0:0:
62,74,140717,1,0,0:0:0:0:
53,94,140755,1,0,0:0:0:0:
62,114,140792,1,0,0:0:0:0:
85,122,140830,1,0,0:0:0:0:
332,67,140980,5,8,1:0:0:0:
354,75,141017,1,0,0:0:0:0:
363,95,141055,1,0,0:0:0:0:
354,115,141092,1,0,0:0:0:0:
331,123,141130,1,0,0:0:0:0:
209,140,141280,1,2,3:3:0:0:
331,123,141430,6,0,L|338:161,4,22.75,0|0|0|0|0,0:0|0:0|0:0|0:0|0:0,0:0:0:0:
454,178,141730,1,0,0:0:0:0:
212,313,141880,6,0,L|105:325,1,91,2|0,3:0|0:0,0:0:0:0:
366,271,142180,2,0,L|483:269,1,91,8|0,1:0|0:0,0:0:0:0:
213,194,142480,2,0,L|207:88,1,91,2|0,3:0|0:0,0:0:0:0:
460,46,142780,5,0,3:0:0:0:
283,59,143005,2,0,L|276:200,1,136.5,0|0,3:0|3:0,0:0:0:0:
328,210,143305,1,0,3:0:0:0:
381,224,143380,1,0,3:0:0:0:
128,127,143530,5,0,3:0:0:0:
106,135,143567,1,0,0:0:0:0:
97,155,143605,1,0,0:0:0:0:
106,175,143642,1,0,0:0:0:0:
129,183,143680,1,0,0:0:0:0:
260,229,143830,2,0,L|157:252,1,91,0|0,3:0|0:0,0:0:0:0:
37,302,144130,2,0,L|202:334,1,136.5,0|0,3:0|3:0,0:0:0:0:
482,189,144580,5,0,3:0:0:0:
355,212,144730,2,0,L|352:83,1,91,0|0,3:0|0:0,0:0:0:0:
482,189,145030,1,0,3:0:0:0:
225,57,145180,6,0,L|119:55,1,91,4|0,3:2|3:0,0:0:0:0:
185,91,145405,1,0,3:0:0:0:
245,108,145480,2,0,L|346:113,1,91,0|0,3:0|3:0,0:0:0:0:
285,141,145705,1,0,3:0:0:0:
117,167,145780,6,0,L|86:218,2,45.5,4|0|0,3:2|3:0|3:0,0:0:0:0:
227,209,146080,1,0,3:0:0:0:
343,230,146230,1,0,3:0:0:0:
104,338,146380,5,4,3:2:0:0:
52,339,146455,2,0,L|29:296,2,45.5,0|0|0,3:0|3:0|3:0,0:0:0:0:
206,358,146680,2,0,L|259:356,1,45.5,4|0,3:2|3:0,0:0:0:0:
105,240,146830,2,0,L|44:237,1,45.5,0|0,3:0|3:0,0:0:0:0:
241,271,146980,6,0,B|354:191|354:191|243:248|243:248|179:216|179:216|205:131|205:131|256:109,1,461.825014093781,4|0,3:3|0:0,0:0:0:0:
445,321,147580,5,4,3:3:0:0:
256,192,147730,12,0,151780,0:0:0:0:
219,294,152380,6,0,P|167:133|350:290,1,637,2|0,0:3|0:0,0:0:0:0:
241,324,153580,6,0,P|154:322|303:55,1,637,2|0,0:3|0:0,0:0:0:0:
421,84,154780,5,2,0:3:0:0:
433,204,154930,1,0,0:0:0:0:
312,196,155080,1,2,0:3:0:0:
303,304,155230,1,0,0:0:0:0:
180,359,155380,1,2,0:3:0:0:
303,304,155530,1,2,0:3:0:0:
305,204,155680,1,0,0:0:0:0:
177,229,155830,6,0,P|103:234|117:10,1,364,2|0,0:3|0:0,0:0:0:0:
219,26,156580,5,2,0:3:0:0:
221,120,156730,1,0,0:0:0:0:
96,144,156880,1,2,0:3:0:0:
88,243,157030,1,0,0:0:0:0:
219,271,157180,6,0,P|305:246|87:140,1,637,2|0,0:3|0:0,0:0:0:0:
205,103,158380,5,2,0:3:0:0:
251,212,158530,1,0,0:0:0:0:
205,103,158680,1,2,0:0:0:0:
88,110,158830,1,0,0:0:0:0:
205,103,158980,1,2,0:0:0:0:
251,212,159130,1,0,0:0:0:0:
205,103,159280,1,2,0:0:0:0:
88,110,159430,1,0,0:0:0:0:
205,103,159580,5,2,0:3:0:0:
211,192,159730,1,0,0:0:0:0:
219,291,159880,1,2,0:0:0:0:
344,150,160030,1,2,0:3:0:0:
332,248,160180,1,2,0:0:0:0:
320,349,160330,1,0,0:0:0:0:
194,153,160480,1,2,0:3:0:0:
182,53,160630,1,0,0:0:0:0:
305,28,160780,5,2,0:3:0:0:
358,129,160930,1,0,0:0:0:0:
305,243,161080,1,2,0:0:0:0:
182,53,161230,1,0,0:0:0:0:
432,0,161380,6,0,L|459:366,1,364,2|2,0:3|0:3,0:0:0:0:
202,306,166780,6,0,L|195:83,1,182,2|2,3:3|3:2,0:0:0:0:
431,255,167380,2,0,L|446:52,1,182,2|2,3:2|3:2,0:0:0:0:
191,80,167980,6,0,L|372:53,1,182,2|2,3:0|3:2,0:0:0:0:
104,83,168580,1,2,3:2:0:0:
61,189,168730,1,0,0:0:0:0:
104,83,168880,1,2,3:2:0:0:
219,66,169030,1,0,0:0:0:0:
104,83,169180,5,2,3:0:0:0:
61,189,169330,1,0,3:0:0:0:
104,83,169480,1,2,3:2:0:0:
228,69,169630,1,2,3:0:0:0:
272,183,169780,1,2,3:2:0:0:
228,69,169930,1,0,3:0:0:0:
110,95,170080,1,2,3:0:0:0:
228,69,170230,1,0,3:0:0:0:
466,127,170380,6,0,L|489:176,2,45.5,2|0|0,3:0|3:0|3:0,0:0:0:0:
417,125,170605,1,0,3:0:0:0:
368,128,170680,1,2,3:2:0:0:
319,135,170755,1,0,3:0:0:0:
368,167,170830,1,0,3:0:0:0:
417,125,170905,1,0,3:0:0:0:
247,316,170980,6,0,P|178:312|226:125,1,318.5,2|0,3:2|0:0,0:0:0:0:
371,62,171580,6,0,P|448:73|462:179,1,182,4|0,3:2|0:0,0:0:0:0:
234,226,172030,2,0,L|447:248,1,182,4|0,3:2|0:0,0:0:0:0:
170,355,172480,2,0,L|45:355,1,91,4|0,3:2|0:0,0:0:0:0:
217,368,172780,6,0,P|265:293|86:378,1,637,2|0,3:0|0:0,0:0:0:0:
319,255,173980,6,0,L|119:235,1,182,4|0,3:2|0:0,0:0:0:0:
374,173,174430,1,4,3:2:0:0:
251,161,174580,2,0,L|245:62,1,91,0|0,0:0|0:0,0:0:0:0:
483,34,174880,6,0,P|402:44|514:267,1,455,4|0,3:2|0:0,0:0:0:0:
365,317,175780,2,0,L|253:322,1,91,2|0,0:0|0:0,0:0:0:0:
407,229,176080,2,0,L|411:104,1,91,2|0,0:0|0:0,0:0:0:0:
176,262,176380,6,0,P|183:209|290:153,1,182,4|0,3:2|0:0,0:0:0:0:
45,221,176830,2,0,L|32:35,1,182,4|0,3:2|0:0,0:0:0:0:
281,32,177280,2,0,L|182:49,1,91,4|0,3:2|0:0,0:0:0:0:
66,51,177580,6,0,P|159:68|42:355,1,546,2|2,3:0|0:0,0:0:0:0:
457,369,178780,6,0,P|457:263|379:228,1,182,4|0,3:2|0:0,0:0:0:0:
161,158,179230,2,0,L|360:135,1,182,4|0,3:2|0:0,0:0:0:0:
108,71,179680,2,0,L|6:66,1,91,4|0,3:2|0:0,0:0:0:0:
282,24,179980,6,0,P|318:77|192:209,1,273,2|0,3:0|0:0,0:0:0:0:
71,222,180580,5,2,3:2:0:0:
50,232,180617,1,0,0:0:0:0:
36,249,180655,1,0,0:0:0:0:
28,270,180692,1,0,0:0:0:0:
28,293,180730,1,0,0:0:0:0:
37,314,180767,1,0,0:0:0:0:
53,330,180805,1,0,0:0:0:0:
74,339,180842,1,0,0:0:0:0:
97,341,180880,2,0,L|197:337,1,91,0|0,0:0|0:0,0:0:0:0:
420,258,181180,6,0,L|204:224,1,182,4|0,3:2|0:0,0:0:0:0:
478,328,181630,2,0,P|486:271|390:201,1,182,4|0,3:2|0:0,0:0:0:0:
154,246,182080,2,0,L|147:128,1,91,4|0,3:2|0:0,0:0:0:0:
276,181,182380,6,0,P|281:123|157:214,1,364,2|2,3:0|0:0,0:0:0:0:
194,231,183055,1,0,0:0:0:0:
242,238,183130,1,0,0:0:0:0:
370,239,183280,2,0,L|394:194,2,45.5,2|0|0,0:0|0:0|0:0,0:0:0:0:
128,359,183580,6,0,L|316:339,1,182,4|0,3:2|0:0,0:0:0:0:
79,262,184030,1,4,3:2:0:0:
206,267,184180,2,0,L|214:151,1,91,0|0,0:0|0:0,0:0:0:0:
458,208,184480,6,0,P|432:142|173:26,1,364,6|2,3:2|0:0,0:0:0:0:
78,67,185230,1,2,0:0:0:0:
312,159,185380,2,0,L|420:161,1,91,0|0,0:0|0:0,0:0:0:0:
182,297,185680,2,0,L|170:199,1,91,2|0,0:0|0:0,0:0:0:0:
421,259,185980,6,0,P|429:212|308:137,1,182,4|0,3:2|0:0,0:0:0:0:
109,84,186430,2,0,L|315:61,1,182,4|0,3:2|0:0,0:0:0:0:
48,40,186880,2,0,L|38:149,1,91,4|0,3:2|0:0,0:0:0:0:
168,131,187180,6,0,P|232:153|188:269,1,182,2|2,3:0|0:0,0:0:0:0:
106,269,187630,1,2,0:0:0:0:
234,324,187780,5,2,0:0:0:0:
258,313,187817,1,2,0:0:0:0:
267,293,187855,1,2,0:0:0:0:
257,272,187892,1,2,0:0:0:0:
232,263,187930,1,2,0:0:0:0:
178,258,188005,1,2,0:0:0:0:
117,252,188080,1,2,0:0:0:0:
115,185,188230,1,2,0:0:0:0:
348,68,188380,6,0,L|150:93,1,182,4|0,3:2|0:0,0:0:0:0:
399,157,188830,2,0,P|465:168|466:280,1,182,4|0,3:2|0:0,0:0:0:0:
226,351,189280,2,0,L|114:337,1,91,4|0,3:2|0:0,0:0:0:0:
383,82,189580,6,0,P|416:144|274:259,1,273,2|2,3:0|0:0,0:0:0:0:
57,294,190180,5,2,0:0:0:0:
47,273,190217,1,2,0:0:0:0:
44,250,190255,1,2,0:0:0:0:
48,228,190292,1,2,0:0:0:0:
58,208,190330,1,2,0:0:0:0:
74,192,190367,1,2,0:0:0:0:
94,181,190405,1,2,0:0:0:0:
116,176,190442,1,2,0:0:0:0:
141,175,190480,2,0,L|237:180,1,91,2|2,0:0|0:0,0:0:0:0:
482,60,190780,6,0,L|281:49,1,182,6|10,3:2|0:0,0:0:0:0:
60,316,191380,2,0,P|47:237|135:185,1,182,10|10,0:0|0:0,0:0:0:0:
359,236,191980,2,0,P|387:180|292:109,1,182,10|10,0:0|0:0,0:0:0:0:
67,52,192580,2,0,L|230:88,2,136.5,10|2|2,0:0|0:0|0:0,0:0:0:0:
190,182,193180,6,0,L|383:148,1,182,10|10,0:0|0:0,0:0:0:0:
266,251,193630,1,2,0:0:0:0:
147,312,193780,2,0,L|136:114,1,182,10|10,0:0|0:0,0:0:0:0:
243,116,194230,1,2,0:0:0:0:
363,99,194380,6,0,L|383:321,1,182,10|10,0:0|0:0,0:0:0:0:
271,316,194830,1,2,0:0:0:0:
149,326,194980,2,0,L|6:299,2,136.5,10|2|2,0:0|0:0|0:0,0:0:0:0:
278,344,195580,6,0,P|298:280|207:225,1,182,10|10,0:0|0:0,0:0:0:0:
100,216,196030,1,2,0:0:0:0:
214,223,196180,2,0,L|404:195,1,182,10|10,0:0|0:0,0:0:0:0:
394,103,196630,1,2,0:0:0:0:
268,178,196780,6,0,P|257:95|346:59,1,182,10|10,0:0|0:0,0:0:0:0:
444,96,197230,1,2,0:0:0:0:
330,151,197380,2,0,L|179:127,2,136.5,10|2|2,0:0|0:0|0:0,0:0:0:0:
455,219,197980,6,0,L|270:277,1,182,10|10,0:0|0:0,0:0:0:0:
170,285,198430,1,2,0:0:0:0:
59,283,198580,2,0,P|35:197|122:143,1,182,10|10,0:0|0:0,0:0:0:0:
203,135,199030,1,2,0:0:0:0:
322,148,199180,6,0,P|345:77|265:18,1,182,10|10,0:0|0:0,0:0:0:0:
153,37,199630,1,2,0:0:0:0:
272,58,199780,2,0,L|374:67,1,91,8|0,0:0|3:0,0:0:0:0:
100,285,200080,6,0,L|95:138,1,136.5,8|0,0:0|0:0,0:0:0:0:
285,109,200380,5,10,0:0:0:0:
386,156,200530,1,8,0:0:0:0:
430,253,200680,1,10,0:0:0:0:
386,156,200830,1,10,0:0:0:0:
276,118,200980,5,10,0:0:0:0:
386,156,201130,1,8,0:0:0:0:
430,253,201280,1,10,0:0:0:0:
386,156,201430,1,10,0:0:0:0:
269,130,201580,5,10,0:0:0:0:
386,156,201730,1,8,0:0:0:0:
430,253,201880,1,10,0:0:0:0:
386,156,202030,1,10,0:0:0:0:
285,109,202180,5,10,0:0:0:0:
175,91,202330,1,8,0:0:0:0:
287,73,202480,1,8,0:0:0:0:
407,62,202630,1,10,0:0:0:0:
176,282,202780,5,10,0:0:0:0:
75,235,202930,1,8,0:0:0:0:
31,138,203080,1,10,0:0:0:0:
75,235,203230,1,10,0:0:0:0:
187,288,203380,5,10,0:0:0:0:
75,235,203530,1,8,0:0:0:0:
31,138,203680,1,10,0:0:0:0:
75,235,203830,1,10,0:0:0:0:
200,298,203980,5,10,0:0:0:0:
75,235,204130,1,8,0:0:0:0:
31,138,204280,1,10,0:0:0:0:
75,235,204430,1,10,0:0:0:0:
176,282,204580,5,10,0:0:0:0:
286,300,204730,1,8,0:0:0:0:
172,318,204880,1,8,0:0:0:0:
290,337,205030,1,10,0:0:0:0:
54,344,205180,5,4,3:2:0:0:
37,301,205255,1,0,3:0:0:0:
38,256,205330,1,0,3:0:0:0:
57,215,205405,1,0,3:0:0:0:
91,185,205480,1,0,3:0:0:0:
133,170,205555,1,0,3:0:0:0:
181,164,205630,2,0,L|254:165,1,45.5,0|0,3:0|3:0,0:0:0:0:
396,92,205780,5,0,3:0:0:0:
412,134,205855,1,0,3:0:0:0:
411,179,205930,1,0,3:0:0:0:
392,220,206005,1,0,3:0:0:0:
358,250,206080,1,0,3:0:0:0:
316,265,206155,1,0,3:0:0:0:
269,272,206230,2,0,L|196:271,1,45.5,0|0,3:0|3:0,0:0:0:0:
399,338,206380,5,4,3:2:0:0:
442,327,206455,1,0,3:0:0:0:
474,296,206530,1,0,3:0:0:0:
485,252,206605,1,0,3:0:0:0:
473,209,206680,1,0,3:0:0:0:
439,179,206755,1,0,3:0:0:0:
395,171,206830,2,0,L|326:174,1,45.5,0|0,3:0|3:0,0:0:0:0:
192,277,206980,5,0,3:0:0:0:
149,266,207055,1,0,3:0:0:0:
117,235,207130,1,0,3:0:0:0:
106,191,207205,1,0,3:0:0:0:
118,148,207280,1,0,3:0:0:0:
152,118,207355,1,0,3:0:0:0:
196,110,207430,2,0,L|265:113,1,45.5,0|0,3:0|3:0,0:0:0:0:
45,38,207580,5,4,3:2:0:0:
33,66,207630,1,0,3:0:0:0:
28,95,207680,1,0,3:0:0:0:
28,126,207730,1,0,3:0:0:0:
34,155,207780,1,0,3:0:0:0:
45,183,207830,1,0,3:0:0:0:
62,209,207880,5,0,3:0:0:0:
83,230,207930,1,0,3:0:0:0:
108,248,207980,1,0,3:0:0:0:
136,260,208030,1,0,3:0:0:0:
165,266,208080,1,0,3:0:0:0:
196,267,208130,1,0,3:0:0:0:
227,265,208180,5,4,3:2:0:0:
257,255,208230,1,0,3:0:0:0:
284,239,208280,1,0,3:0:0:0:
308,219,208330,1,0,3:0:0:0:
327,195,208380,1,0,3:0:0:0:
342,167,208430,1,0,3:0:0:0:
350,138,208480,5,0,3:0:0:0:
352,108,208530,1,0,3:0:0:0:
349,78,208580,1,0,3:0:0:0:
338,49,208630,1,0,3:0:0:0:
326,28,208680,1,0,3:0:0:0:
89,30,208780,6,0,P|49:102|184:192,1,273,4|2,3:2|0:0,0:0:0:0:
310,238,209380,2,0,L|317:117,1,91,8|0,0:3|0:0,0:0:0:0:
69,323,209680,6,0,L|63:176,1,136.5,8|0,0:1|0:0,0:0:0:0:
253,321,209980,6,0,L|450:286,1,182,4|10,3:1|0:0,0:0:0:0:
457,251,210355,1,2,0:0:0:0:
432,289,210430,1,2,0:0:0:0:
203,340,210580,2,0,L|190:235,1,91,2|0,3:0|0:0,0:0:0:0:
315,234,210880,1,10,0:0:0:0:
365,231,210955,2,0,L|392:180,2,45.5,2|2|2,0:0|0:0|0:0,0:0:0:0:
198,162,211180,6,0,L|2:121,1,182,2|10,3:0|0:0,0:0:0:0:
133,89,211630,1,2,0:0:0:0:
370,53,211780,2,0,L|265:72,1,91,2|0,3:0|0:0,0:0:0:0:
213,104,212005,2,0,L|308:118,1,91,2|0,0:0|0:0,0:0:0:0:
364,130,212230,1,2,0:0:0:0:
140,306,212380,6,0,L|131:209,1,91,2|2,3:0|0:0,0:0:0:0:
270,235,212680,2,0,L|278:129,1,91,10|2,0:0|0:0,0:0:0:0:
43,63,212980,6,0,L|150:51,1,91,2|2,3:0|0:0,0:0:0:0:
201,92,213205,2,0,L|103:109,1,91,0|0,0:0|0:0,0:0:0:0:
47,108,213430,1,2,0:0:0:0:
273,220,213580,6,0,L|377:229,1,91,2|0,3:0|0:0,0:0:0:0:
234,298,213880,1,10,0:0:0:0:
183,304,213955,2,0,L|156:258,2,45.5,2|2|2,0:0|0:0|0:0,0:0:0:0:
344,346,214180,6,0,L|449:339,1,91,2|2,3:0|0:0,0:0:0:0:
306,216,214480,1,10,0:0:0:0:
260,212,214555,1,0,0:0:0:0:
215,209,214630,1,2,0:0:0:0:
464,242,214780,6,0,P|481:182|381:117,1,182,2|10,3:0|0:0,0:0:0:0:
351,109,215155,1,2,0:0:0:0:
303,109,215230,1,2,0:0:0:0:
61,53,215380,2,0,L|266:31,1,182,2|10,3:0|0:0,0:0:0:0:
294,51,215755,2,0,L|321:6,2,45.5,2|2|0,0:0|0:0|0:0,0:0:0:0:
129,144,215980,6,0,L|22:151,1,91,2|0,3:0|0:0,0:0:0:0:
170,216,216280,1,10,0:0:0:0:
224,229,216355,1,2,0:0:0:0:
242,268,216430,1,2,0:0:0:0:
223,308,216505,1,2,0:0:0:0:
169,319,216580,6,0,L|17:303,2,136.5,2|2|2,3:0|0:0|0:0,0:0:0:0:
413,203,217180,2,0,L|195:174,1,182,2|10,3:0|0:0,0:0:0:0:
123,173,217630,1,2,0:0:0:0:
235,113,217780,6,0,L|339:104,1,91,2|2,3:0|0:0,0:0:0:0:
74,126,218080,2,0,L|62:17,1,91,8|2,0:0|0:0,0:0:0:0:
308,32,218380,6,0,L|159:52,1,136.5,2|2,3:3|3:0,0:0:0:0:
475,115,218830,2,0,P|490:175|414:211,1,136.5,2|2,3:0|3:0,0:0:0:0:
272,242,219130,2,0,L|206:238,2,45.5,2|2|2,3:0|3:0|3:2,0:0:0:0:
386,262,219430,1,2,3:2:0:0:
156,337,219580,6,0,L|0:317,1,136.5,0|0,3:0|0:0,0:0:0:0:
196,155,219880,5,4,3:1:0:0:
239,163,219955,1,2,0:0:0:0:
258,202,220030,1,2,0:0:0:0:
238,241,220105,1,2,0:0:0:0:
195,249,220180,6,0,L|9:217,1,182,2|10,3:0|0:0,0:0:0:0:
64,184,220555,1,2,0:0:0:0:
113,175,220630,1,2,0:0:0:0:
347,102,220780,6,0,L|232:101,1,91,2|0,3:0|0:0,0:0:0:0:
134,72,221080,2,0,L|112:31,2,45.5,10|2|2,0:0|0:0|0:0,0:0:0:0:
185,86,221305,1,0,0:0:0:0:
347,224,221380,2,0,L|512:256,2,136.5,2|2|2,3:0|0:0|0:0,0:0:0:0:
110,335,221980,6,0,L|96:229,1,91,2|2,3:0|0:0,0:0:0:0:
329,204,222280,2,0,L|459:191,1,91,10|2,0:0|0:0,0:0:0:0:
188,137,222580,2,0,L|285:118,1,91,2|2,3:0|0:0,0:0:0:0:
341,86,222805,2,0,L|237:69,1,91,0|0,0:0|0:0,0:0:0:0:
192,69,223030,1,2,0:0:0:0:
434,31,223180,6,0,P|460:81|370:153,1,182,2|10,3:0|0:0,0:0:0:0:
334,166,223555,1,2,0:0:0:0:
283,170,223630,1,2,0:0:0:0:
144,244,223780,2,0,L|340:282,1,182,2|10,3:0|0:0,0:0:0:0:
429,278,224230,1,2,0:0:0:0:
176,328,224380,6,0,P|90:318|124:157,1,273,6|2,3:2|3:0,0:0:0:0:
225,137,224980,2,0,L|41:112,1,182,10|10,0:0|0:1,0:0:0:0:
310,54,225580,6,0,L|326:259,1,182,2|2,3:0|0:0,0:0:0:0:
206,267,226030,1,2,3:0:0:0:
324,277,226180,2,0,L|436:285,1,91,10|0,0:0|0:0,0:0:0:0:
290,337,226480,2,0,L|186:353,1,91,8|2,0:1|0:0,0:0:0:0:
446,368,226780,5,0,3:0:0:0:
490,248,226930,1,0,3:0:0:0:
446,368,227080,1,0,3:0:0:0:
332,362,227230,1,0,3:0:0:0:
101,256,227380,6,0,L|68:199,2,45.5,0|0|0,3:0|3:0|3:0,0:0:0:0:
160,271,227605,1,0,3:0:0:0:
219,278,227680,1,0,3:0:0:0:
278,280,227755,2,0,L|306:234,2,45.5,0|0|0,3:0|3:0|3:0,0:0:0:0:
96,348,227980,6,0,P|43:331|57:243,1,136.5,6|2,3:2|0:0,0:0:0:0:
225,152,228430,2,0,L|499:110,1,273,2|0,0:0|0:0,0:0:0:0:
38,204,229180,6,0,P|18:143|117:80,1,182,4|10,3:1|0:0,0:0:0:0:
208,63,229630,1,2,0:0:0:0:
435,246,229780,2,0,L|313:249,1,91,2|0,3:0|0:0,0:0:0:0:
216,332,230080,1,10,0:0:0:0:
261,335,230155,1,2,0:0:0:0:
306,338,230230,1,2,0:0:0:0:
76,370,230380,6,0,P|63:313|166:258,1,182,2|10,3:0|0:0,0:0:0:0:
201,248,230755,1,2,0:0:0:0:
252,248,230830,1,2,0:0:0:0:
474,143,230980,6,0,L|365:129,1,91,2|0,3:0|0:0,0:0:0:0:
321,106,231205,2,0,L|413:87,1,91,2|0,0:0|0:0,0:0:0:0:
462,85,231430,1,2,0:0:0:0:
234,44,231580,6,0,L|140:50,1,91,2|2,3:0|0:0,0:0:0:0:
283,145,231880,2,0,L|406:149,1,91,10|2,0:0|0:0,0:0:0:0:
146,276,232180,1,2,3:0:0:0:
266,301,232330,2,0,L|271:209,1,91,2|8,0:0|0:0,0:0:0:0:
42,112,232630,6,0,L|148:105,1,91,2|2,0:0|3:0,0:0:0:0:
180,115,232855,1,2,0:0:0:0:
202,154,232930,1,2,0:0:0:0:
181,194,233005,1,2,0:0:0:0:
134,204,233080,1,10,0:0:0:0:
25,222,233230,1,2,0:0:0:0:
263,328,233380,6,0,L|382:325,1,91,2|2,3:0|0:0,0:0:0:0:
135,359,233680,2,0,L|132:262,1,91,10|2,0:0|0:0,0:0:0:0:
371,206,233980,6,0,L|171:184,1,182,2|10,3:0|0:0,0:0:0:0:
167,145,234355,1,2,0:0:0:0:
190,186,234430,1,2,0:0:0:0:
430,113,234580,6,0,L|320:110,1,91,2|0,3:0|0:0,0:0:0:0:
217,87,234880,2,0,L|186:37,2,45.5,10|2|2,0:0|0:0|0:0,0:0:0:0:
266,98,235105,1,2,0:0:0:0:
435,139,235180,6,0,P|466:202|362:256,1,182,2|10,3:0|0:0,0:0:0:0:
347,271,235555,1,2,0:0:0:0:
295,275,235630,1,2,0:0:0:0:
161,351,235780,6,0,L|270:338,1,91,2|0,3:0|0:0,0:0:0:0:
310,302,236005,2,0,L|214:295,1,91,2|0,0:0|0:0,0:0:0:0:
157,293,236230,1,2,0:0:0:0:
400,230,236380,5,6,3:2:0:0:
448,128,236530,2,0,L|316:132,1,91,6|0,3:2|0:0,0:0:0:0:
126,114,236830,5,6,3:2:0:0:
244,69,236980,2,0,L|339:59,1,91,6|0,3:2|0:0,0:0:0:0:
106,17,237280,2,0,L|3:33,1,91,6|2,3:2|3:0,0:0:0:0:
68,60,237505,1,2,3:0:0:0:
232,168,237580,6,0,L|338:173,1,91,2|0,3:0|3:0,0:0:0:0:
210,250,237880,1,0,3:0:0:0:
87,257,238030,1,2,3:0:0:0:
337,253,238180,5,0,3:0:0:0:
381,263,238255,1,0,3:0:0:0:
401,302,238330,1,0,3:0:0:0:
381,342,238405,1,0,3:0:0:0:
337,353,238480,1,0,3:0:0:0:
102,359,238630,1,0,3:0:0:0:
46,225,238780,6,0,L|193:182,1,136.5,0|0,3:0|0:0,0:0:0:0:
365,197,239080,6,0,P|379:146|274:86,1,182,4|2,3:1|3:0,0:0:0:0:
174,81,239530,1,0,0:0:0:0:
294,120,239680,2,0,L|400:119,1,91,10|2,0:0|0:0,0:0:0:0:
338,161,239905,1,2,0:0:0:0:
170,181,239980,6,0,L|65:188,1,91,2|0,3:0|0:0,0:0:0:0:
209,303,240280,2,0,L|220:193,1,91,10|2,0:0|0:0,0:0:0:0:
159,200,240505,1,2,0:0:0:0:
99,195,240580,2,0,L|86:95,1,91,2|0,3:0|0:0,0:0:0:0:
223,42,240880,2,0,L|96:38,1,91,0|2,0:0|0:0,0:0:0:0:
359,129,241180,6,0,L|488:133,1,91,2|2,3:0|0:0,0:0:0:0:
225,250,241480,2,0,L|216:139,1,91,10|2,0:0|0:0,0:0:0:0:
456,257,241780,5,2,3:0:0:0:
344,274,241930,2,0,L|336:161,1,91,2|8,0:0|0:0,0:0:0:0:
102,82,242230,2,0,L|207:84,1,91,2|2,0:0|3:0,0:0:0:0:
235,95,242455,1,2,0:0:0:0:
254,135,242530,1,2,0:0:0:0:
236,175,242605,1,2,0:0:0:0:
194,189,242680,1,10,0:0:0:0:
79,196,242830,1,2,0:0:0:0:
320,341,242980,6,0,L|346:293,2,45.5,2|2|2,3:0|0:0|0:0,0:0:0:0:
79,196,243280,2,0,L|15:190,2,45.5,10|0|2,0:0|0:0|0:0,0:0:0:0:
338,280,243580,6,0,P|354:220|174:119,1,273,6|2,3:2|3:0,0:0:0:0:
98,68,244180,2,0,L|293:51,1,182,10|8,0:0|1:0,0:0:0:0:
46,284,244780,6,0,P|34:228|135:169,1,182,2|2,3:0|0:0,0:0:0:0:
235,161,245230,1,2,3:0:0:0:
466,331,245380,2,0,L|345:319,1,91,10|0,0:0|0:0,0:0:0:0:
312,284,245605,2,0,L|415:263,1,91,0|0,0:0|0:0,0:0:0:0:
459,264,245830,1,2,0:0:0:0:
215,356,245980,5,0,3:0:0:0:
168,251,246130,1,0,3:0:0:0:
215,356,246280,1,0,3:0:0:0:
332,373,246430,1,0,3:0:0:0:
94,311,246580,6,0,L|66:258,2,45.5,0|0|0,3:0|3:0|3:0,0:0:0:0:
145,318,246805,1,0,3:0:0:0:
313,200,246880,6,0,L|341:147,2,45.5,0|0|0,3:0|3:0|3:0,0:0:0:0:
262,207,247105,1,0,3:0:0:0:
85,244,247180,6,0,P|57:176|219:69,1,273,4|0,3:2|0:0,0:0:0:0:
293,80,247780,2,0,L|84:49,1,182,0|0,0:0|0:0,0:0:0:0:
359,240,248380,6,0,L|370:208,6,22.75,2|0|0|0|0|0|0,3:0|0:0|0:0|0:0|0:0|0:0|0:0,0:0:0:0:
180,117,248680,6,0,P|151:162|248:222,1,182,4|2,3:1|3:2,0:0:0:0:
284,234,249055,2,0,L|309:191,2,45.5,0|0|0,0:0|0:0|0:0,0:0:0:0:
228,242,249280,2,0,L|79:258,1,136.5,8|0,3:2|0:0,0:0:0:0:
258,350,249580,6,0,P|269:295|192:255,1,136.5,10|0,3:1|0:0,0:0:0:0:
159,250,249880,2,0,L|54:243,1,91,14|10,3:1|0:1,0:0:0:0:
301,127,250180,6,0,L|424:110,1,91,2|0,3:2|0:0,0:0:0:0:
255,314,250480,2,0,P|238:261|297:213,1,136.5,10|0,3:2|0:0,0:0:0:0:
464,233,250780,6,0,L|494:180,2,45.5,6|0|0,3:2|0:0|0:0,0:0:0:0:
417,258,251005,1,0,0:0:0:0:
367,265,251080,1,12,3:2:0:0:
474,342,251230,1,0,0:0:0:0:
230,360,251380,5,2,3:2:0:0:
186,351,251455,1,2,0:2:0:0:
167,312,251530,1,2,0:2:0:0:
189,273,251605,1,2,0:2:0:0:
242,268,251680,2,0,L|246:122,1,136.5,8|0,3:2|0:0,0:0:0:0:
63,232,251980,6,0,L|51:49,1,182,0|10,3:0|3:2,0:0:0:0:
95,86,252355,1,2,0:0:0:0:
145,96,252430,1,2,0:0:0:0:
398,117,252580,2,0,L|280:213,1,136.5,2|2,3:1|0:1,0:0:0:0:
138,233,253030,1,2,0:1:0:0:
394,328,253180,6,0,P|462:310|457:208,1,182,4|8,3:0|3:2,0:0:0:0:
422,187,253555,1,0,0:0:0:0:
371,180,253630,2,0,L|310:178,1,45.5,0|0,0:0|0:0,0:0:0:0:
162,233,253780,6,0,P|142:184|214:144,1,136.5,4|0,3:0|0:0,0:0:0:0:
253,142,254080,2,0,L|360:141,1,91,8|0,3:2|0:0,0:0:0:0:
98,167,254380,6,0,P|78:118|150:78,1,136.5,10|0,3:1|0:0,0:0:0:0:
188,73,254680,1,14,3:1:0:0:
307,79,254830,1,10,0:1:0:0:
186,181,254980,2,0,L|86:195,1,91,2|0,3:0|0:0,0:0:0:0:
327,325,255280,2,0,L|331:212,1,91,14|0,3:2|0:0,0:0:0:0:
74,352,255580,6,0,P|62:300|138:256,1,136.5,4|0,3:1|0:0,0:0:0:0:
172,253,255880,1,12,3:1:0:0:
58,190,256030,1,4,0:1:0:0:
296,139,256180,2,0,L|352:138,2,45.5,4|0|0,3:1|0:0|0:0,0:0:0:0:
165,116,256480,2,0,L|135:64,2,45.5,12|0|0,3:1|0:0|0:0,0:0:0:0:
423,184,256780,6,0,L|430:285,1,91,4|0,3:1|0:0,0:0:0:0:
291,260,257080,2,0,L|279:362,1,91,12|0,3:1|0:0,0:0:0:0:
45,346,257380,2,0,L|146:338,1,91,4|0,3:3|0:0,0:0:0:0:
360,76,257680,2,0,L|486:63,1,91,12|0,3:3|0:0,0:0:0:0:
186,200,257980,5,4,3:0:0:0:
135,197,258055,2,0,L|109:150,2,45.5,0|0|0,0:0|0:0|0:0,0:0:0:0:
314,265,258280,6,0,L|474:278,1,136.5,12|0,3:2|0:0,0:0:0:0:
383,313,258580,2,0,L|374:254,1,45.5,2|0,3:2|0:0,0:0:0:0:
451,258,258730,2,0,L|457:192,1,45.5,0|0,0:0|0:0,0:0:0:0:
378,188,258880,2,0,L|229:169,1,136.5,8|0,3:2|0:0,0:0:0:0:
72,251,259180,6,0,P|55:191|124:161,1,136.5,10|0,3:1|0:0,0:0:0:0:
168,152,259480,2,0,L|268:157,1,91,14|10,3:1|0:1,0:0:0:0:
23,47,259780,2,0,L|120:41,1,91,2|0,3:2|0:0,0:0:0:0:
245,72,260080,6,0,L|256:217,1,136.5,10|0,3:2|0:0,0:0:0:0:
200,234,260380,1,6,3:2:0:0:
144,251,260455,2,0,L|110:201,2,45.5,0|0|0,0:0|0:0|0:0,0:0:0:0:
200,234,260680,1,12,3:2:0:0:
319,293,260830,1,0,0:0:0:0:
76,358,260980,5,2,3:2:0:0:
33,346,261055,1,2,0:2:0:0:
16,306,261130,1,2,0:2:0:0:
36,267,261205,1,2,0:2:0:0:
79,259,261280,2,0,L|235:256,1,136.5,8|0,3:2|0:0,0:0:0:0:
386,226,261580,6,0,P|401:159|306:95,1,182,0|10,3:0|3:2,0:0:0:0:
273,83,261955,1,2,0:0:0:0:
219,79,262030,1,2,0:0:0:0:
466,36,262180,2,0,L|316:56,2,136.5,2|2|2,3:1|0:1|0:1,0:0:0:0:
191,38,262780,6,0,P|168:101|320:205,1,273,4|0,3:0|3:0,0:0:0:0:
179,238,263380,2,0,L|15:259,1,136.5,4|0,3:0|0:0,0:0:0:0:
44,298,263680,2,0,L|151:307,1,91,8|0,3:2|0:0,0:0:0:0:
390,351,263980,6,0,P|399:302|318:264,1,136.5,10|0,3:1|0:0,0:0:0:0:
281,260,264280,1,14,3:1:0:0:
398,200,264430,1,10,0:1:0:0:
278,163,264580,2,0,L|172:152,1,91,2|0,3:0|0:0,0:0:0:0:
434,40,264880,2,0,L|445:138,1,91,14|0,3:2|0:0,0:0:0:0:
203,101,265180,5,4,3:1:0:0:
150,226,265330,1,0,0:0:0:0:
203,101,265480,1,12,3:1:0:0:
329,79,265630,1,4,0:1:0:0:
95,53,265780,5,4,3:1:0:0:
41,71,265855,2,0,L|19:120,2,45.5,0|0|0,3:0|3:0|3:0,0:0:0:0:
190,169,266080,2,0,L|258:170,1,45.5,12|0,3:1|3:0,0:0:0:0:
75,264,266230,2,0,L|10:276,1,45.5,0|0,3:0|3:0,0:0:0:0:
205,332,266380,6,0,L|447:200,2,273,4|0|0,3:2|0:0|0:0,0:0:0:0:
188,335,267298,2,0,L|179:204,1,125.125,0|0,0:0|0:0,0:0:0:0:
369,66,267580,5,6,3:2:0:0:
453,92,267730,1,0,0:0:0:0:
488,173,267880,1,2,0:0:0:0:
450,253,268030,1,0,0:0:0:0:
365,277,268180,1,2,0:0:0:0:
270,279,268330,1,0,0:0:0:0:
185,252,268480,1,2,0:0:0:0:
179,166,268630,1,0,0:0:0:0:
300,162,268780,5,2,0:3:0:0:
304,72,268930,1,0,0:0:0:0:
186,88,269080,1,2,0:0:0:0:
179,179,269230,1,0,0:0:0:0:
63,206,269380,1,2,0:3:0:0:
53,300,269530,1,0,0:0:0:0:
171,249,269680,1,2,0:0:0:0:
179,349,269830,1,0,0:0:0:0:
305,361,269980,5,2,0:3:0:0:
332,275,270130,1,0,0:0:0:0:
304,190,270280,1,2,0:0:0:0:
231,137,270430,1,0,0:0:0:0:
142,137,270580,1,2,0:0:0:0:
96,231,270730,1,0,0:0:0:0:
146,326,270880,1,2,0:0:0:0:
250,348,271030,1,0,0:0:0:0:
362,355,271180,5,2,0:3:0:0:
367,252,271330,1,0,0:0:0:0:
255,247,271480,1,2,0:0:0:0:
247,154,271630,1,0,0:0:0:0:
129,150,271780,1,2,0:3:0:0:
185,79,271930,1,0,0:0:0:0:
266,39,272080,1,2,0:0:0:0:
356,37,272230,1,0,0:0:0:0:
247,26,272380,5,2,0:3:0:0:
162,51,272530,1,0,0:0:0:0:
127,132,272680,1,2,0:0:0:0:
167,210,272830,1,0,0:0:0:0:
253,230,272980,1,2,0:0:0:0:
350,229,273130,1,0,0:0:0:0:
397,323,273280,1,2,0:0:0:0:
350,229,273430,1,0,0:0:0:0:
231,240,273580,5,2,0:3:0:0:
222,149,273730,1,0,0:0:0:0:
214,58,273880,1,2,0:0:0:0:
206,0,274030,1,0,0:0:0:0:
85,31,274180,5,2,0:3:0:0:
93,121,274330,1,0,0:0:0:0:
101,212,274480,1,2,0:0:0:0:
109,302,274630,1,0,0:0:0:0:
225,332,274780,5,2,0:3:0:0:
225,236,274930,1,0,0:0:0:0:
345,226,275080,1,2,0:0:0:0:
347,144,275230,1,0,0:0:0:0:
448,134,275380,1,2,0:0:0:0:
449,49,275530,1,0,0:0:0:0:
356,107,275680,1,2,0:0:0:0:
336,20,275830,1,0,0:0:0:0:
220,56,275980,5,2,0:3:0:0:
108,150,276130,1,0,0:0:0:0:
220,56,276280,1,2,0:0:0:0:
336,20,276430,1,0,0:0:0:0:
78,47,276580,6,0,L|72:362,1,273,2|0,0:3|0:0,0:0:0:0:
199,341,277180,6,0,P|214:296|62:163,1,273,2|2,0:0|0:0,0:0:0:0:
375,28,278080,6,0,B|382:301|382:301|383:102,1,455,2|2,0:0|0:0,0:0:0:0:
333,105,278905,1,2,0:0:0:0:
223,83,279080,1,2,0:0:0:0:
220,185,279330,1,2,0:0:0:0:
410,343,279580,6,0,L|419:49,1,273,2|2,0:0|0:0,0:0:0:0:
119,357,280480,6,0,P|100:269|293:135,1,341.25,2|2,0:0|0:0,0:0:0:0:
368,128,281192,1,2,0:0:0:0:
374,225,281530,2,0,L|91:191,1,273,2|2,0:0|0:0,0:0:0:0:
379,100,282430,1,2,0:0:0:0:
57,353,282880,6,0,P|29:270|215:78,1,386.75,2|2,0:0|0:0,0:0:0:0:
269,79,283605,1,2,0:0:0:0:
269,79,283780,1,2,0:0:0:0:
269,79,284030,1,2,0:0:0:0:
473,343,284380,6,0,P|297:-63|88:364,1,1134.4666883049,2|2,0:0|0:0,0:0:0:0:
256,192,287042,12,0,287061,0:0:0:0:
256,192,287117,12,0,287136,0:0:0:0:
256,192,287330,12,0,287580,0:0:0:0:
256,192,287780,12,0,287855,0:0:0:0:
256,192,287980,12,0,287998,0:0:0:0:
256,192,288055,12,0,288073,0:0:0:0:
256,192,288255,12,0,288380,0:0:0:0:
256,192,288786,12,0,288805,0:0:0:0:
256,192,288861,12,0,288880,0:0:0:0:
