osu file format v14

[General]
AudioFilename: audio.mp3
AudioLeadIn: 0
PreviewTime: 208344
Countdown: 0
SampleSet: Soft
StackLeniency: 0.7
Mode: 3
LetterboxInBreaks: 0
SpecialStyle: 0
WidescreenStoryboard: 0

[Editor]
DistanceSpacing: 2.3
BeatDivisor: 12
GridSize: 32
TimelineZoom: 3.140001

[Metadata]
Title:Fu Xiang Di Xin De Luo Ri Liu Hao ~ Little Raven
TitleUnicode:浮向地心的落日六号 ~ Little Raven
Artist:SEPHID feat. darkxixin
ArtistUnicode:SEPHID feat. darkxixin
Creator:FLeVI
Version:Wearing Her Eyes
Source:東方地霊殿 ~ Subterranean Animism.
Tags:featured artist fa Suiyu 叶紫蝉 清则 NoisiestLunatic 疯帽子茶会 Mad hatter Tea 千年戦争~iek loin staim haf il dis o-del al 東方Project Touhou Chireiden 11 th11 霊知の太陽信仰 Reichi no Taiyou Shinkou Solar Sect of Mystic Wisdom ~ Nuclear Fusion 霊烏路 空 Reiuji Utsuho okuu drumstep j-core electronic chinese 带上她的眼睛 刘慈欣 Liu Cixin
BeatmapID:4045501
BeatmapSetID:1953513

[Difficulty]
HPDrainRate:8
CircleSize:4
OverallDifficulty:7.6
ApproachRate:5
SliderMultiplier:1.4
SliderTickRate:1

[Events]
//Background and Video events
0,0,"littleraven.jpg",0,0
//Break Periods
//Storyboard Layer 0 (Background)
//Storyboard Layer 1 (Fail)
//Storyboard Layer 2 (Pass)
//Storyboard Layer 3 (Foreground)
//Storyboard Layer 4 (Overlay)
//Storyboard Sound Samples

[TimingPoints]
1175,300,4,2,1,30,1,0
1175,-500,4,2,1,30,0,0
1775,-500,4,2,1,30,0,0
2075,-454.545454545455,4,2,1,30,0,0
2375,-416.666666666667,4,2,1,30,0,0
2675,-384.615384615385,4,2,1,30,0,0
2975,-357.142857142857,4,2,1,30,0,0
3275,-333.333333333333,4,2,1,30,0,0
3575,-312.5,4,2,1,30,0,0
3875,-294.117647058824,4,2,1,30,0,0
4175,-277.777777777778,4,2,1,30,0,0
4475,-263.157894736842,4,2,1,30,0,0
4775,-250,4,2,1,30,0,0
5075,-238.095238095238,4,2,1,30,0,0
5375,-227.272727272727,4,2,1,30,0,0
5675,-217.391304347826,4,2,1,30,0,0
5975,-208.333333333333,4,2,1,30,0,0
6275,-200,4,2,1,30,0,0
6575,-192.307692307692,4,2,1,30,0,0
6875,-185.185185185185,4,2,1,30,0,0
7175,-178.571428571429,4,2,1,30,0,0
7475,-172.413793103448,4,2,1,30,0,0
7775,-166.666666666667,4,2,1,30,0,0
8075,-148.148148148148,4,2,1,30,0,0
8375,300,4,2,1,30,1,0
8375,-133.333333333333,4,2,1,30,0,0
15575,-129.87012987013,4,2,1,30,0,0
15875,-126.582278481013,4,2,1,30,0,0
16175,-123.456790123457,4,2,1,30,0,0
16475,-120.481927710843,4,2,1,30,0,0
16775,-117.647058823529,4,2,1,30,0,0
16925,-111.111111111111,4,2,1,30,0,0
17075,-108.108108108108,4,2,1,30,0,0
17225,-105.263157894737,4,2,1,30,0,0
17375,-102.564102564103,4,2,1,30,0,0
17525,-100,4,2,1,30,0,0
17675,-95.2380952380952,4,2,1,30,0,0
17750,-90.9090909090909,4,2,1,30,0,0
17825,-86.9565217391304,4,2,1,30,0,0
17900,-83.3333333333333,4,2,1,30,0,0
17975,-133.333333333333,4,2,1,30,0,0
22775,-125,4,2,1,30,0,0
23375,-117.647058823529,4,2,1,30,0,0
23975,-111.111111111111,4,2,1,30,0,0
24575,-105.263157894737,4,2,1,30,0,0
25175,-100,4,2,1,30,0,0
25775,-95.2380952380952,4,2,1,30,0,0
26375,-90.9090909090909,4,2,1,30,0,0
26975,-300.0000000003,4,2,1,30,0,0
27125,-200,4,2,1,30,0,0
27275,-142.857142857143,4,2,1,30,0,0
27350,-111.111111111111,4,2,1,30,0,0
27425,-90.9090909090909,4,2,1,30,0,0
27500,-76.9230769230769,4,2,1,30,0,0
27575,-100,4,2,1,30,0,0
147575,-133.333333333333,4,2,1,30,0,0
159575,-129.87012987013,4,2,1,30,0,0
159875,-126.582278481013,4,2,1,30,0,0
160175,-123.456790123457,4,2,1,30,0,0
160475,-120.481927710843,4,2,1,30,0,0
160775,-117.647058823529,4,2,1,30,0,0
160925,-111.111111111111,4,2,1,30,0,0
161075,-108.108108108108,4,2,1,30,0,0
161225,-105.263157894737,4,2,1,30,0,0
161375,-102.564102564103,4,2,1,30,0,0
161525,-100,4,2,1,30,0,0
161675,-95.2380952380952,4,2,1,30,0,0
161750,-90.9090909090909,4,2,1,30,0,0
161825,-86.9565217391304,4,2,1,30,0,0
161900,-83.3333333333333,4,2,1,30,0,0
161975,-200,4,2,1,30,0,0
163587,-10000,4,2,1,30,0,0
163625,-200,4,2,1,30,0,0
163662,-10000,4,2,1,30,0,0
163700,-200,4,2,1,30,0,0
163850,-10000,4,2,1,30,0,0
163888,-200,4,2,1,30,0,0
164112,-10000,4,2,1,30,0,0
164150,-200,4,2,1,30,0,0
165800,-10000,4,2,1,30,0,0
165838,-200,4,2,1,30,0,0
165987,-10000,4,2,1,30,0,0
166025,-200,4,2,1,30,0,0
166287,-10000,4,2,1,30,0,0
166325,-200,4,2,1,30,0,0
166775,-181.818181818182,4,2,1,30,0,0
167075,-166.666666666667,4,2,1,30,0,0
167375,-153.846153846154,4,2,1,30,0,0
167675,-142.857142857143,4,2,1,30,0,0
167975,-133.333333333333,4,2,1,30,0,0
168275,-125,4,2,1,30,0,0
168575,-117.647058823529,4,2,1,30,0,0
168875,-111.111111111111,4,2,1,30,0,0
169175,-105.263157894737,4,2,1,30,0,0
169475,-100,4,2,1,30,0,0
169775,-95.2380952380952,4,2,1,30,0,0
170375,-90.9090909090909,4,2,1,30,0,0
170975,-200,4,2,1,30,0,0
171125,-157.894819944642,4,2,1,30,0,0
171275,-130.434783742911,4,2,1,30,0,0
171350,-111.111111111111,4,2,1,30,0,0
171425,-90.9090909090909,4,2,1,30,0,0
171500,-76.9230769230769,4,2,1,30,0,0
171575,-100,4,2,1,30,0,0
209975,-100,4,2,1,30,0,1
247175,-100,4,2,1,30,0,0
267575,-100,4,2,1,30,0,0
267875,-102.040816326531,4,2,1,30,0,0
268175,-104.166666666667,4,2,1,30,0,0
268475,-106.382978723404,4,2,1,30,0,0
268775,-108.695652173913,4,2,1,30,0,0
269075,-111.111111111111,4,2,1,30,0,0
269375,-113.636363636364,4,2,1,30,0,0
269675,-116.279069767442,4,2,1,30,0,0
269975,-125,4,2,1,30,0,0
270275,-128.205128205128,4,2,1,30,0,0
270575,-131.578947368421,4,2,1,30,0,0
270875,-135.135135135135,4,2,1,30,0,0
271175,-138.888888888889,4,2,1,30,0,0
271475,-142.857142857143,4,2,1,30,0,0
271775,-147.058823529412,4,2,1,30,0,0
272075,-151.515151515152,4,2,1,30,0,0
272375,-156.25,4,2,1,30,0,0
272675,-161.290322580645,4,2,1,30,0,0
272975,-166.666666666667,4,2,1,30,0,0
273275,-172.413793103448,4,2,1,30,0,0
273575,-178.571428571429,4,2,1,30,0,0
273875,-185.185185185185,4,2,1,30,0,0
274175,-192.307692307692,4,2,1,30,0,0
274475,-200,4,2,1,30,0,0
275975,-181.818181818182,4,2,1,30,0,0
276125,-166.666666666667,4,2,1,30,0,0
276275,-153.846153846154,4,2,1,30,0,0
276425,-142.857142857143,4,2,1,30,0,0
276575,-133.333333333333,4,2,1,30,0,0
276725,-125,4,2,1,30,0,0
276875,-111.111111111111,4,2,1,30,0,0
276950,-100,4,2,1,30,0,0
277025,-90.9090909090909,4,2,1,30,0,0
277100,-83.3333333333333,4,2,1,30,0,0
277175,-300.00000000003,4,2,1,30,0,0
278787,-10000,4,2,1,30,0,0
278825,-300.00000000003,4,2,1,30,0,0
278862,-10000,4,2,1,30,0,0
278900,-300.00000000003,4,2,1,30,0,0
279050,-10000,4,2,1,30,0,0
279088,-300.00000000003,4,2,1,30,0,0
279312,-10000,4,2,1,30,0,0
279350,-300.00000000003,4,2,1,30,0,0
281000,-10000,4,2,1,30,0,0
281038,-300.00000000003,4,2,1,30,0,0
281187,-10000,4,2,1,30,0,0
281225,-300.00000000003,4,2,1,30,0,0
281487,-10000,4,2,1,30,0,0
281525,-300.00000000003,4,2,1,30,0,0
283475,-10000,4,2,1,30,0,0
283513,-300.00000000003,4,2,1,30,0,0
283550,-10000,4,2,1,30,0,0
283588,-300.00000000003,4,2,1,30,0,0
283737,-10000,4,2,1,30,0,0
283775,-300.00000000003,4,2,1,30,0,0
284000,-10000,4,2,1,30,0,0
284038,-300.00000000003,4,2,1,30,0,0
286550,-10000,4,2,1,30,0,0
286588,-300.00000000003,4,2,1,30,0,0
287000,-10000,4,2,1,30,0,0
287038,-300.00000000003,4,2,1,30,0,0
287075,-10000,4,2,1,30,0,0
287113,-300.00000000003,4,2,1,30,0,0
287150,-10000,4,2,1,30,0,0
287337,-300.00000000003,4,2,1,30,0,0
287600,-10000,4,2,1,30,0,0
287787,-300.00000000003,4,2,1,30,0,0
287862,-10000,4,2,1,30,0,0
287975,-300.00000000003,4,2,1,30,0,0
288012,-10000,4,2,1,30,0,0
288050,-300.00000000003,4,2,1,30,0,0
288087,-10000,4,2,1,30,0,0
288275,-300.00000000003,4,2,1,30,0,0
288387,-10000,4,2,1,30,0,0
288800,-300.00000000003,4,2,1,30,0,0
288837,-10000,4,2,1,30,0,0
288875,-300.00000000003,4,2,1,30,0,0
288912,-10000,4,2,1,30,0,0

[HitObjects]
448,192,1775,128,0,8375:0:0:0:0:
64,192,4287,128,0,4587:0:0:0:0:
320,192,4587,128,0,5375:0:0:0:0:
320,192,5787,128,0,6875:0:0:0:0:
192,192,7775,1,0,0:0:0:0:
320,192,8375,1,0,0:0:0:0:
64,192,8375,1,0,0:0:0:0:
64,192,8525,1,0,0:0:0:0:
64,192,8675,1,0,0:0:0:0:
64,192,8825,1,0,0:0:0:0:
64,192,8975,1,0,0:0:0:0:
64,192,9125,1,0,0:0:0:0:
64,192,9275,1,0,0:0:0:0:
64,192,9425,1,0,0:0:0:0:
448,192,9575,1,0,0:0:0:0:
192,192,9575,1,0,0:0:0:0:
448,192,9725,1,0,0:0:0:0:
448,192,9875,1,0,0:0:0:0:
448,192,10025,1,0,0:0:0:0:
320,192,10175,1,0,0:0:0:0:
320,192,10325,1,0,0:0:0:0:
320,192,10475,1,0,0:0:0:0:
320,192,10625,1,0,0:0:0:0:
448,192,10775,1,0,0:0:0:0:
192,192,10775,1,0,0:0:0:0:
192,192,10925,1,0,0:0:0:0:
192,192,11075,1,0,0:0:0:0:
64,192,11075,1,0,0:0:0:0:
192,192,11225,1,0,0:0:0:0:
192,192,11375,1,0,0:0:0:0:
320,192,11375,1,0,0:0:0:0:
192,192,11525,1,0,0:0:0:0:
448,192,11525,1,0,0:0:0:0:
192,192,11675,1,0,0:0:0:0:
192,192,11825,1,0,0:0:0:0:
448,192,11825,1,0,0:0:0:0:
320,192,11975,1,0,0:0:0:0:
320,192,12125,1,0,0:0:0:0:
320,192,12275,1,0,0:0:0:0:
320,192,12425,1,0,0:0:0:0:
320,192,12575,1,0,0:0:0:0:
64,192,12575,1,0,0:0:0:0:
320,192,12725,1,0,0:0:0:0:
320,192,12875,1,0,0:0:0:0:
192,192,12875,1,0,0:0:0:0:
320,192,13025,1,0,0:0:0:0:
64,192,13175,1,0,0:0:0:0:
448,192,13175,1,0,0:0:0:0:
64,192,13325,1,0,0:0:0:0:
64,192,13475,1,0,0:0:0:0:
64,192,13625,1,0,0:0:0:0:
64,192,13775,1,0,0:0:0:0:
64,192,13925,1,0,0:0:0:0:
64,192,14075,1,0,0:0:0:0:
64,192,14225,1,0,0:0:0:0:
192,192,14375,1,0,0:0:0:0:
320,192,14375,1,0,0:0:0:0:
192,192,14525,1,0,0:0:0:0:
192,192,14675,1,0,0:0:0:0:
192,192,14825,1,0,0:0:0:0:
448,192,14975,1,0,0:0:0:0:
448,192,15125,1,0,0:0:0:0:
448,192,15275,1,0,0:0:0:0:
448,192,15425,1,0,0:0:0:0:
320,192,15575,1,0,0:0:0:0:
64,192,15575,1,0,0:0:0:0:
320,192,15725,1,0,0:0:0:0:
320,192,15875,1,0,0:0:0:0:
320,192,16025,1,0,0:0:0:0:
192,192,16025,1,0,0:0:0:0:
320,192,16175,1,0,0:0:0:0:
320,192,16325,1,0,0:0:0:0:
320,192,16475,1,0,0:0:0:0:
64,192,16475,1,0,0:0:0:0:
320,192,16625,1,0,0:0:0:0:
64,192,16775,1,0,0:0:0:0:
448,192,16775,1,0,0:0:0:0:
64,192,16925,1,0,0:0:0:0:
64,192,17075,1,0,0:0:0:0:
64,192,17225,1,0,0:0:0:0:
448,192,17375,1,0,0:0:0:0:
192,192,17375,128,0,17975:0:0:0:0:
448,192,17525,1,0,0:0:0:0:
448,192,17675,1,0,0:0:0:0:
448,192,17825,1,0,0:0:0:0:
64,192,17975,1,0,0:0:0:0:
448,192,17975,1,0,0:0:0:0:
320,192,17975,128,0,19175:0:0:0:0:
64,192,18125,1,0,0:0:0:0:
64,192,18275,1,0,0:0:0:0:
64,192,18425,1,0,0:0:0:0:
64,192,18575,1,0,0:0:0:0:
64,192,18725,1,0,0:0:0:0:
64,192,18875,1,0,0:0:0:0:
64,192,19025,1,0,0:0:0:0:
448,192,19175,1,0,0:0:0:0:
192,192,19175,128,0,19925:0:0:0:0:
448,192,19325,1,0,0:0:0:0:
448,192,19475,1,0,0:0:0:0:
448,192,19625,1,0,0:0:0:0:
320,192,19775,1,0,0:0:0:0:
320,192,19925,1,0,0:0:0:0:
320,192,20075,1,0,0:0:0:0:
320,192,20225,1,0,0:0:0:0:
192,192,20375,1,0,0:0:0:0:
448,192,20375,128,0,20675:0:0:0:0:
192,192,20525,1,0,0:0:0:0:
192,192,20675,1,0,0:0:0:0:
64,192,20675,128,0,20975:0:0:0:0:
192,192,20825,1,0,0:0:0:0:
192,192,20975,1,0,0:0:0:0:
320,192,20975,128,0,21125:0:0:0:0:
192,192,21125,1,0,0:0:0:0:
448,192,21125,128,0,21275:0:0:0:0:
192,192,21275,1,0,0:0:0:0:
192,192,21425,1,0,0:0:0:0:
448,192,21425,128,0,22175:0:0:0:0:
320,192,21575,1,0,0:0:0:0:
320,192,21725,1,0,0:0:0:0:
320,192,21875,1,0,0:0:0:0:
320,192,22025,1,0,0:0:0:0:
320,192,22175,1,0,0:0:0:0:
64,192,22175,128,0,22475:0:0:0:0:
320,192,22325,1,0,0:0:0:0:
320,192,22475,1,0,0:0:0:0:
192,192,22475,128,0,22775:0:0:0:0:
320,192,22625,1,0,0:0:0:0:
64,192,22775,1,0,0:0:0:0:
448,192,22775,1,0,0:0:0:0:
64,192,22925,1,0,0:0:0:0:
64,192,23075,1,0,0:0:0:0:
448,192,23075,1,0,0:0:0:0:
64,192,23225,1,0,0:0:0:0:
64,192,23375,1,0,0:0:0:0:
448,192,23375,1,0,0:0:0:0:
64,192,23525,1,0,0:0:0:0:
64,192,23675,1,0,0:0:0:0:
448,192,23675,1,0,0:0:0:0:
64,192,23825,1,0,0:0:0:0:
192,192,23975,1,0,0:0:0:0:
320,192,23975,1,0,0:0:0:0:
320,192,24125,128,0,24275:0:0:0:0:
64,192,24275,1,0,0:0:0:0:
448,192,24275,1,0,0:0:0:0:
64,192,24425,128,0,24575:0:0:0:0:
448,192,24575,1,0,0:0:0:0:
192,192,24575,1,0,0:0:0:0:
448,192,24725,128,0,24875:0:0:0:0:
320,192,24875,1,0,0:0:0:0:
192,192,24875,1,0,0:0:0:0:
192,192,25025,128,0,25175:0:0:0:0:
64,192,25175,1,0,0:0:0:0:
448,192,25175,1,0,0:0:0:0:
64,192,25325,1,0,0:0:0:0:
320,192,25325,1,0,0:0:0:0:
64,192,25475,1,0,0:0:0:0:
192,192,25475,1,0,0:0:0:0:
320,192,25625,1,0,0:0:0:0:
448,192,25625,1,0,0:0:0:0:
320,192,25775,1,0,0:0:0:0:
192,192,25775,1,0,0:0:0:0:
320,192,25925,1,0,0:0:0:0:
64,192,25925,1,0,0:0:0:0:
192,192,26075,1,0,0:0:0:0:
448,192,26075,1,0,0:0:0:0:
320,192,26225,1,0,0:0:0:0:
192,192,26225,1,0,0:0:0:0:
448,192,26375,1,0,0:0:0:0:
320,192,26375,1,0,0:0:0:0:
192,192,26450,1,0,0:0:0:0:
64,192,26450,1,0,0:0:0:0:
320,192,26525,1,0,0:0:0:0:
448,192,26525,1,0,0:0:0:0:
192,192,26600,1,0,0:0:0:0:
64,192,26600,1,0,0:0:0:0:
320,192,26675,1,0,0:0:0:0:
448,192,26675,1,0,0:0:0:0:
192,192,26750,1,0,0:0:0:0:
64,192,26750,1,0,0:0:0:0:
320,192,26825,1,0,0:0:0:0:
448,192,26825,1,0,0:0:0:0:
192,192,26900,1,0,0:0:0:0:
64,192,26900,1,0,0:0:0:0:
448,192,26975,1,0,0:0:0:0:
320,192,26975,128,0,27575:0:0:0:0:
192,192,27575,128,0,28025:0:0:0:0:
64,192,27575,128,0,27875:0:0:0:0:
448,192,27575,128,0,27800:0:0:0:0:
320,192,28025,128,0,28325:0:0:0:0:
448,192,28025,128,0,28475:0:0:0:0:
64,192,28025,128,0,28250:0:0:0:0:
320,192,28475,128,0,28775:0:0:0:0:
64,192,28475,128,0,29825:0:0:0:0:
192,192,28475,128,0,29675:0:0:0:0:
448,192,28775,128,0,29900:0:0:0:0:
320,192,29675,128,0,29900:0:0:0:0:
192,192,29825,128,0,29975:0:0:0:0:
64,192,29975,128,0,30275:0:0:0:0:
448,192,29975,128,0,30275:0:0:0:0:
320,192,29975,128,0,30200:0:0:0:0:
192,192,30275,128,0,30575:0:0:0:0:
320,192,30425,128,0,30725:0:0:0:0:
448,192,30425,128,0,30650:0:0:0:0:
64,192,30575,128,0,30725:0:0:0:0:
192,192,30725,128,0,31025:0:0:0:0:
64,192,30875,128,0,31775:0:0:0:0:
320,192,30875,128,0,32075:0:0:0:0:
448,192,31025,128,0,32300:0:0:0:0:
192,192,31775,128,0,32300:0:0:0:0:
64,192,32075,128,0,32375:0:0:0:0:
320,192,32375,128,0,32825:0:0:0:0:
192,192,32375,128,0,32675:0:0:0:0:
448,192,32375,128,0,32600:0:0:0:0:
448,192,32825,128,0,33125:0:0:0:0:
192,192,32825,128,0,33275:0:0:0:0:
64,192,32825,128,0,33050:0:0:0:0:
448,192,33275,128,0,33575:0:0:0:0:
64,192,33275,128,0,34175:0:0:0:0:
320,192,33275,128,0,34700:0:0:0:0:
192,192,33575,128,0,34700:0:0:0:0:
448,192,34175,128,0,34775:0:0:0:0:
320,192,34775,128,0,35000:0:0:0:0:
64,192,34775,128,0,35075:0:0:0:0:
192,192,34775,128,0,35225:0:0:0:0:
64,192,35225,128,0,35450:0:0:0:0:
448,192,35225,128,0,35675:0:0:0:0:
320,192,35225,128,0,35525:0:0:0:0:
192,192,35675,128,0,35975:0:0:0:0:
320,192,35675,128,0,35825:0:0:0:0:
64,192,35675,128,0,35825:0:0:0:0:
448,192,35975,128,0,37100:0:0:0:0:
320,192,35975,128,0,37100:0:0:0:0:
64,192,35975,128,0,37100:0:0:0:0:
192,192,36575,128,0,37175:0:0:0:0:
320,192,37175,1,0,0:0:0:0:
448,192,37175,1,0,0:0:0:0:
64,192,37175,128,0,38375:0:0:0:0:
192,192,37325,1,0,0:0:0:0:
320,192,37325,1,0,0:0:0:0:
448,192,37475,1,0,0:0:0:0:
448,192,37625,1,0,0:0:0:0:
192,192,37625,1,0,0:0:0:0:
320,192,37775,1,0,0:0:0:0:
320,192,37925,1,0,0:0:0:0:
448,192,37925,1,0,0:0:0:0:
192,192,38075,1,0,0:0:0:0:
192,192,38225,1,0,0:0:0:0:
320,192,38225,1,0,0:0:0:0:
448,192,38375,1,0,0:0:0:0:
448,192,38525,1,0,0:0:0:0:
192,192,38525,1,0,0:0:0:0:
320,192,38675,1,0,0:0:0:0:
320,192,38825,1,0,0:0:0:0:
64,192,38825,1,0,0:0:0:0:
192,192,38975,1,0,0:0:0:0:
192,192,39125,1,0,0:0:0:0:
448,192,39125,1,0,0:0:0:0:
64,192,39275,1,0,0:0:0:0:
64,192,39425,1,0,0:0:0:0:
320,192,39425,1,0,0:0:0:0:
448,192,39575,1,0,0:0:0:0:
448,192,39725,1,0,0:0:0:0:
192,192,39725,1,0,0:0:0:0:
320,192,39875,1,0,0:0:0:0:
320,192,40025,1,0,0:0:0:0:
64,192,40025,1,0,0:0:0:0:
192,192,40175,1,0,0:0:0:0:
192,192,40325,1,0,0:0:0:0:
448,192,40325,1,0,0:0:0:0:
64,192,40475,1,0,0:0:0:0:
64,192,40625,1,0,0:0:0:0:
320,192,40625,1,0,0:0:0:0:
448,192,40775,1,0,0:0:0:0:
448,192,40925,1,0,0:0:0:0:
192,192,40925,1,0,0:0:0:0:
320,192,41075,1,0,0:0:0:0:
320,192,41225,1,0,0:0:0:0:
64,192,41225,1,0,0:0:0:0:
192,192,41375,1,0,0:0:0:0:
192,192,41525,1,0,0:0:0:0:
448,192,41525,1,0,0:0:0:0:
448,192,41675,1,0,0:0:0:0:
64,192,41675,1,0,0:0:0:0:
320,192,41675,1,0,0:0:0:0:
192,192,41975,1,0,0:0:0:0:
64,192,41975,1,0,0:0:0:0:
192,192,42125,1,0,0:0:0:0:
448,192,42125,1,0,0:0:0:0:
64,192,42125,1,0,0:0:0:0:
448,192,42275,1,0,0:0:0:0:
320,192,42275,1,0,0:0:0:0:
448,192,42425,1,0,0:0:0:0:
64,192,42425,1,0,0:0:0:0:
320,192,42425,1,0,0:0:0:0:
192,192,42575,1,0,0:0:0:0:
64,192,42575,1,0,0:0:0:0:
64,192,42725,1,0,0:0:0:0:
192,192,42725,1,0,0:0:0:0:
448,192,42725,1,0,0:0:0:0:
320,192,42875,1,0,0:0:0:0:
448,192,42875,1,0,0:0:0:0:
448,192,43025,1,0,0:0:0:0:
64,192,43025,1,0,0:0:0:0:
320,192,43025,1,0,0:0:0:0:
192,192,43175,1,0,0:0:0:0:
448,192,43175,1,0,0:0:0:0:
64,192,43325,1,0,0:0:0:0:
192,192,43325,1,0,0:0:0:0:
448,192,43325,1,0,0:0:0:0:
320,192,43475,1,0,0:0:0:0:
64,192,43475,1,0,0:0:0:0:
448,192,43625,1,0,0:0:0:0:
64,192,43625,1,0,0:0:0:0:
320,192,43625,1,0,0:0:0:0:
192,192,43775,1,0,0:0:0:0:
448,192,43775,1,0,0:0:0:0:
192,192,43925,1,0,0:0:0:0:
448,192,43925,1,0,0:0:0:0:
64,192,43925,1,0,0:0:0:0:
64,192,44075,1,0,0:0:0:0:
320,192,44075,1,0,0:0:0:0:
64,192,44225,1,0,0:0:0:0:
320,192,44225,1,0,0:0:0:0:
448,192,44225,1,0,0:0:0:0:
192,192,44375,1,0,0:0:0:0:
64,192,44375,1,0,0:0:0:0:
64,192,44525,1,0,0:0:0:0:
192,192,44525,1,0,0:0:0:0:
320,192,44525,1,0,0:0:0:0:
320,192,44675,1,0,0:0:0:0:
448,192,44675,1,0,0:0:0:0:
192,192,44825,1,0,0:0:0:0:
448,192,44825,1,0,0:0:0:0:
320,192,44825,1,0,0:0:0:0:
192,192,44975,1,0,0:0:0:0:
64,192,44975,1,0,0:0:0:0:
64,192,45125,1,0,0:0:0:0:
192,192,45125,1,0,0:0:0:0:
320,192,45125,1,0,0:0:0:0:
448,192,45275,1,0,0:0:0:0:
320,192,45275,1,0,0:0:0:0:
448,192,45425,1,0,0:0:0:0:
320,192,45425,1,0,0:0:0:0:
192,192,45425,1,0,0:0:0:0:
64,192,45575,1,0,0:0:0:0:
320,192,45575,1,0,0:0:0:0:
64,192,45725,1,0,0:0:0:0:
192,192,45725,1,0,0:0:0:0:
320,192,45725,1,0,0:0:0:0:
192,192,45875,1,0,0:0:0:0:
448,192,45875,1,0,0:0:0:0:
192,192,46025,1,0,0:0:0:0:
320,192,46025,1,0,0:0:0:0:
448,192,46025,1,0,0:0:0:0:
64,192,46175,1,0,0:0:0:0:
320,192,46175,1,0,0:0:0:0:
320,192,46325,1,0,0:0:0:0:
192,192,46325,1,0,0:0:0:0:
64,192,46325,1,0,0:0:0:0:
192,192,46475,1,0,0:0:0:0:
64,192,46475,1,0,0:0:0:0:
448,192,46475,1,0,0:0:0:0:
64,192,46775,1,0,0:0:0:0:
192,192,46775,1,0,0:0:0:0:
448,192,46775,1,0,0:0:0:0:
320,192,46850,1,0,0:0:0:0:
64,192,46925,1,0,0:0:0:0:
448,192,46925,1,0,0:0:0:0:
192,192,47000,1,0,0:0:0:0:
320,192,47000,1,0,0:0:0:0:
64,192,47075,1,0,0:0:0:0:
448,192,47075,1,0,0:0:0:0:
192,192,47150,1,0,0:0:0:0:
320,192,47225,1,0,0:0:0:0:
448,192,47225,1,0,0:0:0:0:
192,192,47300,1,0,0:0:0:0:
64,192,47300,1,0,0:0:0:0:
320,192,47375,1,0,0:0:0:0:
448,192,47375,1,0,0:0:0:0:
192,192,47450,1,0,0:0:0:0:
64,192,47525,1,0,0:0:0:0:
448,192,47525,1,0,0:0:0:0:
320,192,47600,1,0,0:0:0:0:
192,192,47600,1,0,0:0:0:0:
64,192,47675,1,0,0:0:0:0:
448,192,47675,1,0,0:0:0:0:
320,192,47750,1,0,0:0:0:0:
192,192,47825,1,0,0:0:0:0:
64,192,47825,1,0,0:0:0:0:
320,192,47900,1,0,0:0:0:0:
448,192,47900,1,0,0:0:0:0:
192,192,47975,1,0,0:0:0:0:
64,192,47975,1,0,0:0:0:0:
320,192,48050,1,0,0:0:0:0:
448,192,48125,1,0,0:0:0:0:
64,192,48125,1,0,0:0:0:0:
320,192,48200,1,0,0:0:0:0:
192,192,48200,1,0,0:0:0:0:
64,192,48275,1,0,0:0:0:0:
448,192,48275,1,0,0:0:0:0:
192,192,48350,1,0,0:0:0:0:
448,192,48425,1,0,0:0:0:0:
320,192,48425,1,0,0:0:0:0:
192,192,48500,1,0,0:0:0:0:
64,192,48500,1,0,0:0:0:0:
320,192,48575,1,0,0:0:0:0:
448,192,48575,1,0,0:0:0:0:
192,192,48650,1,0,0:0:0:0:
64,192,48725,1,0,0:0:0:0:
448,192,48725,1,0,0:0:0:0:
320,192,48800,1,0,0:0:0:0:
192,192,48800,1,0,0:0:0:0:
64,192,48875,1,0,0:0:0:0:
448,192,48875,1,0,0:0:0:0:
320,192,48950,1,0,0:0:0:0:
64,192,49025,1,0,0:0:0:0:
192,192,49025,1,0,0:0:0:0:
320,192,49100,1,0,0:0:0:0:
448,192,49100,1,0,0:0:0:0:
64,192,49175,1,0,0:0:0:0:
192,192,49175,1,0,0:0:0:0:
320,192,49225,1,0,0:0:0:0:
448,192,49275,1,0,0:0:0:0:
192,192,49325,1,0,0:0:0:0:
320,192,49375,1,0,0:0:0:0:
64,192,49425,1,0,0:0:0:0:
192,192,49475,1,0,0:0:0:0:
448,192,49475,1,0,0:0:0:0:
320,192,49525,1,0,0:0:0:0:
64,192,49575,1,0,0:0:0:0:
448,192,49625,1,0,0:0:0:0:
192,192,49675,1,0,0:0:0:0:
64,192,49725,1,0,0:0:0:0:
448,192,49775,1,0,0:0:0:0:
320,192,49775,1,0,0:0:0:0:
64,192,49825,1,0,0:0:0:0:
192,192,49875,1,0,0:0:0:0:
320,192,49925,1,0,0:0:0:0:
448,192,49925,1,0,0:0:0:0:
64,192,49975,1,0,0:0:0:0:
192,192,50025,1,0,0:0:0:0:
320,192,50075,1,0,0:0:0:0:
448,192,50075,1,0,0:0:0:0:
192,192,50125,5,0,0:0:0:0:
64,192,50175,1,0,0:0:0:0:
448,192,50175,1,0,0:0:0:0:
320,192,50225,1,0,0:0:0:0:
64,192,50275,1,0,0:0:0:0:
192,192,50275,1,0,0:0:0:0:
448,192,50325,1,0,0:0:0:0:
192,192,50375,1,0,0:0:0:0:
64,192,50375,1,0,0:0:0:0:
320,192,50375,128,0,50675:0:0:0:0:
192,192,50825,128,0,51125:0:0:0:0:
320,192,50975,1,0,0:0:0:0:
448,192,50975,1,0,0:0:0:0:
320,192,51275,128,0,51500:0:0:0:0:
448,192,51275,128,0,51500:0:0:0:0:
64,192,51275,128,0,51500:0:0:0:0:
192,192,51575,1,0,0:0:0:0:
64,192,51575,1,0,0:0:0:0:
448,192,51625,1,0,0:0:0:0:
320,192,51675,1,0,0:0:0:0:
64,192,51725,1,0,0:0:0:0:
448,192,51775,1,0,0:0:0:0:
192,192,51825,1,0,0:0:0:0:
64,192,51875,1,0,0:0:0:0:
320,192,51875,128,0,52100:0:0:0:0:
448,192,51875,128,0,52025:0:0:0:0:
192,192,52025,128,0,52175:0:0:0:0:
448,192,52175,1,0,0:0:0:0:
64,192,52175,1,0,0:0:0:0:
320,192,52225,128,0,52325:0:0:0:0:
192,192,52275,128,0,52375:0:0:0:0:
64,192,52325,128,0,52425:0:0:0:0:
448,192,52375,128,0,52425:0:0:0:0:
320,192,52425,128,0,52475:0:0:0:0:
448,192,52475,1,0,0:0:0:0:
64,192,52475,1,0,0:0:0:0:
192,192,52475,1,0,0:0:0:0:
320,192,52550,128,0,52775:0:0:0:0:
448,192,52775,1,0,0:0:0:0:
64,192,52775,128,0,52962:0:0:0:0:
192,192,52850,128,0,53075:0:0:0:0:
320,192,52925,1,0,0:0:0:0:
448,192,53075,128,0,53150:0:0:0:0:
64,192,53075,1,0,0:0:0:0:
320,192,53112,128,0,53187:0:0:0:0:
448,192,53225,128,0,53300:0:0:0:0:
320,192,53262,128,0,53337:0:0:0:0:
192,192,53375,128,0,53600:0:0:0:0:
448,192,53375,128,0,53600:0:0:0:0:
320,192,53525,128,0,53600:0:0:0:0:
64,192,53675,128,0,53900:0:0:0:0:
320,192,53675,128,0,53900:0:0:0:0:
448,192,53675,1,0,0:0:0:0:
192,192,53825,128,0,53900:0:0:0:0:
64,192,53975,1,0,0:0:0:0:
448,192,53975,1,0,0:0:0:0:
320,192,54025,1,0,0:0:0:0:
192,192,54075,1,0,0:0:0:0:
448,192,54125,1,0,0:0:0:0:
64,192,54175,1,0,0:0:0:0:
320,192,54225,1,0,0:0:0:0:
192,192,54275,128,0,54500:0:0:0:0:
448,192,54275,1,0,0:0:0:0:
64,192,54275,128,0,54425:0:0:0:0:
320,192,54350,128,0,54575:0:0:0:0:
448,192,54425,128,0,54575:0:0:0:0:
192,192,54575,1,0,0:0:0:0:
64,192,54575,128,0,54800:0:0:0:0:
448,192,54650,128,0,54800:0:0:0:0:
320,192,54725,128,0,54800:0:0:0:0:
192,192,54800,128,0,54875:0:0:0:0:
64,192,54875,1,0,0:0:0:0:
320,192,54875,1,0,0:0:0:0:
448,192,54875,1,0,0:0:0:0:
192,192,54950,128,0,55175:0:0:0:0:
64,192,55175,128,0,55325:0:0:0:0:
448,192,55175,1,0,0:0:0:0:
320,192,55250,128,0,55325:0:0:0:0:
448,192,55325,128,0,55400:0:0:0:0:
192,192,55400,128,0,55475:0:0:0:0:
320,192,55475,1,0,0:0:0:0:
448,192,55475,1,0,0:0:0:0:
64,192,55475,1,0,0:0:0:0:
192,192,55525,128,0,55625:0:0:0:0:
64,192,55575,128,0,55675:0:0:0:0:
320,192,55625,128,0,55725:0:0:0:0:
192,192,55675,128,0,55775:0:0:0:0:
448,192,55725,128,0,55825:0:0:0:0:
64,192,55775,1,0,0:0:0:0:
320,192,55775,128,0,56300:0:0:0:0:
64,192,56000,128,0,56375:0:0:0:0:
448,192,56075,1,0,0:0:0:0:
192,192,56075,1,0,0:0:0:0:
192,192,56225,128,0,56375:0:0:0:0:
320,192,56375,128,0,56600:0:0:0:0:
448,192,56375,128,0,56525:0:0:0:0:
192,192,56525,128,0,56675:0:0:0:0:
448,192,56675,1,0,0:0:0:0:
64,192,56675,1,0,0:0:0:0:
320,192,56675,1,0,0:0:0:0:
192,192,56725,128,0,56825:0:0:0:0:
448,192,56775,128,0,56875:0:0:0:0:
320,192,56825,128,0,56925:0:0:0:0:
64,192,56875,128,0,56975:0:0:0:0:
192,192,56925,128,0,56975:0:0:0:0:
448,192,56975,1,0,0:0:0:0:
320,192,56975,1,0,0:0:0:0:
64,192,57050,128,0,57200:0:0:0:0:
448,192,57087,128,0,57200:0:0:0:0:
320,192,57125,128,0,57200:0:0:0:0:
192,192,57200,128,0,57275:0:0:0:0:
320,192,57275,1,0,0:0:0:0:
448,192,57275,1,0,0:0:0:0:
64,192,57275,1,0,0:0:0:0:
192,192,57350,128,0,57575:0:0:0:0:
64,192,57575,1,0,0:0:0:0:
448,192,57575,128,0,57762:0:0:0:0:
320,192,57650,128,0,57875:0:0:0:0:
192,192,57725,1,0,0:0:0:0:
64,192,57875,128,0,57950:0:0:0:0:
448,192,57875,1,0,0:0:0:0:
192,192,57912,128,0,57987:0:0:0:0:
64,192,58025,128,0,58100:0:0:0:0:
192,192,58062,128,0,58137:0:0:0:0:
64,192,58175,128,0,58325:0:0:0:0:
448,192,58175,128,0,58400:0:0:0:0:
192,192,58250,128,0,58400:0:0:0:0:
320,192,58325,128,0,58475:0:0:0:0:
448,192,58475,128,0,58625:0:0:0:0:
192,192,58475,1,0,0:0:0:0:
64,192,58475,128,0,58700:0:0:0:0:
320,192,58550,128,0,58700:0:0:0:0:
192,192,58625,128,0,58775:0:0:0:0:
320,192,58775,1,0,0:0:0:0:
448,192,58775,128,0,59000:0:0:0:0:
64,192,58850,128,0,59000:0:0:0:0:
192,192,58925,128,0,59000:0:0:0:0:
448,192,59075,1,0,0:0:0:0:
64,192,59075,128,0,59150:0:0:0:0:
320,192,59112,128,0,59187:0:0:0:0:
64,192,59225,128,0,59300:0:0:0:0:
320,192,59262,128,0,59337:0:0:0:0:
448,192,59375,1,0,0:0:0:0:
192,192,59375,128,0,59600:0:0:0:0:
320,192,59450,128,0,59600:0:0:0:0:
64,192,59525,128,0,59600:0:0:0:0:
64,192,59675,1,0,0:0:0:0:
320,192,59675,128,0,59900:0:0:0:0:
448,192,59675,1,0,0:0:0:0:
192,192,59750,128,0,59900:0:0:0:0:
448,192,59825,128,0,59900:0:0:0:0:
64,192,59975,1,0,0:0:0:0:
320,192,59975,128,0,60200:0:0:0:0:
448,192,60050,128,0,60200:0:0:0:0:
192,192,60125,1,0,0:0:0:0:
320,192,60275,128,0,60500:0:0:0:0:
448,192,60275,128,0,60500:0:0:0:0:
64,192,60275,1,0,0:0:0:0:
64,192,60425,1,0,0:0:0:0:
192,192,60575,128,0,60800:0:0:0:0:
448,192,60575,1,0,0:0:0:0:
64,192,60650,128,0,60800:0:0:0:0:
320,192,60725,1,0,0:0:0:0:
192,192,60875,128,0,61100:0:0:0:0:
64,192,60875,128,0,61100:0:0:0:0:
448,192,60875,1,0,0:0:0:0:
448,192,61025,1,0,0:0:0:0:
320,192,61175,1,0,0:0:0:0:
448,192,61175,1,0,0:0:0:0:
64,192,61225,1,0,0:0:0:0:
192,192,61275,1,0,0:0:0:0:
448,192,61325,1,0,0:0:0:0:
64,192,61375,1,0,0:0:0:0:
320,192,61425,1,0,0:0:0:0:
448,192,61475,1,0,0:0:0:0:
192,192,61475,128,0,61700:0:0:0:0:
64,192,61475,128,0,61625:0:0:0:0:
320,192,61625,128,0,61775:0:0:0:0:
64,192,61775,1,0,0:0:0:0:
448,192,61775,1,0,0:0:0:0:
192,192,61825,128,0,61925:0:0:0:0:
320,192,61875,128,0,61975:0:0:0:0:
448,192,61925,128,0,62025:0:0:0:0:
64,192,61975,128,0,62025:0:0:0:0:
192,192,62025,128,0,62075:0:0:0:0:
64,192,62075,1,0,0:0:0:0:
448,192,62075,1,0,0:0:0:0:
320,192,62075,1,0,0:0:0:0:
192,192,62150,128,0,62375:0:0:0:0:
64,192,62375,1,0,0:0:0:0:
320,192,62375,128,0,62562:0:0:0:0:
448,192,62450,128,0,62675:0:0:0:0:
192,192,62525,1,0,0:0:0:0:
192,192,62675,128,0,62750:0:0:0:0:
320,192,62675,1,0,0:0:0:0:
64,192,62712,128,0,62787:0:0:0:0:
192,192,62825,128,0,62900:0:0:0:0:
64,192,62862,128,0,62937:0:0:0:0:
192,192,62975,128,0,63200:0:0:0:0:
448,192,62975,128,0,63200:0:0:0:0:
320,192,63125,128,0,63200:0:0:0:0:
64,192,63275,128,0,63500:0:0:0:0:
320,192,63275,128,0,63500:0:0:0:0:
448,192,63275,1,0,0:0:0:0:
192,192,63425,128,0,63500:0:0:0:0:
448,192,63575,1,0,0:0:0:0:
64,192,63575,1,0,0:0:0:0:
192,192,63625,1,0,0:0:0:0:
320,192,63675,1,0,0:0:0:0:
64,192,63725,1,0,0:0:0:0:
448,192,63775,1,0,0:0:0:0:
192,192,63825,1,0,0:0:0:0:
320,192,63875,128,0,64100:0:0:0:0:
64,192,63875,1,0,0:0:0:0:
448,192,63875,128,0,64025:0:0:0:0:
192,192,63950,128,0,64175:0:0:0:0:
64,192,64025,128,0,64175:0:0:0:0:
320,192,64175,1,0,0:0:0:0:
448,192,64175,128,0,64400:0:0:0:0:
192,192,64250,128,0,64400:0:0:0:0:
64,192,64325,128,0,64400:0:0:0:0:
320,192,64400,128,0,64475:0:0:0:0:
448,192,64475,1,0,0:0:0:0:
192,192,64475,1,0,0:0:0:0:
64,192,64475,1,0,0:0:0:0:
320,192,64550,128,0,64775:0:0:0:0:
448,192,64775,128,0,64925:0:0:0:0:
64,192,64775,1,0,0:0:0:0:
192,192,64850,128,0,64925:0:0:0:0:
64,192,64925,128,0,65000:0:0:0:0:
320,192,65000,128,0,65075:0:0:0:0:
192,192,65075,1,0,0:0:0:0:
64,192,65075,1,0,0:0:0:0:
448,192,65075,1,0,0:0:0:0:
320,192,65125,128,0,65225:0:0:0:0:
448,192,65175,128,0,65275:0:0:0:0:
192,192,65225,128,0,65325:0:0:0:0:
320,192,65275,128,0,65375:0:0:0:0:
64,192,65325,128,0,65425:0:0:0:0:
448,192,65375,1,0,0:0:0:0:
192,192,65375,128,0,65900:0:0:0:0:
448,192,65600,128,0,65975:0:0:0:0:
64,192,65675,1,0,0:0:0:0:
320,192,65675,1,0,0:0:0:0:
320,192,65825,128,0,65975:0:0:0:0:
64,192,65975,128,0,66125:0:0:0:0:
192,192,65975,128,0,66050:0:0:0:0:
448,192,66050,128,0,66237:0:0:0:0:
320,192,66125,128,0,66275:0:0:0:0:
192,192,66200,128,0,66312:0:0:0:0:
64,192,66275,128,0,66350:0:0:0:0:
448,192,66350,128,0,66425:0:0:0:0:
192,192,66425,1,0,0:0:0:0:
64,192,66425,1,0,0:0:0:0:
320,192,66425,1,0,0:0:0:0:
192,192,66575,1,0,0:0:0:0:
448,192,66575,1,0,0:0:0:0:
64,192,66650,128,0,66800:0:0:0:0:
320,192,66687,128,0,66800:0:0:0:0:
448,192,66725,128,0,66800:0:0:0:0:
192,192,66800,128,0,66875:0:0:0:0:
64,192,66875,1,0,0:0:0:0:
320,192,66875,1,0,0:0:0:0:
448,192,66875,1,0,0:0:0:0:
192,192,66950,128,0,67175:0:0:0:0:
64,192,67175,128,0,67362:0:0:0:0:
448,192,67175,1,0,0:0:0:0:
320,192,67250,128,0,67475:0:0:0:0:
192,192,67325,1,0,0:0:0:0:
448,192,67475,128,0,67550:0:0:0:0:
192,192,67512,128,0,67587:0:0:0:0:
320,192,67625,1,0,0:0:0:0:
448,192,67625,128,0,67700:0:0:0:0:
192,192,67662,128,0,67737:0:0:0:0:
448,192,67775,128,0,68000:0:0:0:0:
64,192,67775,128,0,67925:0:0:0:0:
192,192,67850,128,0,68000:0:0:0:0:
320,192,67925,128,0,68075:0:0:0:0:
448,192,68075,128,0,68225:0:0:0:0:
192,192,68075,1,0,0:0:0:0:
64,192,68075,128,0,68375:0:0:0:0:
320,192,68150,128,0,68300:0:0:0:0:
192,192,68225,128,0,68375:0:0:0:0:
320,192,68375,1,0,0:0:0:0:
448,192,68375,1,0,0:0:0:0:
448,192,68525,1,0,0:0:0:0:
192,192,68525,1,0,0:0:0:0:
320,192,68675,1,0,0:0:0:0:
64,192,68675,1,0,0:0:0:0:
192,192,68825,1,0,0:0:0:0:
64,192,68825,1,0,0:0:0:0:
320,192,68975,1,0,0:0:0:0:
448,192,68975,1,0,0:0:0:0:
192,192,69050,1,0,0:0:0:0:
64,192,69050,1,0,0:0:0:0:
320,192,69125,1,0,0:0:0:0:
448,192,69125,1,0,0:0:0:0:
192,192,69200,1,0,0:0:0:0:
64,192,69200,1,0,0:0:0:0:
320,192,69275,1,0,0:0:0:0:
448,192,69275,1,0,0:0:0:0:
64,192,69350,1,0,0:0:0:0:
192,192,69350,1,0,0:0:0:0:
320,192,69425,1,0,0:0:0:0:
448,192,69425,1,0,0:0:0:0:
192,192,69500,1,0,0:0:0:0:
64,192,69500,1,0,0:0:0:0:
448,192,69575,128,0,69875:0:0:0:0:
320,192,69575,128,0,69875:0:0:0:0:
192,192,70025,128,0,70325:0:0:0:0:
64,192,70025,128,0,70325:0:0:0:0:
192,192,70475,128,0,70700:0:0:0:0:
320,192,70475,128,0,70775:0:0:0:0:
192,192,70775,1,0,0:0:0:0:
64,192,70775,1,0,0:0:0:0:
448,192,70775,1,0,0:0:0:0:
320,192,70925,128,0,71075:0:0:0:0:
448,192,71075,1,0,0:0:0:0:
192,192,71075,1,0,0:0:0:0:
64,192,71075,1,0,0:0:0:0:
192,192,71225,128,0,71375:0:0:0:0:
64,192,71375,1,0,0:0:0:0:
448,192,71375,1,0,0:0:0:0:
320,192,71525,128,0,71675:0:0:0:0:
192,192,71675,1,0,0:0:0:0:
64,192,71675,1,0,0:0:0:0:
448,192,71675,1,0,0:0:0:0:
448,192,71825,128,0,71975:0:0:0:0:
192,192,71975,1,0,0:0:0:0:
64,192,71975,1,0,0:0:0:0:
320,192,72125,128,0,72275:0:0:0:0:
192,192,72275,1,0,0:0:0:0:
64,192,72275,1,0,0:0:0:0:
448,192,72275,1,0,0:0:0:0:
64,192,72425,128,0,72575:0:0:0:0:
448,192,72575,1,0,0:0:0:0:
192,192,72575,1,0,0:0:0:0:
320,192,72725,128,0,72875:0:0:0:0:
192,192,72875,1,0,0:0:0:0:
64,192,72875,1,0,0:0:0:0:
448,192,72875,1,0,0:0:0:0:
192,192,73025,128,0,73175:0:0:0:0:
320,192,73175,1,0,0:0:0:0:
64,192,73175,1,0,0:0:0:0:
448,192,73325,128,0,73475:0:0:0:0:
320,192,73475,1,0,0:0:0:0:
192,192,73475,1,0,0:0:0:0:
64,192,73475,1,0,0:0:0:0:
320,192,73625,128,0,73775:0:0:0:0:
64,192,73775,1,0,0:0:0:0:
448,192,73775,1,0,0:0:0:0:
192,192,73925,128,0,74075:0:0:0:0:
320,192,74075,1,0,0:0:0:0:
448,192,74075,1,0,0:0:0:0:
64,192,74075,1,0,0:0:0:0:
64,192,74225,128,0,74375:0:0:0:0:
192,192,74375,1,0,0:0:0:0:
320,192,74375,1,0,0:0:0:0:
448,192,74525,128,0,74675:0:0:0:0:
192,192,74675,1,0,0:0:0:0:
320,192,74675,1,0,0:0:0:0:
64,192,74675,1,0,0:0:0:0:
192,192,74825,128,0,74975:0:0:0:0:
320,192,74975,1,0,0:0:0:0:
448,192,74975,1,0,0:0:0:0:
64,192,75125,128,0,75275:0:0:0:0:
192,192,75275,1,0,0:0:0:0:
448,192,75275,1,0,0:0:0:0:
320,192,75275,1,0,0:0:0:0:
448,192,75425,128,0,75575:0:0:0:0:
192,192,75575,1,0,0:0:0:0:
64,192,75575,1,0,0:0:0:0:
320,192,75725,128,0,75875:0:0:0:0:
448,192,75875,1,0,0:0:0:0:
64,192,75875,1,0,0:0:0:0:
192,192,75875,1,0,0:0:0:0:
64,192,76025,128,0,76175:0:0:0:0:
448,192,76175,1,0,0:0:0:0:
192,192,76175,1,0,0:0:0:0:
320,192,76325,128,0,76475:0:0:0:0:
192,192,76475,1,0,0:0:0:0:
64,192,76475,1,0,0:0:0:0:
448,192,76475,1,0,0:0:0:0:
192,192,76625,128,0,76775:0:0:0:0:
64,192,76775,1,0,0:0:0:0:
448,192,76775,1,0,0:0:0:0:
320,192,76925,128,0,77075:0:0:0:0:
448,192,77075,1,0,0:0:0:0:
192,192,77075,1,0,0:0:0:0:
64,192,77075,1,0,0:0:0:0:
64,192,77225,128,0,77375:0:0:0:0:
448,192,77375,1,0,0:0:0:0:
320,192,77375,1,0,0:0:0:0:
192,192,77525,128,0,77675:0:0:0:0:
320,192,77675,1,0,0:0:0:0:
448,192,77675,1,0,0:0:0:0:
64,192,77675,1,0,0:0:0:0:
448,192,77825,128,0,77975:0:0:0:0:
192,192,77975,1,0,0:0:0:0:
64,192,77975,1,0,0:0:0:0:
320,192,78125,128,0,78275:0:0:0:0:
448,192,78275,1,0,0:0:0:0:
192,192,78275,1,0,0:0:0:0:
64,192,78275,1,0,0:0:0:0:
64,192,78425,128,0,78575:0:0:0:0:
320,192,78575,1,0,0:0:0:0:
448,192,78575,1,0,0:0:0:0:
192,192,78725,128,0,78875:0:0:0:0:
64,192,78875,1,0,0:0:0:0:
320,192,78875,1,0,0:0:0:0:
448,192,78875,1,0,0:0:0:0:
192,192,79025,1,0,0:0:0:0:
64,192,79025,1,0,0:0:0:0:
320,192,79100,1,0,0:0:0:0:
192,192,79175,1,0,0:0:0:0:
64,192,79175,1,0,0:0:0:0:
448,192,79175,1,0,0:0:0:0:
448,192,79325,1,0,0:0:0:0:
192,192,79325,1,0,0:0:0:0:
64,192,79325,1,0,0:0:0:0:
320,192,79625,1,0,0:0:0:0:
448,192,79625,1,0,0:0:0:0:
192,192,79625,1,0,0:0:0:0:
320,192,79925,1,0,0:0:0:0:
64,192,79925,1,0,0:0:0:0:
448,192,79925,1,0,0:0:0:0:
320,192,80075,1,0,0:0:0:0:
64,192,80075,1,0,0:0:0:0:
448,192,80075,1,0,0:0:0:0:
192,192,80225,1,0,0:0:0:0:
64,192,80225,1,0,0:0:0:0:
320,192,80300,1,0,0:0:0:0:
448,192,80300,1,0,0:0:0:0:
192,192,80375,1,0,0:0:0:0:
64,192,80425,1,0,0:0:0:0:
320,192,80475,1,0,0:0:0:0:
448,192,80525,1,0,0:0:0:0:
192,192,80575,1,0,0:0:0:0:
320,192,80625,1,0,0:0:0:0:
448,192,80675,1,0,0:0:0:0:
64,192,80675,1,0,0:0:0:0:
192,192,80675,1,0,0:0:0:0:
64,192,80825,1,0,0:0:0:0:
320,192,80975,1,0,0:0:0:0:
448,192,80975,1,0,0:0:0:0:
192,192,80975,1,0,0:0:0:0:
320,192,81125,1,0,0:0:0:0:
448,192,81275,1,0,0:0:0:0:
192,192,81275,1,0,0:0:0:0:
64,192,81275,1,0,0:0:0:0:
192,192,81425,1,0,0:0:0:0:
64,192,81575,1,0,0:0:0:0:
320,192,81575,1,0,0:0:0:0:
448,192,81575,1,0,0:0:0:0:
448,192,81725,1,0,0:0:0:0:
64,192,81875,1,0,0:0:0:0:
192,192,81875,1,0,0:0:0:0:
320,192,81875,1,0,0:0:0:0:
320,192,82025,1,0,0:0:0:0:
192,192,82175,1,0,0:0:0:0:
64,192,82175,1,0,0:0:0:0:
448,192,82175,1,0,0:0:0:0:
192,192,82325,1,0,0:0:0:0:
64,192,82475,1,0,0:0:0:0:
320,192,82475,1,0,0:0:0:0:
448,192,82475,1,0,0:0:0:0:
448,192,82625,1,0,0:0:0:0:
320,192,82625,1,0,0:0:0:0:
64,192,82775,1,0,0:0:0:0:
192,192,82775,1,0,0:0:0:0:
448,192,82775,1,0,0:0:0:0:
64,192,82925,1,0,0:0:0:0:
192,192,83075,1,0,0:0:0:0:
320,192,83075,1,0,0:0:0:0:
448,192,83075,1,0,0:0:0:0:
320,192,83225,1,0,0:0:0:0:
192,192,83375,1,0,0:0:0:0:
64,192,83375,1,0,0:0:0:0:
448,192,83375,1,0,0:0:0:0:
192,192,83525,1,0,0:0:0:0:
320,192,83675,1,0,0:0:0:0:
448,192,83675,1,0,0:0:0:0:
64,192,83675,1,0,0:0:0:0:
192,192,83825,1,0,0:0:0:0:
320,192,83900,1,0,0:0:0:0:
64,192,83975,1,0,0:0:0:0:
192,192,83975,1,0,0:0:0:0:
448,192,83975,1,0,0:0:0:0:
64,192,84125,1,0,0:0:0:0:
320,192,84125,1,0,0:0:0:0:
192,192,84275,1,0,0:0:0:0:
320,192,84275,1,0,0:0:0:0:
448,192,84275,1,0,0:0:0:0:
448,192,84425,1,0,0:0:0:0:
320,192,84575,1,0,0:0:0:0:
192,192,84575,1,0,0:0:0:0:
64,192,84575,1,0,0:0:0:0:
448,192,84725,1,0,0:0:0:0:
192,192,84800,1,0,0:0:0:0:
64,192,84875,1,0,0:0:0:0:
448,192,84875,1,0,0:0:0:0:
320,192,84875,1,0,0:0:0:0:
64,192,85025,1,0,0:0:0:0:
320,192,85100,1,0,0:0:0:0:
448,192,85175,1,0,0:0:0:0:
192,192,85175,1,0,0:0:0:0:
64,192,85175,1,0,0:0:0:0:
320,192,85325,1,0,0:0:0:0:
448,192,85325,1,0,0:0:0:0:
320,192,85475,1,0,0:0:0:0:
192,192,85475,1,0,0:0:0:0:
64,192,85475,1,0,0:0:0:0:
192,192,85625,1,0,0:0:0:0:
64,192,85775,1,0,0:0:0:0:
320,192,85775,1,0,0:0:0:0:
448,192,85775,1,0,0:0:0:0:
192,192,85925,1,0,0:0:0:0:
448,192,86000,1,0,0:0:0:0:
320,192,86075,1,0,0:0:0:0:
64,192,86075,1,0,0:0:0:0:
192,192,86075,1,0,0:0:0:0:
64,192,86225,1,0,0:0:0:0:
448,192,86225,1,0,0:0:0:0:
192,192,86300,1,0,0:0:0:0:
64,192,86375,1,0,0:0:0:0:
320,192,86375,1,0,0:0:0:0:
448,192,86375,1,0,0:0:0:0:
320,192,86525,1,0,0:0:0:0:
192,192,86525,1,0,0:0:0:0:
192,192,86675,1,0,0:0:0:0:
64,192,86675,1,0,0:0:0:0:
448,192,86675,1,0,0:0:0:0:
320,192,86825,1,0,0:0:0:0:
64,192,86825,1,0,0:0:0:0:
192,192,86900,1,0,0:0:0:0:
64,192,86975,1,0,0:0:0:0:
320,192,86975,1,0,0:0:0:0:
448,192,86975,1,0,0:0:0:0:
192,192,87125,1,0,0:0:0:0:
448,192,87125,1,0,0:0:0:0:
320,192,87275,1,0,0:0:0:0:
192,192,87275,1,0,0:0:0:0:
64,192,87275,1,0,0:0:0:0:
448,192,87425,1,0,0:0:0:0:
64,192,87425,1,0,0:0:0:0:
320,192,87500,1,0,0:0:0:0:
448,192,87575,1,0,0:0:0:0:
64,192,87575,1,0,0:0:0:0:
192,192,87575,1,0,0:0:0:0:
320,192,87650,1,0,0:0:0:0:
192,192,87725,1,0,0:0:0:0:
64,192,87725,1,0,0:0:0:0:
320,192,87800,1,0,0:0:0:0:
448,192,87800,1,0,0:0:0:0:
192,192,87875,1,0,0:0:0:0:
64,192,87875,1,0,0:0:0:0:
320,192,87950,1,0,0:0:0:0:
448,192,87950,1,0,0:0:0:0:
192,192,88025,1,0,0:0:0:0:
64,192,88025,1,0,0:0:0:0:
320,192,88100,1,0,0:0:0:0:
448,192,88100,1,0,0:0:0:0:
192,192,88175,1,0,0:0:0:0:
64,192,88175,1,0,0:0:0:0:
320,192,88250,1,0,0:0:0:0:
448,192,88250,1,0,0:0:0:0:
192,192,88325,1,0,0:0:0:0:
64,192,88325,1,0,0:0:0:0:
448,192,88400,1,0,0:0:0:0:
320,192,88400,1,0,0:0:0:0:
192,192,88475,1,0,0:0:0:0:
64,192,88475,1,0,0:0:0:0:
320,192,88550,1,0,0:0:0:0:
448,192,88550,1,0,0:0:0:0:
192,192,88625,1,0,0:0:0:0:
64,192,88625,1,0,0:0:0:0:
320,192,88700,1,0,0:0:0:0:
448,192,88700,1,0,0:0:0:0:
192,192,88775,128,0,88850:0:0:0:0:
64,192,88775,128,0,88925:0:0:0:0:
320,192,88850,1,0,0:0:0:0:
448,192,88925,1,0,0:0:0:0:
64,192,89000,128,0,89050:0:0:0:0:
192,192,89025,128,0,89100:0:0:0:0:
448,192,89100,128,0,89150:0:0:0:0:
320,192,89125,128,0,89200:0:0:0:0:
192,192,89200,128,0,89250:0:0:0:0:
64,192,89225,128,0,89300:0:0:0:0:
320,192,89325,128,0,89375:0:0:0:0:
448,192,89350,128,0,89425:0:0:0:0:
64,192,89450,1,0,0:0:0:0:
448,192,89525,1,0,0:0:0:0:
192,192,89525,128,0,89600:0:0:0:0:
448,192,89675,1,0,0:0:0:0:
64,192,89675,128,0,89900:0:0:0:0:
320,192,89675,128,0,89825:0:0:0:0:
64,192,89975,1,0,0:0:0:0:
192,192,89975,1,0,0:0:0:0:
320,192,89975,1,0,0:0:0:0:
448,192,89975,1,0,0:0:0:0:
192,192,90125,1,0,0:0:0:0:
320,192,90275,1,0,0:0:0:0:
448,192,90275,1,0,0:0:0:0:
64,192,90275,1,0,0:0:0:0:
192,192,90425,1,0,0:0:0:0:
320,192,90500,1,0,0:0:0:0:
448,192,90500,1,0,0:0:0:0:
64,192,90575,1,0,0:0:0:0:
320,192,90650,1,0,0:0:0:0:
192,192,90725,1,0,0:0:0:0:
448,192,90875,1,0,0:0:0:0:
192,192,90875,1,0,0:0:0:0:
320,192,90950,1,0,0:0:0:0:
64,192,91025,1,0,0:0:0:0:
192,192,91025,1,0,0:0:0:0:
320,192,91100,1,0,0:0:0:0:
448,192,91100,1,0,0:0:0:0:
64,192,91175,1,0,0:0:0:0:
192,192,91250,1,0,0:0:0:0:
448,192,91325,1,0,0:0:0:0:
320,192,91325,1,0,0:0:0:0:
192,192,91475,1,0,0:0:0:0:
448,192,91475,1,0,0:0:0:0:
64,192,91475,1,0,0:0:0:0:
320,192,91625,1,0,0:0:0:0:
192,192,91700,1,0,0:0:0:0:
64,192,91700,1,0,0:0:0:0:
448,192,91775,1,0,0:0:0:0:
320,192,91775,1,0,0:0:0:0:
64,192,91850,1,0,0:0:0:0:
192,192,91925,1,0,0:0:0:0:
448,192,91925,1,0,0:0:0:0:
64,192,92075,1,0,0:0:0:0:
192,192,92075,1,0,0:0:0:0:
320,192,92075,1,0,0:0:0:0:
448,192,92150,1,0,0:0:0:0:
192,192,92225,1,0,0:0:0:0:
64,192,92225,1,0,0:0:0:0:
320,192,92300,1,0,0:0:0:0:
448,192,92375,1,0,0:0:0:0:
64,192,92375,1,0,0:0:0:0:
320,192,92450,1,0,0:0:0:0:
192,192,92525,1,0,0:0:0:0:
64,192,92675,1,0,0:0:0:0:
320,192,92675,1,0,0:0:0:0:
448,192,92675,1,0,0:0:0:0:
192,192,92825,1,0,0:0:0:0:
64,192,92900,1,0,0:0:0:0:
448,192,92900,1,0,0:0:0:0:
320,192,92975,1,0,0:0:0:0:
192,192,93050,1,0,0:0:0:0:
320,192,93125,1,0,0:0:0:0:
448,192,93125,1,0,0:0:0:0:
64,192,93275,1,0,0:0:0:0:
448,192,93275,1,0,0:0:0:0:
320,192,93350,1,0,0:0:0:0:
192,192,93425,1,0,0:0:0:0:
64,192,93425,1,0,0:0:0:0:
320,192,93500,1,0,0:0:0:0:
448,192,93500,1,0,0:0:0:0:
192,192,93575,1,0,0:0:0:0:
64,192,93575,1,0,0:0:0:0:
448,192,93650,1,0,0:0:0:0:
64,192,93725,1,0,0:0:0:0:
320,192,93725,128,0,93800:0:0:0:0:
192,192,93800,128,0,93875:0:0:0:0:
448,192,93875,128,0,93950:0:0:0:0:
64,192,93875,1,0,0:0:0:0:
320,192,93875,1,0,0:0:0:0:
192,192,93950,128,0,94025:0:0:0:0:
448,192,94025,1,0,0:0:0:0:
320,192,94025,128,0,94100:0:0:0:0:
192,192,94100,1,0,0:0:0:0:
64,192,94100,128,0,94175:0:0:0:0:
448,192,94175,128,0,94250:0:0:0:0:
320,192,94250,128,0,94325:0:0:0:0:
192,192,94325,128,0,94400:0:0:0:0:
64,192,94325,1,0,0:0:0:0:
448,192,94400,128,0,94475:0:0:0:0:
320,192,94475,1,0,0:0:0:0:
192,192,94475,1,0,0:0:0:0:
64,192,94475,128,0,94700:0:0:0:0:
320,192,94625,128,0,94775:0:0:0:0:
448,192,94775,1,0,0:0:0:0:
64,192,94775,1,0,0:0:0:0:
192,192,94775,1,0,0:0:0:0:
320,192,94925,1,0,0:0:0:0:
192,192,95075,1,0,0:0:0:0:
64,192,95075,1,0,0:0:0:0:
448,192,95075,1,0,0:0:0:0:
320,192,95225,1,0,0:0:0:0:
192,192,95300,1,0,0:0:0:0:
64,192,95300,1,0,0:0:0:0:
448,192,95375,1,0,0:0:0:0:
192,192,95450,1,0,0:0:0:0:
320,192,95525,1,0,0:0:0:0:
64,192,95675,1,0,0:0:0:0:
320,192,95675,1,0,0:0:0:0:
192,192,95750,1,0,0:0:0:0:
448,192,95825,1,0,0:0:0:0:
320,192,95825,1,0,0:0:0:0:
192,192,95900,1,0,0:0:0:0:
64,192,95900,1,0,0:0:0:0:
448,192,95975,1,0,0:0:0:0:
320,192,96050,1,0,0:0:0:0:
64,192,96125,1,0,0:0:0:0:
192,192,96125,1,0,0:0:0:0:
320,192,96275,1,0,0:0:0:0:
64,192,96275,1,0,0:0:0:0:
448,192,96275,1,0,0:0:0:0:
192,192,96425,1,0,0:0:0:0:
320,192,96500,1,0,0:0:0:0:
448,192,96500,1,0,0:0:0:0:
64,192,96575,1,0,0:0:0:0:
192,192,96575,1,0,0:0:0:0:
448,192,96650,1,0,0:0:0:0:
320,192,96725,1,0,0:0:0:0:
64,192,96725,1,0,0:0:0:0:
448,192,96875,1,0,0:0:0:0:
320,192,96875,1,0,0:0:0:0:
192,192,96875,1,0,0:0:0:0:
64,192,96950,1,0,0:0:0:0:
320,192,97025,1,0,0:0:0:0:
448,192,97025,1,0,0:0:0:0:
192,192,97100,1,0,0:0:0:0:
64,192,97175,1,0,0:0:0:0:
448,192,97175,1,0,0:0:0:0:
192,192,97250,1,0,0:0:0:0:
320,192,97325,1,0,0:0:0:0:
448,192,97475,1,0,0:0:0:0:
192,192,97475,1,0,0:0:0:0:
64,192,97475,1,0,0:0:0:0:
320,192,97625,1,0,0:0:0:0:
448,192,97700,1,0,0:0:0:0:
64,192,97700,1,0,0:0:0:0:
192,192,97775,1,0,0:0:0:0:
320,192,97850,1,0,0:0:0:0:
192,192,97925,1,0,0:0:0:0:
64,192,97925,1,0,0:0:0:0:
448,192,98075,1,0,0:0:0:0:
64,192,98075,1,0,0:0:0:0:
192,192,98150,1,0,0:0:0:0:
320,192,98225,1,0,0:0:0:0:
448,192,98225,1,0,0:0:0:0:
192,192,98300,1,0,0:0:0:0:
64,192,98300,1,0,0:0:0:0:
320,192,98375,1,0,0:0:0:0:
448,192,98375,1,0,0:0:0:0:
64,192,98450,1,0,0:0:0:0:
448,192,98525,1,0,0:0:0:0:
192,192,98525,1,0,0:0:0:0:
320,192,98600,1,0,0:0:0:0:
448,192,98675,1,0,0:0:0:0:
192,192,98675,1,0,0:0:0:0:
64,192,98675,1,0,0:0:0:0:
320,192,98750,1,0,0:0:0:0:
64,192,98825,1,0,0:0:0:0:
192,192,98825,1,0,0:0:0:0:
320,192,98900,1,0,0:0:0:0:
448,192,98900,1,0,0:0:0:0:
64,192,98975,1,0,0:0:0:0:
192,192,99050,1,0,0:0:0:0:
448,192,99125,1,0,0:0:0:0:
320,192,99125,1,0,0:0:0:0:
64,192,99200,1,0,0:0:0:0:
448,192,99275,1,0,0:0:0:0:
320,192,99275,1,0,0:0:0:0:
192,192,99275,128,0,99500:0:0:0:0:
64,192,99350,128,0,99500:0:0:0:0:
320,192,99425,128,0,99575:0:0:0:0:
448,192,99575,1,0,0:0:0:0:
192,192,99575,1,0,0:0:0:0:
64,192,99575,1,0,0:0:0:0:
192,192,99725,1,0,0:0:0:0:
320,192,99725,1,0,0:0:0:0:
320,192,99875,1,0,0:0:0:0:
64,192,99875,1,0,0:0:0:0:
448,192,99875,1,0,0:0:0:0:
192,192,100025,1,0,0:0:0:0:
448,192,100100,1,0,0:0:0:0:
64,192,100100,1,0,0:0:0:0:
320,192,100100,1,0,0:0:0:0:
192,192,100175,1,0,0:0:0:0:
448,192,100325,1,0,0:0:0:0:
64,192,100325,1,0,0:0:0:0:
320,192,100325,1,0,0:0:0:0:
192,192,100475,128,0,100625:0:0:0:0:
320,192,100512,128,0,100775:0:0:0:0:
448,192,100775,1,0,0:0:0:0:
64,192,100775,1,0,0:0:0:0:
192,192,100775,1,0,0:0:0:0:
320,192,100925,1,0,0:0:0:0:
448,192,101000,1,0,0:0:0:0:
64,192,101000,1,0,0:0:0:0:
192,192,101000,1,0,0:0:0:0:
320,192,101075,1,0,0:0:0:0:
448,192,101225,1,0,0:0:0:0:
64,192,101225,1,0,0:0:0:0:
192,192,101225,1,0,0:0:0:0:
320,192,101375,1,0,0:0:0:0:
192,192,101375,1,0,0:0:0:0:
320,192,101525,1,0,0:0:0:0:
64,192,101525,1,0,0:0:0:0:
448,192,101525,1,0,0:0:0:0:
192,192,101675,128,0,101750:0:0:0:0:
64,192,101712,128,0,101787:0:0:0:0:
192,192,101825,128,0,101900:0:0:0:0:
64,192,101862,128,0,101937:0:0:0:0:
192,192,101975,1,0,0:0:0:0:
320,192,101975,1,0,0:0:0:0:
448,192,101975,1,0,0:0:0:0:
64,192,102125,1,0,0:0:0:0:
448,192,102125,1,0,0:0:0:0:
320,192,102275,1,0,0:0:0:0:
64,192,102275,1,0,0:0:0:0:
192,192,102275,1,0,0:0:0:0:
448,192,102425,1,0,0:0:0:0:
320,192,102500,1,0,0:0:0:0:
192,192,102500,1,0,0:0:0:0:
64,192,102500,1,0,0:0:0:0:
448,192,102575,1,0,0:0:0:0:
192,192,102725,1,0,0:0:0:0:
64,192,102725,1,0,0:0:0:0:
320,192,102800,1,0,0:0:0:0:
448,192,102800,1,0,0:0:0:0:
64,192,102875,128,0,103025:0:0:0:0:
448,192,102950,128,0,103175:0:0:0:0:
320,192,103025,128,0,103100:0:0:0:0:
192,192,103175,1,0,0:0:0:0:
64,192,103175,1,0,0:0:0:0:
320,192,103175,1,0,0:0:0:0:
64,192,103325,1,0,0:0:0:0:
448,192,103325,1,0,0:0:0:0:
320,192,103475,1,0,0:0:0:0:
192,192,103475,1,0,0:0:0:0:
448,192,103475,1,0,0:0:0:0:
192,192,103625,1,0,0:0:0:0:
64,192,103625,1,0,0:0:0:0:
192,192,103700,1,0,0:0:0:0:
448,192,103700,1,0,0:0:0:0:
64,192,103700,1,0,0:0:0:0:
320,192,103775,1,0,0:0:0:0:
448,192,103925,1,0,0:0:0:0:
64,192,103925,1,0,0:0:0:0:
192,192,103925,1,0,0:0:0:0:
320,192,104075,128,0,104225:0:0:0:0:
192,192,104075,128,0,104225:0:0:0:0:
192,192,104375,1,0,0:0:0:0:
64,192,104375,1,0,0:0:0:0:
320,192,104450,1,0,0:0:0:0:
448,192,104450,1,0,0:0:0:0:
64,192,104525,1,0,0:0:0:0:
192,192,104600,1,0,0:0:0:0:
320,192,104675,1,0,0:0:0:0:
448,192,104675,1,0,0:0:0:0:
64,192,104750,1,0,0:0:0:0:
192,192,104750,1,0,0:0:0:0:
448,192,104825,1,0,0:0:0:0:
64,192,104900,1,0,0:0:0:0:
320,192,104900,1,0,0:0:0:0:
192,192,104975,1,0,0:0:0:0:
448,192,104975,1,0,0:0:0:0:
64,192,105050,1,0,0:0:0:0:
320,192,105125,1,0,0:0:0:0:
448,192,105125,1,0,0:0:0:0:
192,192,105200,1,0,0:0:0:0:
64,192,105200,1,0,0:0:0:0:
320,192,105275,1,0,0:0:0:0:
448,192,105275,1,0,0:0:0:0:
192,192,105350,1,0,0:0:0:0:
64,192,105425,1,0,0:0:0:0:
448,192,105425,1,0,0:0:0:0:
320,192,105500,1,0,0:0:0:0:
192,192,105500,1,0,0:0:0:0:
448,192,105575,1,0,0:0:0:0:
64,192,105575,1,0,0:0:0:0:
320,192,105650,1,0,0:0:0:0:
192,192,105725,1,0,0:0:0:0:
64,192,105725,1,0,0:0:0:0:
448,192,105800,1,0,0:0:0:0:
320,192,105800,1,0,0:0:0:0:
192,192,105875,1,0,0:0:0:0:
64,192,105875,1,0,0:0:0:0:
320,192,105950,1,0,0:0:0:0:
448,192,105950,1,0,0:0:0:0:
192,192,106025,1,0,0:0:0:0:
64,192,106100,1,0,0:0:0:0:
320,192,106175,1,0,0:0:0:0:
448,192,106175,1,0,0:0:0:0:
64,192,106250,1,0,0:0:0:0:
192,192,106250,1,0,0:0:0:0:
320,192,106325,1,0,0:0:0:0:
192,192,106400,1,0,0:0:0:0:
448,192,106400,1,0,0:0:0:0:
64,192,106475,1,0,0:0:0:0:
320,192,106475,1,0,0:0:0:0:
192,192,106550,1,0,0:0:0:0:
320,192,106625,1,0,0:0:0:0:
448,192,106625,1,0,0:0:0:0:
192,192,106700,1,0,0:0:0:0:
64,192,106700,1,0,0:0:0:0:
320,192,106775,1,0,0:0:0:0:
448,192,106775,1,0,0:0:0:0:
64,192,106825,1,0,0:0:0:0:
192,192,106875,1,0,0:0:0:0:
448,192,106925,1,0,0:0:0:0:
64,192,106975,1,0,0:0:0:0:
320,192,107025,1,0,0:0:0:0:
448,192,107075,1,0,0:0:0:0:
192,192,107075,1,0,0:0:0:0:
64,192,107125,1,0,0:0:0:0:
320,192,107175,1,0,0:0:0:0:
192,192,107225,1,0,0:0:0:0:
448,192,107275,1,0,0:0:0:0:
320,192,107325,1,0,0:0:0:0:
64,192,107375,1,0,0:0:0:0:
192,192,107375,1,0,0:0:0:0:
448,192,107425,1,0,0:0:0:0:
320,192,107475,1,0,0:0:0:0:
192,192,107525,1,0,0:0:0:0:
64,192,107525,1,0,0:0:0:0:
448,192,107575,1,0,0:0:0:0:
320,192,107625,1,0,0:0:0:0:
192,192,107675,1,0,0:0:0:0:
64,192,107675,1,0,0:0:0:0:
320,192,107725,5,0,0:0:0:0:
448,192,107775,1,0,0:0:0:0:
64,192,107775,1,0,0:0:0:0:
192,192,107825,1,0,0:0:0:0:
448,192,107875,1,0,0:0:0:0:
320,192,107875,1,0,0:0:0:0:
64,192,107925,1,0,0:0:0:0:
192,192,107975,1,0,0:0:0:0:
448,192,107975,1,0,0:0:0:0:
320,192,107975,1,0,0:0:0:0:
64,192,108125,128,0,108200:0:0:0:0:
64,192,108275,128,0,108350:0:0:0:0:
448,192,108425,128,0,108500:0:0:0:0:
320,192,108575,128,0,108875:0:0:0:0:
64,192,108875,128,0,109100:0:0:0:0:
192,192,108875,128,0,109100:0:0:0:0:
448,192,108875,128,0,109100:0:0:0:0:
320,192,109175,128,0,109250:0:0:0:0:
192,192,109175,128,0,109250:0:0:0:0:
64,192,109175,128,0,109250:0:0:0:0:
192,192,109325,128,0,109400:0:0:0:0:
320,192,109325,128,0,109400:0:0:0:0:
64,192,109325,128,0,109400:0:0:0:0:
64,192,109475,128,0,109700:0:0:0:0:
192,192,109475,128,0,109662:0:0:0:0:
320,192,109475,128,0,109625:0:0:0:0:
192,192,109775,1,0,0:0:0:0:
320,192,109775,1,0,0:0:0:0:
192,192,110075,128,0,110150:0:0:0:0:
320,192,110075,128,0,110150:0:0:0:0:
448,192,110075,128,0,110150:0:0:0:0:
192,192,110225,128,0,110375:0:0:0:0:
320,192,110225,128,0,110412:0:0:0:0:
448,192,110225,128,0,110450:0:0:0:0:
320,192,110525,128,0,110600:0:0:0:0:
192,192,110525,128,0,110600:0:0:0:0:
64,192,110525,128,0,110600:0:0:0:0:
320,192,110675,128,0,110900:0:0:0:0:
192,192,110675,128,0,110862:0:0:0:0:
64,192,110675,128,0,110825:0:0:0:0:
64,192,110975,1,0,0:0:0:0:
192,192,110975,1,0,0:0:0:0:
448,192,110975,128,0,111162:0:0:0:0:
320,192,111050,128,0,111200:0:0:0:0:
64,192,111125,128,0,111275:0:0:0:0:
192,192,111275,128,0,111350:0:0:0:0:
320,192,111275,128,0,111350:0:0:0:0:
448,192,111275,128,0,111350:0:0:0:0:
448,192,111425,128,0,111575:0:0:0:0:
320,192,111425,128,0,111612:0:0:0:0:
192,192,111425,128,0,111650:0:0:0:0:
320,192,111725,128,0,111800:0:0:0:0:
192,192,111725,128,0,111800:0:0:0:0:
64,192,111725,128,0,111800:0:0:0:0:
320,192,111875,128,0,112025:0:0:0:0:
192,192,111875,128,0,112062:0:0:0:0:
64,192,111875,128,0,112100:0:0:0:0:
192,192,112175,1,0,0:0:0:0:
448,192,112175,128,0,112362:0:0:0:0:
64,192,112250,128,0,112475:0:0:0:0:
320,192,112325,128,0,112400:0:0:0:0:
320,192,112475,128,0,112550:0:0:0:0:
192,192,112475,128,0,112550:0:0:0:0:
448,192,112475,128,0,112550:0:0:0:0:
192,192,112625,128,0,112775:0:0:0:0:
320,192,112625,128,0,112812:0:0:0:0:
448,192,112625,128,0,112850:0:0:0:0:
320,192,112925,128,0,113000:0:0:0:0:
192,192,112925,128,0,113000:0:0:0:0:
64,192,112925,128,0,113000:0:0:0:0:
64,192,113075,128,0,113225:0:0:0:0:
320,192,113075,128,0,113262:0:0:0:0:
448,192,113075,128,0,113300:0:0:0:0:
64,192,113375,128,0,113600:0:0:0:0:
192,192,113375,128,0,113562:0:0:0:0:
448,192,113375,128,0,113525:0:0:0:0:
64,192,113675,128,0,113900:0:0:0:0:
192,192,113675,128,0,113862:0:0:0:0:
320,192,113675,128,0,113825:0:0:0:0:
64,192,113975,128,0,114050:0:0:0:0:
320,192,113975,128,0,114050:0:0:0:0:
448,192,113975,128,0,114050:0:0:0:0:
448,192,114125,128,0,114200:0:0:0:0:
320,192,114125,128,0,114200:0:0:0:0:
64,192,114125,128,0,114200:0:0:0:0:
64,192,114275,128,0,114425:0:0:0:0:
320,192,114275,128,0,114462:0:0:0:0:
448,192,114275,128,0,114500:0:0:0:0:
448,192,114575,1,0,0:0:0:0:
64,192,114575,128,0,114800:0:0:0:0:
320,192,114725,128,0,114875:0:0:0:0:
448,192,114875,128,0,114950:0:0:0:0:
192,192,114875,128,0,114950:0:0:0:0:
64,192,114875,128,0,114950:0:0:0:0:
64,192,115025,128,0,115250:0:0:0:0:
192,192,115025,128,0,115212:0:0:0:0:
448,192,115025,128,0,115175:0:0:0:0:
320,192,115325,128,0,115400:0:0:0:0:
448,192,115325,128,0,115400:0:0:0:0:
64,192,115325,128,0,115400:0:0:0:0:
448,192,115475,128,0,115625:0:0:0:0:
320,192,115475,128,0,115662:0:0:0:0:
64,192,115475,128,0,115700:0:0:0:0:
64,192,115775,1,0,0:0:0:0:
448,192,115775,1,0,0:0:0:0:
192,192,115775,128,0,115962:0:0:0:0:
320,192,115850,128,0,116000:0:0:0:0:
448,192,115925,128,0,116075:0:0:0:0:
192,192,116075,1,0,0:0:0:0:
64,192,116075,128,0,116262:0:0:0:0:
320,192,116150,128,0,116300:0:0:0:0:
192,192,116225,128,0,116375:0:0:0:0:
320,192,116375,128,0,116600:0:0:0:0:
448,192,116375,128,0,116600:0:0:0:0:
64,192,116375,128,0,116600:0:0:0:0:
64,192,116675,128,0,116975:0:0:0:0:
320,192,116675,128,0,116975:0:0:0:0:
448,192,116675,128,0,116975:0:0:0:0:
192,192,117125,128,0,117425:0:0:0:0:
64,192,117125,128,0,117425:0:0:0:0:
448,192,117125,128,0,117425:0:0:0:0:
320,192,117575,128,0,117875:0:0:0:0:
448,192,117575,128,0,117875:0:0:0:0:
64,192,117575,128,0,117875:0:0:0:0:
64,192,118025,128,0,118325:0:0:0:0:
448,192,118025,128,0,118325:0:0:0:0:
320,192,118025,128,0,118325:0:0:0:0:
192,192,118475,128,0,118700:0:0:0:0:
320,192,118475,128,0,118737:0:0:0:0:
448,192,118475,128,0,118775:0:0:0:0:
64,192,118775,128,0,118850:0:0:0:0:
192,192,118812,128,0,118887:0:0:0:0:
320,192,118850,128,0,118950:0:0:0:0:
64,192,118925,128,0,119025:0:0:0:0:
320,192,119000,128,0,119100:0:0:0:0:
64,192,119075,128,0,119175:0:0:0:0:
320,192,119150,128,0,119250:0:0:0:0:
64,192,119225,128,0,119300:0:0:0:0:
448,192,119262,128,0,119337:0:0:0:0:
192,192,119300,128,0,119375:0:0:0:0:
320,192,119375,128,0,119562:0:0:0:0:
448,192,119375,128,0,119525:0:0:0:0:
64,192,119375,128,0,119600:0:0:0:0:
192,192,119675,128,0,119750:0:0:0:0:
320,192,119675,128,0,119750:0:0:0:0:
448,192,119675,128,0,119750:0:0:0:0:
448,192,119825,128,0,119975:0:0:0:0:
320,192,119825,128,0,120012:0:0:0:0:
192,192,119825,128,0,120050:0:0:0:0:
64,192,120125,128,0,120200:0:0:0:0:
320,192,120125,128,0,120200:0:0:0:0:
448,192,120125,128,0,120200:0:0:0:0:
448,192,120275,128,0,120500:0:0:0:0:
320,192,120275,128,0,120462:0:0:0:0:
64,192,120275,128,0,120425:0:0:0:0:
320,192,120575,1,0,0:0:0:0:
192,192,120575,128,0,120762:0:0:0:0:
448,192,120575,1,0,0:0:0:0:
64,192,120650,128,0,120800:0:0:0:0:
448,192,120725,128,0,120875:0:0:0:0:
192,192,120875,128,0,120950:0:0:0:0:
320,192,120875,128,0,120950:0:0:0:0:
64,192,120875,128,0,120950:0:0:0:0:
64,192,121025,128,0,121175:0:0:0:0:
192,192,121025,128,0,121212:0:0:0:0:
320,192,121025,128,0,121250:0:0:0:0:
448,192,121325,128,0,121400:0:0:0:0:
192,192,121325,128,0,121400:0:0:0:0:
64,192,121325,128,0,121400:0:0:0:0:
448,192,121475,128,0,121625:0:0:0:0:
192,192,121475,128,0,121662:0:0:0:0:
64,192,121475,128,0,121700:0:0:0:0:
192,192,121775,1,0,0:0:0:0:
448,192,121775,128,0,121962:0:0:0:0:
64,192,121850,128,0,122075:0:0:0:0:
320,192,121925,128,0,122000:0:0:0:0:
192,192,122075,128,0,122150:0:0:0:0:
320,192,122075,128,0,122150:0:0:0:0:
448,192,122075,128,0,122150:0:0:0:0:
448,192,122225,128,0,122450:0:0:0:0:
192,192,122225,128,0,122375:0:0:0:0:
320,192,122225,128,0,122412:0:0:0:0:
64,192,122525,128,0,122600:0:0:0:0:
192,192,122525,128,0,122600:0:0:0:0:
320,192,122525,128,0,122600:0:0:0:0:
448,192,122675,128,0,122825:0:0:0:0:
192,192,122675,128,0,122862:0:0:0:0:
64,192,122675,128,0,122900:0:0:0:0:
64,192,122975,128,0,123125:0:0:0:0:
448,192,122975,128,0,123200:0:0:0:0:
320,192,122975,128,0,123162:0:0:0:0:
448,192,123275,128,0,123425:0:0:0:0:
320,192,123275,128,0,123462:0:0:0:0:
192,192,123275,128,0,123500:0:0:0:0:
64,192,123575,128,0,123800:0:0:0:0:
192,192,123575,128,0,123725:0:0:0:0:
448,192,123575,128,0,123650:0:0:0:0:
320,192,123650,128,0,123725:0:0:0:0:
448,192,123725,128,0,123800:0:0:0:0:
192,192,123800,128,0,123875:0:0:0:0:
320,192,123875,128,0,123950:0:0:0:0:
448,192,123950,128,0,124025:0:0:0:0:
192,192,124025,1,0,0:0:0:0:
64,192,124025,1,0,0:0:0:0:
320,192,124025,1,0,0:0:0:0:
192,192,124175,1,0,0:0:0:0:
448,192,124175,1,0,0:0:0:0:
64,192,124250,128,0,124400:0:0:0:0:
320,192,124287,128,0,124400:0:0:0:0:
448,192,124325,128,0,124400:0:0:0:0:
192,192,124400,128,0,124475:0:0:0:0:
64,192,124475,1,0,0:0:0:0:
320,192,124475,1,0,0:0:0:0:
448,192,124475,1,0,0:0:0:0:
192,192,124550,128,0,124775:0:0:0:0:
64,192,124775,128,0,124962:0:0:0:0:
448,192,124775,1,0,0:0:0:0:
320,192,124850,128,0,125075:0:0:0:0:
192,192,124925,1,0,0:0:0:0:
448,192,125075,128,0,125150:0:0:0:0:
192,192,125112,128,0,125187:0:0:0:0:
320,192,125225,1,0,0:0:0:0:
448,192,125225,128,0,125300:0:0:0:0:
192,192,125262,128,0,125337:0:0:0:0:
448,192,125375,128,0,125600:0:0:0:0:
64,192,125375,128,0,125525:0:0:0:0:
192,192,125450,128,0,125600:0:0:0:0:
320,192,125525,128,0,125675:0:0:0:0:
448,192,125675,128,0,125825:0:0:0:0:
192,192,125675,1,0,0:0:0:0:
64,192,125675,128,0,125975:0:0:0:0:
320,192,125750,128,0,125900:0:0:0:0:
192,192,125825,128,0,125975:0:0:0:0:
320,192,125975,1,0,0:0:0:0:
448,192,125975,1,0,0:0:0:0:
448,192,126125,1,0,0:0:0:0:
192,192,126125,1,0,0:0:0:0:
320,192,126275,1,0,0:0:0:0:
64,192,126275,1,0,0:0:0:0:
192,192,126425,1,0,0:0:0:0:
64,192,126425,1,0,0:0:0:0:
320,192,126575,1,0,0:0:0:0:
448,192,126575,1,0,0:0:0:0:
320,192,126725,1,0,0:0:0:0:
64,192,126725,1,0,0:0:0:0:
448,192,126875,1,0,0:0:0:0:
192,192,126875,1,0,0:0:0:0:
64,192,127025,1,0,0:0:0:0:
192,192,127025,1,0,0:0:0:0:
320,192,127175,1,0,0:0:0:0:
448,192,127175,1,0,0:0:0:0:
192,192,127250,1,0,0:0:0:0:
64,192,127250,1,0,0:0:0:0:
320,192,127325,1,0,0:0:0:0:
448,192,127325,1,0,0:0:0:0:
192,192,127400,1,0,0:0:0:0:
64,192,127400,1,0,0:0:0:0:
320,192,127475,1,0,0:0:0:0:
448,192,127475,1,0,0:0:0:0:
192,192,127550,1,0,0:0:0:0:
64,192,127550,1,0,0:0:0:0:
320,192,127625,1,0,0:0:0:0:
448,192,127625,1,0,0:0:0:0:
192,192,127700,1,0,0:0:0:0:
64,192,127775,1,0,0:0:0:0:
448,192,127775,1,0,0:0:0:0:
192,192,127850,1,0,0:0:0:0:
320,192,127850,1,0,0:0:0:0:
64,192,127925,1,0,0:0:0:0:
448,192,127925,1,0,0:0:0:0:
192,192,128000,1,0,0:0:0:0:
320,192,128000,1,0,0:0:0:0:
64,192,128075,128,0,128300:0:0:0:0:
448,192,128075,128,0,128300:0:0:0:0:
448,192,128375,1,0,0:0:0:0:
192,192,128375,128,0,128450:0:0:0:0:
64,192,128412,128,0,128487:0:0:0:0:
320,192,128525,128,0,128600:0:0:0:0:
192,192,128562,128,0,128637:0:0:0:0:
448,192,128675,128,0,128825:0:0:0:0:
320,192,128712,128,0,128900:0:0:0:0:
64,192,128825,128,0,128975:0:0:0:0:
192,192,128975,1,0,0:0:0:0:
448,192,128975,1,0,0:0:0:0:
320,192,128975,1,0,0:0:0:0:
448,192,129275,128,0,129350:0:0:0:0:
64,192,129275,1,0,0:0:0:0:
320,192,129300,128,0,129375:0:0:0:0:
192,192,129325,128,0,129400:0:0:0:0:
448,192,129425,128,0,129650:0:0:0:0:
320,192,129450,128,0,129612:0:0:0:0:
192,192,129475,128,0,129575:0:0:0:0:
320,192,129725,128,0,129800:0:0:0:0:
192,192,129750,128,0,129825:0:0:0:0:
64,192,129775,128,0,129850:0:0:0:0:
320,192,129875,128,0,130100:0:0:0:0:
448,192,129875,1,0,0:0:0:0:
192,192,129900,128,0,130062:0:0:0:0:
64,192,129925,128,0,130025:0:0:0:0:
64,192,130175,1,0,0:0:0:0:
192,192,130175,1,0,0:0:0:0:
448,192,130175,128,0,130362:0:0:0:0:
320,192,130250,128,0,130400:0:0:0:0:
64,192,130325,128,0,130475:0:0:0:0:
192,192,130475,128,0,130550:0:0:0:0:
320,192,130500,128,0,130575:0:0:0:0:
448,192,130525,128,0,130600:0:0:0:0:
192,192,130625,128,0,130850:0:0:0:0:
320,192,130650,128,0,130812:0:0:0:0:
448,192,130675,128,0,130775:0:0:0:0:
64,192,130775,1,0,0:0:0:0:
64,192,130925,128,0,131000:0:0:0:0:
192,192,130950,128,0,131025:0:0:0:0:
320,192,130975,128,0,131050:0:0:0:0:
64,192,131075,128,0,131300:0:0:0:0:
192,192,131100,128,0,131262:0:0:0:0:
320,192,131125,128,0,131225:0:0:0:0:
192,192,131375,1,0,0:0:0:0:
448,192,131375,128,0,131562:0:0:0:0:
320,192,131375,1,0,0:0:0:0:
64,192,131450,128,0,131675:0:0:0:0:
320,192,131525,128,0,131600:0:0:0:0:
448,192,131675,128,0,131750:0:0:0:0:
192,192,131675,1,0,0:0:0:0:
320,192,131700,128,0,131775:0:0:0:0:
64,192,131725,128,0,131800:0:0:0:0:
448,192,131825,128,0,132050:0:0:0:0:
320,192,131850,128,0,132012:0:0:0:0:
64,192,131875,128,0,131975:0:0:0:0:
64,192,132125,128,0,132200:0:0:0:0:
192,192,132150,128,0,132225:0:0:0:0:
320,192,132175,128,0,132250:0:0:0:0:
64,192,132275,128,0,132500:0:0:0:0:
192,192,132275,1,0,0:0:0:0:
448,192,132300,128,0,132425:0:0:0:0:
320,192,132325,128,0,132462:0:0:0:0:
448,192,132575,128,0,132800:0:0:0:0:
64,192,132575,1,0,0:0:0:0:
320,192,132600,128,0,132762:0:0:0:0:
192,192,132625,128,0,132725:0:0:0:0:
64,192,132875,128,0,133100:0:0:0:0:
320,192,132875,1,0,0:0:0:0:
192,192,132900,128,0,133062:0:0:0:0:
448,192,132925,128,0,133025:0:0:0:0:
448,192,133175,128,0,133250:0:0:0:0:
192,192,133175,1,0,0:0:0:0:
320,192,133200,128,0,133275:0:0:0:0:
64,192,133225,128,0,133300:0:0:0:0:
192,192,133325,128,0,133400:0:0:0:0:
448,192,133362,128,0,133437:0:0:0:0:
64,192,133475,128,0,133700:0:0:0:0:
192,192,133500,128,0,133662:0:0:0:0:
320,192,133525,128,0,133625:0:0:0:0:
320,192,133775,1,0,0:0:0:0:
64,192,133775,128,0,134000:0:0:0:0:
448,192,133775,1,0,0:0:0:0:
448,192,133925,128,0,134075:0:0:0:0:
64,192,134075,128,0,134150:0:0:0:0:
320,192,134075,1,0,0:0:0:0:
192,192,134100,128,0,134175:0:0:0:0:
448,192,134125,128,0,134200:0:0:0:0:
64,192,134225,128,0,134450:0:0:0:0:
192,192,134250,128,0,134412:0:0:0:0:
448,192,134275,128,0,134375:0:0:0:0:
448,192,134525,128,0,134600:0:0:0:0:
320,192,134550,128,0,134625:0:0:0:0:
64,192,134575,128,0,134650:0:0:0:0:
448,192,134675,128,0,134900:0:0:0:0:
192,192,134675,1,0,0:0:0:0:
320,192,134700,128,0,134862:0:0:0:0:
64,192,134725,128,0,134825:0:0:0:0:
64,192,134975,1,0,0:0:0:0:
448,192,134975,1,0,0:0:0:0:
192,192,134975,128,0,135162:0:0:0:0:
320,192,135050,128,0,135200:0:0:0:0:
448,192,135125,128,0,135275:0:0:0:0:
192,192,135275,1,0,0:0:0:0:
64,192,135275,128,0,135462:0:0:0:0:
320,192,135350,128,0,135500:0:0:0:0:
192,192,135425,128,0,135575:0:0:0:0:
320,192,135575,128,0,135800:0:0:0:0:
448,192,135575,128,0,135800:0:0:0:0:
64,192,135575,128,0,135800:0:0:0:0:
64,192,135875,128,0,136175:0:0:0:0:
320,192,135875,128,0,136175:0:0:0:0:
448,192,135875,128,0,136175:0:0:0:0:
192,192,136175,1,0,0:0:0:0:
192,192,136325,128,0,136625:0:0:0:0:
64,192,136325,128,0,136625:0:0:0:0:
448,192,136325,128,0,136625:0:0:0:0:
320,192,136475,1,0,0:0:0:0:
320,192,136775,128,0,137075:0:0:0:0:
448,192,136775,128,0,137075:0:0:0:0:
64,192,136775,128,0,137075:0:0:0:0:
192,192,137075,1,0,0:0:0:0:
64,192,137225,128,0,137525:0:0:0:0:
448,192,137225,128,0,137525:0:0:0:0:
320,192,137225,128,0,137525:0:0:0:0:
192,192,137375,1,0,0:0:0:0:
320,192,137675,128,0,137900:0:0:0:0:
192,192,137675,128,0,137937:0:0:0:0:
64,192,137675,128,0,137975:0:0:0:0:
448,192,138012,128,0,138087:0:0:0:0:
320,192,138050,128,0,138125:0:0:0:0:
192,192,138087,128,0,138162:0:0:0:0:
64,192,138125,128,0,138200:0:0:0:0:
448,192,138175,128,0,138250:0:0:0:0:
320,192,138225,128,0,138300:0:0:0:0:
192,192,138275,128,0,138350:0:0:0:0:
448,192,138325,128,0,138400:0:0:0:0:
64,192,138375,128,0,138450:0:0:0:0:
320,192,138425,128,0,138500:0:0:0:0:
192,192,138500,128,0,138575:0:0:0:0:
320,192,138575,128,0,138800:0:0:0:0:
64,192,138575,128,0,138800:0:0:0:0:
448,192,138575,128,0,138800:0:0:0:0:
64,192,138875,128,0,138950:0:0:0:0:
448,192,138875,1,0,0:0:0:0:
192,192,138900,128,0,138975:0:0:0:0:
320,192,138925,128,0,139000:0:0:0:0:
64,192,139025,128,0,139250:0:0:0:0:
192,192,139050,128,0,139212:0:0:0:0:
320,192,139075,128,0,139175:0:0:0:0:
448,192,139325,128,0,139400:0:0:0:0:
320,192,139350,128,0,139425:0:0:0:0:
192,192,139375,128,0,139450:0:0:0:0:
448,192,139475,128,0,139700:0:0:0:0:
64,192,139475,1,0,0:0:0:0:
320,192,139500,128,0,139662:0:0:0:0:
192,192,139525,128,0,139625:0:0:0:0:
448,192,139775,1,0,0:0:0:0:
320,192,139775,1,0,0:0:0:0:
64,192,139775,128,0,139962:0:0:0:0:
192,192,139850,128,0,140000:0:0:0:0:
448,192,139925,128,0,140075:0:0:0:0:
320,192,140075,128,0,140150:0:0:0:0:
192,192,140100,128,0,140175:0:0:0:0:
64,192,140125,128,0,140200:0:0:0:0:
320,192,140225,128,0,140450:0:0:0:0:
192,192,140250,128,0,140412:0:0:0:0:
64,192,140275,128,0,140375:0:0:0:0:
448,192,140375,1,0,0:0:0:0:
192,192,140525,128,0,140600:0:0:0:0:
320,192,140550,128,0,140625:0:0:0:0:
448,192,140575,128,0,140650:0:0:0:0:
192,192,140675,128,0,140900:0:0:0:0:
320,192,140700,128,0,140862:0:0:0:0:
448,192,140725,128,0,140825:0:0:0:0:
320,192,140975,1,0,0:0:0:0:
64,192,140975,128,0,141162:0:0:0:0:
192,192,140975,1,0,0:0:0:0:
448,192,141050,128,0,141275:0:0:0:0:
192,192,141125,128,0,141200:0:0:0:0:
64,192,141275,128,0,141350:0:0:0:0:
320,192,141275,1,0,0:0:0:0:
192,192,141300,128,0,141375:0:0:0:0:
448,192,141325,128,0,141400:0:0:0:0:
64,192,141425,128,0,141650:0:0:0:0:
192,192,141450,128,0,141612:0:0:0:0:
448,192,141475,128,0,141575:0:0:0:0:
448,192,141725,128,0,141800:0:0:0:0:
320,192,141750,128,0,141825:0:0:0:0:
192,192,141775,128,0,141850:0:0:0:0:
448,192,141875,128,0,142100:0:0:0:0:
320,192,141875,1,0,0:0:0:0:
64,192,141900,128,0,142025:0:0:0:0:
192,192,141925,128,0,142062:0:0:0:0:
64,192,142175,128,0,142400:0:0:0:0:
448,192,142175,1,0,0:0:0:0:
192,192,142200,128,0,142362:0:0:0:0:
320,192,142225,128,0,142325:0:0:0:0:
448,192,142475,128,0,142700:0:0:0:0:
192,192,142475,1,0,0:0:0:0:
320,192,142500,128,0,142662:0:0:0:0:
64,192,142525,128,0,142625:0:0:0:0:
64,192,142775,1,0,0:0:0:0:
192,192,142775,128,0,143000:0:0:0:0:
448,192,142775,128,0,142925:0:0:0:0:
64,192,143000,1,0,0:0:0:0:
320,192,143000,1,0,0:0:0:0:
192,192,143150,128,0,143262:0:0:0:0:
448,192,143225,1,0,0:0:0:0:
64,192,143225,128,0,143300:0:0:0:0:
320,192,143300,1,0,0:0:0:0:
64,192,143375,1,0,0:0:0:0:
448,192,143375,1,0,0:0:0:0:
192,192,143375,1,0,0:0:0:0:
320,192,143450,128,0,143562:0:0:0:0:
64,192,143525,1,0,0:0:0:0:
192,192,143525,128,0,143637:0:0:0:0:
448,192,143750,128,0,143862:0:0:0:0:
192,192,143825,1,0,0:0:0:0:
320,192,143825,128,0,143937:0:0:0:0:
64,192,144050,128,0,144200:0:0:0:0:
448,192,144125,1,0,0:0:0:0:
192,192,144125,128,0,144237:0:0:0:0:
64,192,144350,1,0,0:0:0:0:
448,192,144350,128,0,144500:0:0:0:0:
320,192,144425,128,0,144537:0:0:0:0:
448,192,144575,1,0,0:0:0:0:
192,192,144575,1,0,0:0:0:0:
64,192,144575,1,0,0:0:0:0:
320,192,144650,128,0,144800:0:0:0:0:
64,192,144725,1,0,0:0:0:0:
192,192,144725,128,0,144875:0:0:0:0:
64,192,144950,128,0,145100:0:0:0:0:
448,192,145025,1,0,0:0:0:0:
320,192,145025,128,0,145175:0:0:0:0:
64,192,145175,1,0,0:0:0:0:
448,192,145175,1,0,0:0:0:0:
192,192,145175,1,0,0:0:0:0:
320,192,145325,1,0,0:0:0:0:
64,192,145325,1,0,0:0:0:0:
192,192,145400,1,0,0:0:0:0:
320,192,145475,1,0,0:0:0:0:
448,192,145475,1,0,0:0:0:0:
64,192,145475,1,0,0:0:0:0:
192,192,145625,1,0,0:0:0:0:
448,192,145625,1,0,0:0:0:0:
320,192,145700,1,0,0:0:0:0:
448,192,145775,1,0,0:0:0:0:
64,192,145775,1,0,0:0:0:0:
192,192,145850,1,0,0:0:0:0:
320,192,145850,1,0,0:0:0:0:
448,192,146075,1,0,0:0:0:0:
192,192,146075,1,0,0:0:0:0:
64,192,146075,1,0,0:0:0:0:
320,192,146225,1,0,0:0:0:0:
192,192,146225,1,0,0:0:0:0:
320,192,146375,1,0,0:0:0:0:
448,192,146375,1,0,0:0:0:0:
192,192,146450,1,0,0:0:0:0:
64,192,146450,1,0,0:0:0:0:
320,192,146525,1,0,0:0:0:0:
448,192,146525,1,0,0:0:0:0:
192,192,146600,1,0,0:0:0:0:
64,192,146600,1,0,0:0:0:0:
320,192,146675,1,0,0:0:0:0:
448,192,146675,1,0,0:0:0:0:
192,192,146750,1,0,0:0:0:0:
64,192,146750,1,0,0:0:0:0:
320,192,146825,1,0,0:0:0:0:
448,192,146825,1,0,0:0:0:0:
192,192,146900,1,0,0:0:0:0:
64,192,146975,1,0,0:0:0:0:
320,192,146975,1,0,0:0:0:0:
448,192,146975,128,0,147075:0:0:0:0:
192,192,147050,128,0,147150:0:0:0:0:
448,192,147125,128,0,147225:0:0:0:0:
192,192,147200,128,0,147300:0:0:0:0:
448,192,147275,128,0,147375:0:0:0:0:
192,192,147350,128,0,147450:0:0:0:0:
448,192,147425,128,0,147500:0:0:0:0:
64,192,147462,128,0,147537:0:0:0:0:
320,192,147500,128,0,147575:0:0:0:0:
448,192,147575,1,0,0:0:0:0:
192,192,147575,1,0,0:0:0:0:
64,192,147575,1,0,0:0:0:0:
192,192,151775,128,0,152375:0:0:0:0:
64,192,152375,1,0,0:0:0:0:
320,192,152375,128,0,153575:0:0:0:0:
64,192,152525,1,0,0:0:0:0:
64,192,152675,1,0,0:0:0:0:
64,192,152825,1,0,0:0:0:0:
64,192,152975,1,0,0:0:0:0:
64,192,153125,1,0,0:0:0:0:
64,192,153275,1,0,0:0:0:0:
64,192,153425,1,0,0:0:0:0:
448,192,153575,1,0,0:0:0:0:
192,192,153575,128,0,154325:0:0:0:0:
448,192,153725,1,0,0:0:0:0:
448,192,153875,1,0,0:0:0:0:
448,192,154025,1,0,0:0:0:0:
320,192,154175,1,0,0:0:0:0:
320,192,154325,1,0,0:0:0:0:
320,192,154475,1,0,0:0:0:0:
320,192,154625,1,0,0:0:0:0:
192,192,154775,1,0,0:0:0:0:
448,192,154775,128,0,155075:0:0:0:0:
192,192,154925,1,0,0:0:0:0:
192,192,155075,1,0,0:0:0:0:
64,192,155075,128,0,155375:0:0:0:0:
192,192,155225,1,0,0:0:0:0:
192,192,155375,1,0,0:0:0:0:
320,192,155375,128,0,155525:0:0:0:0:
192,192,155525,1,0,0:0:0:0:
448,192,155525,128,0,155675:0:0:0:0:
192,192,155675,1,0,0:0:0:0:
192,192,155825,1,0,0:0:0:0:
448,192,155825,128,0,156575:0:0:0:0:
320,192,155975,1,0,0:0:0:0:
320,192,156125,1,0,0:0:0:0:
320,192,156275,1,0,0:0:0:0:
320,192,156425,1,0,0:0:0:0:
320,192,156575,1,0,0:0:0:0:
64,192,156575,128,0,156875:0:0:0:0:
320,192,156725,1,0,0:0:0:0:
320,192,156875,1,0,0:0:0:0:
192,192,156875,128,0,157175:0:0:0:0:
320,192,157025,1,0,0:0:0:0:
64,192,157175,1,0,0:0:0:0:
448,192,157175,128,0,158000:0:0:0:0:
64,192,157325,1,0,0:0:0:0:
64,192,157475,1,0,0:0:0:0:
64,192,157625,1,0,0:0:0:0:
64,192,157775,1,0,0:0:0:0:
64,192,157925,1,0,0:0:0:0:
64,192,158075,1,0,0:0:0:0:
448,192,158075,128,0,158375:0:0:0:0:
64,192,158225,1,0,0:0:0:0:
192,192,158375,1,0,0:0:0:0:
320,192,158375,128,0,158975:0:0:0:0:
192,192,158525,1,0,0:0:0:0:
192,192,158675,1,0,0:0:0:0:
192,192,158825,1,0,0:0:0:0:
448,192,158975,1,0,0:0:0:0:
448,192,159125,1,0,0:0:0:0:
448,192,159275,1,0,0:0:0:0:
448,192,159425,1,0,0:0:0:0:
320,192,159575,1,0,0:0:0:0:
64,192,159575,128,0,160025:0:0:0:0:
320,192,159725,1,0,0:0:0:0:
320,192,159875,1,0,0:0:0:0:
320,192,160025,1,0,0:0:0:0:
192,192,160025,128,0,160475:0:0:0:0:
320,192,160175,1,0,0:0:0:0:
320,192,160325,1,0,0:0:0:0:
320,192,160475,1,0,0:0:0:0:
64,192,160475,128,0,160775:0:0:0:0:
320,192,160625,1,0,0:0:0:0:
192,192,160775,1,0,0:0:0:0:
448,192,160775,128,0,161975:0:0:0:0:
192,192,160925,1,0,0:0:0:0:
192,192,161075,1,0,0:0:0:0:
192,192,161225,1,0,0:0:0:0:
64,192,161375,128,0,161975:0:0:0:0:
320,192,161375,1,0,0:0:0:0:
320,192,161975,128,0,162275:0:0:0:0:
448,192,162425,128,0,162725:0:0:0:0:
192,192,162875,128,0,164375:0:0:0:0:
64,192,164375,128,0,164675:0:0:0:0:
320,192,164825,128,0,165125:0:0:0:0:
192,192,165275,128,0,166325:0:0:0:0:
448,192,166325,128,0,166775:0:0:0:0:
320,192,166775,1,0,0:0:0:0:
64,192,166775,1,0,0:0:0:0:
64,192,166925,1,0,0:0:0:0:
64,192,167075,1,0,0:0:0:0:
320,192,167075,1,0,0:0:0:0:
64,192,167225,1,0,0:0:0:0:
64,192,167375,1,0,0:0:0:0:
320,192,167375,1,0,0:0:0:0:
64,192,167525,1,0,0:0:0:0:
64,192,167675,1,0,0:0:0:0:
320,192,167675,1,0,0:0:0:0:
64,192,167825,1,0,0:0:0:0:
448,192,167975,1,0,0:0:0:0:
192,192,167975,1,0,0:0:0:0:
192,192,168125,128,0,168275:0:0:0:0:
64,192,168275,1,0,0:0:0:0:
320,192,168275,1,0,0:0:0:0:
320,192,168425,128,0,168575:0:0:0:0:
448,192,168575,1,0,0:0:0:0:
64,192,168575,1,0,0:0:0:0:
64,192,168725,128,0,168875:0:0:0:0:
320,192,168875,1,0,0:0:0:0:
448,192,168875,1,0,0:0:0:0:
448,192,169025,128,0,169175:0:0:0:0:
64,192,169175,1,0,0:0:0:0:
192,192,169175,1,0,0:0:0:0:
64,192,169325,1,0,0:0:0:0:
320,192,169325,1,0,0:0:0:0:
64,192,169475,1,0,0:0:0:0:
448,192,169475,1,0,0:0:0:0:
320,192,169625,1,0,0:0:0:0:
192,192,169625,1,0,0:0:0:0:
320,192,169775,1,0,0:0:0:0:
448,192,169775,1,0,0:0:0:0:
320,192,169925,1,0,0:0:0:0:
64,192,169925,1,0,0:0:0:0:
192,192,170075,1,0,0:0:0:0:
448,192,170075,1,0,0:0:0:0:
320,192,170225,1,0,0:0:0:0:
192,192,170225,1,0,0:0:0:0:
448,192,170375,1,0,0:0:0:0:
320,192,170375,1,0,0:0:0:0:
192,192,170450,1,0,0:0:0:0:
64,192,170450,1,0,0:0:0:0:
320,192,170525,1,0,0:0:0:0:
448,192,170525,1,0,0:0:0:0:
192,192,170600,1,0,0:0:0:0:
64,192,170600,1,0,0:0:0:0:
320,192,170675,1,0,0:0:0:0:
448,192,170675,1,0,0:0:0:0:
192,192,170750,1,0,0:0:0:0:
64,192,170750,1,0,0:0:0:0:
320,192,170825,1,0,0:0:0:0:
448,192,170825,1,0,0:0:0:0:
192,192,170900,1,0,0:0:0:0:
64,192,170900,1,0,0:0:0:0:
320,192,170975,1,0,0:0:0:0:
448,192,170975,128,0,171500:0:0:0:0:
192,192,171200,128,0,171500:0:0:0:0:
64,192,171275,128,0,171575:0:0:0:0:
192,192,171575,128,0,172025:0:0:0:0:
320,192,171575,128,0,171875:0:0:0:0:
448,192,171575,128,0,171800:0:0:0:0:
320,192,172025,128,0,172325:0:0:0:0:
448,192,172025,128,0,172475:0:0:0:0:
64,192,172025,128,0,172250:0:0:0:0:
320,192,172475,128,0,172775:0:0:0:0:
64,192,172475,128,0,173825:0:0:0:0:
192,192,172475,128,0,173675:0:0:0:0:
448,192,172775,128,0,173900:0:0:0:0:
320,192,173675,128,0,173900:0:0:0:0:
192,192,173825,128,0,173975:0:0:0:0:
64,192,173975,128,0,174275:0:0:0:0:
448,192,173975,128,0,174275:0:0:0:0:
320,192,173975,128,0,174200:0:0:0:0:
192,192,174275,128,0,174575:0:0:0:0:
320,192,174425,128,0,174725:0:0:0:0:
448,192,174425,128,0,174650:0:0:0:0:
64,192,174575,128,0,174725:0:0:0:0:
192,192,174725,128,0,175025:0:0:0:0:
64,192,174875,128,0,175775:0:0:0:0:
320,192,174875,128,0,176075:0:0:0:0:
448,192,175025,128,0,176300:0:0:0:0:
192,192,175775,128,0,176300:0:0:0:0:
64,192,176075,128,0,176375:0:0:0:0:
320,192,176375,128,0,176825:0:0:0:0:
192,192,176375,128,0,176675:0:0:0:0:
448,192,176375,128,0,176600:0:0:0:0:
448,192,176825,128,0,177125:0:0:0:0:
192,192,176825,128,0,177275:0:0:0:0:
64,192,176825,128,0,177050:0:0:0:0:
448,192,177275,128,0,177575:0:0:0:0:
64,192,177275,128,0,178700:0:0:0:0:
320,192,177275,128,0,178700:0:0:0:0:
192,192,177575,128,0,178325:0:0:0:0:
192,192,178475,128,0,178700:0:0:0:0:
320,192,178775,128,0,179000:0:0:0:0:
64,192,178775,128,0,179075:0:0:0:0:
448,192,178775,128,0,179225:0:0:0:0:
64,192,179225,128,0,179450:0:0:0:0:
320,192,179225,128,0,179675:0:0:0:0:
192,192,179225,128,0,179525:0:0:0:0:
448,192,179525,128,0,179825:0:0:0:0:
64,192,179675,128,0,179975:0:0:0:0:
192,192,179675,128,0,179825:0:0:0:0:
448,192,179975,128,0,180425:0:0:0:0:
320,192,179975,128,0,180500:0:0:0:0:
192,192,179975,128,0,180425:0:0:0:0:
64,192,180425,128,0,180500:0:0:0:0:
192,192,180500,128,0,180575:0:0:0:0:
64,192,180575,128,0,181100:0:0:0:0:
448,192,180575,1,0,0:0:0:0:
320,192,180650,1,0,0:0:0:0:
192,192,180725,1,0,0:0:0:0:
448,192,180800,1,0,0:0:0:0:
320,192,180875,128,0,181325:0:0:0:0:
448,192,181175,128,0,181400:0:0:0:0:
64,192,181175,128,0,181475:0:0:0:0:
192,192,181175,128,0,181775:0:0:0:0:
64,192,181625,128,0,181850:0:0:0:0:
448,192,181625,128,0,182225:0:0:0:0:
320,192,181625,128,0,181925:0:0:0:0:
192,192,182075,128,0,182975:0:0:0:0:
64,192,182075,128,0,183050:0:0:0:0:
320,192,182075,128,0,182375:0:0:0:0:
448,192,182375,128,0,183500:0:0:0:0:
320,192,182975,1,0,0:0:0:0:
192,192,183050,1,0,0:0:0:0:
64,192,183125,1,0,0:0:0:0:
320,192,183275,128,0,183500:0:0:0:0:
192,192,183425,128,0,183575:0:0:0:0:
320,192,183575,128,0,183800:0:0:0:0:
448,192,183575,128,0,183875:0:0:0:0:
64,192,183575,128,0,184025:0:0:0:0:
192,192,183875,128,0,184175:0:0:0:0:
448,192,184025,128,0,184250:0:0:0:0:
320,192,184025,128,0,184400:0:0:0:0:
64,192,184175,128,0,184325:0:0:0:0:
192,192,184325,128,0,184500:0:0:0:0:
448,192,184475,128,0,185637:0:0:0:0:
64,192,184475,128,0,184650:0:0:0:0:
320,192,184550,1,0,0:0:0:0:
192,192,184625,1,0,0:0:0:0:
320,192,184700,1,0,0:0:0:0:
64,192,184775,1,0,0:0:0:0:
192,192,184875,1,0,0:0:0:0:
320,192,184975,1,0,0:0:0:0:
64,192,185075,1,0,0:0:0:0:
192,192,185112,1,0,0:0:0:0:
64,192,185225,1,0,0:0:0:0:
192,192,185262,1,0,0:0:0:0:
64,192,185375,128,0,185900:0:0:0:0:
320,192,185412,1,0,0:0:0:0:
192,192,185675,128,0,186125:0:0:0:0:
448,192,185712,1,0,0:0:0:0:
448,192,185975,128,0,186200:0:0:0:0:
64,192,185975,128,0,186275:0:0:0:0:
320,192,185975,128,0,186575:0:0:0:0:
64,192,186425,128,0,186650:0:0:0:0:
192,192,186425,128,0,187025:0:0:0:0:
448,192,186425,128,0,186725:0:0:0:0:
64,192,186875,128,0,187775:0:0:0:0:
448,192,186875,128,0,187175:0:0:0:0:
320,192,186875,128,0,187437:0:0:0:0:
192,192,187175,128,0,187850:0:0:0:0:
448,192,187475,1,0,0:0:0:0:
320,192,187512,1,0,0:0:0:0:
448,192,187625,1,0,0:0:0:0:
320,192,187662,1,0,0:0:0:0:
448,192,187775,1,0,0:0:0:0:
64,192,187850,1,0,0:0:0:0:
192,192,187925,1,0,0:0:0:0:
320,192,188000,1,0,0:0:0:0:
64,192,188075,128,0,188525:0:0:0:0:
192,192,188150,1,0,0:0:0:0:
448,192,188225,1,0,0:0:0:0:
192,192,188375,128,0,188975:0:0:0:0:
448,192,188375,128,0,188675:0:0:0:0:
320,192,188375,128,0,188600:0:0:0:0:
320,192,188825,128,0,189125:0:0:0:0:
448,192,188825,128,0,189275:0:0:0:0:
64,192,188825,128,0,189050:0:0:0:0:
192,192,189125,128,0,189325:0:0:0:0:
320,192,189275,128,0,189425:0:0:0:0:
64,192,189275,128,0,189425:0:0:0:0:
448,192,189350,1,0,0:0:0:0:
192,192,189425,1,0,0:0:0:0:
320,192,189500,1,0,0:0:0:0:
192,192,189575,128,0,190100:0:0:0:0:
64,192,189575,128,0,190175:0:0:0:0:
448,192,189575,128,0,190025:0:0:0:0:
320,192,190025,128,0,190100:0:0:0:0:
448,192,190100,128,0,190175:0:0:0:0:
320,192,190175,128,0,190700:0:0:0:0:
192,192,190175,1,0,0:0:0:0:
64,192,190250,1,0,0:0:0:0:
448,192,190325,1,0,0:0:0:0:
64,192,190400,1,0,0:0:0:0:
192,192,190475,1,0,0:0:0:0:
448,192,190550,1,0,0:0:0:0:
192,192,190625,1,0,0:0:0:0:
192,192,190775,1,0,0:0:0:0:
64,192,190775,1,0,0:0:0:0:
320,192,190775,1,0,0:0:0:0:
448,192,190775,1,0,0:0:0:0:
320,192,190925,1,0,0:0:0:0:
192,192,191000,1,0,0:0:0:0:
64,192,191075,1,0,0:0:0:0:
320,192,191075,1,0,0:0:0:0:
448,192,191075,1,0,0:0:0:0:
192,192,191150,1,0,0:0:0:0:
448,192,191225,1,0,0:0:0:0:
320,192,191300,1,0,0:0:0:0:
64,192,191375,1,0,0:0:0:0:
192,192,191375,1,0,0:0:0:0:
448,192,191375,1,0,0:0:0:0:
320,192,191525,1,0,0:0:0:0:
192,192,191600,1,0,0:0:0:0:
64,192,191675,1,0,0:0:0:0:
320,192,191675,1,0,0:0:0:0:
448,192,191675,1,0,0:0:0:0:
192,192,191750,1,0,0:0:0:0:
448,192,191825,1,0,0:0:0:0:
320,192,191900,1,0,0:0:0:0:
448,192,191975,1,0,0:0:0:0:
64,192,191975,1,0,0:0:0:0:
192,192,191975,1,0,0:0:0:0:
320,192,192125,1,0,0:0:0:0:
192,192,192200,1,0,0:0:0:0:
64,192,192275,1,0,0:0:0:0:
320,192,192275,1,0,0:0:0:0:
448,192,192275,1,0,0:0:0:0:
192,192,192350,1,0,0:0:0:0:
448,192,192425,1,0,0:0:0:0:
320,192,192500,1,0,0:0:0:0:
448,192,192575,1,0,0:0:0:0:
64,192,192575,1,0,0:0:0:0:
192,192,192575,1,0,0:0:0:0:
64,192,192725,1,0,0:0:0:0:
320,192,192800,1,0,0:0:0:0:
192,192,192875,1,0,0:0:0:0:
64,192,192875,1,0,0:0:0:0:
448,192,192875,1,0,0:0:0:0:
320,192,192950,1,0,0:0:0:0:
448,192,193025,1,0,0:0:0:0:
192,192,193100,1,0,0:0:0:0:
320,192,193175,1,0,0:0:0:0:
448,192,193175,1,0,0:0:0:0:
64,192,193175,1,0,0:0:0:0:
192,192,193325,1,0,0:0:0:0:
320,192,193400,1,0,0:0:0:0:
448,192,193475,1,0,0:0:0:0:
192,192,193475,1,0,0:0:0:0:
64,192,193475,1,0,0:0:0:0:
320,192,193550,1,0,0:0:0:0:
64,192,193625,1,0,0:0:0:0:
192,192,193700,1,0,0:0:0:0:
64,192,193775,1,0,0:0:0:0:
320,192,193775,1,0,0:0:0:0:
448,192,193775,1,0,0:0:0:0:
192,192,193925,1,0,0:0:0:0:
320,192,194000,1,0,0:0:0:0:
448,192,194075,1,0,0:0:0:0:
192,192,194075,1,0,0:0:0:0:
64,192,194075,1,0,0:0:0:0:
320,192,194150,1,0,0:0:0:0:
64,192,194225,1,0,0:0:0:0:
192,192,194300,1,0,0:0:0:0:
64,192,194375,1,0,0:0:0:0:
320,192,194375,1,0,0:0:0:0:
448,192,194375,1,0,0:0:0:0:
192,192,194525,1,0,0:0:0:0:
320,192,194600,1,0,0:0:0:0:
448,192,194675,1,0,0:0:0:0:
192,192,194675,1,0,0:0:0:0:
64,192,194675,1,0,0:0:0:0:
320,192,194750,1,0,0:0:0:0:
64,192,194825,1,0,0:0:0:0:
192,192,194900,1,0,0:0:0:0:
64,192,194975,1,0,0:0:0:0:
320,192,194975,1,0,0:0:0:0:
448,192,194975,1,0,0:0:0:0:
448,192,195125,1,0,0:0:0:0:
192,192,195200,1,0,0:0:0:0:
320,192,195275,1,0,0:0:0:0:
448,192,195275,1,0,0:0:0:0:
64,192,195275,1,0,0:0:0:0:
192,192,195350,1,0,0:0:0:0:
320,192,195425,1,0,0:0:0:0:
64,192,195500,1,0,0:0:0:0:
192,192,195575,1,0,0:0:0:0:
448,192,195575,1,0,0:0:0:0:
320,192,195575,1,0,0:0:0:0:
64,192,195725,1,0,0:0:0:0:
448,192,195800,1,0,0:0:0:0:
320,192,195875,1,0,0:0:0:0:
64,192,195875,1,0,0:0:0:0:
192,192,195875,1,0,0:0:0:0:
448,192,195950,1,0,0:0:0:0:
320,192,196025,1,0,0:0:0:0:
64,192,196100,1,0,0:0:0:0:
192,192,196175,1,0,0:0:0:0:
320,192,196175,1,0,0:0:0:0:
448,192,196175,1,0,0:0:0:0:
64,192,196325,1,0,0:0:0:0:
448,192,196400,1,0,0:0:0:0:
320,192,196475,1,0,0:0:0:0:
192,192,196475,1,0,0:0:0:0:
64,192,196475,1,0,0:0:0:0:
448,192,196550,1,0,0:0:0:0:
320,192,196625,1,0,0:0:0:0:
64,192,196700,1,0,0:0:0:0:
448,192,196775,1,0,0:0:0:0:
320,192,196775,1,0,0:0:0:0:
192,192,196775,1,0,0:0:0:0:
64,192,196925,1,0,0:0:0:0:
448,192,197000,1,0,0:0:0:0:
320,192,197075,1,0,0:0:0:0:
192,192,197075,1,0,0:0:0:0:
64,192,197075,1,0,0:0:0:0:
448,192,197150,1,0,0:0:0:0:
320,192,197225,1,0,0:0:0:0:
64,192,197300,1,0,0:0:0:0:
192,192,197375,1,0,0:0:0:0:
320,192,197375,1,0,0:0:0:0:
448,192,197375,1,0,0:0:0:0:
192,192,197525,1,0,0:0:0:0:
320,192,197600,1,0,0:0:0:0:
192,192,197675,1,0,0:0:0:0:
448,192,197675,1,0,0:0:0:0:
64,192,197675,1,0,0:0:0:0:
320,192,197750,1,0,0:0:0:0:
64,192,197825,1,0,0:0:0:0:
448,192,197900,1,0,0:0:0:0:
320,192,197975,1,0,0:0:0:0:
64,192,197975,1,0,0:0:0:0:
192,192,197975,1,0,0:0:0:0:
448,192,198125,1,0,0:0:0:0:
64,192,198200,1,0,0:0:0:0:
192,192,198275,1,0,0:0:0:0:
448,192,198275,1,0,0:0:0:0:
320,192,198275,1,0,0:0:0:0:
64,192,198350,1,0,0:0:0:0:
192,192,198425,1,0,0:0:0:0:
448,192,198500,1,0,0:0:0:0:
320,192,198575,1,0,0:0:0:0:
64,192,198575,1,0,0:0:0:0:
192,192,198575,1,0,0:0:0:0:
448,192,198725,1,0,0:0:0:0:
64,192,198800,1,0,0:0:0:0:
192,192,198875,1,0,0:0:0:0:
448,192,198875,1,0,0:0:0:0:
320,192,198875,1,0,0:0:0:0:
64,192,198950,1,0,0:0:0:0:
192,192,199025,1,0,0:0:0:0:
448,192,199100,1,0,0:0:0:0:
192,192,199175,1,0,0:0:0:0:
64,192,199175,1,0,0:0:0:0:
320,192,199175,1,0,0:0:0:0:
448,192,199325,1,0,0:0:0:0:
64,192,199400,1,0,0:0:0:0:
320,192,199475,1,0,0:0:0:0:
448,192,199475,1,0,0:0:0:0:
192,192,199475,1,0,0:0:0:0:
64,192,199550,1,0,0:0:0:0:
192,192,199625,1,0,0:0:0:0:
448,192,199700,1,0,0:0:0:0:
320,192,199775,1,0,0:0:0:0:
192,192,199775,1,0,0:0:0:0:
64,192,199775,1,0,0:0:0:0:
64,192,199925,1,0,0:0:0:0:
448,192,199925,1,0,0:0:0:0:
192,192,200075,1,0,0:0:0:0:
320,192,200075,1,0,0:0:0:0:
448,192,200075,1,0,0:0:0:0:
64,192,200375,1,0,0:0:0:0:
320,192,200375,1,0,0:0:0:0:
192,192,200375,1,0,0:0:0:0:
448,192,200525,1,0,0:0:0:0:
192,192,200525,1,0,0:0:0:0:
320,192,200600,1,0,0:0:0:0:
64,192,200675,1,0,0:0:0:0:
192,192,200675,1,0,0:0:0:0:
320,192,200750,1,0,0:0:0:0:
64,192,200825,1,0,0:0:0:0:
448,192,200825,1,0,0:0:0:0:
192,192,200900,1,0,0:0:0:0:
320,192,200975,1,0,0:0:0:0:
448,192,200975,1,0,0:0:0:0:
64,192,201125,1,0,0:0:0:0:
320,192,201125,1,0,0:0:0:0:
192,192,201200,1,0,0:0:0:0:
448,192,201275,1,0,0:0:0:0:
320,192,201275,1,0,0:0:0:0:
192,192,201350,1,0,0:0:0:0:
64,192,201425,1,0,0:0:0:0:
448,192,201425,1,0,0:0:0:0:
320,192,201500,1,0,0:0:0:0:
192,192,201575,1,0,0:0:0:0:
64,192,201575,1,0,0:0:0:0:
192,192,201725,1,0,0:0:0:0:
448,192,201725,1,0,0:0:0:0:
320,192,201800,1,0,0:0:0:0:
192,192,201875,1,0,0:0:0:0:
64,192,201875,1,0,0:0:0:0:
320,192,201950,1,0,0:0:0:0:
448,192,202025,1,0,0:0:0:0:
64,192,202025,1,0,0:0:0:0:
192,192,202100,1,0,0:0:0:0:
320,192,202175,1,0,0:0:0:0:
448,192,202175,1,0,0:0:0:0:
64,192,202325,1,0,0:0:0:0:
192,192,202325,1,0,0:0:0:0:
448,192,202400,1,0,0:0:0:0:
192,192,202475,1,0,0:0:0:0:
320,192,202475,1,0,0:0:0:0:
64,192,202550,1,0,0:0:0:0:
320,192,202625,1,0,0:0:0:0:
448,192,202625,1,0,0:0:0:0:
192,192,202700,1,0,0:0:0:0:
320,192,202775,1,0,0:0:0:0:
64,192,202775,1,0,0:0:0:0:
448,192,202775,1,0,0:0:0:0:
64,192,202925,1,0,0:0:0:0:
192,192,202925,1,0,0:0:0:0:
320,192,203000,1,0,0:0:0:0:
448,192,203075,1,0,0:0:0:0:
192,192,203075,1,0,0:0:0:0:
320,192,203150,1,0,0:0:0:0:
448,192,203225,1,0,0:0:0:0:
64,192,203225,1,0,0:0:0:0:
192,192,203300,1,0,0:0:0:0:
320,192,203375,1,0,0:0:0:0:
64,192,203375,1,0,0:0:0:0:
320,192,203525,1,0,0:0:0:0:
448,192,203525,1,0,0:0:0:0:
192,192,203600,1,0,0:0:0:0:
320,192,203675,1,0,0:0:0:0:
64,192,203675,1,0,0:0:0:0:
192,192,203750,1,0,0:0:0:0:
448,192,203825,1,0,0:0:0:0:
64,192,203825,1,0,0:0:0:0:
320,192,203900,1,0,0:0:0:0:
192,192,203975,1,0,0:0:0:0:
448,192,203975,1,0,0:0:0:0:
192,192,204125,5,0,0:0:0:0:
64,192,204125,1,0,0:0:0:0:
320,192,204200,1,0,0:0:0:0:
448,192,204275,1,0,0:0:0:0:
192,192,204275,1,0,0:0:0:0:
320,192,204350,1,0,0:0:0:0:
448,192,204425,1,0,0:0:0:0:
64,192,204425,1,0,0:0:0:0:
192,192,204500,1,0,0:0:0:0:
320,192,204575,1,0,0:0:0:0:
64,192,204575,1,0,0:0:0:0:
320,192,204725,1,0,0:0:0:0:
448,192,204725,1,0,0:0:0:0:
64,192,204800,1,0,0:0:0:0:
448,192,204875,1,0,0:0:0:0:
192,192,204875,1,0,0:0:0:0:
320,192,204950,1,0,0:0:0:0:
64,192,205025,1,0,0:0:0:0:
192,192,205025,1,0,0:0:0:0:
320,192,205100,1,0,0:0:0:0:
192,192,205175,5,0,0:0:0:0:
64,192,205175,1,0,0:0:0:0:
448,192,205175,1,0,0:0:0:0:
320,192,205250,1,0,0:0:0:0:
192,192,205325,1,0,0:0:0:0:
64,192,205325,1,0,0:0:0:0:
320,192,205400,1,0,0:0:0:0:
448,192,205400,1,0,0:0:0:0:
64,192,205475,1,0,0:0:0:0:
320,192,205550,1,0,0:0:0:0:
192,192,205550,1,0,0:0:0:0:
64,192,205625,1,0,0:0:0:0:
448,192,205625,1,0,0:0:0:0:
192,192,205700,1,0,0:0:0:0:
448,192,205775,1,0,0:0:0:0:
320,192,205775,1,0,0:0:0:0:
192,192,205850,1,0,0:0:0:0:
64,192,205925,1,0,0:0:0:0:
448,192,205925,1,0,0:0:0:0:
192,192,206000,1,0,0:0:0:0:
320,192,206000,1,0,0:0:0:0:
64,192,206075,1,0,0:0:0:0:
320,192,206150,1,0,0:0:0:0:
448,192,206150,1,0,0:0:0:0:
64,192,206225,1,0,0:0:0:0:
192,192,206225,1,0,0:0:0:0:
448,192,206300,1,0,0:0:0:0:
64,192,206375,1,0,0:0:0:0:
320,192,206375,1,0,0:0:0:0:
192,192,206375,1,0,0:0:0:0:
448,192,206450,1,0,0:0:0:0:
192,192,206525,1,0,0:0:0:0:
64,192,206525,1,0,0:0:0:0:
320,192,206600,1,0,0:0:0:0:
448,192,206600,1,0,0:0:0:0:
192,192,206675,1,0,0:0:0:0:
320,192,206750,1,0,0:0:0:0:
64,192,206750,1,0,0:0:0:0:
448,192,206825,1,0,0:0:0:0:
192,192,206825,1,0,0:0:0:0:
320,192,206900,1,0,0:0:0:0:
448,192,206975,1,0,0:0:0:0:
64,192,206975,1,0,0:0:0:0:
192,192,207050,1,0,0:0:0:0:
448,192,207125,1,0,0:0:0:0:
320,192,207125,1,0,0:0:0:0:
64,192,207200,1,0,0:0:0:0:
192,192,207200,1,0,0:0:0:0:
320,192,207275,1,0,0:0:0:0:
192,192,207350,1,0,0:0:0:0:
448,192,207350,1,0,0:0:0:0:
64,192,207425,1,0,0:0:0:0:
320,192,207425,1,0,0:0:0:0:
192,192,207500,1,0,0:0:0:0:
320,192,207575,1,0,0:0:0:0:
448,192,207575,1,0,0:0:0:0:
64,192,207625,1,0,0:0:0:0:
192,192,207675,1,0,0:0:0:0:
448,192,207725,1,0,0:0:0:0:
64,192,207775,1,0,0:0:0:0:
320,192,207825,1,0,0:0:0:0:
448,192,207875,1,0,0:0:0:0:
192,192,207875,1,0,0:0:0:0:
64,192,207925,1,0,0:0:0:0:
320,192,207975,1,0,0:0:0:0:
192,192,208025,1,0,0:0:0:0:
448,192,208075,1,0,0:0:0:0:
320,192,208125,1,0,0:0:0:0:
64,192,208175,1,0,0:0:0:0:
192,192,208175,1,0,0:0:0:0:
448,192,208225,1,0,0:0:0:0:
320,192,208275,1,0,0:0:0:0:
192,192,208325,1,0,0:0:0:0:
64,192,208325,1,0,0:0:0:0:
448,192,208375,1,0,0:0:0:0:
320,192,208425,1,0,0:0:0:0:
192,192,208475,1,0,0:0:0:0:
64,192,208475,1,0,0:0:0:0:
320,192,208525,1,0,0:0:0:0:
448,192,208575,1,0,0:0:0:0:
64,192,208575,1,0,0:0:0:0:
192,192,208625,1,0,0:0:0:0:
448,192,208675,1,0,0:0:0:0:
320,192,208675,1,0,0:0:0:0:
64,192,208725,1,0,0:0:0:0:
192,192,208775,1,0,0:0:0:0:
448,192,208775,1,0,0:0:0:0:
320,192,208775,128,0,209075:0:0:0:0:
192,192,209225,128,0,209525:0:0:0:0:
448,192,209375,1,0,0:0:0:0:
320,192,209375,1,0,0:0:0:0:
448,192,209675,128,0,209900:0:0:0:0:
64,192,209675,128,0,209900:0:0:0:0:
320,192,209675,128,0,209900:0:0:0:0:
320,192,209975,128,0,210200:0:0:0:0:
64,192,209975,128,0,210125:0:0:0:0:
192,192,209975,128,0,210050:0:0:0:0:
448,192,210125,128,0,210200:0:0:0:0:
192,192,210200,128,0,210275:0:0:0:0:
320,192,210275,128,0,210350:0:0:0:0:
448,192,210275,128,0,210350:0:0:0:0:
64,192,210275,128,0,210425:0:0:0:0:
192,192,210350,128,0,210500:0:0:0:0:
448,192,210425,128,0,210575:0:0:0:0:
320,192,210500,128,0,210650:0:0:0:0:
192,192,210575,128,0,210725:0:0:0:0:
64,192,210575,128,0,210800:0:0:0:0:
320,192,210725,128,0,210800:0:0:0:0:
448,192,210800,128,0,210875:0:0:0:0:
64,192,210875,128,0,210950:0:0:0:0:
192,192,210875,128,0,210950:0:0:0:0:
320,192,210875,128,0,211025:0:0:0:0:
448,192,210950,128,0,211100:0:0:0:0:
192,192,211025,128,0,211175:0:0:0:0:
64,192,211100,128,0,211250:0:0:0:0:
448,192,211175,128,0,211400:0:0:0:0:
320,192,211175,128,0,211325:0:0:0:0:
192,192,211325,128,0,211400:0:0:0:0:
320,192,211400,128,0,211475:0:0:0:0:
192,192,211475,128,0,211625:0:0:0:0:
448,192,211475,128,0,211550:0:0:0:0:
64,192,211475,128,0,211550:0:0:0:0:
320,192,211550,128,0,211700:0:0:0:0:
448,192,211625,128,0,211775:0:0:0:0:
64,192,211700,128,0,211850:0:0:0:0:
192,192,211775,128,0,212000:0:0:0:0:
320,192,211775,128,0,211925:0:0:0:0:
448,192,211925,128,0,212000:0:0:0:0:
320,192,212000,128,0,212075:0:0:0:0:
64,192,212000,128,0,212150:0:0:0:0:
192,192,212075,128,0,212150:0:0:0:0:
448,192,212075,128,0,212225:0:0:0:0:
320,192,212150,128,0,212225:0:0:0:0:
192,192,212225,128,0,212375:0:0:0:0:
64,192,212225,128,0,212300:0:0:0:0:
448,192,212300,128,0,212375:0:0:0:0:
64,192,212375,128,0,212600:0:0:0:0:
320,192,212375,128,0,212525:0:0:0:0:
192,192,212525,128,0,212600:0:0:0:0:
448,192,212600,128,0,212675:0:0:0:0:
320,192,212675,128,0,212900:0:0:0:0:
192,192,212675,128,0,212825:0:0:0:0:
64,192,212675,128,0,212750:0:0:0:0:
448,192,212825,128,0,212975:0:0:0:0:
64,192,212900,128,0,212975:0:0:0:0:
320,192,212975,128,0,213125:0:0:0:0:
192,192,212975,128,0,213200:0:0:0:0:
64,192,213125,128,0,213200:0:0:0:0:
448,192,213200,128,0,213275:0:0:0:0:
320,192,213200,128,0,213425:0:0:0:0:
64,192,213275,128,0,213350:0:0:0:0:
192,192,213275,128,0,213350:0:0:0:0:
448,192,213350,128,0,213500:0:0:0:0:
192,192,213425,128,0,213575:0:0:0:0:
64,192,213425,128,0,213575:0:0:0:0:
320,192,213575,128,0,213725:0:0:0:0:
448,192,213575,128,0,213800:0:0:0:0:
64,192,213725,128,0,213800:0:0:0:0:
192,192,213800,128,0,213875:0:0:0:0:
64,192,213875,128,0,213950:0:0:0:0:
448,192,213875,128,0,213950:0:0:0:0:
320,192,213875,128,0,214025:0:0:0:0:
192,192,213950,128,0,214100:0:0:0:0:
448,192,214025,128,0,214175:0:0:0:0:
64,192,214100,128,0,214250:0:0:0:0:
192,192,214175,128,0,214325:0:0:0:0:
320,192,214175,128,0,214250:0:0:0:0:
448,192,214250,128,0,214400:0:0:0:0:
320,192,214325,128,0,214400:0:0:0:0:
64,192,214400,128,0,214475:0:0:0:0:
448,192,214475,128,0,214550:0:0:0:0:
320,192,214475,128,0,214550:0:0:0:0:
192,192,214475,128,0,214700:0:0:0:0:
64,192,214550,128,0,214700:0:0:0:0:
448,192,214625,128,0,214775:0:0:0:0:
320,192,214625,128,0,214775:0:0:0:0:
192,192,214775,128,0,214925:0:0:0:0:
64,192,214775,128,0,215000:0:0:0:0:
448,192,214925,128,0,215000:0:0:0:0:
320,192,215000,128,0,215075:0:0:0:0:
192,192,215075,128,0,215150:0:0:0:0:
448,192,215075,128,0,215225:0:0:0:0:
64,192,215075,128,0,215150:0:0:0:0:
320,192,215150,128,0,215300:0:0:0:0:
192,192,215225,128,0,215375:0:0:0:0:
64,192,215300,128,0,215450:0:0:0:0:
448,192,215375,128,0,215600:0:0:0:0:
320,192,215375,128,0,215525:0:0:0:0:
64,192,215525,128,0,215600:0:0:0:0:
192,192,215600,128,0,215675:0:0:0:0:
320,192,215675,128,0,215750:0:0:0:0:
448,192,215675,128,0,215750:0:0:0:0:
64,192,215675,128,0,215825:0:0:0:0:
192,192,215750,128,0,215900:0:0:0:0:
320,192,215825,128,0,215975:0:0:0:0:
64,192,215900,128,0,216050:0:0:0:0:
192,192,215975,128,0,216125:0:0:0:0:
448,192,215975,128,0,216200:0:0:0:0:
320,192,216125,128,0,216200:0:0:0:0:
64,192,216200,128,0,216275:0:0:0:0:
192,192,216275,128,0,216350:0:0:0:0:
448,192,216275,128,0,216350:0:0:0:0:
320,192,216275,128,0,216425:0:0:0:0:
64,192,216350,128,0,216500:0:0:0:0:
192,192,216425,128,0,216575:0:0:0:0:
448,192,216500,128,0,216650:0:0:0:0:
320,192,216575,128,0,216725:0:0:0:0:
64,192,216575,128,0,216800:0:0:0:0:
448,192,216725,128,0,216800:0:0:0:0:
192,192,216800,128,0,216875:0:0:0:0:
320,192,216800,128,0,216950:0:0:0:0:
448,192,216875,128,0,216950:0:0:0:0:
64,192,216875,128,0,217025:0:0:0:0:
192,192,216950,128,0,217100:0:0:0:0:
320,192,217025,128,0,217175:0:0:0:0:
448,192,217025,128,0,217175:0:0:0:0:
64,192,217175,128,0,217400:0:0:0:0:
192,192,217175,128,0,217325:0:0:0:0:
320,192,217325,128,0,217400:0:0:0:0:
192,192,217400,128,0,217475:0:0:0:0:
448,192,217475,128,0,217700:0:0:0:0:
320,192,217475,128,0,217625:0:0:0:0:
64,192,217475,128,0,217550:0:0:0:0:
64,192,217625,128,0,217775:0:0:0:0:
192,192,217700,128,0,217775:0:0:0:0:
320,192,217775,128,0,217925:0:0:0:0:
448,192,217775,128,0,218000:0:0:0:0:
64,192,217925,128,0,218000:0:0:0:0:
192,192,217925,128,0,218075:0:0:0:0:
448,192,218075,128,0,218150:0:0:0:0:
64,192,218075,128,0,218150:0:0:0:0:
320,192,218075,128,0,218225:0:0:0:0:
192,192,218150,128,0,218225:0:0:0:0:
448,192,218225,128,0,218300:0:0:0:0:
64,192,218225,128,0,218375:0:0:0:0:
192,192,218375,128,0,218525:0:0:0:0:
320,192,218375,128,0,218487:0:0:0:0:
448,192,218375,128,0,218450:0:0:0:0:
64,192,218525,128,0,218600:0:0:0:0:
192,192,218600,128,0,218750:0:0:0:0:
320,192,218600,128,0,218712:0:0:0:0:
448,192,218600,128,0,218675:0:0:0:0:
448,192,218750,128,0,218825:0:0:0:0:
320,192,218825,128,0,218975:0:0:0:0:
64,192,218825,128,0,218900:0:0:0:0:
192,192,218825,128,0,218937:0:0:0:0:
192,192,219050,128,0,219125:0:0:0:0:
448,192,219050,128,0,219200:0:0:0:0:
320,192,219125,128,0,219200:0:0:0:0:
64,192,219125,128,0,219200:0:0:0:0:
192,192,219200,128,0,219275:0:0:0:0:
320,192,219275,128,0,219350:0:0:0:0:
64,192,219275,128,0,219425:0:0:0:0:
448,192,219275,128,0,219350:0:0:0:0:
192,192,219350,128,0,219500:0:0:0:0:
320,192,219425,128,0,219575:0:0:0:0:
448,192,219425,128,0,219575:0:0:0:0:
64,192,219500,128,0,219575:0:0:0:0:
192,192,219575,128,0,219800:0:0:0:0:
448,192,219725,128,0,219800:0:0:0:0:
320,192,219800,128,0,219875:0:0:0:0:
448,192,219875,128,0,220025:0:0:0:0:
64,192,219875,128,0,219950:0:0:0:0:
192,192,219875,128,0,219950:0:0:0:0:
320,192,219950,128,0,220100:0:0:0:0:
64,192,220025,128,0,220175:0:0:0:0:
192,192,220100,128,0,220250:0:0:0:0:
448,192,220175,128,0,220400:0:0:0:0:
320,192,220175,128,0,220325:0:0:0:0:
192,192,220325,128,0,220400:0:0:0:0:
64,192,220400,128,0,220475:0:0:0:0:
192,192,220475,128,0,220625:0:0:0:0:
320,192,220475,128,0,220550:0:0:0:0:
448,192,220475,128,0,220550:0:0:0:0:
64,192,220550,128,0,220700:0:0:0:0:
320,192,220625,128,0,220775:0:0:0:0:
448,192,220700,128,0,220850:0:0:0:0:
192,192,220775,128,0,220925:0:0:0:0:
64,192,220775,128,0,221000:0:0:0:0:
320,192,220925,128,0,221000:0:0:0:0:
192,192,221000,128,0,221075:0:0:0:0:
448,192,221075,128,0,221150:0:0:0:0:
64,192,221075,128,0,221150:0:0:0:0:
320,192,221075,128,0,221225:0:0:0:0:
192,192,221150,128,0,221300:0:0:0:0:
64,192,221225,128,0,221375:0:0:0:0:
448,192,221300,128,0,221450:0:0:0:0:
192,192,221375,128,0,221525:0:0:0:0:
320,192,221375,128,0,221600:0:0:0:0:
64,192,221525,128,0,221600:0:0:0:0:
448,192,221600,128,0,221750:0:0:0:0:
192,192,221600,128,0,221675:0:0:0:0:
64,192,221675,128,0,221750:0:0:0:0:
320,192,221675,128,0,221825:0:0:0:0:
192,192,221750,128,0,221825:0:0:0:0:
448,192,221825,128,0,221900:0:0:0:0:
64,192,221825,128,0,221975:0:0:0:0:
320,192,221900,128,0,221975:0:0:0:0:
192,192,221975,128,0,222125:0:0:0:0:
448,192,221975,128,0,222200:0:0:0:0:
320,192,222125,128,0,222200:0:0:0:0:
64,192,222200,128,0,222275:0:0:0:0:
448,192,222275,128,0,222350:0:0:0:0:
320,192,222275,128,0,222425:0:0:0:0:
192,192,222275,128,0,222500:0:0:0:0:
64,192,222425,128,0,222575:0:0:0:0:
448,192,222500,128,0,222575:0:0:0:0:
320,192,222575,128,0,222800:0:0:0:0:
192,192,222575,128,0,222725:0:0:0:0:
448,192,222725,128,0,222800:0:0:0:0:
192,192,222800,128,0,223025:0:0:0:0:
64,192,222800,128,0,222875:0:0:0:0:
320,192,222875,128,0,222950:0:0:0:0:
448,192,222875,128,0,222950:0:0:0:0:
64,192,222950,128,0,223100:0:0:0:0:
448,192,223025,128,0,223175:0:0:0:0:
320,192,223025,128,0,223175:0:0:0:0:
192,192,223175,128,0,223400:0:0:0:0:
64,192,223175,128,0,223325:0:0:0:0:
448,192,223325,128,0,223400:0:0:0:0:
320,192,223400,128,0,223475:0:0:0:0:
192,192,223475,128,0,223625:0:0:0:0:
64,192,223475,128,0,223550:0:0:0:0:
448,192,223475,128,0,223550:0:0:0:0:
320,192,223550,128,0,223700:0:0:0:0:
64,192,223625,128,0,223775:0:0:0:0:
448,192,223700,128,0,223850:0:0:0:0:
192,192,223775,128,0,223850:0:0:0:0:
320,192,223775,128,0,223925:0:0:0:0:
64,192,223850,128,0,224000:0:0:0:0:
192,192,223925,128,0,224000:0:0:0:0:
448,192,224000,128,0,224150:0:0:0:0:
320,192,224075,128,0,224300:0:0:0:0:
192,192,224075,128,0,224150:0:0:0:0:
64,192,224075,128,0,224150:0:0:0:0:
64,192,224225,128,0,224375:0:0:0:0:
448,192,224375,128,0,224525:0:0:0:0:
192,192,224375,128,0,224450:0:0:0:0:
320,192,224375,128,0,224600:0:0:0:0:
192,192,224525,128,0,224675:0:0:0:0:
64,192,224600,128,0,224675:0:0:0:0:
448,192,224675,1,0,0:0:0:0:
320,192,224750,128,0,224825:0:0:0:0:
192,192,224825,1,0,0:0:0:0:
64,192,224825,1,0,0:0:0:0:
448,192,224825,128,0,224975:0:0:0:0:
320,192,224900,128,0,224975:0:0:0:0:
192,192,224975,128,0,225125:0:0:0:0:
64,192,224975,128,0,225200:0:0:0:0:
448,192,225125,128,0,225200:0:0:0:0:
320,192,225200,128,0,225275:0:0:0:0:
448,192,225275,128,0,225425:0:0:0:0:
192,192,225275,1,0,0:0:0:0:
64,192,225275,1,0,0:0:0:0:
320,192,225350,128,0,225500:0:0:0:0:
192,192,225425,128,0,225575:0:0:0:0:
448,192,225500,128,0,225575:0:0:0:0:
64,192,225575,128,0,225800:0:0:0:0:
320,192,225575,128,0,225725:0:0:0:0:
448,192,225725,128,0,225875:0:0:0:0:
192,192,225800,128,0,225950:0:0:0:0:
320,192,225875,128,0,225950:0:0:0:0:
64,192,225950,128,0,226025:0:0:0:0:
192,192,226025,128,0,226175:0:0:0:0:
448,192,226025,1,0,0:0:0:0:
320,192,226025,1,0,0:0:0:0:
64,192,226100,128,0,226175:0:0:0:0:
448,192,226175,128,0,226400:0:0:0:0:
320,192,226175,128,0,226325:0:0:0:0:
192,192,226325,128,0,226400:0:0:0:0:
64,192,226400,128,0,226625:0:0:0:0:
448,192,226475,1,0,0:0:0:0:
320,192,226475,1,0,0:0:0:0:
192,192,226550,128,0,226625:0:0:0:0:
448,192,226625,128,0,226775:0:0:0:0:
320,192,226775,128,0,226925:0:0:0:0:
64,192,226775,1,0,0:0:0:0:
192,192,226775,1,0,0:0:0:0:
448,192,226925,1,0,0:0:0:0:
64,192,226925,128,0,227000:0:0:0:0:
192,192,227000,128,0,227075:0:0:0:0:
320,192,227075,1,0,0:0:0:0:
64,192,227075,128,0,227225:0:0:0:0:
192,192,227225,1,0,0:0:0:0:
448,192,227225,128,0,227300:0:0:0:0:
320,192,227300,128,0,227375:0:0:0:0:
192,192,227375,1,0,0:0:0:0:
64,192,227375,1,0,0:0:0:0:
320,192,227450,1,0,0:0:0:0:
448,192,227450,1,0,0:0:0:0:
192,192,227525,1,0,0:0:0:0:
64,192,227525,1,0,0:0:0:0:
320,192,227600,1,0,0:0:0:0:
448,192,227600,1,0,0:0:0:0:
192,192,227675,1,0,0:0:0:0:
64,192,227675,1,0,0:0:0:0:
320,192,227750,1,0,0:0:0:0:
448,192,227750,1,0,0:0:0:0:
192,192,227825,1,0,0:0:0:0:
64,192,227825,1,0,0:0:0:0:
320,192,227900,1,0,0:0:0:0:
192,192,227975,128,0,228125:0:0:0:0:
64,192,227975,128,0,228125:0:0:0:0:
448,192,227975,1,0,0:0:0:0:
192,192,228200,128,0,228350:0:0:0:0:
64,192,228200,128,0,228350:0:0:0:0:
320,192,228425,128,0,228725:0:0:0:0:
192,192,228425,128,0,228875:0:0:0:0:
448,192,228875,128,0,229175:0:0:0:0:
320,192,229175,128,0,229400:0:0:0:0:
64,192,229175,128,0,229325:0:0:0:0:
192,192,229175,128,0,229250:0:0:0:0:
448,192,229325,128,0,229400:0:0:0:0:
192,192,229400,128,0,229475:0:0:0:0:
320,192,229475,128,0,229550:0:0:0:0:
448,192,229475,128,0,229550:0:0:0:0:
64,192,229475,128,0,229625:0:0:0:0:
192,192,229550,128,0,229700:0:0:0:0:
448,192,229625,128,0,229775:0:0:0:0:
320,192,229700,128,0,229850:0:0:0:0:
192,192,229775,128,0,229925:0:0:0:0:
64,192,229775,128,0,230000:0:0:0:0:
320,192,229925,128,0,230000:0:0:0:0:
448,192,230000,128,0,230075:0:0:0:0:
64,192,230075,128,0,230150:0:0:0:0:
192,192,230075,128,0,230150:0:0:0:0:
320,192,230075,128,0,230225:0:0:0:0:
448,192,230150,128,0,230300:0:0:0:0:
192,192,230225,128,0,230300:0:0:0:0:
64,192,230300,128,0,230450:0:0:0:0:
448,192,230375,128,0,230600:0:0:0:0:
320,192,230375,128,0,230525:0:0:0:0:
192,192,230375,128,0,230450:0:0:0:0:
64,192,230525,128,0,230600:0:0:0:0:
320,192,230600,128,0,230675:0:0:0:0:
192,192,230675,128,0,230825:0:0:0:0:
448,192,230675,128,0,230750:0:0:0:0:
64,192,230675,128,0,230750:0:0:0:0:
320,192,230750,128,0,230900:0:0:0:0:
448,192,230825,128,0,230975:0:0:0:0:
64,192,230900,128,0,231050:0:0:0:0:
192,192,230975,128,0,231200:0:0:0:0:
320,192,230975,128,0,231125:0:0:0:0:
448,192,231125,128,0,231200:0:0:0:0:
320,192,231200,128,0,231275:0:0:0:0:
64,192,231200,128,0,231350:0:0:0:0:
192,192,231275,128,0,231350:0:0:0:0:
448,192,231275,128,0,231425:0:0:0:0:
320,192,231350,128,0,231425:0:0:0:0:
64,192,231425,128,0,231500:0:0:0:0:
192,192,231425,128,0,231500:0:0:0:0:
448,192,231500,128,0,231575:0:0:0:0:
64,192,231575,128,0,231800:0:0:0:0:
320,192,231575,128,0,231725:0:0:0:0:
192,192,231575,128,0,231650:0:0:0:0:
448,192,231725,128,0,231800:0:0:0:0:
192,192,231800,128,0,231875:0:0:0:0:
320,192,231875,128,0,232100:0:0:0:0:
448,192,231875,128,0,232025:0:0:0:0:
64,192,231875,128,0,231950:0:0:0:0:
192,192,232025,128,0,232100:0:0:0:0:
64,192,232100,128,0,232175:0:0:0:0:
320,192,232175,128,0,232325:0:0:0:0:
192,192,232175,128,0,232400:0:0:0:0:
448,192,232175,128,0,232250:0:0:0:0:
64,192,232325,128,0,232400:0:0:0:0:
448,192,232325,128,0,232475:0:0:0:0:
320,192,232400,128,0,232625:0:0:0:0:
64,192,232475,128,0,232550:0:0:0:0:
192,192,232475,128,0,232550:0:0:0:0:
448,192,232550,128,0,232700:0:0:0:0:
192,192,232625,128,0,232775:0:0:0:0:
64,192,232625,128,0,232775:0:0:0:0:
320,192,232775,128,0,232925:0:0:0:0:
448,192,232775,128,0,233000:0:0:0:0:
64,192,232925,128,0,233000:0:0:0:0:
192,192,233000,128,0,233075:0:0:0:0:
64,192,233075,128,0,233150:0:0:0:0:
448,192,233075,128,0,233150:0:0:0:0:
320,192,233075,128,0,233225:0:0:0:0:
192,192,233150,128,0,233300:0:0:0:0:
448,192,233225,128,0,233300:0:0:0:0:
64,192,233300,128,0,233375:0:0:0:0:
320,192,233375,128,0,233450:0:0:0:0:
192,192,233375,128,0,233525:0:0:0:0:
448,192,233375,128,0,233525:0:0:0:0:
64,192,233450,128,0,233600:0:0:0:0:
320,192,233525,128,0,233600:0:0:0:0:
192,192,233600,128,0,233675:0:0:0:0:
448,192,233675,128,0,233750:0:0:0:0:
64,192,233675,128,0,233900:0:0:0:0:
320,192,233675,128,0,233825:0:0:0:0:
192,192,233825,128,0,233900:0:0:0:0:
448,192,233825,128,0,233975:0:0:0:0:
64,192,233975,128,0,234125:0:0:0:0:
320,192,233975,128,0,234050:0:0:0:0:
192,192,233975,128,0,234200:0:0:0:0:
448,192,234125,128,0,234200:0:0:0:0:
320,192,234200,128,0,234275:0:0:0:0:
192,192,234275,128,0,234350:0:0:0:0:
448,192,234275,128,0,234425:0:0:0:0:
64,192,234275,128,0,234350:0:0:0:0:
320,192,234350,128,0,234500:0:0:0:0:
192,192,234425,128,0,234575:0:0:0:0:
64,192,234500,128,0,234650:0:0:0:0:
448,192,234575,128,0,234800:0:0:0:0:
320,192,234575,128,0,234725:0:0:0:0:
64,192,234725,128,0,234800:0:0:0:0:
192,192,234800,128,0,234875:0:0:0:0:
320,192,234875,128,0,234950:0:0:0:0:
448,192,234875,128,0,234950:0:0:0:0:
64,192,234875,128,0,235025:0:0:0:0:
192,192,234950,128,0,235100:0:0:0:0:
320,192,235025,128,0,235100:0:0:0:0:
64,192,235100,128,0,235250:0:0:0:0:
192,192,235175,128,0,235325:0:0:0:0:
448,192,235175,128,0,235400:0:0:0:0:
320,192,235175,128,0,235250:0:0:0:0:
64,192,235325,128,0,235400:0:0:0:0:
320,192,235400,128,0,235475:0:0:0:0:
192,192,235475,128,0,235550:0:0:0:0:
448,192,235475,128,0,235550:0:0:0:0:
64,192,235475,128,0,235625:0:0:0:0:
320,192,235550,128,0,235700:0:0:0:0:
192,192,235625,128,0,235775:0:0:0:0:
448,192,235700,128,0,235850:0:0:0:0:
320,192,235775,128,0,235925:0:0:0:0:
64,192,235775,128,0,236000:0:0:0:0:
448,192,235925,128,0,236000:0:0:0:0:
192,192,236000,128,0,236075:0:0:0:0:
320,192,236000,128,0,236150:0:0:0:0:
448,192,236075,128,0,236150:0:0:0:0:
64,192,236075,128,0,236225:0:0:0:0:
192,192,236150,128,0,236300:0:0:0:0:
320,192,236225,128,0,236375:0:0:0:0:
448,192,236225,128,0,236300:0:0:0:0:
448,192,236375,128,0,236450:0:0:0:0:
192,192,236375,128,0,236450:0:0:0:0:
64,192,236375,128,0,236450:0:0:0:0:
192,192,236525,128,0,236600:0:0:0:0:
448,192,236525,128,0,236675:0:0:0:0:
64,192,236525,128,0,236637:0:0:0:0:
320,192,236600,128,0,236675:0:0:0:0:
192,192,236675,128,0,236825:0:0:0:0:
320,192,236825,128,0,236900:0:0:0:0:
448,192,236825,128,0,236900:0:0:0:0:
64,192,236825,128,0,236900:0:0:0:0:
192,192,236900,128,0,236975:0:0:0:0:
64,192,236975,128,0,237125:0:0:0:0:
448,192,236975,128,0,237050:0:0:0:0:
320,192,236975,128,0,237087:0:0:0:0:
448,192,237125,128,0,237275:0:0:0:0:
64,192,237275,128,0,237425:0:0:0:0:
320,192,237275,128,0,237350:0:0:0:0:
192,192,237275,128,0,237387:0:0:0:0:
448,192,237425,128,0,237500:0:0:0:0:
320,192,237425,128,0,237500:0:0:0:0:
192,192,237500,128,0,237575:0:0:0:0:
448,192,237575,128,0,237725:0:0:0:0:
64,192,237575,128,0,237650:0:0:0:0:
320,192,237575,128,0,237687:0:0:0:0:
192,192,237725,128,0,237800:0:0:0:0:
64,192,237725,128,0,237800:0:0:0:0:
320,192,237800,128,0,237875:0:0:0:0:
192,192,237875,128,0,237950:0:0:0:0:
448,192,237875,128,0,237950:0:0:0:0:
64,192,237875,128,0,238025:0:0:0:0:
320,192,237950,128,0,238025:0:0:0:0:
192,192,238025,128,0,238100:0:0:0:0:
448,192,238025,128,0,238175:0:0:0:0:
64,192,238175,128,0,238250:0:0:0:0:
192,192,238175,128,0,238250:0:0:0:0:
320,192,238250,128,0,238325:0:0:0:0:
448,192,238250,128,0,238325:0:0:0:0:
64,192,238325,128,0,238400:0:0:0:0:
192,192,238325,128,0,238400:0:0:0:0:
448,192,238400,128,0,238475:0:0:0:0:
320,192,238400,128,0,238550:0:0:0:0:
192,192,238475,128,0,238550:0:0:0:0:
64,192,238475,128,0,238625:0:0:0:0:
448,192,238550,128,0,238700:0:0:0:0:
320,192,238625,128,0,238775:0:0:0:0:
192,192,238625,128,0,238775:0:0:0:0:
64,192,238700,128,0,238775:0:0:0:0:
448,192,238775,128,0,239000:0:0:0:0:
64,192,238925,128,0,239000:0:0:0:0:
192,192,239000,128,0,239075:0:0:0:0:
320,192,239075,128,0,239225:0:0:0:0:
64,192,239075,128,0,239150:0:0:0:0:
448,192,239075,128,0,239150:0:0:0:0:
192,192,239150,128,0,239300:0:0:0:0:
448,192,239225,128,0,239375:0:0:0:0:
320,192,239300,128,0,239450:0:0:0:0:
64,192,239375,128,0,239600:0:0:0:0:
192,192,239375,128,0,239525:0:0:0:0:
320,192,239525,128,0,239600:0:0:0:0:
448,192,239600,128,0,239675:0:0:0:0:
320,192,239675,128,0,239825:0:0:0:0:
192,192,239675,128,0,239750:0:0:0:0:
64,192,239675,128,0,239750:0:0:0:0:
448,192,239750,128,0,239900:0:0:0:0:
64,192,239825,128,0,239900:0:0:0:0:
192,192,239900,128,0,240050:0:0:0:0:
64,192,239975,128,0,240125:0:0:0:0:
448,192,239975,128,0,240200:0:0:0:0:
320,192,239975,128,0,240050:0:0:0:0:
320,192,240125,128,0,240200:0:0:0:0:
192,192,240200,128,0,240275:0:0:0:0:
320,192,240275,128,0,240350:0:0:0:0:
448,192,240275,128,0,240350:0:0:0:0:
64,192,240275,128,0,240425:0:0:0:0:
192,192,240350,128,0,240500:0:0:0:0:
448,192,240425,128,0,240575:0:0:0:0:
320,192,240500,128,0,240650:0:0:0:0:
64,192,240575,128,0,240725:0:0:0:0:
192,192,240575,128,0,240800:0:0:0:0:
320,192,240725,128,0,240800:0:0:0:0:
448,192,240800,128,0,240950:0:0:0:0:
64,192,240800,128,0,240875:0:0:0:0:
192,192,240875,128,0,240950:0:0:0:0:
320,192,240875,128,0,241025:0:0:0:0:
64,192,240950,128,0,241025:0:0:0:0:
448,192,241025,128,0,241100:0:0:0:0:
192,192,241025,128,0,241100:0:0:0:0:
320,192,241100,128,0,241175:0:0:0:0:
192,192,241175,128,0,241325:0:0:0:0:
448,192,241175,128,0,241400:0:0:0:0:
64,192,241175,128,0,241250:0:0:0:0:
320,192,241325,128,0,241400:0:0:0:0:
64,192,241400,128,0,241475:0:0:0:0:
448,192,241475,128,0,241550:0:0:0:0:
320,192,241475,128,0,241625:0:0:0:0:
192,192,241475,128,0,241700:0:0:0:0:
64,192,241625,128,0,241700:0:0:0:0:
448,192,241700,128,0,241775:0:0:0:0:
320,192,241775,128,0,242000:0:0:0:0:
192,192,241775,128,0,241925:0:0:0:0:
64,192,241775,128,0,241850:0:0:0:0:
448,192,241925,128,0,242000:0:0:0:0:
64,192,241925,128,0,242075:0:0:0:0:
192,192,242000,128,0,242225:0:0:0:0:
320,192,242075,128,0,242150:0:0:0:0:
448,192,242075,128,0,242150:0:0:0:0:
64,192,242150,128,0,242300:0:0:0:0:
448,192,242225,128,0,242375:0:0:0:0:
320,192,242225,128,0,242375:0:0:0:0:
192,192,242375,128,0,242600:0:0:0:0:
64,192,242375,128,0,242525:0:0:0:0:
448,192,242525,128,0,242600:0:0:0:0:
320,192,242600,128,0,242675:0:0:0:0:
192,192,242675,128,0,242825:0:0:0:0:
64,192,242675,128,0,242750:0:0:0:0:
448,192,242675,128,0,242750:0:0:0:0:
320,192,242750,128,0,242900:0:0:0:0:
64,192,242825,128,0,242900:0:0:0:0:
448,192,242900,128,0,242975:0:0:0:0:
192,192,242975,128,0,243050:0:0:0:0:
320,192,242975,128,0,243125:0:0:0:0:
64,192,242975,128,0,243050:0:0:0:0:
448,192,243050,128,0,243200:0:0:0:0:
192,192,243125,128,0,243200:0:0:0:0:
320,192,243200,128,0,243350:0:0:0:0:
448,192,243275,128,0,243500:0:0:0:0:
192,192,243275,128,0,243350:0:0:0:0:
64,192,243275,128,0,243350:0:0:0:0:
64,192,243425,128,0,243575:0:0:0:0:
320,192,243425,128,0,243500:0:0:0:0:
448,192,243575,128,0,243725:0:0:0:0:
192,192,243575,128,0,243650:0:0:0:0:
320,192,243575,128,0,243800:0:0:0:0:
192,192,243725,128,0,243875:0:0:0:0:
64,192,243800,128,0,243950:0:0:0:0:
448,192,243875,1,0,0:0:0:0:
320,192,243950,128,0,244025:0:0:0:0:
192,192,244025,1,0,0:0:0:0:
64,192,244025,1,0,0:0:0:0:
448,192,244025,128,0,244175:0:0:0:0:
320,192,244100,128,0,244250:0:0:0:0:
192,192,244175,128,0,244325:0:0:0:0:
64,192,244175,128,0,244400:0:0:0:0:
448,192,244325,128,0,244400:0:0:0:0:
320,192,244400,128,0,244475:0:0:0:0:
448,192,244475,128,0,244625:0:0:0:0:
192,192,244475,1,0,0:0:0:0:
64,192,244475,1,0,0:0:0:0:
320,192,244550,128,0,244700:0:0:0:0:
192,192,244625,128,0,244700:0:0:0:0:
448,192,244700,128,0,244775:0:0:0:0:
64,192,244775,128,0,245000:0:0:0:0:
320,192,244775,128,0,244925:0:0:0:0:
192,192,244775,128,0,244850:0:0:0:0:
448,192,244925,128,0,245075:0:0:0:0:
192,192,245000,128,0,245150:0:0:0:0:
320,192,245075,1,0,0:0:0:0:
64,192,245150,128,0,245225:0:0:0:0:
192,192,245225,128,0,245375:0:0:0:0:
448,192,245225,1,0,0:0:0:0:
320,192,245225,1,0,0:0:0:0:
64,192,245300,128,0,245450:0:0:0:0:
448,192,245375,128,0,245600:0:0:0:0:
320,192,245375,128,0,245525:0:0:0:0:
192,192,245525,128,0,245675:0:0:0:0:
64,192,245600,128,0,245825:0:0:0:0:
448,192,245675,1,0,0:0:0:0:
320,192,245675,1,0,0:0:0:0:
192,192,245750,128,0,245900:0:0:0:0:
320,192,245825,128,0,245975:0:0:0:0:
448,192,245975,128,0,246125:0:0:0:0:
192,192,245975,128,0,246050:0:0:0:0:
64,192,245975,128,0,246050:0:0:0:0:
320,192,246125,1,0,0:0:0:0:
64,192,246125,128,0,246200:0:0:0:0:
192,192,246200,128,0,246275:0:0:0:0:
320,192,246275,1,0,0:0:0:0:
64,192,246275,128,0,246425:0:0:0:0:
192,192,246425,128,0,246500:0:0:0:0:
448,192,246425,128,0,246575:0:0:0:0:
320,192,246500,128,0,246575:0:0:0:0:
192,192,246575,1,0,0:0:0:0:
64,192,246575,1,0,0:0:0:0:
320,192,246650,1,0,0:0:0:0:
448,192,246650,1,0,0:0:0:0:
192,192,246725,1,0,0:0:0:0:
64,192,246725,1,0,0:0:0:0:
320,192,246800,1,0,0:0:0:0:
448,192,246800,1,0,0:0:0:0:
192,192,246875,1,0,0:0:0:0:
64,192,246875,1,0,0:0:0:0:
320,192,246950,1,0,0:0:0:0:
448,192,246950,1,0,0:0:0:0:
192,192,247025,1,0,0:0:0:0:
64,192,247025,1,0,0:0:0:0:
320,192,247100,1,0,0:0:0:0:
448,192,247175,1,0,0:0:0:0:
192,192,247175,128,0,247475:0:0:0:0:
64,192,247175,128,0,247625:0:0:0:0:
192,192,247625,128,0,247775:0:0:0:0:
320,192,247700,128,0,247850:0:0:0:0:
64,192,247775,128,0,247925:0:0:0:0:
448,192,247775,128,0,247925:0:0:0:0:
320,192,248075,128,0,248375:0:0:0:0:
192,192,248075,128,0,248300:0:0:0:0:
192,192,248375,1,0,0:0:0:0:
64,192,248375,1,0,0:0:0:0:
448,192,248425,1,0,0:0:0:0:
320,192,248475,1,0,0:0:0:0:
64,192,248525,1,0,0:0:0:0:
448,192,248575,1,0,0:0:0:0:
192,192,248625,1,0,0:0:0:0:
64,192,248675,1,0,0:0:0:0:
320,192,248675,128,0,248900:0:0:0:0:
448,192,248675,128,0,248825:0:0:0:0:
192,192,248825,128,0,248975:0:0:0:0:
448,192,248975,1,0,0:0:0:0:
64,192,248975,1,0,0:0:0:0:
320,192,249025,128,0,249125:0:0:0:0:
192,192,249075,128,0,249175:0:0:0:0:
64,192,249125,128,0,249225:0:0:0:0:
448,192,249175,128,0,249225:0:0:0:0:
320,192,249225,128,0,249275:0:0:0:0:
448,192,249275,1,0,0:0:0:0:
64,192,249275,1,0,0:0:0:0:
192,192,249275,1,0,0:0:0:0:
320,192,249350,128,0,249575:0:0:0:0:
448,192,249575,1,0,0:0:0:0:
64,192,249575,128,0,249762:0:0:0:0:
192,192,249650,128,0,249875:0:0:0:0:
320,192,249725,1,0,0:0:0:0:
448,192,249875,128,0,249950:0:0:0:0:
64,192,249875,1,0,0:0:0:0:
320,192,249912,128,0,249987:0:0:0:0:
448,192,250025,128,0,250100:0:0:0:0:
320,192,250062,128,0,250137:0:0:0:0:
192,192,250175,128,0,250400:0:0:0:0:
448,192,250175,128,0,250400:0:0:0:0:
320,192,250325,128,0,250400:0:0:0:0:
64,192,250475,128,0,250700:0:0:0:0:
320,192,250475,128,0,250700:0:0:0:0:
448,192,250475,1,0,0:0:0:0:
192,192,250625,128,0,250700:0:0:0:0:
64,192,250775,1,0,0:0:0:0:
448,192,250775,1,0,0:0:0:0:
320,192,250825,1,0,0:0:0:0:
192,192,250875,1,0,0:0:0:0:
448,192,250925,1,0,0:0:0:0:
64,192,250975,1,0,0:0:0:0:
320,192,251025,1,0,0:0:0:0:
192,192,251075,128,0,251300:0:0:0:0:
448,192,251075,1,0,0:0:0:0:
64,192,251075,128,0,251225:0:0:0:0:
320,192,251150,128,0,251375:0:0:0:0:
448,192,251225,128,0,251375:0:0:0:0:
192,192,251375,1,0,0:0:0:0:
64,192,251375,128,0,251600:0:0:0:0:
448,192,251450,128,0,251600:0:0:0:0:
320,192,251525,128,0,251600:0:0:0:0:
192,192,251600,128,0,251675:0:0:0:0:
64,192,251675,1,0,0:0:0:0:
320,192,251675,1,0,0:0:0:0:
448,192,251675,1,0,0:0:0:0:
192,192,251750,128,0,251975:0:0:0:0:
64,192,251975,128,0,252125:0:0:0:0:
448,192,251975,1,0,0:0:0:0:
320,192,252050,128,0,252125:0:0:0:0:
448,192,252125,128,0,252200:0:0:0:0:
192,192,252200,128,0,252275:0:0:0:0:
320,192,252275,1,0,0:0:0:0:
448,192,252275,1,0,0:0:0:0:
64,192,252275,1,0,0:0:0:0:
192,192,252325,128,0,252425:0:0:0:0:
64,192,252375,128,0,252475:0:0:0:0:
320,192,252425,128,0,252525:0:0:0:0:
192,192,252475,128,0,252575:0:0:0:0:
448,192,252525,128,0,252625:0:0:0:0:
64,192,252575,1,0,0:0:0:0:
320,192,252575,128,0,253100:0:0:0:0:
64,192,252800,128,0,253175:0:0:0:0:
448,192,252875,1,0,0:0:0:0:
192,192,252875,1,0,0:0:0:0:
192,192,253025,128,0,253175:0:0:0:0:
320,192,253175,128,0,253400:0:0:0:0:
448,192,253175,128,0,253325:0:0:0:0:
192,192,253325,128,0,253475:0:0:0:0:
448,192,253475,1,0,0:0:0:0:
64,192,253475,1,0,0:0:0:0:
320,192,253475,1,0,0:0:0:0:
192,192,253525,128,0,253625:0:0:0:0:
448,192,253575,128,0,253675:0:0:0:0:
320,192,253625,128,0,253725:0:0:0:0:
64,192,253675,128,0,253775:0:0:0:0:
192,192,253725,128,0,253775:0:0:0:0:
448,192,253775,1,0,0:0:0:0:
320,192,253775,1,0,0:0:0:0:
64,192,253850,128,0,254000:0:0:0:0:
448,192,253887,128,0,254000:0:0:0:0:
320,192,253925,128,0,254000:0:0:0:0:
192,192,254000,128,0,254075:0:0:0:0:
320,192,254075,1,0,0:0:0:0:
448,192,254075,1,0,0:0:0:0:
64,192,254075,1,0,0:0:0:0:
192,192,254150,128,0,254375:0:0:0:0:
64,192,254375,1,0,0:0:0:0:
448,192,254375,128,0,254562:0:0:0:0:
320,192,254450,128,0,254675:0:0:0:0:
192,192,254525,1,0,0:0:0:0:
64,192,254675,128,0,254750:0:0:0:0:
448,192,254675,1,0,0:0:0:0:
192,192,254712,128,0,254787:0:0:0:0:
64,192,254825,128,0,254900:0:0:0:0:
192,192,254862,128,0,254937:0:0:0:0:
64,192,254975,128,0,255125:0:0:0:0:
448,192,254975,128,0,255200:0:0:0:0:
192,192,255050,128,0,255200:0:0:0:0:
320,192,255125,128,0,255275:0:0:0:0:
448,192,255275,128,0,255425:0:0:0:0:
192,192,255275,1,0,0:0:0:0:
64,192,255275,128,0,255500:0:0:0:0:
320,192,255350,128,0,255500:0:0:0:0:
192,192,255425,128,0,255575:0:0:0:0:
320,192,255575,1,0,0:0:0:0:
448,192,255575,128,0,255800:0:0:0:0:
64,192,255650,128,0,255800:0:0:0:0:
192,192,255725,128,0,255800:0:0:0:0:
448,192,255875,1,0,0:0:0:0:
64,192,255875,128,0,255950:0:0:0:0:
320,192,255912,128,0,255987:0:0:0:0:
64,192,256025,128,0,256100:0:0:0:0:
320,192,256062,128,0,256137:0:0:0:0:
448,192,256175,1,0,0:0:0:0:
192,192,256175,128,0,256400:0:0:0:0:
320,192,256250,128,0,256400:0:0:0:0:
64,192,256325,128,0,256400:0:0:0:0:
64,192,256475,1,0,0:0:0:0:
320,192,256475,128,0,256700:0:0:0:0:
448,192,256475,1,0,0:0:0:0:
192,192,256550,128,0,256700:0:0:0:0:
448,192,256625,128,0,256700:0:0:0:0:
64,192,256775,1,0,0:0:0:0:
320,192,256775,128,0,257000:0:0:0:0:
448,192,256850,128,0,257000:0:0:0:0:
192,192,256925,1,0,0:0:0:0:
320,192,257075,128,0,257300:0:0:0:0:
448,192,257075,128,0,257300:0:0:0:0:
64,192,257075,1,0,0:0:0:0:
64,192,257225,1,0,0:0:0:0:
448,192,257375,1,0,0:0:0:0:
192,192,257375,128,0,257600:0:0:0:0:
64,192,257450,128,0,257600:0:0:0:0:
320,192,257525,1,0,0:0:0:0:
192,192,257675,128,0,257900:0:0:0:0:
64,192,257675,128,0,257900:0:0:0:0:
448,192,257675,1,0,0:0:0:0:
448,192,257825,1,0,0:0:0:0:
320,192,257975,1,0,0:0:0:0:
448,192,257975,1,0,0:0:0:0:
64,192,258025,1,0,0:0:0:0:
192,192,258075,1,0,0:0:0:0:
448,192,258125,1,0,0:0:0:0:
64,192,258175,1,0,0:0:0:0:
320,192,258225,1,0,0:0:0:0:
448,192,258275,1,0,0:0:0:0:
192,192,258275,128,0,258500:0:0:0:0:
64,192,258275,128,0,258425:0:0:0:0:
320,192,258425,128,0,258575:0:0:0:0:
64,192,258575,1,0,0:0:0:0:
448,192,258575,1,0,0:0:0:0:
192,192,258625,128,0,258725:0:0:0:0:
320,192,258675,128,0,258775:0:0:0:0:
448,192,258725,128,0,258825:0:0:0:0:
64,192,258775,128,0,258825:0:0:0:0:
192,192,258825,128,0,258875:0:0:0:0:
64,192,258875,1,0,0:0:0:0:
448,192,258875,1,0,0:0:0:0:
320,192,258875,1,0,0:0:0:0:
192,192,258950,128,0,259175:0:0:0:0:
64,192,259175,1,0,0:0:0:0:
320,192,259175,128,0,259362:0:0:0:0:
448,192,259250,128,0,259475:0:0:0:0:
192,192,259325,1,0,0:0:0:0:
192,192,259475,128,0,259550:0:0:0:0:
320,192,259475,1,0,0:0:0:0:
64,192,259512,128,0,259587:0:0:0:0:
192,192,259625,128,0,259700:0:0:0:0:
64,192,259662,128,0,259737:0:0:0:0:
192,192,259775,128,0,260000:0:0:0:0:
448,192,259775,128,0,260000:0:0:0:0:
320,192,259925,128,0,260000:0:0:0:0:
64,192,260075,128,0,260300:0:0:0:0:
320,192,260075,128,0,260300:0:0:0:0:
448,192,260075,1,0,0:0:0:0:
192,192,260225,128,0,260300:0:0:0:0:
448,192,260375,1,0,0:0:0:0:
64,192,260375,1,0,0:0:0:0:
192,192,260425,1,0,0:0:0:0:
320,192,260475,1,0,0:0:0:0:
64,192,260525,1,0,0:0:0:0:
448,192,260575,1,0,0:0:0:0:
192,192,260625,1,0,0:0:0:0:
320,192,260675,128,0,260900:0:0:0:0:
64,192,260675,1,0,0:0:0:0:
448,192,260675,128,0,260825:0:0:0:0:
192,192,260750,128,0,260975:0:0:0:0:
64,192,260825,128,0,260975:0:0:0:0:
320,192,260975,1,0,0:0:0:0:
448,192,260975,128,0,261200:0:0:0:0:
192,192,261050,128,0,261200:0:0:0:0:
64,192,261125,128,0,261200:0:0:0:0:
320,192,261200,128,0,261275:0:0:0:0:
448,192,261275,1,0,0:0:0:0:
192,192,261275,1,0,0:0:0:0:
64,192,261275,1,0,0:0:0:0:
320,192,261350,128,0,261575:0:0:0:0:
448,192,261575,128,0,261725:0:0:0:0:
64,192,261575,1,0,0:0:0:0:
192,192,261650,128,0,261725:0:0:0:0:
64,192,261725,128,0,261800:0:0:0:0:
320,192,261800,128,0,261875:0:0:0:0:
192,192,261875,1,0,0:0:0:0:
64,192,261875,1,0,0:0:0:0:
448,192,261875,1,0,0:0:0:0:
320,192,261925,128,0,262025:0:0:0:0:
448,192,261975,128,0,262075:0:0:0:0:
192,192,262025,128,0,262125:0:0:0:0:
320,192,262075,128,0,262175:0:0:0:0:
64,192,262125,128,0,262225:0:0:0:0:
448,192,262175,1,0,0:0:0:0:
192,192,262175,128,0,262700:0:0:0:0:
448,192,262400,128,0,262775:0:0:0:0:
64,192,262475,1,0,0:0:0:0:
320,192,262475,1,0,0:0:0:0:
320,192,262625,128,0,262775:0:0:0:0:
64,192,262775,128,0,262925:0:0:0:0:
192,192,262775,128,0,262850:0:0:0:0:
448,192,262850,128,0,263037:0:0:0:0:
320,192,262925,128,0,263075:0:0:0:0:
192,192,263000,128,0,263112:0:0:0:0:
64,192,263075,128,0,263150:0:0:0:0:
448,192,263150,128,0,263225:0:0:0:0:
192,192,263225,1,0,0:0:0:0:
64,192,263225,1,0,0:0:0:0:
320,192,263225,1,0,0:0:0:0:
192,192,263375,1,0,0:0:0:0:
448,192,263375,1,0,0:0:0:0:
64,192,263450,128,0,263600:0:0:0:0:
320,192,263487,128,0,263600:0:0:0:0:
448,192,263525,128,0,263600:0:0:0:0:
192,192,263600,128,0,263675:0:0:0:0:
64,192,263675,1,0,0:0:0:0:
320,192,263675,1,0,0:0:0:0:
448,192,263675,1,0,0:0:0:0:
192,192,263750,128,0,263975:0:0:0:0:
64,192,263975,128,0,264162:0:0:0:0:
448,192,263975,1,0,0:0:0:0:
320,192,264050,128,0,264275:0:0:0:0:
192,192,264125,1,0,0:0:0:0:
448,192,264275,128,0,264350:0:0:0:0:
192,192,264312,128,0,264387:0:0:0:0:
320,192,264425,1,0,0:0:0:0:
448,192,264425,128,0,264500:0:0:0:0:
192,192,264462,128,0,264537:0:0:0:0:
448,192,264575,128,0,264800:0:0:0:0:
64,192,264575,128,0,264725:0:0:0:0:
192,192,264650,128,0,264800:0:0:0:0:
320,192,264725,128,0,264875:0:0:0:0:
448,192,264875,128,0,265025:0:0:0:0:
192,192,264875,1,0,0:0:0:0:
64,192,264875,128,0,265175:0:0:0:0:
320,192,264950,128,0,265100:0:0:0:0:
192,192,265025,128,0,265175:0:0:0:0:
320,192,265175,1,0,0:0:0:0:
448,192,265175,1,0,0:0:0:0:
448,192,265325,1,0,0:0:0:0:
192,192,265325,1,0,0:0:0:0:
320,192,265475,1,0,0:0:0:0:
64,192,265475,1,0,0:0:0:0:
192,192,265625,1,0,0:0:0:0:
64,192,265625,1,0,0:0:0:0:
320,192,265775,1,0,0:0:0:0:
448,192,265775,1,0,0:0:0:0:
192,192,265850,1,0,0:0:0:0:
64,192,265850,1,0,0:0:0:0:
320,192,265925,1,0,0:0:0:0:
448,192,265925,1,0,0:0:0:0:
192,192,266000,1,0,0:0:0:0:
64,192,266000,1,0,0:0:0:0:
320,192,266075,1,0,0:0:0:0:
448,192,266075,1,0,0:0:0:0:
64,192,266150,1,0,0:0:0:0:
192,192,266150,1,0,0:0:0:0:
320,192,266225,1,0,0:0:0:0:
448,192,266225,1,0,0:0:0:0:
192,192,266300,1,0,0:0:0:0:
64,192,266300,1,0,0:0:0:0:
448,192,266375,128,0,266675:0:0:0:0:
320,192,266375,128,0,266675:0:0:0:0:
192,192,266825,128,0,267125:0:0:0:0:
64,192,266825,128,0,267125:0:0:0:0:
192,192,267275,128,0,267500:0:0:0:0:
320,192,267275,128,0,267575:0:0:0:0:
64,192,267575,5,0,0:0:0:0:
448,192,267575,1,0,0:0:0:0:
192,192,267575,1,0,0:0:0:0:
64,192,267725,1,0,0:0:0:0:
64,192,267875,1,0,0:0:0:0:
64,192,268025,1,0,0:0:0:0:
64,192,268175,1,0,0:0:0:0:
64,192,268325,1,0,0:0:0:0:
64,192,268475,1,0,0:0:0:0:
64,192,268625,1,0,0:0:0:0:
448,192,268775,1,0,0:0:0:0:
448,192,268925,1,0,0:0:0:0:
448,192,269075,1,0,0:0:0:0:
448,192,269225,1,0,0:0:0:0:
320,192,269375,1,0,0:0:0:0:
320,192,269525,1,0,0:0:0:0:
320,192,269675,1,0,0:0:0:0:
320,192,269825,1,0,0:0:0:0:
192,192,269975,1,0,0:0:0:0:
192,192,270125,1,0,0:0:0:0:
192,192,270275,1,0,0:0:0:0:
192,192,270425,1,0,0:0:0:0:
192,192,270575,1,0,0:0:0:0:
192,192,270725,1,0,0:0:0:0:
192,192,270875,1,0,0:0:0:0:
192,192,271025,1,0,0:0:0:0:
448,192,271175,1,0,0:0:0:0:
448,192,271325,1,0,0:0:0:0:
448,192,271475,1,0,0:0:0:0:
448,192,271625,1,0,0:0:0:0:
320,192,271775,1,0,0:0:0:0:
320,192,271925,1,0,0:0:0:0:
320,192,272075,1,0,0:0:0:0:
320,192,272225,1,0,0:0:0:0:
64,192,272375,1,0,0:0:0:0:
64,192,272525,1,0,0:0:0:0:
64,192,272675,1,0,0:0:0:0:
64,192,272825,1,0,0:0:0:0:
64,192,272975,1,0,0:0:0:0:
64,192,273125,1,0,0:0:0:0:
64,192,273275,1,0,0:0:0:0:
64,192,273425,1,0,0:0:0:0:
192,192,273575,1,0,0:0:0:0:
192,192,273725,1,0,0:0:0:0:
192,192,273875,1,0,0:0:0:0:
192,192,274025,1,0,0:0:0:0:
448,192,274175,1,0,0:0:0:0:
448,192,274325,1,0,0:0:0:0:
448,192,274475,1,0,0:0:0:0:
448,192,274625,1,0,0:0:0:0:
64,192,274775,1,0,0:0:0:0:
64,192,274925,1,0,0:0:0:0:
64,192,275075,1,0,0:0:0:0:
64,192,275225,1,0,0:0:0:0:
64,192,275375,1,0,0:0:0:0:
64,192,275525,1,0,0:0:0:0:
64,192,275675,1,0,0:0:0:0:
64,192,275825,1,0,0:0:0:0:
448,192,275975,1,0,0:0:0:0:
192,192,275975,128,0,277175:0:0:0:0:
448,192,276125,5,0,0:0:0:0:
448,192,276275,1,0,0:0:0:0:
448,192,276425,1,0,0:0:0:0:
64,192,276575,128,0,277175:0:0:0:0:
320,192,276575,1,0,0:0:0:0:
448,192,277175,128,0,277475:0:0:0:0:
320,192,277625,128,0,277925:0:0:0:0:
192,192,278075,128,0,279575:0:0:0:0:
64,192,279575,128,0,279875:0:0:0:0:
320,192,280025,128,0,280325:0:0:0:0:
192,192,280475,128,0,281525:0:0:0:0:
448,192,281525,128,0,281975:0:0:0:0:
64,192,281975,128,0,282275:0:0:0:0:
320,192,282425,128,0,282725:0:0:0:0:
448,192,282875,128,0,283775:0:0:0:0:
192,192,283775,128,0,284375:0:0:0:0:
448,192,284375,128,0,288912:0:0:0:0:
