osu file format v14

[General]
AudioFilename: audio.mp3
AudioLeadIn: 0
PreviewTime: 44384
Countdown: 0
SampleSet: Soft
StackLeniency: 0.7
Mode: 0
LetterboxInBreaks: 0
WidescreenStoryboard: 1

[Editor]
Bookmarks: 10950,18845,21055,36213,46318,56423,61160,66529,87213,96845
DistanceSpacing: 0.3
BeatDivisor: 4
GridSize: 16
TimelineZoom: 3.499999

[Metadata]
Title:Critical Cannonball (Extended ver.)
TitleUnicode:Critical Cannonball (Extended ver.)
Artist:SEPHID
ArtistUnicode:SEPHID
Creator:DeviousPanda
Version:werf's Insane
Source:東方輝針城 ~ Double Dealing Character.
Tags:o!wc owc grand finals gf HD1 満月の竹林 mangetsu no chikurin bamboo forest of the full moon ZUN Touhou 14 Stage 3 Theme Kishinjou 東方Project drumstep j-core electronic instrumental video game paradogi xlolicore- my angel watame skydiver atalanta talulah waefwerf Sakura Blossom -_ascended_- ascended cycopton Wanpachi Gordon Lazarus Xoul Zelq
BeatmapID:2966904
BeatmapSetID:1189616

[Difficulty]
HPDrainRate:5
CircleSize:4
OverallDifficulty:7
ApproachRate:8.8
SliderMultiplier:1.8
SliderTickRate:1

[Events]
//Background and Video events
0,0,"53805150_p0.png",0,0
//Break Periods
2,21254,25479
2,107150,115163
//Storyboard Layer 0 (Background)
//Storyboard Layer 1 (Fail)
//Storyboard Layer 2 (Pass)
//Storyboard Layer 3 (Foreground)
//Storyboard Layer 4 (Overlay)
//Storyboard Sound Samples

[TimingPoints]
845,315.789473684211,4,2,1,50,1,0
10950,-100,4,2,1,60,0,0
20423,-71.4285714285714,4,2,1,60,0,0
20739,-76.9230769230769,4,2,1,80,0,0
21134,-100,4,2,1,60,0,0
26108,-166.666666666667,4,2,1,60,0,0
28950,-111.111111111111,4,2,1,60,0,0
29897,-199.999999999999,4,2,1,60,0,0
30371,-100,4,2,1,60,0,0
31160,-125,4,2,1,60,0,0
38739,-111.111111111111,4,2,1,60,0,0
40397,-100,4,2,1,60,0,0
41266,-90.9090909090909,4,2,1,60,0,0
42529,-90.9090909090909,4,2,1,40,0,0
43161,-90.9090909090909,4,2,1,60,0,0
43792,-100,4,2,1,40,0,0
44108,-100,4,2,1,50,0,0
44424,-100,4,2,1,60,0,0
44503,-100,4,2,1,65,0,0
44582,-100,4,2,1,70,0,0
44661,-100,4,2,1,75,0,0
44740,-100,4,2,1,80,0,0
44819,-100,4,2,1,85,0,0
44898,-100,4,2,1,90,0,0
44977,-100,4,2,1,95,0,0
45055,-111.111111111111,4,2,1,100,0,0
45213,-100,4,2,1,50,0,0
45371,-111.111111111111,4,2,1,50,0,0
45687,-100,4,2,1,70,0,0
46003,-100,4,2,1,90,0,0
46318,-83.3333333333333,4,2,1,80,0,1
48529,-66.6666666666667,4,2,1,80,0,1
48845,-83.3333333333333,4,2,1,80,0,1
56423,-111.111111111111,4,2,1,55,0,0
59108,-100,4,2,1,55,0,0
62739,-83.3333333333333,4,2,1,55,0,0
65266,-66.6666666666667,4,2,1,55,0,0
66213,-55.5555555555556,4,2,1,90,0,0
66529,-100,4,2,1,70,0,0
67160,-66.6666666666667,4,2,1,70,0,0
67634,-55.5555555555556,4,2,1,70,0,0
67950,-66.6666666666667,4,2,1,70,0,0
69055,-55.5555555555556,4,2,1,70,0,0
69687,-66.6666666666667,4,2,1,70,0,0
70318,-83.3333333333333,4,2,1,70,0,0
70634,-66.6666666666667,4,2,1,70,0,0
71581,-55.5555555555556,4,2,1,70,0,0
72213,-66.6666666666667,4,2,1,70,0,0
72845,-55.5555555555556,4,2,1,70,0,0
73002,-66.6666666666667,4,2,1,70,0,0
73634,-100,4,2,1,70,0,0
74108,-66.6666666666667,4,2,1,70,0,0
76002,-83.3333333333333,4,2,1,70,0,0
76634,-66.6666666666667,4,2,1,85,0,1
76950,-71.4285714285714,4,2,1,85,0,1
78845,-90.9090909090909,4,2,1,85,0,1
79160,-66.6666666666667,4,2,1,85,0,1
79476,-100,4,2,1,85,0,1
79792,-71.4285714285714,4,2,1,85,0,1
84055,-66.6666666666667,4,2,1,85,0,1
86739,-100,4,2,1,65,0,0
87055,-66.6666666666667,4,2,1,65,0,0
88002,-83.3333333333333,4,2,1,65,0,0
88318,-66.6666666666667,4,2,1,65,0,0
89897,-100,4,2,1,65,0,0
90529,-66.6666666666667,4,2,1,65,0,0
91476,-62.5,4,2,1,65,0,0
93687,-83.3333333333333,4,2,1,65,0,0
94318,-66.6666666666667,4,2,1,65,0,0
94950,-66.6666666666667,4,2,1,65,0,0
101897,-57.1428571428571,4,2,1,85,0,1
102213,-68.9655172413793,4,2,1,85,0,1
102529,-58.8235294117647,4,2,1,85,0,1
104423,-66.6666666666667,4,2,1,85,0,1
105687,-100,4,2,1,55,0,0
106634,-100,4,2,1,75,0,0
106950,-100,4,2,1,45,0,0
115161,-100,4,2,1,55,0,0
115477,-100,4,2,1,65,0,0
115792,-100,4,2,1,75,0,0
118002,-250,4,2,1,75,0,0
119266,-66.6666666666667,4,2,1,75,0,0
120529,-100,4,2,1,75,0,0
121160,-66.6666666666667,4,2,1,75,0,0
122108,-100,4,2,1,48,0,0
122187,-100,4,2,1,50,0,0
122266,-100,4,2,1,52,0,0
122345,-100,4,2,1,54,0,0
122424,-100,4,2,1,56,0,0
122503,-100,4,2,1,58,0,0
122582,-100,4,2,1,60,0,0
122661,-100,4,2,1,62,0,0
122740,-100,4,2,1,64,0,0
122819,-100,4,2,1,66,0,0
122898,-100,4,2,1,68,0,0
122977,-100,4,2,1,70,0,0
123055,-100,4,2,1,72,0,0
123134,-100,4,2,1,74,0,0
123213,-100,4,2,1,76,0,0
123292,-100,4,2,1,78,0,0
123371,-100,4,2,1,80,0,0
123450,-100,4,2,1,82,0,0
123529,-100,4,2,1,84,0,0
123608,-100,4,2,1,86,0,0
123687,-100,4,2,1,78,0,0
123766,-100,4,2,1,80,0,0
123845,-100,4,2,1,82,0,0
123924,-100,4,2,1,84,0,0
124003,-100,4,2,1,86,0,0
124082,-100,4,2,1,88,0,0
124161,-100,4,2,1,90,0,0
124240,-100,4,2,1,92,0,0
124319,-100,4,2,1,94,0,0
124398,-100,4,2,1,96,0,0
124477,-100,4,2,1,98,0,0
124555,-100,4,2,1,100,0,0
124674,-100,4,2,1,55,0,0
125266,-100,4,2,1,75,0,0
126213,-100,4,2,1,75,0,1
126845,-66.6666666666667,4,2,1,100,0,0
127160,-83.3333333333333,4,2,1,95,0,1
129055,-83.3333333333333,4,2,1,95,0,1
129687,-83.3333333333333,4,2,1,95,0,1
132213,-76.9230769230769,4,2,1,95,0,1
134739,-83.3333333333333,4,2,1,95,0,1
135687,-76.9230769230769,4,2,1,95,0,1
136950,-76.9230769230769,4,2,1,95,0,0
137266,-83.3333333333333,4,2,1,95,0,1
137581,-66.6666666666667,4,2,1,95,0,1
137897,-83.3333333333333,4,2,1,95,0,1
138213,-66.6666666666667,4,2,1,95,0,1
138529,-83.3333333333333,4,2,1,95,0,1
138845,-66.6666666666667,4,2,1,95,0,1
139476,-100,4,2,1,95,0,1
139792,-83.3333333333333,4,2,1,95,0,1
140108,-66.6666666666667,4,2,1,95,0,1
140423,-83.3333333333333,4,2,1,95,0,1
140739,-66.6666666666667,4,2,1,95,0,1
141055,-83.3333333333333,4,2,1,95,0,1
141371,-66.6666666666667,4,2,1,95,0,1
141687,-76.9230769230769,4,2,1,95,0,1
142634,-66.6666666666667,4,2,1,95,0,1
142950,-83.3333333333333,4,2,1,95,0,1
143266,-66.6666666666667,4,2,1,95,0,1
144213,-83.3333333333333,4,2,1,95,0,1
144529,-66.6666666666667,4,2,1,95,0,1
147055,-55.5555555555556,4,2,1,75,0,0
147371,-83.3333333333333,4,2,1,100,0,1
149581,-62.5,4,2,1,100,0,1
149897,-83.3333333333333,4,2,1,100,0,1
154950,-66.6666666666667,4,2,1,100,0,1
155581,-83.3333333333333,4,2,1,100,0,1
157160,-66.6666666666667,4,2,1,75,0,0
157476,-80,4,2,1,100,0,1
159687,-60.6060606060606,4,2,1,100,0,1
160002,-80,4,2,1,100,0,1
166318,-66.6666666666667,4,2,1,100,0,1
167581,-100,4,2,1,65,0,0
177213,-100,4,2,1,55,0,0
177687,-100,4,2,1,50,0,0
187161,-100,4,2,1,60,0,0
187477,-100,4,2,1,80,0,0
187871,-100,4,2,1,5,0,0

[Colours]
Combo1 : 153,255,0
Combo2 : 255,167,34
Combo3 : 54,254,145
Combo4 : 255,100,100

[HitObjects]
111,237,845,6,0,P|118:186|117:146,1,90,4|2,1:1|0:3,0:0:0:0:
26,264,1160,1,8,1:2:0:0:
68,339,1318,2,0,P|123:362|230:295,1,180,6|2,0:0|0:3,0:0:0:0:
228,302,1713,1,2,0:0:0:0:
234,293,1792,2,0,P|227:344|228:384,1,90,8|2,1:2|0:3,0:0:0:0:
428,383,2108,5,0,1:0:0:0:
472,304,2266,1,2,0:3:0:0:
367,329,2423,2,0,P|360:278|361:238,1,90,8|2,1:2|0:3,0:0:0:0:
382,216,2660,2,0,P|423:179|419:122,1,90,2|2,0:0|0:0,0:0:0:0:
411,117,2897,2,0,P|370:80|374:23,2,90,2|10|2,0:3|1:2|0:3,0:0:0:0:
501,43,3371,6,0,P|456:6|406:-2,1,90,4|2,1:0|0:3,0:0:0:0:
365,47,3687,1,8,1:2:0:0:
411,117,3845,2,0,P|369:149|243:143,1,180,2|2,0:3|0:3,0:0:0:0:
241,138,4239,1,2,0:0:0:0:
235,130,4318,2,0,P|221:80|221:23,1,90,8|2,1:2|0:3,0:0:0:0:
64,14,4634,5,0,1:0:0:0:
147,79,4792,1,2,0:3:0:0:
85,123,4950,2,0,P|71:173|71:230,1,90,8|2,1:2|0:3,0:0:0:0:
134,259,5187,1,2,0:0:0:0:
142,262,5266,2,0,L|208:248,2,45,0|2|2,1:0|0:0|0:3,0:0:0:0:
76,318,5581,1,8,1:2:0:0:
196,358,5739,1,2,3:3:0:0:
196,358,5897,6,0,P|244:316|260:271,1,90,4|2,1:0|0:3,0:0:0:0:
186,252,6213,1,8,1:2:0:0:
113,384,6371,2,0,P|65:354|41:228,1,180,2|2,0:3|0:3,0:0:0:0:
43,234,6766,1,2,0:0:0:0:
50,229,6845,2,0,P|119:244|145:243,1,90,8|2,1:2|0:3,0:0:0:0:
196,119,7160,5,0,1:0:0:0:
231,195,7318,1,2,0:3:0:0:
298,142,7476,2,0,P|367:127|393:128,1,90,8|2,1:2|0:3,0:0:0:0:
414,113,7713,2,0,P|465:137|481:173,1,90,2|2,0:0|0:0,0:0:0:0:
468,196,7950,2,0,P|444:247|408:263,2,90,2|8|2,0:3|1:2|0:3,0:0:0:0:
493,328,8423,5,2,1:2:0:0:
493,328,8581,1,2,3:0:0:0:
493,328,8739,2,0,L|401:343,1,90,8|2,1:0|3:0,0:0:0:0:
319,288,9055,5,2,1:2:0:0:
319,288,9213,1,2,3:0:0:0:
319,288,9371,2,0,L|227:303,1,90,8|0,1:0|3:0,0:0:0:0:
165,374,9687,5,6,1:2:0:0:
153,354,9765,1,0,3:0:0:0:
135,341,9844,1,0,3:0:0:0:
114,334,9923,1,0,3:0:0:0:
92,336,10002,2,0,L|45:345,3,45,8|0|2|2,1:0|3:0|3:0|3:0,0:0:0:0:
21,349,10318,1,0,1:0:0:0:
48,263,10476,5,8,1:2:0:0:
48,263,10634,1,8,1:2:0:0:
48,263,10792,1,8,1:2:0:0:
4,188,10950,6,0,B|29:169|29:169|116:184,1,90,4|2,1:0|0:3,0:0:0:0:
231,228,11266,1,8,1:0:0:0:
136,255,11423,2,0,P|164:198|164:87,1,135,2|2,0:3|0:0,0:0:0:0:
132,66,11739,2,0,L|77:71,2,45,2|2|8,0:3|0:0|1:0,0:0:0:0:
292,17,12055,1,2,0:3:0:0:
295,25,12134,1,0,0:0:0:0:
297,33,12213,6,0,L|409:49,1,90,2|2,1:2|0:3,0:0:0:0:
490,203,12529,1,8,1:0:0:0:
507,125,12687,1,2,0:3:0:0:
499,120,12766,2,0,P|458:116|417:167,1,90,2|2,0:0|0:0,0:0:0:0:
421,155,13002,1,2,0:3:0:0:
372,236,13160,6,0,B|435:237|432:282|496:285,1,135,8|0,1:0|0:0,0:0:0:0:
498,290,13476,6,0,P|442:307|398:332,1,90,4|2,1:0|0:3,0:0:0:0:
372,236,13792,1,8,1:0:0:0:
336,380,13950,2,0,P|280:362|225:277,1,135,2|2,0:3|0:0,0:0:0:0:
233,229,14266,2,0,P|245:209|268:195,2,45,2|2|8,0:3|0:0|1:0,0:0:0:0:
139,345,14581,5,2,0:3:0:0:
129,335,14660,1,0,0:0:0:0:
115,332,14739,2,0,P|48:355|27:375,1,90,0|2,1:0|0:3,0:0:0:0:
0,200,15055,2,0,P|36:225|80:234,1,90,8|2,1:0|0:3,0:0:0:0:
119,221,15292,2,0,P|136:175|135:126,1,90,2|2,0:0|0:0,0:0:0:0:
112,102,15529,2,0,P|95:56|96:7,1,90,2|8,0:3|1:0,0:0:0:0:
305,31,15845,5,0,0:0:0:0:
317,35,15923,1,0,0:0:0:0:
329,39,16002,2,0,L|444:27,1,90,4|2,1:0|0:3,0:0:0:0:
355,113,16318,2,0,L|470:101,1,90,8|2,1:0|0:3,0:0:0:0:
269,243,16634,5,0,1:0:0:0:
196,234,16792,2,0,L|138:228,2,45,2|2|8,0:3|0:0|1:0,0:0:0:0:
295,166,17108,1,2,0:3:0:0:
361,308,17266,5,0,1:0:0:0:
361,308,17423,1,0,3:0:0:0:
361,308,17581,2,0,L|476:296,1,90,8|2,1:0|2:3,0:0:0:0:
488,363,17818,1,2,2:0:0:0:
476,372,17897,2,0,L|387:382,1,90,0|2,1:0|0:3,0:0:0:0:
377,383,18134,1,2,0:0:0:0:
368,384,18213,1,8,1:0:0:0:
182,358,18371,5,0,3:3:0:0:
189,367,18450,1,0,3:0:0:0:
201,371,18529,2,0,P|212:315|211:267,1,90,4|2,1:0|3:3,0:0:0:0:
274,379,18845,2,0,P|285:323|284:275,1,90,8|0,1:0|3:0,0:0:0:0:
85,285,19160,6,0,P|73:229|74:181,1,90,4|0,1:0|3:0,0:0:0:0:
16,305,19397,1,2,0:0:0:0:
12,293,19476,2,0,P|0:237|1:189,1,90,8|0,1:0|3:0,0:0:0:0:
184,145,19792,6,0,P|190:123|194:101,3,45,6|4|4|12,1:2|3:3|1:3|3:3,0:0:0:0:
121,43,20108,2,0,P|114:21|110:0,3,45,8|12|8|8,1:0|3:3|1:3|1:3,0:0:0:0:
80,107,20423,6,0,B|139:97|139:97|171:53|171:53|274:33,1,188.999994232178,6|8,1:2|3:0,0:0:0:0:
321,57,20739,6,0,B|339:21|362:8|362:8|356:2|356:2|253:4|267:135,1,233.999989288331,12|4,1:0|1:0,0:0:0:0:
22,218,26108,6,0,P|36:261|58:384,1,161.999995056153,6|2,0:0|0:0,0:0:0:0:
22,218,27055,1,2,0:0:0:0:
145,346,27371,6,0,P|173:306|250:297,1,107.999996704102,2|2,0:0|0:0,0:0:0:0:
299,339,27845,1,2,0:0:0:0:
145,346,28160,1,2,0:0:0:0:
228,291,28318,2,0,P|242:260|231:165,1,107.999996704102,2|2,0:0|0:0,0:0:0:0:
240,187,29108,6,0,P|286:141|395:137,1,161.999995056153,2|0,0:0|0:0,0:0:0:0:
379,130,29581,1,2,0:0:0:0:
488,294,29897,6,0,P|446:277|431:227,1,90,2|2,0:0|0:0,0:0:0:0:
512,218,30371,2,0,P|459:209|327:277,1,180,2|2,0:0|0:0,0:0:0:0:
312,328,30845,1,2,0:0:0:0:
171,366,31160,5,2,0:0:0:0:
156,370,31318,2,0,P|120:358|84:353,2,72,2|2|2,0:0|0:0|0:0,0:0:0:0:
55,200,31792,1,2,0:0:0:0:
51,283,31950,2,0,P|63:247|68:211,1,72,2|2,0:0|0:0,0:0:0:0:
132,162,32266,1,2,0:0:0:0:
138,178,32423,2,0,P|174:190|210:195,1,72,2|2,0:0|0:0,0:0:0:0:
243,265,32739,2,0,P|231:301|226:337,1,72,2|2,0:0|0:0,0:0:0:0:
305,132,33055,2,0,P|317:96|322:60,1,72,2|2,0:0|0:0,0:0:0:0:
431,211,33371,2,0,P|395:199|359:194,1,72,2|2,0:0|0:0,0:0:0:0:
350,197,33608,1,2,0:0:0:0:
343,205,33687,1,2,0:0:0:0:
256,192,33766,12,0,35897,0:0:0:0:
23,38,36213,6,0,P|79:16|186:8,1,144,4|2,1:2|0:0,0:0:0:0:
48,127,36687,2,0,P|119:120|186:95,1,144,2|2,0:0|0:0,0:0:0:0:
252,40,37160,1,2,0:0:0:0:
252,40,37476,6,0,P|230:94|220:209,1,144,2|2,0:0|0:0,0:0:0:0:
289,223,37950,2,0,P|299:258|322:295,1,72,2|2,0:0|0:0,0:0:0:0:
308,144,38266,1,2,0:0:0:0:
214,186,38423,2,0,P|205:221|206:264,1,72,2|2,0:0|0:0,0:0:0:0:
250,329,38739,6,0,P|202:292|80:270,1,161.999995056153,2|2,0:0|0:0,0:0:0:0:
21,384,39213,2,0,P|99:368|166:322,1,161.999995056153,2|2,0:0|0:0,0:0:0:0:
205,256,39687,1,2,0:0:0:0:
205,256,39845,1,2,0:0:0:0:
294,384,40002,6,0,P|328:333|367:315,1,80.9999975280763,2|2,0:0|0:0,0:0:0:0:
474,352,40318,1,2,0:0:0:0:
457,361,40397,2,0,P|430:332|403:232,1,135,2|2,0:0|0:0,0:0:0:0:
503,178,40792,5,0,3:0:0:0:
322,206,40950,1,8,1:0:0:0:
391,57,41266,5,4,1:2:0:0:
391,57,41423,1,4,3:0:0:0:
391,57,41581,2,0,L|272:45,1,99.0000030212403,4|4,1:3|3:3,0:0:0:0:
111,146,41897,5,12,1:3:0:0:
202,114,42054,1,12,3:0:0:0:
111,146,42213,2,0,L|230:134,1,99.0000030212403,12|12,1:3|3:3,0:0:0:0:
413,238,42529,5,8,1:3:0:0:
322,206,42686,1,8,3:0:0:0:
413,238,42845,2,0,L|294:226,1,99.0000030212403,8|8,1:3|3:0,0:0:0:0:
118,328,43160,5,8,1:3:0:0:
209,296,43317,1,8,3:0:0:0:
118,328,43476,2,0,L|237:316,1,99.0000030212403,8|8,1:3|3:3,0:0:0:0:
305,377,43792,5,8,3:1:0:0:
327,352,43870,1,4,0:3:0:0:
337,320,43949,1,4,0:3:0:0:
333,287,44028,1,4,0:3:0:0:
316,258,44108,2,0,P|301:243|274:234,3,45,8|4|4|4,3:1|3:3|3:3|3:3,0:0:0:0:
205,229,44423,5,8,3:1:0:0:
183,204,44501,1,12,3:3:0:0:
173,172,44580,1,12,3:3:0:0:
177,139,44659,1,12,3:3:0:0:
194,110,44739,2,0,P|209:95|236:86,3,45,8|8|8|8,3:1|3:3|3:3|3:3,0:0:0:0:
286,40,45055,6,0,B|299:51|303:70|303:70|310:42|298:26,1,80.9999975280763,4|2,1:0|0:3,0:0:0:0:
125,79,45371,2,0,B|116:94|121:113|121:113|103:91|107:71,1,80.9999975280763,2|2,0:3|0:3,0:0:0:0:
189,0,45687,6,0,L|221:191,1,180,0|12,3:2|1:1,0:0:0:0:
505,328,46318,6,0,P|515:288|487:211,1,107.999996704102,4|2,1:0|0:2,0:0:0:0:
342,241,46634,2,0,P|332:293|350:343,1,107.999996704102,8|2,1:0|0:2,0:0:0:0:
362,355,46871,1,2,0:2:0:0:
374,365,46950,2,0,L|265:384,2,107.999996704102,0|2|8,1:2|0:2|1:0,0:0:0:0:
429,288,47423,1,12,3:3:0:0:
356,171,47581,6,0,B|330:147|330:147|340:63,1,107.999996704102,4|2,1:0|0:0,0:0:0:0:
340,64,47818,1,2,0:0:0:0:
342,53,47897,2,0,P|389:41|410:53,1,53.9999983520508,8|2,1:0|0:2,0:0:0:0:
449,153,48055,2,0,P|415:118|414:94,1,53.9999983520508,2|2,0:2|0:2,0:0:0:0:
483,11,48213,2,0,P|469:57|449:69,2,53.9999983520508,2|2|2,1:2|0:0|0:2,0:0:0:0:
490,228,48529,6,0,B|510:198|510:198|386:222,1,135.000005149842,8|12,1:0|3:3,0:0:0:0:
203,300,48845,6,0,P|184:252|50:233,1,161.999995056153,4|2,1:0|0:2,0:0:0:0:
26,294,49160,2,0,B|8:298|6:316|6:316|37:325|80:287,1,107.999996704102,8|2,1:0|0:2,0:0:0:0:
279,329,49476,1,2,1:2:0:0:
224,383,49634,2,0,P|158:371|128:334,1,107.999996704102,2|8,0:2|1:0,0:0:0:0:
195,216,49950,1,12,3:0:0:0:
74,291,50108,6,0,L|90:165,1,107.999996704102,4|2,1:0|0:2,0:0:0:0:
75,38,50423,1,8,1:0:0:0:
77,27,50502,2,0,B|137:8|137:8|193:39,1,107.999996704102,2|2,0:2|0:2,0:0:0:0:
183,37,50739,2,0,P|235:32|289:-13,1,107.999996704102,8|8,1:3|3:0,0:0:0:0:
350,155,51055,2,0,P|306:123|253:118,1,107.999996704102,8|4,1:0|3:0,0:0:0:0:
139,348,51371,6,0,P|182:316|235:311,1,107.999996704102,4|2,1:0|0:2,0:0:0:0:
409,384,51687,2,0,P|474:344|469:248,1,161.999995056153,8|2,1:0|0:0,0:0:0:0:
415,216,52002,2,0,L|349:227,2,53.9999983520508,0|2|2,1:0|0:2|0:2,0:0:0:0:
440,85,52318,2,0,P|481:118|478:170,1,107.999996704102,8|12,1:0|3:0,0:0:0:0:
491,23,52634,5,4,1:0:0:0:
373,132,52792,1,2,0:2:0:0:
313,46,52950,2,0,B|255:32|255:32|198:63,1,107.999996704102,8|2,1:0|0:2,0:0:0:0:
212,55,53266,1,0,1:0:0:0:
186,178,53423,2,0,B|128:192|128:192|71:161,1,107.999996704102,2|8,0:2|1:0,0:0:0:0:
23,69,53739,1,8,3:0:0:0:
25,58,53818,1,4,3:0:0:0:
27,47,53897,5,4,1:0:0:0:
168,1,54055,1,2,1:2:0:0:
281,95,54213,2,0,L|267:218,1,107.999996704102,8|2,1:0|1:2,0:0:0:0:
420,118,54529,5,2,1:2:0:0:
279,72,54687,1,2,1:2:0:0:
166,166,54845,2,0,L|180:289,1,107.999996704102,8|0,1:0|1:0,0:0:0:0:
180,283,55081,1,0,1:0:0:0:
182,293,55160,6,0,L|190:347,3,53.9999983520508,4|8|8|12,1:0|1:3|1:3|1:3,0:0:0:0:
292,331,55476,2,0,L|284:385,3,53.9999983520508,8|8|4|4,1:0|1:3|1:3|1:3,0:0:0:0:
379,284,55792,6,0,B|377:299|377:299|383:316,2,26.9999991760254,4|0|0,1:0|3:0|1:0,0:0:0:0:
467,357,55950,1,0,1:0:0:0:
466,371,56028,1,0,1:0:0:0:
464,384,56107,1,8,1:0:0:0:
404,167,56423,6,0,P|388:125|384:62,1,80.9999975280763,4|2,1:0|0:3,0:0:0:0:
385,77,56660,1,0,0:0:0:0:
390,66,56739,1,8,0:2:0:0:
512,190,56897,2,0,P|487:230|358:230,1,161.999995056153,2|2,0:3|0:3,0:0:0:0:
369,240,57292,1,2,0:0:0:0:
359,232,57371,2,0,P|373:280|376:334,1,80.9999975280763,2|2,0:3|0:3,0:0:0:0:
311,379,57687,5,6,0:2:0:0:
238,299,57845,1,2,0:3:0:0:
188,360,58002,2,0,P|149:348|86:343,1,80.9999975280763,2|2,0:3|0:3,0:0:0:0:
89,362,58239,2,0,P|39:355|12:308,1,80.9999975280763,2|2,0:0|0:0,0:0:0:0:
23,317,58476,1,2,0:3:0:0:
91,180,58634,6,0,P|107:232|116:288,1,80.9999975280763,12|0,1:2|0:0,0:0:0:0:
148,119,58950,5,4,1:0:0:0:
16,137,59108,2,0,P|45:109|79:64,1,90,2|2,0:3|0:3,0:0:0:0:
251,127,59423,2,0,P|185:86|159:13,1,135,2|2,0:3|0:0,0:0:0:0:
180,8,59739,2,0,L|241:-4,2,45,2|2|2,0:3|0:0|0:3,0:0:0:0:
347,47,60055,6,0,L|408:59,2,45,2|2|2,0:3|0:3|0:3,0:0:0:0:
459,10,60371,1,2,0:3:0:0:
512,103,60529,2,0,P|498:149|488:206,1,90,2|2,0:3|0:3,0:0:0:0:
469,217,60766,2,0,P|483:263|493:320,1,90,2|2,0:0|0:0,0:0:0:0:
490,338,61002,1,2,0:3:0:0:
385,384,61160,2,0,P|335:359|330:314,1,90,6|0,1:2|0:0,0:0:0:0:
368,143,61476,6,0,L|354:83,3,45,6|4|4|4,1:2|3:0|3:0|3:0,0:0:0:0:
283,29,61792,1,4,3:0:0:0:
272,43,61871,1,4,3:0:0:0:
272,61,61950,2,0,L|263:118,1,45,4|4,3:0|3:0,0:0:0:0:
208,153,62108,2,0,L|131:138,3,45,4|4|4|4,3:0|3:0|3:0|3:0,0:0:0:0:
109,93,62423,2,0,L|32:108,3,45,4|4|4|4,3:0|3:0|3:0|3:0,0:0:0:0:
15,162,62739,6,0,P|1:188|0:218,3,53.9999983520508,6|12|12|12,1:2|3:0|3:0|3:0,0:0:0:0:
70,247,63055,1,12,3:0:0:0:
68,257,63134,1,12,3:0:0:0:
71,267,63213,2,0,P|86:292|111:307,1,53.9999983520508,12|12,3:0|3:0,0:0:0:0:
166,367,63371,6,0,P|181:341|206:326,3,53.9999983520508,12|12|12|12,3:0|3:0|3:0|3:0,0:0:0:0:
262,274,63687,2,0,P|291:274|316:288,3,53.9999983520508,12|12|12|12,3:0|3:0|3:0|3:0,0:0:0:0:
372,344,64002,5,6,1:2:0:0:
396,355,64080,1,8,3:3:0:0:
423,358,64159,1,8,1:3:0:0:
449,354,64238,1,8,3:0:0:0:
473,342,64318,2,0,L|480:285,3,53.9999983520508,8|8|8|8,1:3|3:0|1:3|3:0,0:0:0:0:
417,219,64634,5,6,1:2:0:0:
392,231,64712,1,8,3:0:0:0:
365,234,64791,1,8,1:3:0:0:
339,230,64870,1,8,3:0:0:0:
315,218,64950,2,0,L|308:160,3,53.9999983520508,8|8|8|8,1:3|3:0|1:3|3:0,0:0:0:0:
370,53,65266,6,0,L|376:-4,6,33.7500012874604,6|8|8|8|8|8|8,1:2|3:3|1:3|3:3|1:3|3:3|1:3,0:0:0:0:
421,114,65581,2,0,L|427:171,6,33.7500012874604,8|8|8|8|8|8|8,1:3|3:3|1:3|3:3|1:3|3:3|1:3,0:0:0:0:
478,62,65897,1,4,1:0:0:0:
478,62,66213,6,0,B|494:94|512:107|512:107|461:131|374:78|372:12,1,242.999992584229,12|0,1:0|0:0,0:0:0:0:
369,7,66529,6,0,P|328:-5|264:59,1,135,4|0,1:0|0:0,0:0:0:0:
276,133,66845,6,0,L|283:170,2,22.5,6|0|2,1:2|0:0|0:0,0:0:0:0:
276,133,67160,6,0,B|295:96|295:96|179:121,1,135.000005149842,6|0,1:2|0:0,0:0:0:0:
141,167,67397,2,0,B|160:204|160:204|44:179,1,135.000005149842,6|0,1:2|0:0,0:0:0:0:
0,141,67634,6,0,B|16:128|16:128|70:137|70:137|143:242|143:242|189:250,1,242.999992584229,6|0,1:2|0:0,0:0:0:0:
199,247,67950,5,6,1:2:0:0:
314,384,68108,2,0,P|317:334|236:302,1,135.000005149842,6|8,1:2|1:3,0:0:0:0:
119,328,68345,2,0,P|141:373|227:360,1,135.000005149842,12|0,1:0|0:0,0:0:0:0:
244,203,68581,2,0,P|204:232|204:275,1,67.5000025749208,0|0,1:0|0:0,0:0:0:0:
199,247,68739,6,0,P|212:173|214:108,1,135.000005149842,12|0,1:0|0:0,0:0:0:0:
161,43,69055,6,0,B|196:17|196:17|334:50,1,161.999995056153,6|8,1:2|0:3,0:0:0:0:
311,44,69371,6,0,B|411:15|411:15|371:79,1,161.999995056153,6|4,1:2|0:3,0:0:0:0:
493,182,69687,6,0,B|469:156|469:156|362:174,1,135.000005149842,12|2,1:0|3:2,0:0:0:0:
367,189,69923,2,0,B|391:215|391:215|498:197,1,135.000005149842,0|2,1:0|0:0,0:0:0:0:
500,196,70160,1,4,1:2:0:0:
512,319,70318,5,2,3:2:0:0:
510,334,70397,1,2,3:2:0:0:
500,348,70476,2,0,L|422:355,1,53.9999983520508,2|2,1:2|3:2,0:0:0:0:
338,381,70634,2,0,B|307:373|307:373|291:311|291:311|251:301,1,135.000005149842,6|8,1:2|3:0,0:0:0:0:
179,349,70871,1,4,3:0:0:0:
198,360,70950,6,0,P|282:346|395:302,2,202.500007724762,12|4|4,1:0|1:2|1:2,0:0:0:0:
116,120,71581,5,4,1:0:0:0:
135,128,71660,1,2,3:2:0:0:
150,141,71739,1,2,3:2:0:0:
159,159,71818,1,2,3:2:0:0:
163,179,71897,2,0,P|123:111|46:139,1,161.999995056153,6|2,1:2|3:2,0:0:0:0:
29,292,72213,2,0,B|145:307|103:228|250:256,2,202.500007724762,12|6|6,1:0|1:2|1:2,0:0:0:0:
55,213,72845,1,6,0:0:0:0:
119,365,73002,5,6,1:2:0:0:
119,365,73160,2,0,B|145:324|145:324|245:339,1,135.000005149842,6|2,1:2|0:0,0:0:0:0:
243,340,73397,2,0,B|269:381|269:381|369:366,1,135.000005149842,6|2,1:2|0:0,0:0:0:0:
363,366,73634,2,0,L|407:356,1,45,6|0,1:2|0:0,0:0:0:0:
503,384,73792,1,4,1:0:0:0:
509,167,74108,6,0,B|442:158|482:247|397:229,1,135.000005149842,8|8,1:3|3:3,0:0:0:0:
405,231,74423,6,0,B|338:221|400:146|313:141,1,135.000005149842,8|8,1:3|3:3,0:0:0:0:
392,303,74739,6,0,P|403:202|428:104,2,202.500007724762,12|12|4,1:3|1:3|1:3,0:0:0:0:
509,167,75371,1,4,1:3:0:0:
502,48,75529,5,6,1:2:0:0:
502,48,75687,2,0,B|452:8|452:8|373:28,1,135.000005149842,6|6,1:2|3:2,0:0:0:0:
374,36,75923,1,0,1:0:0:0:
372,49,76002,2,0,P|377:84|394:115,3,53.9999983520508,4|8|8|12,1:0|3:3|3:0|3:0,0:0:0:0:
286,56,76318,2,0,P|291:21|308:-10,3,53.9999983520508,12|12|4|4,3:0|3:0|1:3|1:3,0:0:0:0:
314,135,76634,6,0,B|276:91|276:91|113:112,1,202.500007724762,4|0,1:0|0:0,0:0:0:0:
69,159,76950,2,0,P|9:127|3:66,1,125.999996154785,6|0,1:2|0:0,0:0:0:0:
92,21,77187,1,0,0:0:0:0:
96,37,77266,6,0,P|80:88|69:170,1,125.999996154785,12|2,1:0|0:3,0:0:0:0:
85,188,77502,2,0,P|101:239|112:321,1,125.999996154785,6|2,1:2|0:3,0:0:0:0:
80,347,77739,2,0,P|18:329|9:264,1,125.999996154785,4|6,1:3|3:2,0:0:0:0:
85,188,78055,1,6,1:2:0:0:
201,229,78213,2,0,P|182:289|177:358,1,125.999996154785,4|2,1:0|0:0,0:0:0:0:
183,364,78450,1,2,1:2:0:0:
197,374,78529,6,0,B|235:382|235:382|280:354,2,83.9999974365235,12|0|0,1:0|0:0|0:0,0:0:0:0:
280,239,78845,2,0,P|325:273|336:324,1,99.0000030212403,12|4,3:0|3:0,0:0:0:0:
399,361,79160,6,0,P|494:332|509:230,1,202.500007724762,4|2,1:0|3:0,0:0:0:0:
497,227,79476,2,0,P|446:222|406:272,1,90,6|2,1:2|3:0,0:0:0:0:
512,144,79792,6,0,P|439:120|431:67,1,125.999996154785,12|2,1:0|0:0,0:0:0:0:
450,66,80029,2,0,P|426:10|366:0,1,125.999996154785,6|2,1:2|0:0,0:0:0:0:
273,42,80266,1,6,1:2:0:0:
283,49,80345,1,2,3:2:0:0:
293,56,80423,6,0,B|332:94|332:94|280:178,1,125.999996154785,2|4,3:0|1:0,0:0:0:0:
188,145,80739,2,0,B|257:152|257:152|296:186|296:186|368:196,1,188.999994232178,6|2,1:2|1:3,0:0:0:0:
426,243,81055,6,0,B|449:207|449:207|432:144,2,83.9999974365235,12|0|0,1:0|0:0|0:0,0:0:0:0:
349,270,81371,1,12,3:0:0:0:
418,365,81529,1,8,1:3:0:0:
428,372,81608,1,8,1:3:0:0:
440,375,81687,6,0,L|506:365,2,62.9999980773926,4|0|2,1:0|0:0|1:2,0:0:0:0:
332,384,82002,2,0,P|270:329|148:334,1,188.999994232178,6|8,1:2|3:0,0:0:0:0:
97,374,82318,2,0,P|44:339|51:274,1,125.999996154785,12|2,1:0|3:0,0:0:0:0:
70,263,82555,2,0,P|123:228|116:163,1,125.999996154785,6|0,1:2|0:0,0:0:0:0:
33,100,82792,1,0,1:0:0:0:
26,82,82871,1,0,1:0:0:0:
38,67,82950,6,0,L|118:75,2,62.9999980773926,4|0|6,1:0|0:0|1:2,0:0:0:0:
190,10,83266,2,0,P|245:41|335:27,1,125.999996154785,0|0,1:0|0:0,0:0:0:0:
383,0,83502,1,0,1:0:0:0:
387,12,83581,2,0,L|378:101,1,62.9999980773926,12|0,1:0|0:0,0:0:0:0:
427,144,83739,2,0,B|371:166|371:166|315:130,1,125.999996154785,6|4,1:2|1:0,0:0:0:0:
125,6,84055,5,6,1:2:0:0:
113,10,84134,1,0,1:0:0:0:
99,14,84213,2,0,L|121:232,1,202.500007724762,4|4,1:0|1:0,0:0:0:0:
122,228,84529,1,8,1:0:0:0:
240,291,84687,1,8,1:3:0:0:
228,287,84766,1,12,1:3:0:0:
214,283,84845,2,0,L|227:148,1,135.000005149842,12|4,1:3|1:3,0:0:0:0:
296,91,85081,1,12,1:3:0:0:
311,94,85160,2,0,L|324:229,1,135.000005149842,8|4,1:0|1:3,0:0:0:0:
418,383,85476,5,4,1:0:0:0:
256,192,85555,12,12,86423,1:0:0:0:
277,352,86739,5,4,1:0:0:0:
193,378,86897,1,2,1:2:0:0:
190,369,86976,1,0,0:0:0:0:
187,357,87055,2,0,P|190:318|189:269,1,67.5000025749208,12|0,1:0|0:0,0:0:0:0:
138,216,87213,1,2,3:2:0:0:
130,222,87292,2,0,B|107:244|143:296|254:271|241:162,1,202.500007724762,0|8,1:0|1:3,0:0:0:0:
241,158,87608,1,2,3:0:0:0:
235,143,87687,6,0,B|199:88|199:88|230:25,1,135.000005149842,4|2,1:0|1:3,0:0:0:0:
299,78,87923,1,0,3:0:0:0:
297,93,88002,6,0,L|413:83,1,107.999996704102,4|12,3:0|1:3,0:0:0:0:
498,46,88318,2,0,B|437:16|437:16|452:166,1,202.500007724762,12|0,1:0|3:2,0:0:0:0:
426,220,88634,1,0,1:2:0:0:
438,226,88713,1,0,3:2:0:0:
455,228,88792,2,0,P|501:209|514:180,2,67.5000025749208,0|0|8,1:2|1:2|1:0,0:0:0:0:
472,366,89266,6,0,B|401:376|401:376|363:330|363:330|279:356,1,202.500007724762,4|0,1:0|1:0,0:0:0:0:
283,357,89581,1,8,1:0:0:0:
433,299,89739,1,0,1:0:0:0:
285,226,89897,5,0,3:0:0:0:
232,293,90055,2,0,L|162:281,2,45,0|0|8,1:0|1:0|1:0,0:0:0:0:
283,357,90371,1,0,3:0:0:0:
126,322,90529,6,0,B|111:300|111:300|41:315,2,90.0000034332277,2|2|2,3:2|3:2|3:2,0:0:0:0:
33,384,90845,6,0,P|13:284|18:217,1,135.000005149842,8|8,1:0|3:3,0:0:0:0:
150,5,91160,6,0,P|161:56|162:94,1,67.5000025749208,12|0,1:3|0:0,0:0:0:0:
155,152,91318,1,4,3:3:0:0:
49,76,91476,2,0,B|168:55|141:162|292:112,1,216,8|0,1:0|0:0,0:0:0:0:
271,132,91792,5,4,1:0:0:0:
374,64,91950,1,0,1:0:0:0:
388,68,92029,1,0,1:0:0:0:
402,73,92108,2,0,B|441:86|441:86|407:215,1,144,8|0,1:0|3:0,0:0:0:0:
391,309,92423,6,0,B|422:235|393:155|281:227|378:235|357:297,1,216,6|4,3:2|3:1,0:0:0:0:
445,260,92739,6,0,B|336:246|406:273|267:253,1,144,8|0,1:0|1:0,0:0:0:0:
229,208,92976,1,0,3:0:0:0:
208,233,93055,6,0,P|205:270|216:310,3,72,6|0|0|0,1:2|3:0|3:0|3:0,0:0:0:0:
98,375,93371,6,0,B|127:323|127:323|288:346,1,216,8|2,1:0|3:2,0:0:0:0:
353,381,93687,2,0,P|362:352|349:308,1,53.9999983520508,2|2,3:2|3:2,0:0:0:0:
303,257,93845,2,0,P|294:228|307:184,1,53.9999983520508,0|0,1:0|1:0,0:0:0:0:
363,161,94002,2,0,P|316:128|245:146,1,107.999996704102,8|0,1:0|0:0,0:0:0:0:
238,36,94318,6,0,P|191:69|107:35,1,135.000005149842,4|0,1:0|1:0,0:0:0:0:
113,38,94555,1,0,3:0:0:0:
107,25,94634,1,8,1:0:0:0:
30,86,94792,1,0,3:0:0:0:
103,168,94950,6,0,B|127:138|127:138|239:160,1,135.000005149842,6|0,3:2|3:0,0:0:0:0:
234,161,95187,1,0,1:0:0:0:
246,165,95266,2,0,B|270:195|270:195|382:173,1,135.000005149842,8|0,1:0|1:0,0:0:0:0:
306,108,95581,5,4,1:0:0:0:
198,231,95739,1,0,1:0:0:0:
199,244,95818,1,0,3:0:0:0:
200,257,95897,2,0,B|148:302|148:302|68:285,1,135.000005149842,8|0,1:0|1:0,0:0:0:0:
142,134,96213,6,0,P|118:198|123:227,2,90.0000034332277,6|2|2,1:2|1:2|1:2,0:0:0:0:
209,83,96529,6,0,P|185:19|190:-10,2,90.0000034332277,10|10|10,0:0|0:0|0:0,0:0:0:0:
272,136,96845,6,0,B|414:132|311:93|492:86,1,202.500007724762,4|2,1:0|0:2,0:0:0:0:
446,169,97160,6,0,B|341:162|415:57|281:57,1,202.500007724762,8|2,1:0|0:2,0:0:0:0:
209,83,97476,6,0,B|192:137|144:137|144:137|166:114|179:86,1,135.000005149842,2|2,1:2|0:0,0:0:0:0:
233,8,97792,1,8,1:0:0:0:
272,136,97950,1,2,3:2:0:0:
276,148,98029,1,2,3:2:0:0:
279,160,98108,6,0,P|267:249|283:304,1,135.000005149842,0|2,1:0|0:0,0:0:0:0:
130,200,98423,2,0,P|174:250|196:313,1,135.000005149842,8|2,1:0|0:0,0:0:0:0:
349,334,98739,6,0,P|371:270|415:220,1,135.000005149842,0|2,1:0|0:0,0:0:0:0:
150,378,99055,2,0,P|99:334|35:312,1,135.000005149842,8|2,1:0|3:2,0:0:0:0:
23,318,99292,1,2,3:2:0:0:
14,328,99371,6,0,B|-10:359|68:376|111:258|50:197,1,202.500007724762,4|2,1:0|0:0,0:0:0:0:
0,153,99687,6,0,B|-27:107|6:39|63:91|3:137,1,135.000005149842,8|2,1:0|0:0,0:0:0:0:
96,138,100002,5,0,1:0:0:0:
112,135,100080,1,2,3:2:0:0:
129,132,100159,1,2,3:2:0:0:
145,130,100238,1,2,3:2:0:0:
162,127,100318,2,0,B|210:118|210:118|211:116|211:116|210:119|210:119|260:111|260:111|228:141,1,135.000005149842,8|0,1:0|3:0,0:0:0:0:
348,265,100634,6,0,P|325:268|348:273,1,67.5000025749208,0|0,1:0|0:0,0:0:0:0:
279,200,100792,2,0,P|235:211|199:210,1,67.5000025749208,2|2,0:0|0:0,0:0:0:0:
258,317,100950,2,0,P|218:294|183:286,1,67.5000025749208,8|2,1:0|0:0,0:0:0:0:
140,238,101108,1,0,3:0:0:0:
183,365,101266,6,0,B|152:372|152:372|147:370|147:370|152:372|152:372|89:386,2,90.0000034332277,2|2|2,1:2|3:2|3:2,0:0:0:0:
258,317,101581,1,12,1:0:0:0:
258,317,101739,1,0,3:0:0:0:
323,373,101897,6,0,B|345:264|468:245|511:330|439:349,1,236.250002253056,4|2,1:0|0:0,0:0:0:0:
450,341,102213,2,0,P|415:314|423:232,1,130.500003982544,8|2,1:0|0:0,0:0:0:0:
503,147,102529,6,0,B|550:119|512:41|389:60|367:169,1,229.500004377365,0|2,1:0|0:0,0:0:0:0:
370,167,102845,1,8,1:0:0:0:
310,60,103002,1,2,0:0:0:0:
299,39,103081,1,2,0:0:0:0:
276,32,103160,6,0,B|241:28|241:28|187:92|187:92|136:87,1,153.000002918243,0|2,1:0|0:0,0:0:0:0:
144,0,103476,2,0,B|200:6|200:6|255:127|255:127|314:134,1,229.500004377365,8|2,1:0|0:0,0:0:0:0:
374,144,103792,2,0,B|370:164|354:182|354:182|414:174|421:107,1,153.000002918243,0|2,1:0|0:0,0:0:0:0:
253,199,104108,6,0,P|217:172|217:121,1,76.5000014591217,8|2,1:0|0:0,0:0:0:0:
127,154,104266,2,0,P|132:109|176:83,1,76.5000014591217,2|2,0:0|0:0,0:0:0:0:
235,69,104423,5,4,1:0:0:0:
210,142,104581,2,0,L|231:291,1,135.000005149842,6|0,3:2|1:0,0:0:0:0:
298,138,104818,1,0,3:0:0:0:
301,148,104897,2,0,L|322:297,1,135.000005149842,6|0,3:2|1:0,0:0:0:0:
390,141,105134,1,0,3:0:0:0:
392,154,105213,2,0,L|413:303,1,135.000005149842,6|0,3:2|1:0,0:0:0:0:
413,301,105450,1,0,3:0:0:0:
415,314,105529,1,6,3:2:0:0:
256,192,105687,12,8,106634,1:0:0:0:
256,192,106950,5,4,1:0:0:0:
234,13,115792,5,4,1:0:0:0:
332,102,115950,1,6,1:2:0:0:
332,102,116266,2,0,B|210:99|271:42|164:44,1,180,6|0,1:2|1:0,0:0:0:0:
159,46,116660,1,0,3:0:0:0:
150,49,116739,1,12,1:0:0:0:
65,280,117055,5,4,1:0:0:0:
147,188,117213,1,0,3:0:0:0:
27,160,117371,1,0,1:0:0:0:
10,228,117529,5,0,3:0:0:0:
96,138,117687,1,0,1:0:0:0:
132,258,117845,1,0,3:0:0:0:
95,152,118002,6,0,L|86:190,1,36,2|0,0:1|0:0,0:0:0:0:
115,326,118318,5,12,1:0:0:0:
253,285,118476,1,0,3:0:0:0:
132,258,118634,5,0,1:0:0:0:
236,355,118792,1,0,3:0:0:0:
200,235,118950,5,0,1:0:0:0:
168,375,119108,1,0,3:0:0:0:
115,326,119266,6,0,B|68:312|56:259|124:258|96:302|149:308,1,135.000005149842,8|12,1:3|3:0,0:0:0:0:
304,335,119581,5,12,1:0:0:0:
387,244,119739,1,0,1:0:0:0:
268,217,119897,1,0,1:0:0:0:
373,314,120055,5,0,1:0:0:0:
336,195,120213,1,0,1:0:0:0:
253,285,120371,1,0,3:0:0:0:
307,337,120529,6,0,L|313:391,3,45,2|2|2|2,0:0|0:0|0:0|0:0,0:0:0:0:
319,264,120845,5,12,1:0:0:0:
183,305,121002,1,0,1:0:0:0:
180,232,121160,6,0,B|172:218|172:218|207:176|207:176|220:224|220:224|205:239,1,135.000005149842,2|2,0:0|0:0,0:0:0:0:
183,305,121476,5,12,1:0:0:0:
77,208,121634,1,0,1:0:0:0:
55,281,121792,6,0,P|52:328|68:284,1,135.000005149842,2|2,0:0|0:0,0:0:0:0:
144,347,122108,5,0,1:3:0:0:
152,326,122186,1,4,1:3:0:0:
156,304,122265,1,4,1:3:0:0:
153,281,122344,1,4,1:3:0:0:
145,261,122423,2,0,P|128:234|102:216,3,45,4|4|4|4,1:3|1:3|1:3|1:3,0:0:0:0:
40,199,122739,5,4,1:3:0:0:
31,178,122818,1,4,1:3:0:0:
27,156,122897,1,4,1:3:0:0:
30,133,122976,1,4,1:3:0:0:
38,113,123055,2,0,P|55:85|81:67,3,45,4|4|4|4,1:3|1:3|1:3|1:3,0:0:0:0:
121,25,123371,5,12,1:3:0:0:
148,21,123450,1,12,1:3:0:0:
175,29,123529,1,12,1:3:0:0:
196,47,123608,1,12,1:3:0:0:
207,72,123687,2,0,P|209:107|205:129,3,45,12|12|12|12,1:3|1:3|1:3|1:3,0:0:0:0:
256,178,124002,5,8,1:3:0:0:
283,181,124080,1,8,1:3:0:0:
310,173,124159,1,8,1:3:0:0:
331,155,124238,1,8,1:3:0:0:
342,130,124318,2,0,P|343:95|339:73,3,45,8|8|8|8,1:3|1:3|1:3|1:3,0:0:0:0:
387,26,124634,6,0,L|425:30,6,22.5,8|8|8|8|8|8|8,1:3|1:3|1:3|1:3|1:3|1:3|1:3,0:0:0:0:
468,85,124950,2,0,L|506:81,6,22.5,8|8|8|8|8|8|8,1:3|1:3|1:3|1:3|1:3|1:3|1:3,0:0:0:0:
416,146,125266,5,8,1:3:0:0:
413,181,125344,1,8,1:3:0:0:
410,217,125423,1,8,1:3:0:0:
407,253,125502,1,8,1:3:0:0:
406,289,125581,2,0,L|404:325,6,22.5,8|8|8|8|8|8|8,1:3|1:3|1:3|1:3|1:3|1:3|1:3,0:0:0:0:
460,369,125897,6,0,P|486:341|501:283,1,90,6|2,1:2|0:0,0:0:0:0:
341,358,126213,2,0,P|320:325|314:265,1,90,2|2,0:0|0:0,0:0:0:0:
416,146,126529,1,2,0:0:0:0:
416,146,126845,2,0,L|406:290,1,135.000005149842,12|0,1:0|0:0,0:0:0:0:
252,364,127160,6,0,L|125:346,1,107.999996704102,6|2,1:0|0:0,0:0:0:0:
96,270,127397,1,2,0:0:0:0:
82,261,127476,2,0,P|47:270|19:340,1,107.999996704102,8|2,1:0|0:0,0:0:0:0:
205,249,127792,2,0,P|196:214|126:186,1,107.999996704102,0|2,1:0|0:0,0:0:0:0:
87,247,128029,1,2,0:0:0:0:
82,261,128108,2,0,L|92:337,2,53.9999983520508,8|2|2,1:0|0:0|0:0,0:0:0:0:
253,360,128423,6,0,P|288:351|316:281,1,107.999996704102,0|2,1:0|0:0,0:0:0:0:
278,199,128660,1,2,0:0:0:0:
290,210,128739,2,0,L|411:225,1,107.999996704102,8|2,1:0|0:0,0:0:0:0:
497,124,129055,1,8,1:3:0:0:
412,57,129213,1,12,3:3:0:0:
497,124,129371,2,0,L|390:138,1,107.999996704102,8|4,1:0|3:3,0:0:0:0:
258,214,129687,6,0,P|207:178|211:117,1,107.999996704102,4|2,1:0|0:0,0:0:0:0:
295,71,129923,1,2,0:0:0:0:
306,85,130002,2,0,L|288:225,1,107.999996704102,8|2,1:0|0:0,0:0:0:0:
462,71,130318,6,0,P|426:122|365:117,1,107.999996704102,0|2,1:0|0:0,0:0:0:0:
320,78,130555,1,2,0:0:0:0:
306,85,130634,2,0,L|234:75,2,53.9999983520508,8|2|2,1:0|0:0|0:0,0:0:0:0:
138,0,130950,6,0,P|173:-3|207:22,2,53.9999983520508,0|2|2,3:0|0:0|0:0,0:0:0:0:
145,80,131187,1,2,0:0:0:0:
152,73,131266,2,0,L|134:213,1,107.999996704102,8|2,1:0|0:0,0:0:0:0:
29,373,131581,6,0,P|19:341|-5:304,1,53.9999983520508,8|2,1:3|0:0,0:0:0:0:
142,360,131739,2,0,P|145:327|162:286,1,53.9999983520508,12|2,3:3|0:0,0:0:0:0:
68,230,131897,2,0,L|80:303,2,53.9999983520508,8|2|4,1:0|0:0|3:3,0:0:0:0:
217,261,132213,6,0,P|269:237|348:253,1,116.999994644165,4|2,1:0|0:0,0:0:0:0:
228,346,132529,2,0,P|289:355|346:331,1,116.999994644165,8|2,1:0|0:0,0:0:0:0:
401,277,132766,1,2,0:0:0:0:
410,285,132845,2,0,P|426:315|424:347,2,58.4999973220826,0|2|2,1:0|0:0|0:0,0:0:0:0:
507,215,133160,1,8,1:0:0:0:
437,123,133318,1,2,0:0:0:0:
512,90,133476,6,0,P|502:53|413:33,1,116.999994644165,0|2,1:0|0:0,0:0:0:0:
362,145,133792,2,0,P|352:182|263:202,1,116.999994644165,8|2,1:0|0:0,0:0:0:0:
180,78,134108,1,4,1:3:0:0:
171,69,134187,1,4,3:3:0:0:
162,60,134266,2,0,L|76:74,1,58.4999973220826,4|12,3:3|3:3,0:0:0:0:
57,135,134423,2,0,L|-29:121,2,58.4999973220826,8|12|8,1:0|3:3|3:3,0:0:0:0:
33,38,134739,5,4,1:0:0:0:
150,146,134897,2,0,P|124:199|72:226,1,107.999996704102,2|8,0:0|1:0,0:0:0:0:
48,296,135213,1,2,0:0:0:0:
208,360,135371,2,0,P|179:315|130:293,1,107.999996704102,0|2,1:0|0:0,0:0:0:0:
129,373,135687,6,0,B|227:395|193:298|295:322,1,175.499991966248,8|2,1:0|0:0,0:0:0:0:
344,373,136002,6,0,B|368:309|437:301|437:301|413:322|409:371,1,175.499991966248,2|2,1:2|0:0,0:0:0:0:
413,346,136318,1,8,1:0:0:0:
500,359,136476,1,2,3:2:0:0:
500,359,136634,2,0,P|476:289|400:266,1,116.999994644165,8|12,1:3|1:3,0:0:0:0:
429,269,136871,1,4,3:0:0:0:
417,272,136950,2,0,L|422:128,1,116.999994644165,8|0,1:0|0:0,0:0:0:0:
505,14,137266,6,0,P|481:42|396:64,1,107.999996704102,6|2,1:0|0:0,0:0:0:0:
346,95,137503,1,2,0:0:0:0:
331,91,137581,2,0,B|256:102|288:3|353:27|328:75,1,135.000005149842,8|2,1:0|0:0,0:0:0:0:
224,119,137897,6,0,P|248:147|333:169,1,107.999996704102,0|2,1:0|0:0,0:0:0:0:
387,198,138134,1,2,0:0:0:0:
402,194,138213,2,0,B|477:205|445:106|380:130|405:178,1,135.000005149842,8|2,1:0|0:0,0:0:0:0:
509,222,138529,6,0,P|485:250|400:272,1,107.999996704102,0|2,1:0|0:0,0:0:0:0:
346,301,138766,1,2,0:0:0:0:
331,297,138845,2,0,B|256:308|288:209|353:233|328:281,1,135.000005149842,8|2,1:0|0:0,0:0:0:0:
384,373,139160,6,0,P|422:350|466:347,2,67.5000025749208,8|8|12,1:3|3:3|3:3,0:0:0:0:
201,178,139476,2,0,P|231:196|266:198,2,45,8|4|4,1:0|3:3|3:3,0:0:0:0:
242,374,139792,6,0,P|206:325|144:305,1,107.999996704102,0|2,1:0|0:0,0:0:0:0:
77,275,140029,1,2,0:0:0:0:
73,286,140108,2,0,B|55:335|81:362|137:342|45:334|109:249,1,135.000005149842,8|2,1:0|0:0,0:0:0:0:
0,263,140423,6,0,P|36:214|98:194,1,107.999996704102,0|2,1:0|0:0,0:0:0:0:
164,165,140660,1,2,0:0:0:0:
169,176,140739,2,0,B|187:225|161:252|105:232|197:224|133:139,1,135.000005149842,8|2,1:0|0:0,0:0:0:0:
242,153,141055,6,0,P|206:104|144:84,1,107.999996704102,0|2,1:0|0:0,0:0:0:0:
78,55,141292,1,2,0:0:0:0:
73,66,141371,2,0,B|55:115|81:142|137:122|45:114|109:29,1,135.000005149842,8|2,1:0|0:0,0:0:0:0:
28,172,141687,6,0,P|6:142|-2:116,2,58.4999973220826,8|2|12,1:3|0:0|3:3,0:0:0:0:
200,11,142002,2,0,P|181:33|171:60,2,58.4999973220826,8|2|4,1:0|0:0|3:3,0:0:0:0:
41,4,142318,6,0,P|71:47|125:197,1,175.499991966248,4|2,1:0|0:0,0:0:0:0:
176,229,142634,2,0,B|217:233|225:191|170:146|200:270|88:234,1,135.000005149842,8|2,1:0|0:0,0:0:0:0:
16,365,142950,2,0,P|38:330|110:307,1,107.999996704102,0|2,1:0|0:0,0:0:0:0:
185,323,143187,1,2,0:0:0:0:
201,339,143266,2,0,B|160:343|152:301|207:256|177:380|289:344,1,135.000005149842,8|2,1:0|0:0,0:0:0:0:
428,372,143581,5,0,1:0:0:0:
448,369,143660,1,0,0:0:0:0:
464,357,143739,1,2,0:0:0:0:
426,255,143897,2,0,B|440:203|376:210|356:261|426:255|412:310,1,135.000005149842,8|2,1:0|0:0,0:0:0:0:
342,384,144213,2,0,P|332:314|289:198,1,161.999995056153,4|12,1:3|3:3,0:0:0:0:
221,164,144529,2,0,B|207:112|271:119|291:170|221:164|235:219,1,135.000005149842,8|8,1:0|3:3,0:0:0:0:
245,277,144845,5,4,1:0:0:0:
362,182,145002,2,0,L|341:24,1,135.000005149842,0|8,3:0|1:0,0:0:0:0:
303,227,145318,5,0,3:0:0:0:
191,133,145476,2,0,L|212:-25,1,135.000005149842,0|0,1:0|3:0,0:0:0:0:
275,86,145792,1,8,1:0:0:0:
126,28,145950,5,0,3:0:0:0:
115,18,146029,1,2,0:0:0:0:
101,14,146108,2,0,P|52:12|20:22,3,67.5000025749208,4|0|0|0,1:0|3:0|1:0|3:0,0:0:0:0:
44,119,146423,2,0,P|93:121|125:111,3,67.5000025749208,8|0|0|0,1:0|3:0|1:0|3:0,0:0:0:0:
183,69,146739,2,0,L|189:11,2,33.7500012874604,0|0|8,1:0|3:0|3:0,0:0:0:0:
227,148,146897,1,12,1:3:0:0:
225,164,146975,1,4,3:0:0:0:
223,181,147054,1,12,1:0:0:0:
27,373,147371,6,0,P|6:329|10:256,1,107.999996704102,6|2,1:0|0:0,0:0:0:0:
161,238,147687,2,0,P|182:289|180:345,1,107.999996704102,8|2,1:0|0:0,0:0:0:0:
177,356,147923,1,2,0:0:0:0:
171,371,148002,2,0,P|212:349|301:357,1,107.999996704102,4|8,1:3|3:0,0:0:0:0:
405,383,148318,1,8,1:0:0:0:
503,305,148476,1,8,3:3:0:0:
426,217,148634,6,0,P|385:239|311:237,1,107.999996704102,4|0,1:0|0:0,0:0:0:0:
343,106,148871,1,2,0:0:0:0:
349,110,148950,2,0,P|355:139|354:167,1,53.9999983520508,8|2,1:0|0:0,0:0:0:0:
282,62,149108,2,0,P|305:42|333:27,1,53.9999983520508,2|2,0:0|0:0,0:0:0:0:
273,145,149266,2,0,P|245:135|215:118,2,53.9999983520508,8|8|8,1:3|3:0|3:0,0:0:0:0:
126,16,149581,6,0,B|171:-6|171:-6|151:126,1,144,8|4,1:0|3:0,0:0:0:0:
113,265,149897,6,0,P|40:262|1:177,1,161.999995056153,4|2,1:0|0:0,0:0:0:0:
41,129,150213,2,0,P|97:133|121:204,1,107.999996704102,8|2,1:0|0:0,0:0:0:0:
246,28,150529,1,4,1:3:0:0:
289,94,150687,2,0,P|345:90|369:19,1,107.999996704102,4|8,3:0|1:0,0:0:0:0:
512,95,151002,1,8,3:0:0:0:
462,10,151160,6,0,P|438:82|429:150,1,107.999996704102,4|2,1:0|0:0,0:0:0:0:
452,296,151476,1,8,1:0:0:0:
466,304,151555,2,0,B|496:278|496:278|479:182,1,107.999996704102,2|2,0:0|0:0,0:0:0:0:
480,189,151792,2,0,P|426:166|363:175,1,107.999996704102,8|8,1:3|3:0,0:0:0:0:
352,327,152108,2,0,P|296:331|245:308,1,107.999996704102,8|4,1:0|3:0,0:0:0:0:
260,151,152423,6,0,P|294:196|310:250,1,107.999996704102,4|2,1:0|0:0,0:0:0:0:
377,169,152739,1,8,1:0:0:0:
352,327,152897,2,0,P|307:295|137:254,1,215.999993408203,2|4,0:0|3:0,0:0:0:0:
52,383,153371,2,0,P|115:378|170:351,1,107.999996704102,8|8,1:0|3:0,0:0:0:0:
251,149,153687,6,0,P|188:144|133:117,1,107.999996704102,4|2,1:0|0:0,0:0:0:0:
216,0,154002,1,8,1:0:0:0:
302,13,154160,2,0,P|244:40|183:44,1,107.999996704102,2|8,0:0|1:3,0:0:0:0:
170,223,154476,1,8,3:0:0:0:
59,171,154634,2,0,P|93:213|139:242,1,107.999996704102,8|4,1:0|3:0,0:0:0:0:
41,384,154950,6,0,B|11:374|0:357|0:357|55:283|166:330,1,202.500007724762,4|2,1:0|0:0,0:0:0:0:
195,372,155266,1,8,1:0:0:0:
289,229,155423,1,2,0:0:0:0:
320,332,155581,2,0,P|253:307|194:298,1,107.999996704102,4|4,1:3|3:0,0:0:0:0:
354,126,155897,2,0,P|421:101|480:92,1,107.999996704102,8|8,1:0|3:0,0:0:0:0:
472,99,156134,1,8,3:0:0:0:
485,107,156213,6,0,P|487:140|484:180,3,53.9999983520508,4|2|2|2,1:0|0:0|0:0|0:0,0:0:0:0:
392,57,156529,2,0,P|390:24|393:-16,3,53.9999983520508,8|2|2|2,1:0|0:0|0:0|0:0,0:0:0:0:
354,126,156845,1,8,1:3:0:0:
261,55,157002,1,12,1:3:0:0:
264,39,157081,1,4,3:0:0:0:
267,23,157160,2,0,B|221:18|221:18|164:108|164:108|111:103,1,202.500007724762,8|0,1:0|0:0,0:0:0:0:
49,163,157476,6,0,P|29:106|56:37,1,112.5,6|2,1:0|0:0,0:0:0:0:
185,42,157792,2,0,P|205:99|178:168,1,112.5,8|2,1:0|0:0,0:0:0:0:
184,162,158029,1,2,0:0:0:0:
171,173,158108,2,0,L|188:308,2,112.5,4|4|8,1:3|3:0|1:0,0:0:0:0:
97,242,158581,1,8,3:0:0:0:
133,347,158739,6,0,B|165:370|165:370|257:350,1,112.5,4|2,1:0|0:0,0:0:0:0:
279,286,158976,1,2,0:0:0:0:
281,278,159055,2,0,P|311:252|350:243,1,56.25,8|2,1:0|0:0,0:0:0:0:
384,367,159213,2,0,P|346:354|319:324,1,56.25,2|2,0:0|0:0,0:0:0:0:
410,234,159371,2,0,P|417:272|405:311,2,56.25,8|8|8,1:3|3:0|3:0,0:0:0:0:
267,179,159687,6,0,B|238:156|238:156|358:172,1,148.500001416206,8|4,1:0|3:0,0:0:0:0:
509,136,160002,6,0,P|421:113|356:19,1,168.75,4|2,1:0|0:0,0:0:0:0:
473,23,160318,2,0,B|496:36|500:51|500:51|459:47|438:1,1,112.5,8|2,1:0|0:0,0:0:0:0:
348,170,160634,1,4,1:3:0:0:
311,0,160792,2,0,P|259:53|269:116,1,112.5,4|8,3:0|1:0,0:0:0:0:
248,247,161108,2,0,P|196:194|206:131,1,112.5,8|4,3:0|1:0,0:0:0:0:
257,88,161423,1,0,0:0:0:0:
154,32,161581,5,8,1:0:0:0:
137,23,161660,2,0,B|106:6|106:6|-10:37,1,112.5,2|2,0:0|0:0,0:0:0:0:
17,36,161897,2,0,P|5:86|13:168,1,112.5,8|12,1:3|3:0,0:0:0:0:
203,269,162213,2,0,P|206:213|193:159,1,112.5,8|4,1:0|3:0,0:0:0:0:
84,360,162529,5,4,1:0:0:0:
356,279,162845,1,8,1:0:0:0:
82,237,163160,1,4,1:3:0:0:
307,358,163476,1,8,1:0:0:0:
397,375,163634,1,8,3:0:0:0:
467,316,163792,6,0,L|448:197,1,112.5,4|2,1:0|0:0,0:0:0:0:
454,62,164108,1,8,1:0:0:0:
510,133,164266,2,0,B|440:147|440:147|396:223|396:223|303:243,1,225,2|8,0:0|3:0,0:0:0:0:
315,240,164660,1,12,3:0:0:0:
298,243,164739,1,8,1:0:0:0:
217,371,164897,5,4,3:0:0:0:
200,368,164976,1,4,3:0:0:0:
183,365,165055,1,4,1:0:0:0:
93,232,165213,1,0,3:0:0:0:
236,173,165371,2,0,P|280:244|272:303,1,112.5,8|0,1:0|3:0,0:0:0:0:
195,244,165687,5,0,1:0:0:0:
285,111,165845,1,0,3:0:0:0:
142,52,166003,2,0,P|98:123|106:182,1,112.5,8|0,1:0|3:0,0:0:0:0:
131,318,166318,6,0,P|145:351|153:384,3,67.5000025749208,8|4|4|12,1:3|3:0|1:3|3:0,0:0:0:0:
195,244,166634,2,0,P|209:211|217:178,3,67.5000025749208,8|12|8|8,1:0|3:0|1:3|3:0,0:0:0:0:
261,337,166950,1,8,1:3:0:0:
303,362,167028,1,12,1:3:0:0:
353,367,167107,1,12,1:3:0:0:
400,348,167186,1,4,1:3:0:0:
433,310,167266,2,0,B|451:167|302:235|346:64,1,270.000010299683,8|4,1:0|1:0,0:0:0:0:
