osu file format v14

[General]
AudioFilename: audio.mp3
AudioLeadIn: 0
PreviewTime: 44384
Countdown: 0
SampleSet: Soft
StackLeniency: 0.4
Mode: 0
LetterboxInBreaks: 0
WidescreenStoryboard: 1

[Editor]
Bookmarks: 89897,125883
DistanceSpacing: 0.9
BeatDivisor: 8
GridSize: 32
TimelineZoom: 2.399998

[Metadata]
Title:Critical Cannonball (Extended ver.)
TitleUnicode:Critical Cannonball (Extended ver.)
Artist:SEPHID
ArtistUnicode:SEPHID
Creator:DeviousPanda
Version:Zelq & Panda's Expert
Source:東方輝針城 ~ Double Dealing Character.
Tags:o!wc owc grand finals gf HD1 満月の竹林 mangetsu no chikurin bamboo forest of the full moon ZUN Touhou 14 Stage 3 Theme Kishinjou 東方Project drumstep j-core electronic instrumental video game paradogi xlolicore- my angel watame skydiver atalanta talulah waefwerf Sakura Blossom -_ascended_- ascended cycopton Wanpachi Gordon Lazarus Xoul Zelq
BeatmapID:3076066
BeatmapSetID:1189616

[Difficulty]
HPDrainRate:5
CircleSize:4
OverallDifficulty:8
ApproachRate:9.2
SliderMultiplier:1.7
SliderTickRate:1

[Events]
//Background and Video events
0,0,"53805150_p0.png",0,0
//Break Periods
2,36529,40002
2,107150,111432
//Storyboard Layer 0 (Background)
//Storyboard Layer 1 (Fail)
//Storyboard Layer 2 (Pass)
//Storyboard Layer 3 (Foreground)
//Storyboard Layer 4 (Overlay)
//Storyboard Sound Samples

[TimingPoints]
845,315.789473684211,4,2,1,50,1,0
10950,-90.9090909090909,4,2,1,60,0,0
20423,-71.4285714285714,4,2,1,60,0,0
20740,-71.4285714285714,4,2,1,80,0,0
21134,-71.4285714285714,4,2,1,60,0,0
26108,-142.857142857143,4,2,1,60,0,0
36213,-142.857142857143,4,2,1,60,0,0
40792,-83.3333333333334,4,2,1,60,0,0
41266,-100,4,2,1,60,0,0
42529,-100,4,2,1,40,0,0
43161,-100,4,2,1,60,0,0
43792,-100,4,2,1,40,0,0
44108,-100,4,2,1,50,0,0
44424,-100,4,2,1,60,0,0
44503,-100,4,2,1,65,0,0
44582,-100,4,2,1,70,0,0
44661,-100,4,2,1,75,0,0
44740,-100,4,2,1,80,0,0
44819,-100,4,2,1,85,0,0
44898,-100,4,2,1,90,0,0
44977,-100,4,2,1,95,0,0
45055,-100,4,2,1,100,0,0
45213,-100,4,2,1,50,0,0
45687,-100,4,2,1,70,0,0
46002,-66.6666666666667,4,2,1,90,0,0
46318,-83.3333333333333,4,2,1,80,0,0
53897,-76.9230769230769,4,2,1,80,0,0
56423,-100,4,2,1,55,0,0
58634,-76.9230769230769,4,2,1,55,0,0
58950,-100,4,2,1,55,0,0
65897,-71.4285714285714,4,2,1,55,0,0
66213,-62.5,4,2,1,90,0,0
66529,-83.3333333333333,4,2,1,70,0,0
67160,-66.6666666666667,4,2,1,70,0,0
67634,-71.4285714285714,4,2,1,70,0,0
68108,-76.9230769230769,4,2,1,70,0,0
68739,-66.6666666666667,4,2,1,70,0,0
69055,-83.3333333333333,4,2,1,70,0,0
69687,-71.4285714285714,4,2,1,70,0,0
70634,-62.5,4,2,1,70,0,0
71581,-76.9230769230769,4,2,1,70,0,0
72213,-66.6666666666667,4,2,1,70,0,0
72687,-71.4285714285714,4,2,1,70,0,0
72845,-62.5,4,2,1,70,0,0
73160,-71.4285714285714,4,2,1,70,0,0
75687,-62.5,4,2,1,70,0,0
76002,-71.4285714285714,4,2,1,70,0,0
76634,-76.9230769230769,4,2,1,85,0,0
79792,-66.6666666666667,4,2,1,85,0,0
80266,-71.4285714285714,4,2,1,85,0,0
80739,-76.9230769230769,4,2,1,85,0,0
81371,-66.6666666666667,4,2,1,85,0,0
81687,-83.3333333333333,4,2,1,85,0,0
82318,-76.9230769230769,4,2,1,85,0,0
82634,-66.6666666666667,4,2,1,85,0,0
82950,-76.9230769230769,4,2,1,85,0,0
83266,-76.9230769230769,4,2,1,85,0,0
85160,-62.5,4,2,1,85,0,0
85476,-100,4,2,1,85,0,0
86423,-71.4285714285714,4,2,1,85,0,0
86739,-76.9230769230769,4,2,1,65,0,0
87371,-62.5,4,2,1,65,0,0
87687,-76.9230769230769,4,2,1,65,0,0
89266,-71.4285714285714,4,2,1,65,0,0
97160,-83.3333333333333,4,2,1,65,0,0
99687,-62.5,4,2,1,65,0,0
100002,-83.3333333333333,4,2,1,65,0,0
101898,-83.3333333333333,4,2,1,85,0,0
105687,-83.3333333333333,4,2,1,55,0,0
106634,-83.3333333333333,4,2,1,75,0,0
106950,-83.3333333333333,4,2,1,45,0,0
115161,-83.3333333333333,4,2,1,55,0,0
115477,-83.3333333333333,4,2,1,65,0,0
115792,-83.3333333333333,4,2,1,75,0,0
116266,-71.4285714285714,4,2,1,75,0,0
117055,-83.3333333333333,4,2,1,75,0,0
122108,-83.3333333333333,4,2,1,48,0,0
122187,-83.3333333333333,4,2,1,50,0,0
122266,-83.3333333333333,4,2,1,52,0,0
122345,-83.3333333333333,4,2,1,54,0,0
122424,-83.3333333333333,4,2,1,56,0,0
122503,-83.3333333333333,4,2,1,58,0,0
122582,-83.3333333333333,4,2,1,60,0,0
122661,-83.3333333333333,4,2,1,62,0,0
122740,-83.3333333333333,4,2,1,64,0,0
122819,-83.3333333333333,4,2,1,66,0,0
122898,-83.3333333333333,4,2,1,68,0,0
122977,-83.3333333333333,4,2,1,70,0,0
123055,-83.3333333333333,4,2,1,72,0,0
123134,-83.3333333333333,4,2,1,74,0,0
123213,-83.3333333333333,4,2,1,76,0,0
123292,-83.3333333333333,4,2,1,78,0,0
123371,-83.3333333333333,4,2,1,80,0,0
123450,-83.3333333333333,4,2,1,82,0,0
123529,-83.3333333333333,4,2,1,84,0,0
123608,-83.3333333333333,4,2,1,86,0,0
123687,-83.3333333333333,4,2,1,78,0,0
123766,-83.3333333333333,4,2,1,80,0,0
123845,-83.3333333333333,4,2,1,82,0,0
123924,-83.3333333333333,4,2,1,84,0,0
124003,-83.3333333333333,4,2,1,86,0,0
124082,-83.3333333333333,4,2,1,88,0,0
124161,-83.3333333333333,4,2,1,90,0,0
124240,-83.3333333333333,4,2,1,92,0,0
124319,-83.3333333333333,4,2,1,94,0,0
124398,-83.3333333333333,4,2,1,96,0,0
124477,-83.3333333333333,4,2,1,98,0,0
124555,-83.3333333333333,4,2,1,100,0,0
124674,-83.3333333333333,4,2,1,55,0,0
125266,-83.3333333333333,4,2,1,75,0,0
126845,-333.333333333333,4,2,1,100,0,0
127160,-83.3333333333333,4,2,1,95,0,0
147055,-333.333333333333,4,2,1,75,0,0
147370,-83.3333333333333,4,2,1,100,0,0
157161,-83.3333333333333,4,2,1,75,0,0
157477,-83.3333333333333,4,2,1,100,0,0
167266,-333.333333333333,4,2,1,100,0,0
167581,-90.9090909090909,4,2,1,65,0,0
177213,-90.9090909090909,4,2,1,55,0,0
177687,-100,4,2,1,50,0,0
187160,-250,4,2,1,60,0,0
187476,-83.3333333333333,4,2,1,80,0,0
187871,-83.3333333333333,4,2,1,5,0,0

[Colours]
Combo1 : 153,255,0
Combo2 : 255,167,34
Combo3 : 54,254,145
Combo4 : 255,100,100

[HitObjects]
17,30,845,6,0,L|72:45,1,42.5,4|0,1:1|0:0,0:0:0:0:
135,80,1002,2,0,L|192:64,1,42.5,2|0,0:3|0:0,0:0:0:0:
39,135,1160,1,8,1:2:0:0:
39,135,1318,2,0,P|70:162|85:202,1,85,6|2,0:0|1:2,0:0:0:0:
21,307,1634,1,2,0:3:0:0:
21,307,1713,1,2,0:0:0:0:
21,307,1792,2,0,L|104:320,1,85,8|2,1:2|0:3,0:0:0:0:
215,381,2108,6,0,L|225:296,1,85,0|2,1:0|0:3,0:0:0:0:
182,191,2423,1,8,1:2:0:0:
300,127,2581,1,2,0:3:0:0:
300,127,2660,1,2,0:0:0:0:
175,67,2818,1,2,0:0:0:0:
175,67,2897,1,2,0:3:0:0:
334,10,3055,2,0,L|418:22,1,85,10|2,1:2|0:3,0:0:0:0:
494,103,3371,6,0,L|409:115,1,85,4|2,1:0|0:3,0:0:0:0:
340,225,3687,1,8,1:2:0:0:
340,225,3845,2,0,L|424:237,1,85,2|0,0:3|1:0,0:0:0:0:
472,370,4160,1,2,0:3:0:0:
472,370,4239,1,2,0:0:0:0:
472,370,4318,2,0,P|497:336|494:295,1,85,8|2,1:2|0:3,0:0:0:0:
322,377,4634,6,0,L|237:364,1,85,0|2,1:0|0:3,0:0:0:0:
74,341,4950,1,8,1:2:0:0:
229,266,5108,1,2,0:3:0:0:
229,266,5187,1,2,0:0:0:0:
88,153,5345,1,2,0:0:0:0:
88,153,5423,1,2,0:3:0:0:
88,153,5502,1,0,0:0:0:0:
88,153,5581,2,0,L|96:247,1,85,8|2,1:2|3:3,0:0:0:0:
223,168,5897,6,0,L|172:157,1,42.5,4|0,1:0|0:0,0:0:0:0:
141,80,6055,2,0,L|196:71,1,42.5,2|0,0:3|0:0,0:0:0:0:
280,19,6213,1,8,1:2:0:0:
280,19,6371,2,0,P|266:59|282:97,1,85,2|0,0:3|1:0,0:0:0:0:
430,88,6687,1,2,0:3:0:0:
430,88,6766,1,2,0:0:0:0:
430,88,6845,2,0,P|444:48|428:10,1,85,8|2,1:2|0:3,0:0:0:0:
324,175,7160,5,0,1:0:0:0:
424,219,7318,1,2,0:3:0:0:
301,292,7476,1,8,1:2:0:0:
448,355,7634,1,2,0:3:0:0:
448,355,7713,1,2,0:0:0:0:
424,219,7871,1,2,0:0:0:0:
424,219,7950,1,2,0:3:0:0:
301,292,8108,2,0,L|216:280,1,85,8|2,1:2|0:3,0:0:0:0:
21,338,8423,6,0,L|63:343,1,42.5,2|0,1:2|0:0,0:0:0:0:
142,377,8581,2,0,L|146:331,1,42.5,2|0,3:0|0:0,0:0:0:0:
163,213,8739,6,0,L|120:218,1,42.5,8|0,1:0|0:0,0:0:0:0:
42,252,8897,2,0,L|36:207,1,42.5,2|0,3:0|0:0,0:0:0:0:
22,93,9055,6,0,L|65:98,1,42.5,2|2,1:2|0:0,0:0:0:0:
143,132,9213,2,0,L|148:88,1,42.5,2|2,3:0|0:0,0:0:0:0:
9,8,9371,6,0,L|24:112,1,85,8|0,1:0|3:0,0:0:0:0:
171,7,9687,6,0,L|128:12,2,42.5,6|0|0,1:2|3:0|3:0,0:0:0:0:
256,2,9923,1,0,3:0:0:0:
256,2,10002,2,0,L|249:47,1,42.5,8|0,1:0|3:0,0:0:0:0:
330,111,10160,2,0,L|336:69,1,42.5,2|2,3:0|3:0,0:0:0:0:
421,15,10318,1,0,1:0:0:0:
485,108,10476,6,0,L|464:113,1,21.25,8|0,1:2|0:0,0:0:0:0:
425,192,10634,6,0,L|404:197,1,21.25,8|0,1:2|0:0,0:0:0:0:
470,281,10792,6,0,L|449:286,1,21.25,8|0,1:2|0:0,0:0:0:0:
412,367,10950,6,0,L|319:353,1,93.5000028533936,4|2,1:0|0:3,0:0:0:0:
227,384,11266,2,0,P|235:363|235:335,1,46.7500014266968,8|0,1:0|0:0,0:0:0:0:
146,312,11423,2,0,L|53:325,1,93.5000028533936,2|0,0:3|1:0,0:0:0:0:
214,257,11739,1,2,0:3:0:0:
214,257,11818,1,2,0:0:0:0:
214,257,11897,2,0,B|233:212|233:212|215:162,1,93.5000028533936,8|2,1:0|0:3,0:0:0:0:
154,32,12213,5,2,1:2:0:0:
90,129,12371,1,2,0:3:0:0:
201,149,12529,1,8,1:0:0:0:
33,52,12687,1,2,0:3:0:0:
154,32,12845,1,0,0:0:0:0:
154,32,12923,1,2,0:0:0:0:
90,129,13081,1,0,0:0:0:0:
90,129,13160,2,0,L|104:237,1,93.5000028533936,8|0,1:0|0:0,0:0:0:0:
46,274,13397,5,0,0:0:0:0:
46,274,13476,2,0,P|132:283|147:369,1,187.000005706787,4|8,1:0|1:0,0:0:0:0:
8,370,13950,2,0,L|18:277,1,93.5000028533936,2|0,0:3|1:0,0:0:0:0:
146,369,14266,1,2,0:3:0:0:
146,369,14345,1,2,0:0:0:0:
146,369,14423,2,0,P|191:383|235:371,1,93.5000028533936,8|2,1:0|0:3,0:0:0:0:
280,301,14660,5,0,0:0:0:0:
280,301,14739,2,0,L|264:207,1,93.5000028533936,0|2,1:0|0:3,0:0:0:0:
193,121,15055,1,8,1:0:0:0:
270,32,15213,1,2,0:3:0:0:
270,32,15292,1,2,0:0:0:0:
371,144,15450,1,2,0:0:0:0:
371,144,15529,1,2,0:3:0:0:
371,144,15608,1,0,0:0:0:0:
371,144,15687,1,8,1:0:0:0:
481,61,15845,5,0,0:0:0:0:
481,61,15923,1,0,0:0:0:0:
482,61,16002,2,0,P|392:35|299:19,1,187.000005706787,4|8,1:0|1:0,0:0:0:0:
165,53,16476,1,2,0:3:0:0:
165,53,16555,1,0,0:0:0:0:
165,53,16634,2,0,P|168:75|160:97,1,46.7500014266968,0|2,1:0|0:0,0:0:0:0:
60,78,16792,2,0,P|56:55|64:33,1,46.7500014266968,2|2,0:3|0:0,0:0:0:0:
10,163,16950,2,0,P|56:170|100:185,1,93.5000028533936,8|2,1:0|0:3,0:0:0:0:
202,179,17187,5,0,0:0:0:0:
202,179,17266,2,0,P|105:204|7:270,1,187.000005706787,0|8,1:0|1:0,0:0:0:0:
112,324,17739,1,2,2:3:0:0:
22,384,17897,1,0,1:0:0:0:
481,315,18134,1,2,0:0:0:0:
481,315,18213,1,8,1:0:0:0:
378,365,18371,5,0,3:3:0:0:
378,365,18450,1,0,3:0:0:0:
378,365,18529,2,0,L|331:358,1,46.7500014266968,4|0,1:0|0:0,0:0:0:0:
239,370,18687,2,0,L|247:314,1,46.7500014266968,2|0,3:3|0:0,0:0:0:0:
309,260,18845,2,0,L|401:272,1,93.5000028533936,8|0,1:0|3:0,0:0:0:0:
491,82,19160,6,0,L|484:128,1,46.7500014266968,4|2,1:0|0:0,0:0:0:0:
399,183,19318,2,0,L|352:177,1,46.7500014266968,0|2,3:0|0:0,0:0:0:0:
303,85,19476,2,0,L|395:96,1,93.5000028533936,8|0,1:0|3:0,0:0:0:0:
177,30,19792,5,6,1:2:0:0:
189,54,19871,1,4,3:3:0:0:
194,81,19950,1,4,1:3:0:0:
186,107,20029,1,12,3:3:0:0:
168,129,20108,1,8,1:0:0:0:
145,145,20187,1,12,3:3:0:0:
117,150,20266,1,8,1:3:0:0:
88,148,20345,1,8,1:3:0:0:
62,137,20423,6,0,P|138:100|213:142,1,178.499994552612,6|8,1:2|3:0,0:0:0:0:
288,302,20739,1,12,1:0:0:0:
362,274,20818,2,0,P|385:222|352:176,1,118.999996368408,2|0,3:2|0:0,0:0:0:0:
155,244,21055,5,4,1:0:0:0:
256,192,21134,12,0,25950,0:0:0:0:
21,60,26108,6,0,P|41:146|51:235,1,178.499994552612,6|2,0:0|0:0,0:0:0:0:
51,235,27055,1,2,0:0:0:0:
182,366,27371,5,2,0:0:0:0:
182,366,27687,2,0,L|187:306,1,59.4999981842042,2|2,0:0|0:0,0:0:0:0:
144,219,28002,1,0,0:0:0:0:
144,219,28081,2,0,L|149:159,1,59.4999981842042
157,82,28318,1,2,0:0:0:0:
368,40,28634,6,0,B|494:24|494:24|463:41|450:65,1,178.499994552612,2|2,0:0|0:0,0:0:0:0:
455,56,29581,1,2,0:0:0:0:
487,271,29897,5,2,0:0:0:0:
487,271,30213,2,0,P|493:306|468:344,1,59.4999981842042,2|2,0:0|0:0,0:0:0:0:
349,321,30687,1,2,0:0:0:0:
349,321,30845,2,0,P|342:292|395:212,1,118.999996368408,2|2,0:0|0:0,0:0:0:0:
383,217,31318,1,2,0:0:0:0:
301,145,31476,5,2,0:0:0:0:
220,201,31634,1,2,0:0:0:0:
147,138,31792,2,0,L|156:55,1,59.4999981842042,2|2,0:0|0:0,0:0:0:0:
47,25,32108,2,0,L|53:84,1,59.4999981842042,2|2,0:0|0:0,0:0:0:0:
6,196,32423,6,0,L|65:188,1,59.4999981842042,2|2,0:0|0:0,0:0:0:0:
131,289,32739,2,0,L|71:281,1,59.4999981842042,2|2,0:0|0:0,0:0:0:0:
19,384,33055,2,0,L|78:376,1,59.4999981842042,2|2,0:0|0:0,0:0:0:0:
175,358,33371,1,2,0:0:0:0:
285,337,33529,5,2,0:0:0:0:
285,337,33608,1,2,0:0:0:0:
285,337,33687,2,0,L|297:199,2,118.999996368408,2|2|2,0:0|0:0|0:0,0:0:0:0:
359,374,34476,2,0,P|416:389|470:367,1,118.999996368408,2|2,0:0|0:0,0:0:0:0:
485,267,34950,5,2,0:0:0:0:
498,162,35108,1,2,0:0:0:0:
498,162,35423,5,2,0:0:0:0:
256,192,35502,12,4,36213,1:2:0:0:
20,63,40792,6,0,B|125:24|115:121|217:78,1,203.999993774414,0|0,3:0|0:0,0:0:0:0:
122,0,41266,6,0,L|117:42,1,42.5,4|0,1:2|0:0,0:0:0:0:
218,37,41423,2,0,L|213:79,1,42.5,4|0,3:0|0:0,0:0:0:0:
132,120,41581,6,0,L|136:162,1,42.5,4|0,1:3|0:0,0:0:0:0:
36,157,41739,2,0,L|40:199,1,42.5,4|0,3:3|0:0,0:0:0:0:
93,344,41897,6,0,P|79:299|101:260,1,85,12|12,1:3|3:0,0:0:0:0:
191,272,42134,1,0,1:0:0:0:
191,272,42213,2,0,P|205:311|189:349,1,85,12|12,1:3|3:3,0:0:0:0:
313,375,42529,6,0,L|317:332,1,42.5,8|0,1:3|0:0,0:0:0:0:
400,362,42687,2,0,L|442:366,1,42.5,8|0,3:0|0:0,0:0:0:0:
504,288,42845,6,0,L|499:245,1,42.5,8|0,1:3|0:0,0:0:0:0:
418,275,43003,2,0,L|375:279,1,42.5,8|0,3:0|0:0,0:0:0:0:
298,177,43160,6,0,P|286:136|300:97,1,85,8|8,1:3|3:0,0:0:0:0:
413,108,43397,1,0,1:0:0:0:
413,108,43476,2,0,P|424:148|410:187,1,85,8|8,1:3|3:3,0:0:0:0:
438,11,43792,5,8,3:1:0:0:
412,15,43871,1,4,0:3:0:0:
386,19,43950,1,4,0:3:0:0:
361,24,44029,1,4,0:3:0:0:
301,71,44108,5,8,3:1:0:0:
275,67,44187,1,4,3:3:0:0:
249,63,44266,1,4,3:3:0:0:
224,58,44345,1,4,3:3:0:0:
155,19,44423,6,0,P|146:39|144:60,1,42.5,8|12,3:1|3:3,0:0:0:0:
81,106,44581,2,0,P|83:127|91:146,1,42.5,12|12,3:3|3:3,0:0:0:0:
58,221,44739,2,0,P|70:237|87:250,1,42.5,8|8,3:1|3:3,0:0:0:0:
99,335,44897,2,0,P|118:343|139:345,1,42.5,8|8,3:3|3:3,0:0:0:0:
210,384,45055,5,4,1:0:0:0:
210,384,46002,6,0,L|213:352,1,31.8750012159348,12|0,1:1|0:0,0:0:0:0:
326,25,46318,5,4,1:0:0:0:
326,25,46397,1,2,0:2:0:0:
326,25,46476,1,2,0:2:0:0:
412,90,46634,2,0,L|520:70,1,101.999996887207,8|2,1:0|0:2,0:0:0:0:
312,148,46950,1,0,1:2:0:0:
312,148,47029,1,2,0:2:0:0:
312,148,47108,1,2,0:2:0:0:
198,23,47266,2,0,P|198:48|205:72,1,50.9999984436036,8|4,1:0|3:3,0:0:0:0:
202,221,47423,2,0,P|201:195|194:171,1,50.9999984436036,12|8,3:3|3:3,0:0:0:0:
78,51,47581,5,4,1:0:0:0:
47,47,47660,1,2,0:0:0:0:
19,60,47739,1,2,0:0:0:0:
4,86,47818,1,2,0:0:0:0:
10,115,47897,2,0,B|39:159|39:159|31:207,1,101.999996887207,8|2,1:0|0:2,0:0:0:0:
10,292,48134,1,2,0:2:0:0:
10,292,48213,2,0,L|128:269,1,101.999996887207,2|2,1:2|0:2,0:0:0:0:
183,318,48450,1,2,0:0:0:0:
183,318,48529,1,8,1:0:0:0:
118,191,48687,1,12,3:3:0:0:
105,376,48845,6,0,B|220:387|169:264|299:284,1,203.999993774414,4|8,1:0|1:0,0:0:0:0:
342,343,49239,1,2,0:2:0:0:
342,343,49318,1,2,0:2:0:0:
291,194,49476,1,2,1:2:0:0:
291,194,49555,1,2,0:0:0:0:
291,194,49634,1,2,0:2:0:0:
493,152,49792,2,0,L|485:207,1,50.9999984436036,8|4,1:0|3:0,0:0:0:0:
412,262,49950,2,0,L|361:252,1,50.9999984436036,12|8,3:0|3:0,0:0:0:0:
204,160,50108,6,0,P|199:110|227:68,1,101.999996887207,4|2,1:0|0:2,0:0:0:0:
392,66,50423,1,8,1:0:0:0:
392,66,50502,2,0,L|406:186,1,101.999996887207,2|2,0:2|0:2,0:0:0:0:
361,252,50739,2,0,L|412:262,1,50.9999984436036,8|8,1:3|3:0,0:0:0:0:
474,348,50897,2,0,L|423:357,1,50.9999984436036,8|12,3:0|3:0,0:0:0:0:
283,384,51055,2,0,P|294:335|274:289,1,101.999996887207,8|4,1:0|3:0,0:0:0:0:
21,280,51371,6,0,B|68:298|68:298|118:286,1,101.999996887207,4|2,1:0|0:2,0:0:0:0:
204,160,51687,1,8,1:0:0:0:
64,32,51845,1,2,0:2:0:0:
64,32,51923,1,2,0:0:0:0:
64,32,52002,2,0,P|57:57|56:86,1,50.9999984436036,0|2,1:0|0:2,0:0:0:0:
126,205,52160,2,0,P|117:181|116:155,1,50.9999984436036,2|2,0:2|0:2,0:0:0:0:
207,56,52318,1,8,1:0:0:0:
236,48,52397,1,4,3:0:0:0:
265,40,52476,1,12,3:0:0:0:
295,34,52555,1,8,3:0:0:0:
324,27,52634,6,0,P|351:69|345:118,1,101.999996887207,4|2,1:0|0:2,0:0:0:0:
273,226,52950,1,8,1:0:0:0:
371,328,53108,1,2,0:2:0:0:
371,328,53187,1,2,0:0:0:0:
371,328,53266,1,0,1:0:0:0:
479,248,53423,1,2,0:2:0:0:
479,248,53502,1,2,0:2:0:0:
479,248,53581,2,0,L|494:147,1,101.999996887207,8|8,1:0|3:0,0:0:0:0:
479,57,53818,5,4,3:0:0:0:
479,57,53897,2,0,L|392:41,1,55.2499974708558,4|0,1:0|0:0,0:0:0:0:
324,27,54055,2,0,L|313:89,1,55.2499974708558,2|0,1:2|0:0,0:0:0:0:
404,188,54213,2,0,L|317:172,1,55.2499974708558,8|2,1:0|3:2,0:0:0:0:
249,158,54371,2,0,L|238:220,1,55.2499974708558,2|0,1:2|0:0,0:0:0:0:
312,366,54529,6,0,P|323:340|319:313,1,55.2499974708558,2|0,1:2|0:0,0:0:0:0:
192,313,54687,2,0,P|188:340|199:366,1,55.2499974708558,2|0,1:2|0:0,0:0:0:0:
391,217,54845,2,0,L|336:207,1,55.2499974708558,8|0,1:0|0:0,0:0:0:0:
153,180,55002,5,0,1:0:0:0:
153,180,55081,1,0,1:0:0:0:
153,180,55160,1,4,1:0:0:0:
121,188,55239,1,8,1:3:0:0:
87,185,55318,1,8,1:3:0:0:
60,164,55397,1,12,1:3:0:0:
52,131,55476,2,0,L|64:72,1,55.2499974708558,8|8,1:0|1:3,0:0:0:0:
166,11,55634,2,0,L|177:65,1,55.2499974708558,4|4,1:3|1:3,0:0:0:0:
273,137,55792,6,0,L|300:140,6,27.6249987354279,4|0|0|4|0|0|0,1:0|3:0|1:0|3:0|1:0|0:0|1:0,0:0:0:0:
335,206,56108,2,0,P|321:128|378:72,1,165.749992412568,8|0,1:0|0:0,0:0:0:0:
489,99,56423,6,0,P|474:138|476:183,1,85,4|2,1:0|0:3,0:0:0:0:
512,257,56660,1,0,0:0:0:0:
512,257,56739,1,8,0:2:0:0:
454,367,56897,1,2,0:3:0:0:
47,349,57134,1,2,0:0:0:0:
72,353,57213,1,2,0:3:0:0:
97,357,57292,1,2,0:0:0:0:
122,361,57371,1,2,0:3:0:0:
205,305,57529,5,2,0:3:0:0:
205,305,57608,1,0,0:0:0:0:
205,305,57687,2,0,L|184:206,1,85,6|2,0:2|0:3,0:0:0:0:
120,139,58002,1,2,0:3:0:0:
62,244,58160,1,2,0:3:0:0:
62,244,58239,1,2,0:0:0:0:
9,118,58397,1,2,0:0:0:0:
9,118,58476,1,2,0:3:0:0:
123,40,58634,6,0,B|209:24|197:107|294:90,1,165.749992412568,12|0,1:2|0:0,0:0:0:0:
260,2,58950,6,0,B|178:25|240:97|120:135,1,170,4|2,1:0|0:3,0:0:0:0:
36,38,59423,1,2,0:3:0:0:
356,24,59660,1,2,0:0:0:0:
381,19,59739,1,2,0:3:0:0:
406,15,59818,1,2,0:0:0:0:
429,9,59897,2,0,P|443:49|434:90,1,85,2|2,0:3|0:3,0:0:0:0:
387,156,60134,5,2,0:3:0:0:
387,156,60213,2,0,L|279:141,1,85,2|2,0:3|0:3,0:0:0:0:
151,123,60529,1,2,0:3:0:0:
231,222,60687,1,2,0:3:0:0:
231,222,60766,1,2,0:0:0:0:
192,339,60923,1,2,0:0:0:0:
192,339,61002,1,2,0:3:0:0:
87,259,61160,1,6,1:2:0:0:
308,313,61318,5,0,0:0:0:0:
308,313,61397,1,2,0:0:0:0:
308,313,61476,2,0,L|360:305,15,42.5,6|4|4|4|4|4|4|4|4|4|4|4|4|4|4|4,1:2|3:0|3:0|3:0|3:0|3:0|3:0|3:0|3:0|3:0|3:0|3:0|3:0|3:0|3:0|3:0,0:0:0:0:
435,359,62739,2,0,L|487:351,15,42.5,6|12|12|12|12|12|12|12|12|12|12|12|12|12|12|12,1:2|3:0|3:0|3:0|3:0|3:0|3:0|3:0|3:0|3:0|3:0|3:0|3:0|3:0|3:0|3:0,0:0:0:0:
509,247,64002,6,0,P|508:225|501:206,1,42.5,6|8,1:2|3:3,0:0:0:0:
497,123,64160,2,0,P|478:112|457:109,1,42.5,8|8,1:3|3:0,0:0:0:0:
382,64,64318,2,0,P|363:74|350:91,1,42.5,8|8,1:3|3:0,0:0:0:0:
280,136,64476,2,0,P|280:157|287:176,1,42.5,8|8,1:3|3:0,0:0:0:0:
270,278,64634,5,6,1:2:0:0:
262,311,64713,1,8,3:0:0:0:
242,338,64792,1,8,1:3:0:0:
210,351,64871,1,8,3:0:0:0:
176,354,64950,2,0,P|156:347|135:327,1,42.5,8|8,1:3|3:0,0:0:0:0:
49,318,65108,2,0,P|45:297|49:275,1,42.5,8|8,1:3|3:0,0:0:0:0:
126,222,65266,6,0,L|129:242,14,21.25,6|8|8|8|8|8|8|8|8|8|8|8|8|8|8,1:2|3:3|1:3|3:3|1:3|3:3|1:3|3:3|1:3|3:3|1:3|3:3|1:3|3:3|1:3,0:0:0:0:
33,190,65897,6,0,P|132:130|109:100,1,178.499994552612,4|8,1:0|3:2,0:0:0:0:
197,31,66213,2,0,B|211:22|227:0|227:0|205:90,1,136,12|0,1:0|0:0,0:0:0:0:
362,354,66529,6,0,B|376:363|392:385|392:385|367:278,1,152.999995330811,4|0,1:0|0:0,0:0:0:0:
284,321,66845,2,0,P|267:314|247:310,4,25.4999992218018,6|0|2|2|2,1:2|0:0|0:0|0:0|0:0,0:0:0:0:
349,108,67160,6,0,P|309:153|325:213,1,127.500004863739,6|0,1:2|0:0,0:0:0:0:
425,105,67397,2,0,P|465:60|449:0,1,127.500004863739,6|0,1:2|0:0,0:0:0:0:
342,18,67634,6,0,B|314:73|378:124|391:106|403:87|476:153|411:231,1,237.999992736817,6|6,1:2|1:2,0:0:0:0:
284,321,68108,2,0,P|231:305|177:293,1,110.499994941712,6|8,1:2|1:3,0:0:0:0:
73,328,68345,6,0,P|72:341|73:355,4,27.6249987354279,12|0|0|0|0,1:0|0:0|0:0|0:0|0:0,0:0:0:0:
159,378,68581,1,0,1:0:0:0:
159,378,68660,1,0,0:0:0:0:
159,378,68739,2,0,P|158:271|190:192,1,191.250007295609,12|0,1:0|0:0,0:0:0:0:
79,166,69055,6,0,B|63:159|46:136|46:136|82:250,1,152.999995330811,6|8,1:2|0:3,0:0:0:0:
157,102,69371,2,0,B|176:53|176:53|147:0,1,101.999996887207,6|4,1:2|0:3,0:0:0:0:
79,24,69608,5,4,0:3:0:0:
79,24,69687,2,0,P|135:13|176:53,1,118.999996368408,12|2,1:0|3:2,0:0:0:0:
287,169,69923,2,0,P|341:152|358:99,1,118.999996368408,0|2,1:0|0:0,0:0:0:0:
193,132,70160,2,0,P|201:162|200:189,1,59.4999981842042,4|0,1:2|0:0,0:0:0:0:
185,303,70318,5,2,3:2:0:0:
211,342,70397,1,2,3:2:0:0:
256,357,70476,1,2,1:2:0:0:
303,354,70555,1,2,3:2:0:0:
342,327,70634,2,0,B|347:294|347:294|321:316,1,68,6|0,1:2|0:0,0:0:0:0:
73,361,70792,5,8,3:0:0:0:
73,361,70871,1,4,3:0:0:0:
73,361,70950,2,0,B|118:348|118:348|75:311|75:311|80:256|51:194,1,204,12|4,1:0|1:2,0:0:0:0:
125,144,71266,2,0,B|155:130|155:130|177:183|145:246,1,136,0|4,0:0|1:2,0:0:0:0:
59,212,71502,5,0,0:0:0:0:
59,212,71581,2,0,B|20:160|36:103|36:103|18:137|24:165,1,165.749992412568,4|2,1:0|3:2,0:0:0:0:
77,310,71897,1,6,1:2:0:0:
125,144,72055,1,2,3:2:0:0:
332,193,72213,6,0,P|363:159|329:85,1,127.500004863739,12|0,1:0|0:0,0:0:0:0:
244,103,72450,2,0,P|209:52|238:0,1,127.500004863739,6|0,1:2|0:0,0:0:0:0:
370,0,72687,6,0,L|312:15,1,59.4999981842042,6|0,1:2|0:0,0:0:0:0:
202,190,72845,2,0,B|243:206|243:206|262:250|262:250|318:278,1,136,6|6,0:0|1:2,0:0:0:0:
389,250,73081,1,2,3:2:0:0:
389,250,73160,2,0,P|422:273|401:359,1,118.999996368408,6|2,1:2|0:0,0:0:0:0:
338,371,73397,5,6,1:2:0:0:
338,371,73476,2,0,L|266:356,1,59.4999981842042,0|2,0:0|0:0,0:0:0:0:
474,228,73634,2,0,L|461:286,1,59.4999981842042,6|0,1:2|0:0,0:0:0:0:
279,358,73792,2,0,L|338:371,1,59.4999981842042,4|0,1:0|0:0,0:0:0:0:
474,228,74108,6,0,L|482:186,2,29.7499990921021,8|0|8,1:3|3:0|3:3,0:0:0:0:
497,122,74266,2,0,L|505:80,2,29.7499990921021,8|0|0,3:3|0:0|0:0,0:0:0:0:
405,153,74423,6,0,L|413:111,2,29.7499990921021,8|0|8,1:3|3:0|3:3,0:0:0:0:
428,47,74581,2,0,L|436:5,2,29.7499990921021,8|0|0,3:3|0:0|0:0,0:0:0:0:
324,72,74739,6,0,L|282:79,4,29.7499990921021,12|0|12|0|0,1:3|3:0|3:0|0:0|0:0,0:0:0:0:
195,95,74976,2,0,L|153:102,4,29.7499990921021,12|0|4|0|0,1:3|3:0|3:0|0:0|0:0,0:0:0:0:
58,118,75213,2,0,L|16:125,4,29.7499990921021,4|0|4|0|4,1:3|3:0|3:0|0:0|1:3,0:0:0:0:
208,87,75529,6,0,L|143:98,1,59.4999981842042,6|0,1:2|0:0,0:0:0:0:
90,39,75687,2,0,B|175:19|154:176|260:159,1,204,6|0,1:2|1:0,0:0:0:0:
324,72,76002,5,4,1:0:0:0:
349,32,76081,1,8,3:3:0:0:
394,17,76160,1,8,3:0:0:0:
440,26,76239,1,12,3:0:0:0:
472,61,76318,5,12,3:0:0:0:
454,105,76397,1,12,3:0:0:0:
410,124,76476,2,0,P|395:95|393:63,1,59.4999981842042,4|4,1:3|1:3,0:0:0:0:
331,211,76634,6,0,P|393:214|452:355,1,220.999989883423,4|6,1:0|1:2,0:0:0:0:
456,342,77108,6,0,L|401:332,1,55.2499974708558
244,356,77266,2,0,P|236:300|263:247,1,110.499994941712,12|2,1:0|0:3,0:0:0:0:
329,187,77502,2,0,P|276:201|240:242,1,110.499994941712,6|2,1:2|0:3,0:0:0:0:
264,365,77739,6,0,P|284:348|295:323,1,55.2499974708558,4|0,1:3|0:0,0:0:0:0:
329,187,77897,1,6,3:2:0:0:
159,292,78055,6,0,L|87:304,1,55.2499974708558,6|2,1:2|3:0,0:0:0:0:
35,358,78213,2,0,B|12:313|12:313|47:201,1,165.749992412568,4|2,1:0|1:2,0:0:0:0:
155,96,78529,5,12,1:0:0:0:
126,133,78634,5,0,3:0:0:0:
89,114,78739,5,0,3:0:0:0:
100,32,78845,5,12,3:0:0:0:
115,28,78923,1,4,3:0:0:0:
133,24,79002,1,4,3:0:0:0:
149,20,79081,1,4,3:0:0:0:
225,51,79160,6,0,P|307:70|392:83,1,165.749992412568,4|2,1:0|3:0,0:0:0:0:
463,20,79476,2,0,B|474:1|495:-17|495:-17|466:-20|436:8,1,110.499994941712,6|2,1:2|3:0,0:0:0:0:
335,181,79792,6,0,P|309:199|235:157,1,127.500004863739,12|2,1:0|0:0,0:0:0:0:
157,105,80029,2,0,P|125:102|82:175,1,127.500004863739,6|2,1:2|0:0,0:0:0:0:
185,244,80266,6,0,B|296:203|200:97|333:51,1,237.999992736817,6|4,1:2|1:0,0:0:0:0:
416,91,80660,1,0,0:0:0:0:
416,91,80739,2,0,L|390:83,4,27.6249987354279,6|0|0|0|2,1:2|0:0|0:0|0:0|0:0,0:0:0:0:
474,35,80976,5,2,1:3:0:0:
474,35,81055,1,12,1:0:0:0:
505,79,81160,5,0,3:0:0:0:
487,131,81266,5,0,3:0:0:0:
512,219,81371,6,0,P|459:186|389:172,1,127.500004863739,12|8,3:0|1:3,0:0:0:0:
304,296,81608,5,8,1:3:0:0:
304,296,81687,2,0,P|293:320|295:346,1,50.9999984436036,4|0,1:0|0:0,0:0:0:0:
391,359,81845,2,0,P|401:336|400:310,1,50.9999984436036,2|0,1:2|0:0,0:0:0:0:
203,370,82002,6,0,B|156:360|156:360|116:330|116:330|61:318,1,152.999995330811,6|8,1:2|3:0,0:0:0:0:
206,278,82318,6,0,B|224:169,1,110.499994941712,12|2,1:0|3:0,0:0:0:0:
176,311,82555,1,6,1:2:0:0:
212,287,82634,2,0,B|233:161,1,127.500004863739,0|0,0:0|1:0,0:0:0:0:
260,48,82871,5,0,1:0:0:0:
227,26,82950,2,0,P|207:46|184:61,1,55.2499974708558,4|0,1:0|0:0,0:0:0:0:
103,112,83108,2,0,P|76:106|52:93,1,55.2499974708558,6|0,1:2|0:0,0:0:0:0:
277,91,83266,2,0,P|355:62|437:52,1,165.749992412568,0|0,1:0|1:0,0:0:0:0:
432,142,83581,2,0,P|377:152|325:170,1,110.499994941712,12|6,1:0|1:2,0:0:0:0:
62,318,83897,5,4,1:0:0:0:
23,289,83976,1,2,3:0:0:0:
28,243,84055,1,6,1:2:0:0:
67,224,84134,1,0,1:0:0:0:
131,273,84213,5,4,1:0:0:0:
485,369,84450,5,4,1:0:0:0:
485,369,84529,2,0,P|501:338|498:311,1,55.2499974708558,8|2,1:0|0:3,0:0:0:0:
325,170,84687,1,8,1:3:0:0:
325,170,84766,1,12,1:3:0:0:
325,170,84845,2,0,P|326:227|314:300,1,110.499994941712,12|4,1:3|1:3,0:0:0:0:
157,311,85081,5,12,1:3:0:0:
131,273,85160,2,0,B|248:294|178:361|310:383,1,204,8|12,1:0|1:3,0:0:0:0:
385,339,85476,1,4,1:0:0:0:
57,367,85634,5,8,3:0:0:0:
46,365,85713,1,8,3:0:0:0:
35,363,85792,1,12,1:0:0:0:
34,261,85950,5,8,3:0:0:0:
37,269,86029,1,8,3:0:0:0:
40,276,86108,1,12,1:0:0:0:
51,228,86187,1,12,3:0:0:0:
63,181,86266,1,4,3:0:0:0:
54,30,86423,6,0,B|39:3|39:3|105:9|105:9|64:79,1,178.499994552612,12|0,1:0|0:0,0:0:0:0:
21,9,86739,6,0,L|130:26,1,110.499994941712,4|2,1:0|1:2,0:0:0:0:
269,113,86976,5,0,0:0:0:0:
303,97,87055,2,0,P|318:72|307:37,1,55.2499974708558,12|0,1:0|0:0,0:0:0:0:
223,13,87213,2,0,P|207:37|219:73,1,55.2499974708558,2|0,3:2|1:0,0:0:0:0:
124,182,87371,2,0,B|81:246|31:241|8:169|70:195,1,136,0|8,0:0|1:3,0:0:0:0:
318,360,87687,5,4,1:0:0:0:
377,298,87845,1,2,1:3:0:0:
389,163,88002,6,0,L|443:177,1,55.2499974708558,4|0,3:0|0:0,0:0:0:0:
511,269,88160,2,0,L|457:283,1,55.2499974708558,12|0,1:3|0:0,0:0:0:0:
318,360,88318,2,0,B|254:345|254:345|225:324|225:324|118:296,1,165.749992412568,12|0,1:0|3:2,0:0:0:0:
26,330,88634,5,0,1:2:0:0:
66,358,88713,1,0,3:2:0:0:
114,348,88792,1,0,1:2:0:0:
136,303,88871,1,0,1:2:0:0:
62,258,88950,6,0,B|57:234|45:207|45:207|67:182|89:146,1,110.499994941712,8|0,1:0|0:0,0:0:0:0:
298,78,89266,6,0,B|361:64|361:64|310:88,1,118.999996368408,4|0,1:0|1:0,0:0:0:0:
210,61,89502,1,0,1:0:0:0:
185,55,89581,1,8,1:0:0:0:
54,30,89739,1,0,1:0:0:0:
84,165,89897,6,0,P|143:151|201:146,1,118.999996368408,0|0,3:0|1:0,0:0:0:0:
254,198,90134,1,0,1:0:0:0:
275,215,90213,2,0,P|315:205|321:158,1,59.4999981842042,8|0,1:0|0:0,0:0:0:0:
310,113,90371,1,0,3:0:0:0:
414,176,90529,5,2,3:2:0:0:
379,213,90634,5,2,3:2:0:0:
328,194,90739,5,2,3:2:0:0:
314,116,90845,6,0,L|328:37,1,59.4999981842042,8|0,1:0|0:0,0:0:0:0:
179,228,91002,2,0,L|190:309,1,59.4999981842042,8|0,3:3|0:0,0:0:0:0:
153,83,91160,6,0,B|178:67|178:67|211:77,1,59.4999981842042,12|0,1:3|0:0,0:0:0:0:
281,286,91318,2,0,B|306:302|306:302|339:292,1,59.4999981842042,4|0,3:3|0:0,0:0:0:0:
443,155,91476,6,0,L|241:179,1,178.499994552612,8|0,1:0|0:0,0:0:0:0:
265,176,91792,1,4,1:0:0:0:
495,239,91950,5,0,1:0:0:0:
495,239,92029,1,0,1:0:0:0:
495,239,92108,1,8,1:0:0:0:
374,129,92266,1,0,3:0:0:0:
500,31,92423,2,0,P|480:88|475:128,1,59.4999981842042,6|0,3:2|0:0,0:0:0:0:
335,232,92581,5,0,1:0:0:0:
292,222,92660,1,4,3:1:0:0:
273,183,92739,1,8,1:0:0:0:
356,71,92897,6,0,P|372:100|374:145,1,59.4999981842042,0|0,1:0|3:0,0:0:0:0:
416,255,93055,1,6,1:2:0:0:
403,270,93134,1,0,3:0:0:0:
390,291,93213,1,0,3:0:0:0:
382,311,93292,1,0,3:0:0:0:
378,333,93371,1,8,1:0:0:0:
464,375,93529,5,0,1:0:0:0:
464,375,93608,1,2,3:2:0:0:
464,375,93687,2,0,P|504:357|512:317,1,59.4999981842042,2|2,3:2|3:2,0:0:0:0:
492,272,93845,2,0,P|456:246|417:259,1,59.4999981842042,0|0,1:0|1:0,0:0:0:0:
311,382,94002,6,0,B|256:376|240:334|247:323|223:285|148:282,1,178.499994552612,8|0,1:0|0:0,0:0:0:0:
170,284,94318,1,4,1:0:0:0:
98,352,94476,1,0,1:0:0:0:
98,352,94555,1,0,3:0:0:0:
98,352,94634,1,8,1:0:0:0:
29,218,94792,1,0,3:0:0:0:
13,344,94950,6,0,P|81:306|91:225,1,118.999996368408,6|0,3:2|3:0,0:0:0:0:
36,225,95187,1,0,1:0:0:0:
36,225,95266,1,8,1:0:0:0:
138,137,95423,1,0,1:0:0:0:
20,74,95581,1,4,1:0:0:0:
160,220,95739,5,0,1:0:0:0:
160,220,95818,1,0,3:0:0:0:
160,220,95897,2,0,P|219:198|291:186,1,118.999996368408,8|0,1:0|1:0,0:0:0:0:
419,34,96213,5,6,1:2:0:0:
470,30,96318,5,2,1:2:0:0:
422,40,96423,5,2,1:2:0:0:
472,108,96529,5,10,0:0:0:0:
458,105,96634,5,10,0:0:0:0:
468,112,96739,5,10,0:0:0:0:
512,180,96845,6,0,P|449:132|324:94,1,178.499994552612,4|2,1:0|0:2,0:0:0:0:
288,63,97160,2,0,P|262:35|255:3,2,50.9999984436036,8|2|2,1:0|0:2|0:2,0:0:0:0:
376,235,97476,6,0,P|308:219|296:141,1,152.999995330811,2|2,1:2|0:0,0:0:0:0:
360,102,97792,2,0,P|386:74|393:42,2,50.9999984436036,8|0|2,1:0|0:0|3:2,0:0:0:0:
224,115,98029,5,2,3:2:0:0:
224,115,98108,2,0,P|179:92|105:93,1,101.999996887207,0|2,1:0|0:0,0:0:0:0:
66,127,98345,1,2,0:0:0:0:
60,136,98423,2,0,P|78:181|115:193,2,50.9999984436036,8|2|2,1:0|0:0|0:0,0:0:0:0:
57,31,98739,5,0,1:0:0:0:
30,46,98818,2,0,L|-4:222,1,152.999995330811,2|8,0:0|1:0,0:0:0:0:
104,283,99213,5,2,3:2:0:0:
104,283,99292,1,2,3:2:0:0:
104,283,99371,2,0,B|149:274|175:300|175:300|179:313|179:313|208:342|266:335,1,152.999995330811,4|2,1:0|0:0,0:0:0:0:
263,265,99687,2,0,P|151:313|45:380,1,204,8|2,1:0|0:0,0:0:0:0:
7,331,100002,5,0,1:0:0:0:
4,320,100081,1,2,3:2:0:0:
2,308,100160,1,2,3:2:0:0:
0,298,100239,1,2,3:2:0:0:
17,269,100318,5,8,1:0:0:0:
231,340,100476,1,0,3:0:0:0:
150,186,100634,5,0,1:0:0:0:
161,384,100792,1,2,0:0:0:0:
161,384,100871,1,2,0:0:0:0:
161,384,100950,2,0,L|152:319,1,50.9999984436036,8|2,1:0|0:0,0:0:0:0:
145,325,101108,2,0,L|136:260,1,50.9999984436036,0|2,3:0|0:0,0:0:0:0:
156,188,101266,5,2,1:2:0:0:
206,185,101371,5,2,3:2:0:0:
234,226,101476,5,2,3:2:0:0:
312,239,101581,6,0,P|346:216|355:190,1,50.9999984436036,12|0,1:0|0:0,0:0:0:0:
232,305,101739,2,0,P|266:328|275:354,1,50.9999984436036,0|0,3:0|0:0,0:0:0:0:
371,326,101897,5,4,1:0:0:0:
371,326,101976,1,2,0:0:0:0:
371,326,102055,1,2,0:0:0:0:
371,326,102134,1,2,0:0:0:0:
371,326,102213,2,0,L|432:313,3,50.9999984436036,8|2|2|2,1:0|0:0|0:0|0:0,0:0:0:0:
477,246,102529,5,0,1:0:0:0:
477,246,102608,1,2,0:0:0:0:
477,246,102687,1,2,0:0:0:0:
477,246,102766,1,2,0:0:0:0:
477,246,102845,2,0,L|416:233,3,50.9999984436036,8|2|2|2,1:0|0:0|0:0|0:0,0:0:0:0:
494,321,103160,6,0,L|507:379,1,50.9999984436036,0|2,1:0|0:0,0:0:0:0:
352,229,103318,2,0,L|365:171,1,50.9999984436036,2|2,0:0|0:0,0:0:0:0:
375,333,103476,6,0,L|362:391,1,50.9999984436036,8|2,1:0|0:0,0:0:0:0:
468,170,103634,2,0,L|455:112,1,50.9999984436036,2|2,0:0|0:0,0:0:0:0:
351,20,103792,5,0,1:0:0:0:
328,14,103871,1,2,0:0:0:0:
304,8,103950,1,2,0:0:0:0:
278,2,104029,1,2,0:0:0:0:
241,20,104108,5,8,1:0:0:0:
200,29,104187,1,2,0:0:0:0:
156,38,104266,1,2,0:0:0:0:
111,45,104345,1,2,0:0:0:0:
70,22,104423,5,4,1:0:0:0:
0,182,104581,1,6,3:2:0:0:
0,53,104739,5,0,1:0:0:0:
0,53,104818,1,0,3:0:0:0:
0,53,104897,2,0,L|18:139,1,50.9999984436036,6|0,3:2|0:0,0:0:0:0:
81,217,105055,5,0,1:0:0:0:
81,217,105134,1,0,3:0:0:0:
81,217,105213,2,0,L|99:131,1,50.9999984436036,6|0,3:2|0:0,0:0:0:0:
156,3,105371,5,0,1:0:0:0:
156,3,105450,1,0,3:0:0:0:
156,3,105529,2,0,L|205:246,1,203.999993774414,6|0,3:2|3:0,0:0:0:0:
196,202,106002,1,8,0:1:0:0:
276,109,106160,5,0,3:0:0:0:
279,94,106239,1,0,3:0:0:0:
282,80,106318,1,8,0:1:0:0:
284,67,106397,1,0,0:0:0:0:
287,54,106476,1,4,3:0:0:0:
13,105,106634,6,0,L|55:93,1,25.4999992218018,8|0,1:0|0:0,0:0:0:0:
461,38,106950,5,4,1:0:0:0:
256,192,112002,12,2,115476,0:0:0:0:
154,31,115792,6,0,L|166:82,1,50.9999984436036,4|0,1:0|0:0,0:0:0:0:
110,147,115950,6,0,B|123:126|123:126|224:109|224:109|239:88,1,152.999995330811,6|0,1:2|0:0,0:0:0:0:
314,113,116266,6,0,L|65:67,1,237.999992736817,6|0,1:2|1:0,0:0:0:0:
36,10,116660,1,0,3:0:0:0:
36,10,116739,1,12,1:0:0:0:
135,221,117055,6,0,P|167:209|182:189,3,50.9999984436036,4|2|0|2,1:0|0:0|3:0|0:0,0:0:0:0:
88,279,117371,1,0,1:0:0:0:
66,283,117450,1,2,0:0:0:0:
49,293,117529,1,0,3:0:0:0:
38,310,117608,1,2,0:0:0:0:
34,328,117687,2,0,P|89:339|144:366,1,101.999996887207,0|0,1:0|3:0,0:0:0:0:
200,329,117923,1,2,0:0:0:0:
206,325,118002,2,0,B|218:302|218:302|201:324,1,50.9999984436036,2|0,0:1|0:0,0:0:0:0:
0,145,118318,6,0,P|29:138|60:123,1,50.9999984436036,12|2,1:0|0:0,0:0:0:0:
101,188,118476,2,0,P|130:195|161:210,1,50.9999984436036,0|2,3:0|0:0,0:0:0:0:
125,111,118634,6,0,P|149:94|173:69,1,50.9999984436036,0|2,1:0|0:0,0:0:0:0:
222,190,118792,2,0,P|246:206|270:231,1,50.9999984436036,0|2,3:0|0:0,0:0:0:0:
246,81,118950,5,0,1:0:0:0:
255,68,119029,1,2,0:0:0:0:
259,54,119108,1,0,3:0:0:0:
258,38,119187,1,2,0:0:0:0:
250,27,119266,2,0,L|217:14,4,25.4999992218018,8|0|14|0|12,1:3|0:0|0:3|0:0|3:0,0:0:0:0:
424,0,119581,5,12,1:0:0:0:
415,24,119660,1,0,0:0:0:0:
409,48,119739,1,0,1:0:0:0:
403,74,119818,1,0,0:0:0:0:
401,100,119897,2,0,P|435:119|456:116,1,50.9999984436036,0|0,1:0|0:0,0:0:0:0:
279,207,120055,2,0,P|245:188|224:191,1,50.9999984436036,0|0,1:0|0:0,0:0:0:0:
291,81,120213,6,0,P|283:42|273:23,1,50.9999984436036,0|2,1:0|0:0,0:0:0:0:
395,224,120371,2,0,P|402:262|409:280,1,50.9999984436036,0|2,3:0|0:0,0:0:0:0:
346,159,120529,5,2,0:0:0:0:
346,159,120608,1,2,0:0:0:0:
346,159,120687,1,2,0:0:0:0:
346,159,120766,1,2,0:0:0:0:
346,159,120845,5,12,1:0:0:0:
162,217,121002,1,0,1:0:0:0:
402,233,121160,6,0,B|446:209|446:209|436:148,1,101.999996887207,2|2,0:0|0:0,0:0:0:0:
299,64,121476,5,12,1:0:0:0:
251,315,121634,1,0,1:0:0:0:
199,16,121792,6,0,L|220:134,1,101.999996887207,2|2,0:0|0:0,0:0:0:0:
257,321,122108,5,0,1:3:0:0:
287,338,122187,1,4,1:3:0:0:
325,334,122266,1,4,1:3:0:0:
348,309,122345,1,4,1:3:0:0:
352,273,122423,1,4,1:3:0:0:
367,239,122502,1,4,1:3:0:0:
399,220,122581,1,4,1:3:0:0:
435,220,122660,1,4,1:3:0:0:
463,244,122739,6,0,P|471:285|468:304,3,50.9999984436036,4|4|4|4,1:3|1:3|1:3|1:3,0:0:0:0:
502,158,123055,2,0,P|504:132|517:97,3,50.9999984436036,4|4|4|4,1:3|1:3|1:3|1:3,0:0:0:0:
396,217,123371,5,12,1:3:0:0:
367,234,123450,1,12,1:3:0:0:
330,236,123529,1,12,1:3:0:0:
299,219,123608,1,12,1:3:0:0:
274,194,123687,1,12,1:3:0:0:
263,160,123766,1,12,1:3:0:0:
263,125,123845,1,12,1:3:0:0:
277,93,123923,1,12,1:3:0:0:
307,76,124002,6,0,P|346:83|369:95,1,50.9999984436036,8|8,1:3|1:3,0:0:0:0:
192,198,124160,1,8,1:3:0:0:
192,198,124239,1,8,1:3:0:0:
192,198,124318,2,0,P|168:206|142:209,1,50.9999984436036,8|8,1:3|1:3,0:0:0:0:
192,18,124476,5,8,1:3:0:0:
192,18,124555,1,8,1:3:0:0:
192,18,124634,2,0,L|196:51,6,25.4999992218018,8|8|8|8|8|8|8,1:3|1:3|1:3|1:3|1:3|1:3|1:3,0:0:0:0:
239,107,124950,2,0,L|235:140,6,25.4999992218018,8|8|8|8|8|8|8,1:3|1:3|1:3|1:3|1:3|1:3|1:3,0:0:0:0:
154,111,125266,6,0,L|123:104,2,25.4999992218018,8|8|8,1:3|1:3|1:3,0:0:0:0:
274,39,125423,2,0,L|298:44,2,25.4999992218018,8|8|8,1:3|1:3|1:3,0:0:0:0:
97,37,125581,6,0,L|66:44,2,25.4999992218018,8|8|8,1:3|1:3|1:3,0:0:0:0:
331,112,125739,2,0,L|355:106,2,25.4999992218018,8|8|8,1:3|1:3|1:3,0:0:0:0:
195,15,125897,5,6,1:2:0:0:
308,366,126845,6,0,L|312:321,1,38.2499988327027,12|0,1:0|0:0,0:0:0:0:
267,250,127160,5,6,1:0:0:0:
280,226,127239,1,2,0:0:0:0:
308,210,127318,1,2,0:0:0:0:
339,210,127397,2,0,P|362:224|378:250,1,50.9999984436036,2|8,0:0|1:0,0:0:0:0:
471,254,127555,5,2,0:0:0:0:
491,233,127634,1,2,0:0:0:0:
490,202,127713,1,2,0:0:0:0:
470,177,127792,2,0,P|412:163|381:115,1,101.999996887207,0|2,1:0|0:0,0:0:0:0:
415,66,128029,1,2,0:0:0:0:
415,66,128108,1,8,1:0:0:0:
280,0,128266,5,2,0:0:0:0:
280,0,128345,1,2,0:0:0:0:
280,0,128423,2,0,P|294:36|297:106,1,101.999996887207,0|2,1:0|0:0,0:0:0:0:
238,146,128660,2,0,P|228:181|233:221,1,50.9999984436036,2|8,0:0|1:0,0:0:0:0:
305,235,128818,5,2,0:0:0:0:
330,269,128897,1,2,0:0:0:0:
337,312,128976,1,2,0:0:0:0:
327,349,129055,5,8,1:3:0:0:
177,261,129213,1,12,3:3:0:0:
87,384,129371,5,8,1:0:0:0:
87,384,129450,1,4,3:3:0:0:
87,384,129529,1,4,3:3:0:0:
87,384,129608,1,0,3:0:0:0:
87,384,129687,2,0,P|177:362|217:357,1,101.999996887207,4|2,1:0|0:0,0:0:0:0:
264,259,129923,1,2,0:0:0:0:
275,255,130002,2,0,P|298:263|335:271,1,50.9999984436036,8|2,1:0|0:0,0:0:0:0:
401,358,130160,5,2,0:0:0:0:
401,358,130239,1,2,0:0:0:0:
401,358,130318,1,0,1:0:0:0:
436,350,130397,1,2,0:0:0:0:
457,320,130476,1,2,0:0:0:0:
459,284,130555,2,0,P|445:254|411:235,1,50.9999984436036,2|8,0:0|1:0,0:0:0:0:
437,136,130713,5,2,0:0:0:0:
404,157,130792,1,2,0:0:0:0:
366,153,130871,1,2,0:0:0:0:
336,126,130950,2,0,P|325:78|341:24,1,101.999996887207,0|2,3:0|0:0,0:0:0:0:
268,0,131187,2,0,P|233:9|193:86,1,101.999996887207,2|2,0:0|0:0,0:0:0:0:
190,144,131423,5,2,0:0:0:0:
190,144,131502,1,2,0:0:0:0:
190,144,131581,2,0,P|228:133|270:127,1,50.9999984436036,8|2,1:3|0:0,0:0:0:0:
334,247,131739,2,0,P|309:241|284:233,1,50.9999984436036,12|2,3:3|0:0,0:0:0:0:
301,78,131897,5,8,1:0:0:0:
213,266,132055,1,4,3:3:0:0:
393,109,132213,5,4,1:0:0:0:
426,110,132292,1,2,0:0:0:0:
451,124,132371,1,2,0:0:0:0:
467,152,132450,1,2,0:0:0:0:
466,180,132529,2,0,P|449:204|414:223,3,50.9999984436036,8|2|2|2,1:0|0:0|0:0|0:0,0:0:0:0:
508,338,132845,5,0,1:0:0:0:
483,306,132923,1,2,0:0:0:0:
445,292,133002,1,2,0:0:0:0:
407,296,133081,2,0,P|379:329|378:354,1,50.9999984436036,2|8,0:0|1:0,0:0:0:0:
293,375,133239,5,2,0:0:0:0:
293,375,133318,1,2,0:0:0:0:
293,375,133397,1,2,0:0:0:0:
293,375,133476,2,0,P|284:307|258:234,1,101.999996887207,0|2,1:0|0:0,0:0:0:0:
211,240,133713,1,2,0:0:0:0:
211,240,133792,1,8,1:0:0:0:
315,105,133950,1,2,0:0:0:0:
427,291,134108,5,4,1:3:0:0:
394,284,134187,1,4,3:3:0:0:
370,264,134266,1,4,3:3:0:0:
360,232,134345,1,12,3:3:0:0:
365,201,134423,2,0,P|386:171|422:162,3,50.9999984436036,8|12|8|8,1:0|3:3|3:3|3:3,0:0:0:0:
215,243,134739,6,0,P|160:226|142:178,1,101.999996887207,4|2,1:0|0:0,0:0:0:0:
182,124,134976,1,2,0:0:0:0:
182,124,135055,1,8,1:0:0:0:
288,195,135213,1,2,0:0:0:0:
200,334,135371,5,0,1:0:0:0:
177,337,135450,1,2,0:0:0:0:
157,340,135529,1,2,0:0:0:0:
137,342,135608,1,2,0:0:0:0:
117,345,135687,2,0,P|105:290|78:232,1,101.999996887207,8|2,1:0|0:0,0:0:0:0:
87,160,135923,5,2,0:0:0:0:
96,170,136002,2,0,P|130:183|151:185,1,50.9999984436036,2|2,1:2|0:2,0:0:0:0:
33,260,136160,2,0,P|67:247|88:245,1,50.9999984436036,2|2,3:2|0:0,0:0:0:0:
218,239,136318,5,8,1:0:0:0:
8,182,136476,1,2,3:2:0:0:
222,242,136634,6,0,P|295:226|360:224,1,101.999996887207,8|12,1:3|1:3,0:0:0:0:
445,263,136871,1,4,3:0:0:0:
480,243,136950,2,0,P|475:193|375:185,1,152.999995330811,8|0,1:0|0:0,0:0:0:0:
302,137,137266,5,6,1:0:0:0:
273,121,137345,1,2,0:0:0:0:
262,93,137423,1,2,0:0:0:0:
267,65,137502,2,0,P|288:53|336:56,1,50.9999984436036,2|8,0:0|1:0,0:0:0:0:
386,0,137660,5,2,0:0:0:0:
404,29,137739,1,2,0:0:0:0:
434,42,137818,1,2,0:0:0:0:
466,46,137897,2,0,P|498:69|507:132,1,101.999996887207,0|2,1:0|0:0,0:0:0:0:
452,178,138134,2,0,P|422:168|399:138,1,50.9999984436036,2|8,0:0|1:0,0:0:0:0:
346,197,138292,5,2,0:0:0:0:
340,209,138371,2,0,P|347:233|364:252,1,50.9999984436036,2|2,0:0|0:0,0:0:0:0:
505,239,138529,6,0,P|486:289|483:366,1,101.999996887207,0|2,1:0|0:0,0:0:0:0:
418,380,138766,2,0,P|386:385|365:379,1,50.9999984436036,2|8,0:0|1:0,0:0:0:0:
297,293,138923,5,2,0:0:0:0:
297,293,139002,1,2,0:0:0:0:
297,293,139081,1,2,0:0:0:0:
297,293,139160,5,8,1:3:0:0:
172,216,139318,1,12,3:3:0:0:
330,219,139476,5,8,1:0:0:0:
132,285,139634,1,4,3:3:0:0:
200,384,139792,6,0,P|203:330|214:276,1,101.999996887207,0|2,1:0|0:0,0:0:0:0:
175,213,140029,1,2,0:0:0:0:
156,187,140108,2,0,P|152:130|128:46,1,101.999996887207,8|2,1:0|0:0,0:0:0:0:
187,27,140345,1,2,0:0:0:0:
187,27,140423,5,0,1:0:0:0:
220,13,140502,1,2,0:0:0:0:
258,24,140581,1,2,0:0:0:0:
277,54,140660,1,2,0:0:0:0:
278,90,140739,2,0,P|312:131|365:129,1,101.999996887207,8|2,1:0|0:0,0:0:0:0:
508,18,141055,5,0,1:0:0:0:
474,13,141134,1,2,0:0:0:0:
448,31,141213,1,2,0:0:0:0:
437,63,141292,2,0,P|440:102|462:123,1,50.9999984436036,2|8,0:0|1:0,0:0:0:0:
419,194,141450,5,2,0:0:0:0:
448,209,141529,1,2,0:0:0:0:
468,244,141608,1,2,0:0:0:0:
466,284,141687,5,8,1:3:0:0:
370,326,141845,1,12,3:3:0:0:
501,356,142002,5,8,1:0:0:0:
344,256,142160,1,4,3:3:0:0:
236,384,142318,6,0,P|185:353|192:271,1,101.999996887207,4|2,1:0|0:0,0:0:0:0:
235,267,142555,1,2,0:0:0:0:
235,267,142634,1,8,1:0:0:0:
261,241,142713,1,2,0:0:0:0:
266,204,142792,1,2,0:0:0:0:
249,169,142871,1,2,0:0:0:0:
215,156,142950,6,0,P|154:176|155:238,1,101.999996887207,0|2,1:0|0:0,0:0:0:0:
159,286,143187,1,2,0:0:0:0:
159,286,143266,1,8,1:0:0:0:
0,223,143423,1,2,0:0:0:0:
65,384,143581,5,0,1:0:0:0:
67,360,143660,1,0,0:0:0:0:
71,336,143739,1,2,0:0:0:0:
74,313,143818,1,2,0:0:0:0:
78,289,143897,2,0,P|72:207|58:139,1,101.999996887207,8|2,1:0|0:0,0:0:0:0:
9,133,144134,5,2,0:0:0:0:
9,133,144213,2,0,P|24:98|52:89,1,50.9999984436036,4|4,1:3|3:3,0:0:0:0:
23,16,144371,2,0,P|60:11|82:31,1,50.9999984436036,4|12,3:3|3:3,0:0:0:0:
133,77,144529,5,8,1:0:0:0:
162,95,144608,1,12,3:3:0:0:
195,96,144687,1,8,3:3:0:0:
220,75,144766,1,8,3:3:0:0:
225,40,144845,5,4,1:0:0:0:
41,94,145002,1,0,3:0:0:0:
152,0,145160,5,8,1:0:0:0:
72,193,145318,1,0,3:0:0:0:
68,14,145476,5,0,1:0:0:0:
178,208,145634,1,0,3:0:0:0:
46,97,145792,6,0,P|104:108|160:132,1,101.999996887207,8|0,1:0|3:0,0:0:0:0:
213,97,146029,1,2,0:0:0:0:
225,91,146108,2,0,P|234:55|218:27,1,50.9999984436036,4|0,1:0|3:0,0:0:0:0:
146,0,146266,2,0,P|110:10|94:38,1,50.9999984436036,0|0,1:0|3:0,0:0:0:0:
139,128,146423,5,8,1:0:0:0:
159,158,146502,1,0,3:0:0:0:
159,195,146581,1,0,1:0:0:0:
138,222,146660,1,0,3:0:0:0:
106,229,146739,6,0,L|72:218,4,25.4999992218018,0|0|8|8|12,1:0|3:0|3:0|3:0|1:3,0:0:0:0:
183,294,146976,5,4,3:0:0:0:
183,294,147055,2,0,L|220:285,1,38.2499988327027,12|0,1:0|0:0,0:0:0:0:
286,235,147371,6,0,P|312:249|329:277,1,50.9999984436036,6|2,1:0|0:0,0:0:0:0:
402,260,147529,2,0,P|402:289|387:318,1,50.9999984436036,2|2,0:0|0:0,0:0:0:0:
319,375,147687,5,8,1:0:0:0:
303,378,147766,1,2,0:0:0:0:
287,380,147845,1,2,0:0:0:0:
272,382,147923,1,2,0:0:0:0:
254,384,148002,6,0,P|240:326|213:271,1,101.999996887207,4|8,1:3|3:0,0:0:0:0:
281,238,148239,2,0,P|288:207|303:181,1,50.9999984436036,12|8,3:0|1:0,0:0:0:0:
251,131,148397,1,12,3:3:0:0:
251,131,148476,1,8,3:3:0:0:
343,8,148634,6,0,P|390:17|412:71,1,101.999996887207,4|2,1:0|0:0,0:0:0:0:
473,106,148871,2,0,P|457:136|428:150,1,50.9999984436036,2|8,0:0|1:0,0:0:0:0:
372,131,149029,1,2,0:0:0:0:
372,131,149108,1,2,0:0:0:0:
243,49,149266,5,8,1:3:0:0:
199,36,149345,1,8,3:0:0:0:
163,55,149423,1,8,3:0:0:0:
148,92,149502,1,12,3:0:0:0:
157,133,149581,2,0,P|203:148|267:123,1,101.999996887207,8|4,1:0|3:0,0:0:0:0:
468,271,149897,6,0,P|428:240|373:233,1,101.999996887207,4|2,1:0|0:0,0:0:0:0:
312,268,150134,1,2,0:0:0:0:
303,277,150213,2,0,P|317:319|331:329,1,50.9999984436036,8|2,1:0|0:0,0:0:0:0:
368,381,150371,2,0,P|397:347|399:330,1,50.9999984436036,2|2,0:0|0:0,0:0:0:0:
381,229,150529,6,0,P|366:164|363:110,1,101.999996887207,4|4,1:3|3:0,0:0:0:0:
198,336,150845,1,8,1:0:0:0:
198,336,150923,1,12,3:0:0:0:
198,336,151002,1,8,3:0:0:0:
198,336,151081,1,8,3:0:0:0:
198,336,151160,2,0,P|211:287|216:218,2,101.999996887207,4|2|8,1:0|0:0|1:0,0:0:0:0:
128,384,151555,6,0,P|75:363|66:307,1,101.999996887207,2|2,0:0|0:0,0:0:0:0:
103,255,151792,1,8,1:3:0:0:
0,128,151950,1,8,3:0:0:0:
0,278,152108,6,0,P|10:254|13:223,1,50.9999984436036,8|12,1:0|3:0,0:0:0:0:
38,160,152266,2,0,P|22:139|-3:121,1,50.9999984436036,4|4,3:0|3:0,0:0:0:0:
100,250,152423,6,0,P|138:219|203:210,1,101.999996887207,4|2,1:0|0:0,0:0:0:0:
368,314,152739,1,8,1:0:0:0:
171,335,152897,6,0,P|175:309|183:285,1,50.9999984436036,2|2,0:0|0:0,0:0:0:0:
275,153,153055,1,4,1:3:0:0:
300,179,153134,1,4,3:0:0:0:
304,215,153213,1,4,3:0:0:0:
290,250,153292,1,12,3:0:0:0:
259,267,153371,2,0,P|214:256|184:203,1,101.999996887207,8|8,1:0|3:0,0:0:0:0:
243,0,153687,6,0,P|208:55|207:95,1,101.999996887207,4|2,1:0|0:0,0:0:0:0:
368,322,154002,1,8,1:0:0:0:
142,187,154160,6,0,P|172:204|191:209,1,50.9999984436036,2|2,0:0|0:0,0:0:0:0:
362,105,154318,1,8,1:3:0:0:
321,94,154397,1,8,3:0:0:0:
286,115,154476,1,8,3:0:0:0:
272,150,154555,1,12,3:0:0:0:
278,191,154634,6,0,P|288:241|290:299,1,101.999996887207,8|4,1:0|3:0,0:0:0:0:
290,291,154871,1,4,3:0:0:0:
290,291,154950,1,4,1:0:0:0:
445,239,155108,1,2,0:0:0:0:
215,277,155266,5,8,1:0:0:0:
191,260,155345,1,2,0:0:0:0:
182,232,155423,1,2,0:0:0:0:
406,159,155581,5,4,1:3:0:0:
342,364,155739,1,4,3:0:0:0:
220,145,155897,5,8,1:0:0:0:
247,121,155976,1,12,3:0:0:0:
284,116,156055,1,8,3:0:0:0:
317,132,156134,1,8,3:0:0:0:
329,167,156213,6,0,P|320:206|320:227,1,50.9999984436036,4|2,1:0|0:0,0:0:0:0:
229,349,156371,2,0,P|238:310|238:289,1,50.9999984436036,2|2,0:0|0:0,0:0:0:0:
126,243,156529,6,0,L|226:221,1,101.999996887207,8|2,1:0|0:0,0:0:0:0:
225,221,156766,1,2,0:0:0:0:
225,221,156845,1,8,1:3:0:0:
377,383,157002,5,12,1:3:0:0:
377,383,157081,1,4,3:0:0:0:
377,383,157160,2,0,L|219:351,1,152.999995330811,8|0,1:0|0:0,0:0:0:0:
158,384,157476,6,0,P|140:363|137:334,1,50.9999984436036,6|2,1:0|0:0,0:0:0:0:
96,280,157634,2,0,P|105:253|128:236,1,50.9999984436036,2|2,0:0|0:0,0:0:0:0:
236,231,157792,5,8,1:0:0:0:
256,223,157871,1,2,0:0:0:0:
272,208,157950,1,2,0:0:0:0:
279,190,158029,1,2,0:0:0:0:
279,169,158108,6,0,P|242:144|169:137,1,101.999996887207,4|4,1:3|3:0,0:0:0:0:
129,82,158345,2,0,P|105:90|81:119,1,50.9999984436036,12|8,3:0|1:0,0:0:0:0:
119,180,158502,1,12,3:0:0:0:
119,180,158581,1,8,3:0:0:0:
345,126,158739,6,0,P|357:81|415:53,1,101.999996887207,4|2,1:0|0:0,0:0:0:0:
459,0,158976,2,0,P|486:20|490:57,1,50.9999984436036,2|8,0:0|1:0,0:0:0:0:
467,110,159134,1,2,0:0:0:0:
467,110,159213,1,2,0:0:0:0:
512,222,159371,5,8,1:3:0:0:
472,199,159450,1,8,3:0:0:0:
429,206,159529,1,8,3:0:0:0:
396,237,159608,1,12,3:0:0:0:
387,275,159687,2,0,P|388:305|400:333,3,50.9999984436036,8|12|4|4,1:0|3:0|3:0|3:0,0:0:0:0:
317,228,160002,6,0,P|286:217|255:158,1,101.999996887207,4|2,1:0|0:0,0:0:0:0:
290,94,160239,1,2,0:0:0:0:
290,94,160318,1,8,1:0:0:0:
427,199,160476,1,2,0:0:0:0:
253,295,160634,5,4,1:3:0:0:
229,275,160713,1,4,3:0:0:0:
196,268,160792,1,4,3:0:0:0:
160,273,160871,1,12,3:0:0:0:
132,293,160950,1,8,1:0:0:0:
114,322,161029,1,12,3:0:0:0:
84,344,161108,1,8,3:0:0:0:
47,349,161187,1,8,3:0:0:0:
12,332,161266,6,0,P|4:286|5:215,1,101.999996887207,4|0,1:0|0:0,0:0:0:0:
126,35,161581,1,8,1:0:0:0:
152,51,161660,2,0,P|163:92|164:158,1,101.999996887207,2|2,0:0|0:0,0:0:0:0:
98,202,161897,6,0,B|72:197|72:197|57:169,1,50.9999984436036,8|2,1:3|0:0,0:0:0:0:
202,246,162055,2,0,B|228:251|228:251|243:279,1,50.9999984436036,12|2,3:0|0:0,0:0:0:0:
169,155,162213,6,0,B|174:129|174:129|202:114,1,50.9999984436036,8|2,1:0|0:0,0:0:0:0:
122,292,162371,2,0,B|117:318|117:318|89:333,1,50.9999984436036,4|2,3:0|0:0,0:0:0:0:
3,228,162529,6,0,P|51:213|101:204,1,101.999996887207,4|2,1:0|0:0,0:0:0:0:
278,341,162845,1,8,1:0:0:0:
172,158,163002,6,0,P|200:179|225:183,1,50.9999984436036,2|2,0:0|0:0,0:0:0:0:
369,72,163160,1,4,1:3:0:0:
370,39,163239,1,4,3:0:0:0:
351,13,163318,1,4,3:0:0:0:
320,0,163397,1,12,3:0:0:0:
288,8,163476,2,0,P|270:38|291:101,1,101.999996887207,8|8,1:0|3:0,0:0:0:0:
281,344,163792,6,0,P|287:283|325:237,1,101.999996887207,4|2,1:0|0:0,0:0:0:0:
490,189,164108,1,8,1:0:0:0:
278,183,164266,6,0,P|311:168|338:169,1,50.9999984436036,2|2,0:0|0:0,0:0:0:0:
482,285,164423,1,8,1:3:0:0:
484,323,164502,1,8,3:0:0:0:
463,353,164581,1,8,3:0:0:0:
422,359,164660,1,12,3:0:0:0:
389,341,164739,2,0,P|393:289|393:225,1,101.999996887207,8|4,1:0|3:0,0:0:0:0:
333,174,164976,5,4,3:0:0:0:
333,174,165055,1,4,1:0:0:0:
482,91,165213,1,0,3:0:0:0:
303,92,165371,5,8,1:0:0:0:
512,189,165529,1,0,3:0:0:0:
381,42,165687,6,0,L|391:95,1,50.9999984436036,0|0,1:0|0:0,0:0:0:0:
425,256,165845,2,0,L|435:203,1,50.9999984436036,0|0,3:0|0:0,0:0:0:0:
512,108,166002,6,0,L|459:118,1,50.9999984436036,8|0,1:0|0:0,0:0:0:0:
300,190,166160,2,0,L|353:200,1,50.9999984436036,0|0,3:0|0:0,0:0:0:0:
493,335,166318,5,8,1:3:0:0:
474,337,166397,1,4,3:0:0:0:
455,338,166476,1,4,1:3:0:0:
437,340,166555,1,12,3:0:0:0:
400,363,166634,5,8,1:0:0:0:
404,334,166713,1,12,3:0:0:0:
405,305,166792,1,8,1:3:0:0:
408,277,166871,1,8,3:0:0:0:
430,237,166950,5,8,1:3:0:0:
386,241,167029,1,12,1:3:0:0:
342,243,167108,1,12,1:3:0:0:
300,248,167187,1,4,1:3:0:0:
262,222,167266,6,0,L|257:184,1,38.2499988327027,8|0,1:0|0:0,0:0:0:0:
151,56,167581,6,0,L|100:66,1,46.7500014266968,4|0,1:0|0:0,0:0:0:0:
58,132,167739,2,0,L|10:123,1,46.7500014266968,2|0,0:3|0:0,0:0:0:0:
134,228,167897,1,8,1:0:0:0:
134,228,168055,2,0,P|148:186|156:130,1,93.5000028533936,2|0,0:3|1:0,0:0:0:0:
305,20,168371,1,2,0:3:0:0:
305,20,168450,1,2,0:0:0:0:
305,20,168529,2,0,P|286:68|280:117,1,93.5000028533936,8|2,1:0|0:3,0:0:0:0:
345,246,168845,6,0,B|391:232|391:232|403:187,1,93.5000028533936,0|2,1:0|0:3,0:0:0:0:
284,112,169160,1,8,1:0:0:0:
437,85,169318,5,2,0:3:0:0:
437,85,169397,1,2,0:0:0:0:
279,195,169555,1,2,0:0:0:0:
279,195,169634,1,2,0:3:0:0:
495,218,169792,6,0,P|452:200|391:189,1,93.5000028533936,12|2,1:0|3:3,0:0:0:0:
265,20,170108,2,0,P|229:35|202:37,1,46.7500014266968,4|0,1:2|0:0,0:0:0:0:
221,36,170266,1,2,0:3:0:0:
362,68,170423,5,8,1:0:0:0:
258,272,170581,2,0,P|210:244|203:190,1,93.5000028533936,2|0,0:3|1:0,0:0:0:0:
125,125,170818,5,2,0:0:0:0:
92,118,170897,1,2,0:3:0:0:
60,130,170976,1,2,0:0:0:0:
41,159,171055,1,8,1:0:0:0:
76,281,171213,1,2,0:3:0:0:
204,132,171371,6,0,P|257:124|308:107,1,93.5000028533936,0|2,1:0|0:3,0:0:0:0:
164,303,171687,2,0,P|119:289|72:283,1,93.5000028533936,8|2,1:0|0:3,0:0:0:0:
18,199,171923,6,0,P|30:172|53:158,1,46.7500014266968,2|0,0:0|1:0,0:0:0:0:
120,169,172081,1,2,0:0:0:0:
120,169,172160,2,0,P|137:192|138:219,1,46.7500014266968,2|0,0:3|0:0,0:0:0:0:
70,287,172318,6,0,P|35:326|28:376,1,93.5000028533936,12|0,1:0|0:0,0:0:0:0:
255,319,172634,2,0,P|247:267|213:229,1,93.5000028533936,4|2,1:2|0:3,0:0:0:0:
21,202,172950,5,8,1:0:0:0:
143,384,173108,2,0,L|159:275,1,93.5000028533936,2|0,0:3|1:0,0:0:0:0:
143,213,173345,5,2,0:0:0:0:
113,208,173423,1,2,0:3:0:0:
95,184,173502,1,2,0:0:0:0:
94,153,173581,2,0,P|122:133|181:138,1,93.5000028533936,8|2,1:0|0:3,0:0:0:0:
326,42,173897,6,0,P|351:25|359:4,1,46.7500014266968,0|0,1:0|0:0,0:0:0:0:
357,10,174055,1,2,0:3:0:0:
216,14,174213,6,0,P|243:47|255:105,1,93.5000028533936,8|2,1:0|0:3,0:0:0:0:
299,158,174450,2,0,P|327:157|349:146,1,46.7500014266968,2|0,0:0|1:0,0:0:0:0:
413,192,174608,1,2,0:0:0:0:
413,192,174687,2,0,P|426:167|427:142,1,46.7500014266968,2|0,0:3|0:0,0:0:0:0:
403,77,174845,5,12,1:0:0:0:
224,165,175002,1,2,0:3:0:0:
380,280,175160,5,4,1:2:0:0:
340,152,175318,1,2,3:0:0:0:
180,295,175476,5,8,1:0:0:0:
310,324,175634,1,2,3:0:0:0:
267,114,175792,5,0,1:0:0:0:
176,212,175950,1,2,3:0:0:0:
139,208,176029,1,2,0:0:0:0:
118,180,176108,2,0,P|107:150|117:117,1,46.7500014266968,8|0,1:0|0:0,0:0:0:0:
166,91,176266,1,2,3:3:0:0:
35,177,176423,5,0,1:0:0:0:
32,195,176502,1,0,3:0:0:0:
30,213,176581,1,0,1:0:0:0:
27,230,176660,1,0,3:0:0:0:
25,246,176739,1,8,1:0:0:0:
22,264,176818,1,0,3:0:0:0:
20,283,176897,5,0,1:0:0:0:
36,307,176976,2,0,P|69:306|95:293,1,46.7500014266968,0|0,3:0|1:0,0:0:0:0:
205,384,177134,5,0,3:0:0:0:
197,375,177213,2,0,L|191:343,1,23.3750007133484,8|0,1:2|0:0,0:0:0:0:
290,252,177371,6,0,L|258:258,1,23.3750007133484,8|0,1:2|0:0,0:0:0:0:
156,163,177529,6,0,L|162:195,1,23.3750007133484,8|0,1:2|0:0,0:0:0:0:
300,328,177687,5,4,1:0:0:0:
379,339,177845,1,2,0:3:0:0:
454,350,178002,1,8,1:2:0:0:
295,331,178160,6,0,B|271:316|271:316|264:258,1,85,2|0,0:3|1:0,0:0:0:0:
377,206,178476,1,2,0:3:0:0:
393,188,178555,1,2,0:0:0:0:
393,161,178634,1,8,1:2:0:0:
305,61,178792,1,2,0:3:0:0:
410,0,178950,6,0,P|396:47|391:89,1,85,0|2,1:0|0:3,0:0:0:0:
209,169,179266,2,0,P|223:122|228:80,1,85,8|2,1:2|0:3,0:0:0:0:
227,86,179502,1,2,0:0:0:0:
172,16,179660,5,2,0:0:0:0:
172,16,179739,2,0,P|129:29|109:71,2,85,2|8|2,0:3|1:2|0:3,0:0:0:0:
302,64,180213,5,4,1:2:0:0:
311,140,180371,1,2,0:3:0:0:
321,216,180529,1,8,1:2:0:0:
226,321,180687,6,0,P|187:317|156:267,1,85,2|0,0:3|1:0,0:0:0:0:
55,158,181002,1,2,0:3:0:0:
21,163,181081,1,2,0:0:0:0:
1,192,181160,1,8,1:2:0:0:
55,263,181318,1,2,0:3:0:0:
162,140,181476,6,0,P|169:93|191:40,1,85,0|2,1:0|0:3,0:0:0:0:
54,267,181792,2,0,P|67:307|73:349,1,85,8|2,1:2|0:3,0:0:0:0:
73,349,182029,1,2,0:0:0:0:
185,285,182187,5,2,0:0:0:0:
185,285,182266,2,0,P|172:246|125:222,2,85,2|8|0,0:3|1:2|3:0,0:0:0:0:
333,368,182739,5,6,1:2:0:0:
410,350,182897,1,2,0:3:0:0:
418,273,183055,1,8,1:2:0:0:
285,136,183213,6,0,L|300:228,1,85,2|4,0:3|1:3,0:0:0:0:
222,327,183529,1,2,0:3:0:0:
218,356,183608,1,2,0:0:0:0:
213,383,183687,1,8,1:2:0:0:
122,292,183845,1,6,0:3:0:0:
334,298,184002,6,0,P|368:282|429:277,1,85,4|4,1:2|0:3,0:0:0:0:
209,212,184318,2,0,P|166:207|128:189,1,85,8|2,1:2|0:3,0:0:0:0:
128,189,184555,1,2,0:0:0:0:
264,64,184713,5,2,0:0:0:0:
264,64,184792,2,0,P|289:87|296:141,2,85,2|8|4,0:3|1:2|0:3,0:0:0:0:
187,83,185187,5,12,0:3:0:0:
187,83,185266,1,6,1:2:0:0:
128,33,185423,1,12,0:3:0:0:
61,69,185581,1,8,1:2:0:0:
54,216,185739,6,0,P|89:202|153:198,1,85,12|12,0:3|1:3,0:0:0:0:
192,244,185976,1,2,0:0:0:0:
196,260,186055,1,14,0:3:0:0:
199,277,186134,1,2,0:0:0:0:
203,295,186213,1,8,1:2:0:0:
145,370,186371,1,10,0:3:0:0:
274,355,186529,5,6,1:2:0:0:
308,352,186608,1,4,0:3:0:0:
328,330,186687,1,4,3:0:0:0:
333,297,186766,1,12,0:3:0:0:
343,262,186845,1,8,1:2:0:0:
372,237,186923,1,12,0:3:0:0:
407,230,187002,1,8,3:3:0:0:
438,245,187081,1,8,0:3:0:0:
456,274,187160,6,0,P|450:295|445:326,1,51,6|8,1:2|0:3,0:0:0:0:
301,184,187476,6,0,P|325:275|333:353,1,152.999995330811,8|0,1:0|0:0,0:0:0:0:
332,333,187792,1,4,1:0:0:0:
256,192,187871,12,0,194108,0:0:0:0:
