osu file format v14

[General]
AudioFilename: audio.mp3
AudioLeadIn: 0
PreviewTime: 44384
Countdown: 0
SampleSet: Soft
StackLeniency: 0.4
Mode: 0
LetterboxInBreaks: 0
WidescreenStoryboard: 0

[Editor]
DistanceSpacing: 0.8
BeatDivisor: 4
GridSize: 16
TimelineZoom: 3.999998

[Metadata]
Title:Critical Cannonball (Extended ver.)
TitleUnicode:Critical Cannonball (Extended ver.)
Artist:SEPHID
ArtistUnicode:SEPHID
Creator:DeviousPanda
Version:Sakura's Extra
Source:東方輝針城 ~ Double Dealing Character.
Tags:o!wc owc grand finals gf HD1 満月の竹林 mangetsu no chikurin bamboo forest of the full moon ZUN Touhou 14 Stage 3 Theme Kishinjou 東方Project drumstep j-core electronic instrumental video game paradogi xlolicore- my angel watame skydiver atalanta talulah waefwerf Sakura Blossom -_ascended_- ascended cycopton Wanpachi Gordon Lazarus Xoul Zelq
BeatmapID:2794464
BeatmapSetID:1189616

[Difficulty]
HPDrainRate:5
CircleSize:4
OverallDifficulty:9
ApproachRate:9.5
SliderMultiplier:1.3
SliderTickRate:1

[Events]
//Background and Video events
0,0,"53805150_p0.png",0,0
//Break Periods
//Storyboard Layer 0 (Background)
//Storyboard Layer 1 (Fail)
//Storyboard Layer 2 (Pass)
//Storyboard Layer 3 (Foreground)
//Storyboard Layer 4 (Overlay)
//Storyboard Sound Samples

[TimingPoints]
845,315.789473684211,4,2,1,50,1,0
10950,-100,4,2,1,60,0,0
20739,-66.6666666666667,4,2,1,80,0,0
21134,-66.6666666666667,4,2,1,60,0,0
24845,-66.6666666666667,4,2,1,60,0,0
26108,-133.333333333333,4,2,1,60,0,0
30371,-95.2380952380951,4,2,1,60,0,0
30845,-80,4,2,1,60,0,0
31160,-133.333333333333,4,2,1,60,0,0
34002,-100,4,2,1,60,0,0
41266,-66.6666666666667,4,2,1,60,0,0
42529,-66.6666666666667,4,2,1,40,0,0
43161,-66.6666666666667,4,2,1,60,0,0
43792,-66.6666666666667,4,2,1,40,0,0
44108,-66.6666666666667,4,2,1,50,0,0
44424,-66.6666666666667,4,2,1,60,0,0
44503,-66.6666666666667,4,2,1,65,0,0
44582,-66.6666666666667,4,2,1,70,0,0
44661,-66.6666666666667,4,2,1,75,0,0
44740,-66.6666666666667,4,2,1,80,0,0
44819,-66.6666666666667,4,2,1,85,0,0
44898,-66.6666666666667,4,2,1,90,0,0
44977,-66.6666666666667,4,2,1,95,0,0
45055,-66.6666666666667,4,2,1,100,0,0
45213,-66.6666666666667,4,2,1,50,0,0
45687,-66.6666666666667,4,2,1,70,0,0
46003,-66.6666666666667,4,2,1,90,0,0
46318,-58.8235294117647,4,2,1,80,0,1
56423,-285.714285714284,4,2,1,55,0,0
62423,-142.857142857143,4,2,1,55,0,0
63687,-90.9090909090909,4,2,1,55,0,0
66213,-58.8235294117647,4,2,1,90,0,0
66529,-58.8235294117647,4,2,1,70,0,0
76634,-58.8235294117647,4,2,1,85,0,0
86739,-47.6190476190476,4,2,1,65,0,0
101898,-47.6190476190476,4,2,1,85,0,0
105687,-47.6190476190476,4,2,1,55,0,0
106634,-47.6190476190476,4,2,1,75,0,0
106950,-133.333333333333,4,2,1,45,0,0
115161,-133.333333333333,4,2,1,55,0,0
115477,-133.333333333333,4,2,1,65,0,0
115792,-133.333333333333,4,2,1,75,0,0
116423,-79.9999999999999,4,2,1,75,0,0
122108,-79.9999999999999,4,2,1,48,0,0
122187,-79.9999999999999,4,2,1,50,0,0
122266,-79.9999999999999,4,2,1,52,0,0
122345,-79.9999999999999,4,2,1,54,0,0
122424,-79.9999999999999,4,2,1,56,0,0
122503,-79.9999999999999,4,2,1,58,0,0
122582,-79.9999999999999,4,2,1,60,0,0
122661,-79.9999999999999,4,2,1,62,0,0
122740,-79.9999999999999,4,2,1,64,0,0
122819,-79.9999999999999,4,2,1,66,0,0
122898,-79.9999999999999,4,2,1,68,0,0
122977,-79.9999999999999,4,2,1,70,0,0
123055,-79.9999999999999,4,2,1,72,0,0
123134,-79.9999999999999,4,2,1,74,0,0
123213,-79.9999999999999,4,2,1,76,0,0
123292,-79.9999999999999,4,2,1,78,0,0
123371,-79.9999999999999,4,2,1,80,0,0
123450,-79.9999999999999,4,2,1,82,0,0
123529,-79.9999999999999,4,2,1,84,0,0
123608,-79.9999999999999,4,2,1,86,0,0
123687,-79.9999999999999,4,2,1,78,0,0
123766,-79.9999999999999,4,2,1,80,0,0
123845,-79.9999999999999,4,2,1,82,0,0
123924,-79.9999999999999,4,2,1,84,0,0
124003,-79.9999999999999,4,2,1,86,0,0
124082,-79.9999999999999,4,2,1,88,0,0
124161,-79.9999999999999,4,2,1,90,0,0
124240,-79.9999999999999,4,2,1,92,0,0
124319,-79.9999999999999,4,2,1,94,0,0
124398,-79.9999999999999,4,2,1,96,0,0
124477,-79.9999999999999,4,2,1,98,0,0
124555,-79.9999999999999,4,2,1,100,0,0
124674,-79.9999999999999,4,2,1,55,0,0
125266,-79.9999999999999,4,2,1,75,0,0
126213,-55.5555555555556,4,2,1,75,0,1
126845,-55.5555555555556,4,2,1,100,0,1
127161,-55.5555555555556,4,2,1,95,0,1
147055,-55.5555555555556,4,2,1,75,0,1
147371,-55.5555555555556,4,2,1,100,0,1
157161,-55.5555555555556,4,2,1,75,0,1
157477,-55.5555555555556,4,2,1,100,0,1
167581,-100,4,2,1,65,0,0
172634,-66.6666666666667,4,2,1,65,0,0
172950,-100,4,2,1,65,0,0
175160,-66.6666666666667,4,2,1,65,0,0
175476,-100,4,2,1,65,0,0
177213,-100,4,2,1,55,0,0
177687,-100,4,2,1,50,0,0
187161,-100,4,2,1,60,0,0
187477,-100,4,2,1,80,0,0
187871,-100,4,2,1,5,0,0

[Colours]
Combo1 : 153,255,0
Combo2 : 255,167,34
Combo3 : 54,254,145
Combo4 : 255,100,100

[HitObjects]
0,132,845,6,0,P|6:210|14:277,1,130,4|8,1:1|1:2,0:0:0:0:
86,203,1318,1,6,0:0:0:0:
106,358,1476,1,2,1:2:0:0:
106,358,1555,1,2,0:0:0:0:
106,358,1634,1,2,0:3:0:0:
170,284,1792,2,0,P|218:282|257:281,1,65,8|2,1:2|0:3,0:0:0:0:
314,320,2108,1,0,1:0:0:0:
314,320,2266,1,2,0:3:0:0:
456,241,2423,2,0,P|483:276|483:312,1,65,8|2,1:2|0:3,0:0:0:0:
466,292,2660,1,2,0:0:0:0:
446,288,2739,1,0,1:0:0:0:
426,285,2818,1,2,0:0:0:0:
406,282,2897,1,2,0:3:0:0:
419,166,3055,2,0,P|467:156|500:170,1,65,10|2,1:2|0:3,0:0:0:0:
399,360,3371,5,4,1:0:0:0:
307,315,3529,1,2,0:3:0:0:
241,380,3687,2,0,P|191:376|163:348,1,65,8|2,1:2|0:3,0:0:0:0:
140,293,4002,1,0,1:0:0:0:
140,293,4081,1,2,0:0:0:0:
140,293,4160,1,2,0:3:0:0:
219,217,4318,2,0,P|222:267|211:297,1,65,8|2,1:2|0:3,0:0:0:0:
6,343,4634,6,0,P|48:338|87:334,1,65,0|2,1:0|0:3,0:0:0:0:
68,182,4950,2,0,P|20:173|-11:168,1,65,8|2,1:2|0:3,0:0:0:0:
6,189,5187,1,2,0:0:0:0:
8,208,5266,1,0,1:0:0:0:
10,227,5345,1,2,0:0:0:0:
13,246,5423,1,2,0:3:0:0:
135,264,5581,1,8,1:2:0:0:
135,264,5739,1,2,3:3:0:0:
149,144,5897,6,0,P|154:109|164:69,1,65,4|2,1:0|0:3,0:0:0:0:
56,5,6213,1,8,1:2:0:0:
82,84,6371,1,2,0:3:0:0:
231,23,6529,1,0,1:0:0:0:
231,23,6608,1,2,0:0:0:0:
231,23,6687,1,2,0:3:0:0:
314,50,6845,2,0,P|360:42|396:38,1,65,8|2,1:2|0:3,0:0:0:0:
456,13,7160,5,0,1:0:0:0:
509,75,7318,1,2,0:3:0:0:
403,155,7476,2,0,P|408:188|420:239,1,65,8|2,1:2|0:3,0:0:0:0:
433,223,7713,1,2,0:0:0:0:
451,227,7792,1,0,1:0:0:0:
469,231,7871,1,2,0:0:0:0:
488,235,7950,1,2,0:3:0:0:
512,325,8108,2,0,P|462:329|431:337,1,65,8|2,1:2|0:3,0:0:0:0:
370,368,8423,5,2,1:2:0:0:
321,290,8581,1,2,3:0:0:0:
232,301,8739,1,8,1:0:0:0:
10,241,8897,6,0,P|17:284|24:322,1,65,2|2,3:0|1:2,0:0:0:0:
40,307,9134,1,2,0:0:0:0:
59,309,9213,1,2,3:0:0:0:
150,231,9371,1,8,1:0:0:0:
121,382,9529,1,0,3:0:0:0:
225,292,9687,5,6,1:2:0:0:
254,279,9766,1,0,3:0:0:0:
286,276,9845,1,0,3:0:0:0:
315,289,9923,1,0,3:0:0:0:
338,311,10002,1,8,1:0:0:0:
359,335,10081,1,0,3:0:0:0:
390,344,10160,1,2,3:0:0:0:
422,344,10239,1,2,3:0:0:0:
452,332,10318,5,0,1:0:0:0:
452,332,10397,1,2,3:0:0:0:
452,332,10476,2,0,L|463:279,1,32.5,8|0,1:2|0:0,0:0:0:0:
480,226,10634,1,8,1:2:0:0:
480,226,10792,1,8,1:2:0:0:
503,113,10950,2,0,P|463:119|418:127,1,65,4|2,1:0|0:3,0:0:0:0:
355,0,11266,2,0,P|350:89|342:139,1,130,8|0,1:0|1:0,0:0:0:0:
343,129,11660,1,2,0:0:0:0:
343,129,11739,1,2,0:3:0:0:
256,31,11897,2,0,P|217:7|176:16,1,65,8|2,1:0|0:3,0:0:0:0:
0,120,12213,6,0,P|54:113|72:109,1,65,2|2,1:2|0:3,0:0:0:0:
202,88,12529,2,0,P|140:141|137:196,1,130,8|0,1:0|0:0,0:0:0:0:
134,186,12923,1,2,0:0:0:0:
134,186,13002,1,2,0:3:0:0:
231,168,13160,2,0,P|307:155|318:154,1,65,8|0,1:0|0:0,0:0:0:0:
497,129,13476,5,4,1:0:0:0:
497,129,13634,1,2,0:3:0:0:
421,74,13792,2,0,P|406:147|402:206,1,130,8|0,1:0|1:0,0:0:0:0:
402,202,14187,1,2,0:0:0:0:
402,202,14266,1,2,0:3:0:0:
505,361,14423,2,0,P|439:347|411:344,1,65,8|2,1:0|0:3,0:0:0:0:
465,269,14739,5,0,1:0:0:0:
360,355,14897,1,2,0:3:0:0:
309,293,15055,1,8,1:0:0:0:
238,336,15213,1,2,0:3:0:0:
205,331,15292,1,2,0:0:0:0:
172,326,15371,1,0,0:0:0:0:
139,321,15450,1,2,0:0:0:0:
106,316,15529,1,2,0:3:0:0:
53,251,15687,2,0,P|45:198|35:159,1,65,8|0,1:0|0:0,0:0:0:0:
7,85,16002,2,0,P|78:78|161:70,1,130,4|8,1:0|1:0,0:0:0:0:
196,5,16476,1,2,0:3:0:0:
196,5,16555,1,0,0:0:0:0:
196,5,16634,2,0,P|214:42|218:56,2,32.5,0|2|2,1:0|0:0|0:3,0:0:0:0:
147,160,16950,2,0,P|205:133|222:130,1,65,8|2,1:0|0:3,0:0:0:0:
282,94,17266,5,0,1:0:0:0:
282,94,17423,1,0,3:0:0:0:
282,94,17581,1,8,1:0:0:0:
357,33,17739,1,2,2:3:0:0:
357,33,17818,1,2,2:0:0:0:
357,33,17897,6,0,L|399:25,2,32.5,0|2|2,1:0|0:0|0:3,0:0:0:0:
395,106,18134,1,2,0:0:0:0:
395,106,18213,2,0,L|382:184,1,65,8|0,1:0|3:3,2:0:0:0:
442,221,18450,1,0,3:0:0:0:
442,221,18529,5,4,1:0:0:0:
508,145,18687,1,2,3:3:0:0:
438,331,18845,1,8,1:0:0:0:
291,246,19002,1,0,3:0:0:0:
291,246,19081,1,0,0:0:0:0:
291,246,19160,1,4,1:0:0:0:
369,273,19318,1,0,3:0:0:0:
239,365,19476,2,0,P|230:312|210:284,1,65,8|0,1:0|3:0,0:0:0:0:
10,250,19792,5,6,1:2:0:0:
37,266,19871,1,4,3:3:0:0:
69,270,19950,1,4,1:3:0:0:
101,265,20029,1,12,3:3:0:0:
131,252,20108,1,8,1:0:0:0:
154,229,20187,1,12,3:3:0:0:
169,200,20266,1,8,1:3:0:0:
172,167,20345,1,8,1:3:0:0:
167,135,20423,1,6,1:2:0:0:
167,135,20739,6,0,P|238:142|338:160,1,146.250005578995,12|0,1:0|0:0,0:0:0:0:
377,194,21055,1,4,1:0:0:0:
256,192,21213,12,0,24845,0:0:0:0:
17,105,26108,6,0,P|44:50|136:18,2,146.250005578995,6|2|2,0:0|0:0|0:0,0:0:0:0:
171,255,27371,6,0,P|131:212|88:199,1,97.50000371933,2|2,0:0|0:0,0:0:0:0:
0,313,27845,2,0,P|35:299|60:299,1,48.750001859665,2|0,0:0|0:0,0:0:0:0:
112,384,28160,1,2,0:0:0:0:
124,322,28318,2,0,P|121:366|117:382,1,48.750001859665,2|0,0:0|0:0,0:0:0:0:
226,340,28634,6,0,P|284:330|341:320,1,97.50000371933,2|2,0:0|0:0,0:0:0:0:
502,241,29108,2,0,P|488:313|481:353,1,97.50000371933,2|0,0:0|0:0,0:0:0:0:
408,362,29581,2,0,P|405:330|399:305,1,48.750001859665,2|0,0:0|0:0,0:0:0:0:
364,242,29897,2,0,P|373:181|383:123,1,97.50000371933,2|2,0:0|0:0,0:0:0:0:
433,90,30371,2,0,P|416:44|317:28,1,136.499995834351,2|2,0:0|0:0,0:0:0:0:
290,89,30845,2,0,P|228:97|193:105,1,81.25,2|0,0:0|0:0,0:0:0:0:
87,156,31160,5,2,0:0:0:0:
0,125,31318,1,2,0:0:0:0:
138,80,31476,1,2,0:0:0:0:
20,218,31634,1,2,0:0:0:0:
54,60,31792,1,2,0:0:0:0:
174,169,31950,1,2,0:0:0:0:
20,218,32108,2,0,L|77:233,1,48.750001859665,2|2,0:0|0:0,0:0:0:0:
239,270,32423,5,2,0:0:0:0:
326,301,32581,1,2,0:0:0:0:
188,346,32739,1,2,0:0:0:0:
306,208,32897,1,2,0:0:0:0:
272,366,33055,1,2,0:0:0:0:
152,257,33213,1,2,0:0:0:0:
306,208,33371,2,0,L|249:193,1,48.750001859665,2|2,0:0|0:0,0:0:0:0:
197,151,33608,1,2,0:0:0:0:
197,151,33687,1,2,0:0:0:0:
197,151,34002,6,0,P|194:92|189:25,1,97.5
204,44,34318,1,0,0:0:0:0:
0,163,34476,2,0,P|49:181|82:274,1,130
49,313,34950,5,0,0:0:0:0:
290,285,35108,1,0,0:0:0:0:
290,285,35423,2,0,P|287:236|278:90,1,195
278,90,36213,6,0,P|336:81|367:76,1,65,4|2,1:2|0:0,0:0:0:0:
247,9,36529,2,0,P|305:0|336:-5,2,65,2|2|0,0:0|0:0|0:0,0:0:0:0:
350,186,37002,1,2,0:0:0:0:
350,186,37160,2,0,P|317:180|285:176,1,65,2|2,0:0|0:0,0:0:0:0:
212,148,37476,5,2,0:0:0:0:
142,183,37634,1,2,0:0:0:0:
113,255,37792,1,2,0:0:0:0:
146,325,37950,1,2,0:0:0:0:
0,305,38108,2,0,L|72:323,1,65,2|2,0:0|0:0,0:0:0:0:
217,384,38423,1,2,0:0:0:0:
217,384,38581,1,2,0:0:0:0:
253,256,38739,6,0,P|262:326|267:349,1,65,2|2,0:0|0:0,0:0:0:0:
338,360,39055,1,2,0:0:0:0:
512,235,39213,2,0,P|442:244|419:249,1,65,2|2,0:0|0:0,0:0:0:0:
409,311,39529,1,2,0:0:0:0:
480,356,39687,1,2,0:0:0:0:
480,356,39845,1,2,0:0:0:0:
362,237,40002,6,0,P|360:195|351:143,1,65,2|2,0:0|0:0,0:0:0:0:
512,32,40318,1,2,0:0:0:0:
512,32,40397,2,0,P|507:95|506:114,1,65,2|0,0:0|0:0,0:0:0:0:
498,110,40634,1,2,0:0:0:0:
267,10,40792,2,0,L|281:50,1,32.5,0|0,3:0|0:0,0:0:0:0:
415,98,40950,2,0,L|343:77,1,65,8|0,1:0|0:0,0:0:0:0:
192,25,41266,5,4,1:2:0:0:
192,25,41423,1,4,3:0:0:0:
129,69,41581,1,4,1:3:0:0:
129,69,41739,1,4,3:3:0:0:
165,158,41897,1,12,1:3:0:0:
165,158,42055,1,12,3:0:0:0:
112,272,42213,2,0,P|122:327|124:375,1,97.50000371933,12|12,1:3|3:3,0:0:0:0:
1,216,42529,5,8,1:3:0:0:
87,188,42687,1,8,3:0:0:0:
197,333,42845,5,8,1:3:0:0:
283,361,43003,1,8,3:0:0:0:
26,300,43160,5,8,1:3:0:0:
112,272,43318,1,8,3:0:0:0:
246,121,43476,5,8,1:3:0:0:
332,149,43634,1,8,3:3:0:0:
474,173,43792,5,8,3:1:0:0:
434,173,43871,1,4,0:3:0:0:
399,189,43950,1,4,0:3:0:0:
382,224,44029,1,4,0:3:0:0:
390,261,44108,1,8,3:1:0:0:
377,298,44187,1,4,3:3:0:0:
344,319,44266,1,4,3:3:0:0:
305,319,44345,1,4,3:3:0:0:
278,290,44423,2,0,L|287:237,3,48.750001859665,8|12|12|12,3:1|3:3|3:3|3:3,0:0:0:0:
182,202,44739,2,0,L|195:261,3,48.750001859665,8|8|8|8,3:1|3:3|3:3|3:3,0:0:0:0:
130,299,45055,5,4,1:0:0:0:
13,127,45213,2,0,L|8:187,1,48.750001859665,2|0,0:3|0:0,0:0:0:0:
22,140,45371,2,0,L|15:207,1,48.750001859665,2|0,0:3|0:0,0:0:0:0:
30,151,45529,2,0,L|22:209,1,48.750001859665,2|0,0:3|0:0,0:0:0:0:
0,297,45687,6,0,B|109:272|109:272|133:302,1,146.250005578995,0|0,3:2|3:2,0:0:0:0:
159,365,46002,2,0,P|181:310|273:293,1,146.250005578995,12|0,1:1|0:0,0:0:0:0:
318,338,46318,6,0,P|394:324|452:318,1,110.50000210762,4|2,1:0|0:2,0:0:0:0:
510,155,46634,2,0,P|438:137|381:128,1,110.50000210762,8|2,1:0|0:2,0:0:0:0:
345,224,46950,1,0,1:2:0:0:
345,224,47029,1,2,0:2:0:0:
345,224,47108,1,2,0:2:0:0:
512,235,47266,1,8,1:0:0:0:
314,86,47423,2,0,P|325:150|329:172,1,55.2500010538101,12|8,3:3|3:3,0:0:0:0:
433,247,47581,5,4,1:0:0:0:
510,69,47739,2,0,P|427:96|408:134,1,110.50000210762,2|8,0:0|1:0,0:0:0:0:
209,14,48055,1,2,0:2:0:0:
209,14,48134,1,2,0:2:0:0:
209,14,48213,1,2,1:2:0:0:
231,45,48292,1,2,0:0:0:0:
225,83,48371,1,2,0:2:0:0:
193,105,48450,1,2,0:0:0:0:
154,99,48529,2,0,P|67:87|32:116,1,110.50000210762,8|12,1:0|3:3,0:0:0:0:
92,227,48845,5,4,1:0:0:0:
7,347,49002,2,0,P|-5:267|27:225,1,110.50000210762,2|8,0:2|1:0,0:0:0:0:
165,171,49318,1,2,0:2:0:0:
101,308,49476,1,2,1:2:0:0:
30,166,49634,2,0,P|15:78|6:36,1,110.50000210762,2|8,0:2|1:0,0:0:0:0:
191,264,49950,6,0,P|246:274|338:291,1,110.50000210762,12|4,3:0|1:0,0:0:0:0:
427,305,50266,1,2,0:2:0:0:
505,216,50423,1,8,1:0:0:0:
505,216,50502,2,0,P|496:146|492:94,1,110.50000210762,2|2,0:2|0:2,0:0:0:0:
507,88,50739,1,8,1:3:0:0:
391,10,50897,1,8,3:0:0:0:
309,165,51055,2,0,P|387:151|416:107,1,110.50000210762,8|4,1:0|3:0,0:0:0:0:
468,3,51371,5,4,1:0:0:0:
341,82,51529,1,2,0:2:0:0:
415,234,51687,2,0,P|410:296|408:369,1,110.50000210762,8|2,1:0|0:2,0:0:0:0:
408,344,51923,1,2,0:0:0:0:
408,344,52002,1,0,1:0:0:0:
512,292,52160,1,2,0:2:0:0:
316,263,52318,2,0,P|234:254|199:253,1,110.50000210762,8|12,1:0|3:0,0:0:0:0:
105,175,52634,5,4,1:0:0:0:
172,136,52792,2,0,P|197:126|216:106,1,55.2500010538101,2|2,0:2|0:0,0:0:0:0:
2,94,52950,2,0,P|55:125|64:151,1,55.2500010538101,8|2,1:0|0:0,0:0:0:0:
108,253,53108,2,0,P|116:330|120:372,1,110.50000210762,2|0,0:2|1:0,0:0:0:0:
269,173,53423,1,2,0:2:0:0:
342,278,53581,1,8,1:0:0:0:
459,197,53739,1,8,3:0:0:0:
459,197,53818,1,4,3:0:0:0:
459,197,53897,6,0,P|447:266|441:324,1,110.50000210762,4|2,1:0|1:2,0:0:0:0:
175,364,54213,1,8,1:0:0:0:
188,327,54292,1,2,3:2:0:0:
217,302,54371,1,2,1:2:0:0:
253,288,54450,1,0,0:0:0:0:
291,285,54529,1,2,1:2:0:0:
149,229,54687,1,2,1:2:0:0:
37,337,54845,1,8,1:0:0:0:
2,157,55002,1,0,1:0:0:0:
2,157,55081,1,0,1:0:0:0:
2,157,55160,5,4,1:0:0:0:
35,137,55239,1,8,1:3:0:0:
73,129,55318,1,8,1:3:0:0:
110,138,55397,1,12,1:3:0:0:
141,160,55476,1,8,1:0:0:0:
160,193,55555,1,8,1:3:0:0:
188,219,55634,1,4,1:3:0:0:
223,233,55713,1,4,1:3:0:0:
261,227,55792,2,0,L|272:176,2,27.6250005269051,4|0|0,1:0|3:0|1:0,0:0:0:0:
341,182,55950,1,0,1:0:0:0:
512,217,56108,2,0,P|431:231|395:237,1,110.50000210762,8|0,1:0|0:0,0:0:0:0:
179,384,56423,6,0,P|202:375|208:375,1,22.7499993057251,4|2,1:0|0:3,0:0:0:0:
135,305,56739,2,0,L|164:318,1,22.7499993057251,8|2,0:2|0:3,0:0:0:0:
249,166,57134,5,2,0:0:0:0:
249,166,57213,1,2,0:3:0:0:
249,166,57292,1,2,0:0:0:0:
249,166,57371,2,0,L|243:193,1,22.7499993057251,2|2,0:3|0:3,0:0:0:0:
307,233,57687,5,6,0:2:0:0:
372,194,57845,1,2,0:3:0:0:
439,241,58002,1,2,0:3:0:0:
494,157,58160,2,0,L|490:138,4,11.3749996528626,2|2|0|2|2,0:3|0:0|0:0|0:0|0:3,0:0:0:0:
424,117,58634,2,0,L|430:88,1,22.7499993057251,12|0,1:2|0:0,0:0:0:0:
481,4,58950,6,0,P|440:12|429:13,1,45.4999986114502,4|2,1:0|0:3,0:0:0:0:
362,7,59423,2,0,P|361:23|360:32,1,22.7499993057251,2|0,0:3|0:0,0:0:0:0:
304,71,59660,1,2,0:0:0:0:
304,71,59739,1,2,0:3:0:0:
304,71,59818,1,2,0:0:0:0:
304,71,59897,2,0,L|272:71,1,22.7499993057251,2|2,0:3|0:3,0:0:0:0:
232,14,60213,5,2,0:3:0:0:
180,73,60371,1,2,0:3:0:0:
222,139,60529,1,2,0:3:0:0:
145,208,60687,2,0,L|125:206,4,11.3749996528626,2|2|0|2|2,0:3|0:0|0:0|0:0|0:3,0:0:0:0:
225,219,61160,2,0,P|244:218|251:216,1,22.7499993057251,6|0,1:2|0:0,0:0:0:0:
312,174,61476,5,6,1:2:0:0:
335,158,61555,1,4,3:0:0:0:
363,159,61634,1,4,3:0:0:0:
387,172,61713,1,4,3:0:0:0:
401,196,61792,1,4,3:0:0:0:
401,224,61871,1,4,3:0:0:0:
386,248,61950,1,4,3:0:0:0:
359,258,62029,1,4,3:0:0:0:
335,273,62108,1,4,3:0:0:0:
321,298,62187,1,4,3:0:0:0:
318,326,62266,1,4,3:0:0:0:
327,352,62345,1,4,3:0:0:0:
351,366,62423,2,0,L|384:375,3,22.7499993057251,4|4|4|4,3:0|3:0|3:0|3:0,0:0:0:0:
461,254,62739,5,6,1:2:0:0:
441,222,62818,1,12,3:0:0:0:
407,205,62897,1,12,3:0:0:0:
371,204,62976,1,12,3:0:0:0:
336,218,63055,1,12,3:0:0:0:
314,247,63134,1,12,3:0:0:0:
301,281,63213,1,12,3:0:0:0:
274,307,63292,1,12,3:0:0:0:
239,319,63371,1,12,3:0:0:0:
202,316,63450,1,12,3:0:0:0:
168,301,63529,1,12,3:0:0:0:
149,269,63608,1,12,3:0:0:0:
151,232,63687,2,0,L|163:184,3,35.7500010910034,12|12|12|12,3:0|3:0|3:0|3:0,0:0:0:0:
202,136,64002,6,0,L|192:85,1,35.7500010910034,6|8,1:2|3:3,0:0:0:0:
239,39,64160,2,0,L|227:-8,1,35.7500010910034,8|8,1:3|3:0,0:0:0:0:
294,115,64318,6,0,L|284:166,1,35.7500010910034,8|8,1:3|3:0,0:0:0:0:
331,212,64476,2,0,L|319:259,1,35.7500010910034,8|8,1:3|3:0,0:0:0:0:
381,135,64634,6,0,L|371:84,1,35.7500010910034,6|8,1:2|3:0,0:0:0:0:
418,38,64792,2,0,L|406:-9,1,35.7500010910034,8|8,1:3|3:0,0:0:0:0:
468,111,64950,6,0,L|458:162,1,35.7500010910034,8|8,1:3|3:0,0:0:0:0:
505,208,65108,2,0,L|493:255,1,35.7500010910034,8|8,1:3|3:0,0:0:0:0:
512,321,65266,6,0,L|483:331,14,17.8750005455017,6|8|8|8|8|8|8|8|8|8|8|8|8|8|8,1:2|3:3|1:3|3:3|1:3|3:3|1:3|3:3|1:3|3:3|1:3|3:3|1:3|3:3|1:3,0:0:0:0:
405,341,65897,6,0,P|381:304|306:289,1,107.25000327301,4|8,1:0|3:2,0:0:0:0:
270,221,66213,6,0,P|286:302|298:384,1,165.75000316143,12|0,1:0|0:0,0:0:0:0:
222,365,66529,5,4,1:0:0:0:
12,109,66845,1,6,1:2:0:0:
12,109,66923,1,2,0:0:0:0:
12,109,67002,1,2,0:0:0:0:
125,153,67160,6,0,P|207:120|219:80,1,110.50000210762,6|0,1:2|0:0,0:0:0:0:
321,0,67397,2,0,P|297:49|302:136,1,110.50000210762,6|0,1:2|0:0,0:0:0:0:
344,163,67634,2,0,P|449:145|536:135,1,165.75000316143,6|0,1:2|0:0,0:0:0:0:
482,57,67950,6,0,P|418:67|400:74,1,55.2500010538101,6|0,1:2|0:0,0:0:0:0:
405,259,68108,2,0,P|329:243|218:225,1,165.75000316143,6|12,1:2|1:0,0:0:0:0:
162,241,68423,2,0,P|174:285|178:310,1,55.2500010538101
252,309,68581,6,0,L|293:317,2,27.6250005269051,0|0|0,1:0|0:0|0:0,0:0:0:0:
49,271,68739,1,12,1:0:0:0:
49,271,69055,6,0,P|78:178|147:168,1,165.75000316143,6|8,1:2|0:3,0:0:0:0:
202,114,69371,2,0,B|225:146|226:163|226:163|349:140,1,165.75000316143,6|4,1:2|0:3,0:0:0:0:
409,115,69687,2,0,B|429:14|429:14|503:-4,2,165.75000316143,12|0|4,1:0|1:0|1:2,0:0:0:0:
485,195,70318,5,2,3:2:0:0:
430,202,70397,1,2,3:2:0:0:
386,236,70476,1,2,1:2:0:0:
375,290,70555,1,2,3:2:0:0:
397,340,70634,1,6,1:2:0:0:
312,360,70792,1,8,3:0:0:0:
312,360,70871,1,4,3:0:0:0:
312,360,70950,2,0,P|232:349|123:331,2,165.75000316143,12|4|4,1:0|1:2|1:2,0:0:0:0:
472,310,71581,6,0,L|460:240,3,55.2500010538101,4|2|2|2,1:0|3:2|3:2|3:2,0:0:0:0:
512,131,71897,2,0,L|489:199,1,55.2500010538101,6|0,1:2|0:0,0:0:0:0:
398,217,72055,2,0,L|304:198,1,55.2500010538101,2|0,3:2|0:0,0:0:0:0:
258,254,72213,2,0,P|180:184|114:200,2,165.75000316143,12|6|6,1:0|1:2|1:2,0:0:0:0:
312,131,72845,6,0,P|326:34|335:-6,1,110.50000210762,6|6,0:0|1:2,0:0:0:0:
328,21,73081,1,2,3:2:0:0:
328,21,73160,1,6,1:2:0:0:
237,74,73318,1,2,0:0:0:0:
237,74,73397,1,6,1:2:0:0:
373,130,73555,6,0,L|294:158,1,55.2500010538101,2|6,0:0|1:2,0:0:0:0:
168,23,73792,2,0,L|28:-7,1,110.50000210762,4|0,1:0|0:0,0:0:0:0:
8,137,74108,6,0,L|-3:170,2,27.6250005269051,8|0|8,1:3|3:0|3:3,0:0:0:0:
72,194,74266,2,0,L|75:237,2,27.6250005269051,8|0|0,3:3|0:0|0:0,0:0:0:0:
217,360,74423,6,0,L|195:320,2,27.6250005269051,8|0|8,1:3|3:0|3:3,0:0:0:0:
270,295,74581,2,0,L|278:258,2,27.6250005269051,8|0|0,3:3|0:0|0:0,0:0:0:0:
352,298,74739,2,0,L|523:261,2,165.75000316143,12|12|4,1:3|1:3|1:3,0:0:0:0:
196,238,75371,6,0,L|201:270,2,27.6250005269051,4|0|4,1:3|3:0|3:0,0:0:0:0:
7,196,75529,1,6,1:2:0:0:
7,196,75608,1,0,0:0:0:0:
7,196,75687,6,0,P|74:206|124:215,1,110.50000210762,6|6,1:2|3:2,0:0:0:0:
175,160,75923,1,0,1:0:0:0:
162,80,76002,6,0,P|76:64|0:48,2,165.75000316143,4|12|4,1:0|3:0|1:3,0:0:0:0:
237,57,76555,1,4,1:3:0:0:
296,108,76634,6,0,P|421:100|450:1,2,221.000004215241,4|6|12,1:0|1:2|1:0,0:0:0:0:
498,296,77423,1,2,0:3:0:0:
471,247,77502,1,6,1:2:0:0:
424,217,77581,1,0,0:0:0:0:
368,216,77660,1,2,0:3:0:0:
316,235,77739,1,4,1:3:0:0:
247,343,77897,5,6,3:2:0:0:
24,267,78055,1,6,1:2:0:0:
24,267,78134,1,2,3:0:0:0:
24,267,78213,2,0,L|14:228,2,27.6250005269051,4|0|0,1:0|0:0|0:0,0:0:0:0:
128,206,78371,2,0,P|122:233|111:258,1,55.2500010538101,2|2,0:0|1:2,0:0:0:0:
0,384,78529,2,0,P|45:348|108:350,1,110.50000210762,12|8,1:0|1:3,0:0:0:0:
174,318,78766,1,12,3:0:0:0:
174,318,78845,6,0,P|239:326|268:331,2,73.6666680717469,12|0|0,3:0|0:0|0:0,0:0:0:0:
319,375,79160,6,0,P|340:266|369:160,2,221.000004215241,4|6|12,1:0|1:2|1:0,0:0:0:0:
444,257,79950,1,2,0:0:0:0:
444,257,80029,1,6,1:2:0:0:
444,257,80108,2,0,P|426:178|420:152,1,55.2500010538101,0|2,0:0|0:0,0:0:0:0:
506,322,80266,1,6,1:2:0:0:
506,322,80345,1,2,3:2:0:0:
506,322,80423,1,2,3:0:0:0:
408,376,80581,1,4,1:0:0:0:
314,260,80739,2,0,P|327:168|337:127,1,110.50000210762,6|2,1:2|0:0,0:0:0:0:
331,151,80976,1,2,1:3:0:0:
331,151,81055,6,0,P|271:131|199:117,1,110.50000210762,12|4,1:0|3:0,0:0:0:0:
181,132,81292,1,4,1:3:0:0:
148,161,81371,1,12,3:0:0:0:
142,204,81450,1,12,3:0:0:0:
159,244,81529,1,8,1:3:0:0:
44,320,81687,6,0,P|144:307|152:307,1,55.2500010538101,4|0,1:0|0:0,0:0:0:0:
236,245,81845,2,0,P|299:255|322:262,1,55.2500010538101,2|0,1:2|0:0,0:0:0:0:
232,384,82002,1,6,1:2:0:0:
429,300,82160,1,0,0:0:0:0:
429,300,82239,1,8,3:0:0:0:
429,300,82318,2,0,P|422:230|416:117,2,165.75000316143,12|6|0,1:0|1:2|1:0,0:0:0:0:
358,330,82871,1,0,1:0:0:0:
358,330,82950,5,4,1:0:0:0:
201,237,83108,1,6,1:2:0:0:
26,361,83266,1,0,1:0:0:0:
78,246,83423,1,0,0:0:0:0:
78,246,83502,1,0,1:0:0:0:
78,246,83581,2,0,P|64:156|55:112,1,110.50000210762,12|6,1:0|1:2,0:0:0:0:
173,64,83897,1,4,1:0:0:0:
330,236,84055,1,6,1:2:0:0:
330,236,84134,1,0,1:0:0:0:
330,236,84213,6,0,P|383:189|495:199,1,165.75000316143,4|4,1:0|1:0,0:0:0:0:
490,206,84529,1,8,1:0:0:0:
288,0,84687,1,8,1:3:0:0:
288,0,84766,1,12,1:3:0:0:
288,0,84845,1,12,1:3:0:0:
254,133,85002,1,4,1:3:0:0:
217,49,85160,1,8,1:0:0:0:
244,223,85318,1,4,1:3:0:0:
244,223,85397,1,12,1:3:0:0:
244,223,85476,6,0,B|255:332|224:284|244:400,2,165.75000316143,4|8|8,1:0|3:0|3:0,0:0:0:0:
162,238,86029,1,8,3:0:0:0:
162,238,86108,2,0,L|169:314,1,55.2500010538101,12|12,1:0|3:0,0:0:0:0:
319,344,86266,2,0,L|329:273,1,55.2500010538101,4|0,3:0|0:0,0:0:0:0:
144,152,86423,2,0,P|89:159|31:256,1,165.75000316143,12|0,1:0|0:0,0:0:0:0:
2,327,86739,6,0,L|96:312,1,68.2499979171754,4|0,1:0|0:0,0:0:0:0:
234,384,86897,2,0,L|244:310,1,68.2499979171754,2|0,1:2|0:0,0:0:0:0:
389,186,87055,2,0,B|439:204|439:204|460:309,1,136.499995834351,12|2,1:0|3:2,0:0:0:0:
403,342,87292,1,0,1:0:0:0:
403,342,87371,6,0,L|320:322,1,68.2499979171754
236,120,87529,2,0,L|152:135,1,68.2499979171754,8|2,1:3|3:0,0:0:0:0:
204,235,87687,1,4,1:0:0:0:
327,136,87845,1,2,1:3:0:0:
327,136,87924,1,0,3:0:0:0:
327,136,88002,6,0,P|316:64|304:-7,1,136.499995834351,4|12,3:0|1:3,0:0:0:0:
498,143,88318,2,0,B|378:130|437:253|297:224,1,204.749993751526,12|0,1:0|3:2,0:0:0:0:
253,197,88634,1,0,1:2:0:0:
248,244,88713,1,0,3:2:0:0:
243,291,88792,1,0,1:2:0:0:
239,338,88871,1,0,1:2:0:0:
239,338,88950,1,8,1:0:0:0:
17,75,89266,6,0,P|118:69|153:64,1,136.499995834351,4|0,1:0|1:0,0:0:0:0:
152,64,89502,1,0,1:0:0:0:
152,64,89581,2,0,P|138:144|138:168,1,68.2499979171754,8|0,1:0|0:0,0:0:0:0:
376,305,89739,2,0,P|357:221|343:196,1,68.2499979171754,0|0,1:0|0:0,0:0:0:0:
346,145,89897,6,0,L|257:166,1,68.2499979171754,0|0,3:0|0:0,0:0:0:0:
133,218,90055,1,0,1:0:0:0:
166,252,90134,1,0,1:0:0:0:
210,235,90213,2,0,L|310:264,1,68.2499979171754,8|0,1:0|0:0,0:0:0:0:
248,88,90371,2,0,L|262:177,1,68.2499979171754,0|0,3:0|0:0,0:0:0:0:
312,367,90529,6,0,P|375:302|422:316,2,90.9999972229005,2|2|2,3:2|3:2|3:2,0:0:0:0:
417,368,90845,2,0,P|459:307|446:226,1,136.499995834351,8|8,1:0|3:3,0:0:0:0:
470,76,91160,6,0,P|487:21|515:-4,1,68.2499979171754,12|0,1:3|0:0,0:0:0:0:
266,69,91318,6,0,P|326:110|343:141,1,68.2499979171754,4|0,3:3|0:0,0:0:0:0:
485,166,91476,2,0,P|409:180|377:241,1,136.499995834351,8|0,1:0|0:0,0:0:0:0:
293,376,91792,5,4,1:0:0:0:
246,298,91950,1,0,1:0:0:0:
246,298,92029,1,0,1:0:0:0:
246,298,92108,2,0,B|123:294|197:358|48:351,1,204.749993751526,8|0,1:0|3:0,0:0:0:0:
93,264,92423,2,0,P|71:211|-16:188,1,136.499995834351,6|0,3:2|1:0,0:0:0:0:
0,199,92660,2,0,P|5:264|18:303,1,68.2499979171754,4|8,3:1|1:0,0:0:0:0:
113,139,92897,1,0,1:0:0:0:
113,139,92976,1,0,3:0:0:0:
113,139,93055,5,6,1:2:0:0:
160,133,93134,1,0,3:0:0:0:
207,128,93213,1,0,3:0:0:0:
254,123,93292,1,0,3:0:0:0:
301,118,93371,1,8,1:0:0:0:
491,10,93529,1,0,1:0:0:0:
491,10,93608,1,2,3:2:0:0:
491,10,93687,1,2,3:2:0:0:
497,57,93766,1,2,3:2:0:0:
502,104,93845,1,0,1:0:0:0:
507,151,93924,1,0,1:0:0:0:
512,198,94003,1,8,1:0:0:0:
512,198,94318,6,0,P|425:210|393:280,1,136.499995834351,4|0,1:0|1:0,0:0:0:0:
329,196,94555,1,0,3:0:0:0:
313,196,94634,2,0,P|330:281|358:295,1,68.2499979171754,8|0,1:0|0:0,0:0:0:0:
505,373,94792,2,0,P|457:311|420:316,1,68.2499979171754,0|0,3:0|3:0,0:0:0:0:
228,250,94950,6,0,P|162:265|135:294,1,68.2499979171754,6|0,3:2|0:0,0:0:0:0:
413,380,95108,1,0,3:0:0:0:
413,380,95187,1,0,1:0:0:0:
413,380,95266,2,0,P|389:320|360:304,1,68.2499979171754,8|0,1:0|0:0,0:0:0:0:
128,182,95423,2,0,P|80:241|77:290,1,68.2499979171754,0|0,1:0|0:0,0:0:0:0:
0,371,95581,6,0,P|101:356|160:349,1,136.499995834351,4|0,1:0|1:0,0:0:0:0:
220,359,95818,1,0,3:0:0:0:
234,349,95897,2,0,P|246:246|266:121,1,204.749993751526,8|0,1:0|0:0,0:0:0:0:
268,73,96213,6,0,B|276:57|262:50|262:50|270:63|270:63|258:40|253:-19,2,90.9999972229005,6|2|2,1:2|1:2|1:2,0:0:0:0:
343,6,96529,5,10,0:0:0:0:
425,0,96634,5,10,0:0:0:0:
444,72,96739,5,10,0:0:0:0:
434,100,96845,6,0,P|390:157|406:243,1,136.499995834351,4|2,1:0|0:2,0:0:0:0:
512,384,97160,2,0,P|405:321|374:328,1,136.499995834351,8|2,1:0|0:2,0:0:0:0:
41,252,97476,2,0,P|150:264|268:290,1,204.749993751526,2|2,1:2|0:0,0:0:0:0:
313,318,97792,2,0,P|338:216|307:179,1,136.499995834351,8|2,1:0|3:2,0:0:0:0:
248,175,98029,1,2,3:2:0:0:
248,175,98108,6,0,P|242:89|302:65,1,136.499995834351,0|2,1:0|0:0,0:0:0:0:
431,106,98423,1,8,1:0:0:0:
322,221,98581,1,2,0:0:0:0:
372,40,98739,1,0,1:0:0:0:
470,184,98897,5,2,0:0:0:0:
204,101,99055,2,0,P|130:81|62:66,1,136.499995834351,8|2,1:0|3:2,0:0:0:0:
0,384,99371,6,0,P|135:338|135:199,1,272.999991668701,4|8,1:0|1:0,0:0:0:0:
11,169,99845,1,2,0:0:0:0:
11,169,99923,1,2,0:0:0:0:
11,169,100002,1,0,1:0:0:0:
51,143,100081,1,2,3:2:0:0:
98,148,100160,1,2,3:2:0:0:
140,126,100239,1,2,3:2:0:0:
187,123,100318,1,8,1:0:0:0:
271,61,100476,1,0,3:0:0:0:
378,154,100634,5,0,1:0:0:0:
509,10,100792,1,2,0:0:0:0:
509,10,100871,1,2,0:0:0:0:
509,10,100950,2,0,P|432:35|408:107,1,136.499995834351,8|0,1:0|3:0,0:0:0:0:
495,319,101266,6,0,P|472:244|464:224,2,90.9999972229005,2|2|2,1:2|3:2|3:2,0:0:0:0:
422,357,101581,1,12,1:0:0:0:
235,308,101739,1,0,3:0:0:0:
235,308,101818,1,0,0:0:0:0:
235,308,101897,5,4,1:0:0:0:
208,268,101976,1,2,0:0:0:0:
162,253,102055,1,2,0:0:0:0:
120,277,102134,1,2,0:0:0:0:
72,283,102213,1,8,1:0:0:0:
29,261,102292,1,2,0:0:0:0:
12,216,102371,1,2,0:0:0:0:
27,170,102450,1,2,0:0:0:0:
70,149,102529,1,0,1:0:0:0:
116,161,102608,1,2,0:0:0:0:
162,148,102687,1,2,0:0:0:0:
185,106,102766,1,2,0:0:0:0:
176,58,102845,1,8,1:0:0:0:
208,23,102923,1,2,0:0:0:0:
255,19,103002,1,2,0:0:0:0:
292,48,103081,1,2,0:0:0:0:
303,94,103160,6,0,L|281:173,3,68.2499979171754,0|2|2|2,1:0|0:0|0:0|0:0,0:0:0:0:
380,143,103476,2,0,L|394:225,3,68.2499979171754,8|2|2|2,1:0|0:0|0:0|0:0,0:0:0:0:
497,273,103792,6,0,P|402:289|274:337,1,204.749993751526,0|2,1:0|0:0,0:0:0:0:
219,350,104108,2,0,P|156:321|113:322,1,68.2499979171754,8|2,1:0|0:0,0:0:0:0:
118,97,104266,2,0,P|36:142|32:150,1,68.2499979171754,2|2,0:0|0:0,0:0:0:0:
26,192,104423,5,4,1:0:0:0:
330,127,104581,1,6,3:2:0:0:
209,64,104739,5,0,1:0:0:0:
209,64,104818,1,0,3:0:0:0:
209,64,104897,1,6,3:2:0:0:
318,221,105055,5,0,1:0:0:0:
482,82,105213,2,0,P|494:166|515:300,1,204.749993751526,6|0,3:2|3:0,0:0:0:0:
485,359,105529,2,0,L|396:336,1,68.2499979171754,6|0,3:2|0:0,0:0:0:0:
128,254,105687,5,8,0:1:0:0:
256,192,105766,12,0,106792,0:0:0:0:
0,346,106950,6,0,P|48:326|105:323,1,97.50000371933,4|0,1:0|0:0,0:0:0:0:
74,235,107423,2,0,P|149:245|181:260,1,97.50000371933
253,273,107897,2,0,P|256:219|258:207,1,48.750001859665
339,218,108213,6,0,P|373:161|458:158,2,146.250005578995
238,128,109476,6,0,P|195:91|140:87,1,97.50000371933
143,6,109950,2,0,P|94:30|71:84,1,97.50000371933
69,146,110423,2,0,L|12:154,1,48.750001859665
0,267,110739,6,0,B|91:268|33:312|154:320,2,146.250005578995
246,360,112002,6,0,P|232:283|224:249,1,97.50000371933
306,239,112476,2,0,P|311:182|321:140,1,97.50000371933
223,165,112950,2,0,P|210:116|208:112,1,48.750001859665
263,45,113266,6,0,P|315:10|404:26,2,146.250005578995
192,50,114292,1,0,0:0:0:0:
178,42,114371,2,0,L|171:4,1,24.3750009298325
94,0,114529,6,0,P|90:44|89:58,1,48.750001859665,0|2,0:0|0:0,0:0:0:0:
95,64,114766,1,2,0:0:0:0:
86,78,114845,1,2,0:0:0:0:
59,76,114923,1,2,0:0:0:0:
42,97,115002,1,2,0:0:0:0:
35,123,115081,1,2,0:0:0:0:
39,149,115160,1,2,0:0:0:0:
52,172,115239,1,2,0:0:0:0:
76,183,115318,1,2,0:0:0:0:
92,204,115397,1,2,0:0:0:0:
95,230,115476,1,2,0:0:0:0:
91,256,115555,1,2,0:0:0:0:
76,278,115634,1,2,0:0:0:0:
51,288,115713,1,2,0:0:0:0:
12,280,115792,5,4,1:0:0:0:
280,206,115950,1,6,1:2:0:0:
280,206,116266,2,0,L|274:238,1,24.3750009298325,6|0,1:2|0:0,0:0:0:0:
341,268,116423,6,0,P|374:259|442:242,1,81.25,0|0,0:0|1:0,0:0:0:0:
430,255,116660,1,0,3:0:0:0:
474,248,116739,1,12,1:0:0:0:
500,156,117055,6,0,L|430:145,1,40.625,4|2,1:0|0:0,0:0:0:0:
405,98,117213,2,0,L|358:110,1,40.625,0|2,3:0|0:0,0:0:0:0:
250,0,117371,2,0,L|239:70,1,40.625,0|2,1:0|0:0,0:0:0:0:
192,95,117529,2,0,L|204:142,1,40.625,0|2,3:0|0:0,0:0:0:0:
152,222,117687,5,0,1:0:0:0:
123,187,117766,1,2,0:0:0:0:
79,175,117845,1,0,3:0:0:0:
35,182,117923,1,2,0:0:0:0:
0,210,118002,1,2,0:1:0:0:
0,210,118318,5,12,1:0:0:0:
21,249,118397,1,2,0:0:0:0:
61,268,118476,1,0,3:0:0:0:
105,261,118555,1,2,0:0:0:0:
138,231,118634,1,0,1:0:0:0:
181,220,118713,1,2,0:0:0:0:
223,232,118792,1,0,3:0:0:0:
254,263,118871,1,2,0:0:0:0:
264,306,118950,2,0,L|246:369,1,40.625,0|2,1:0|0:0,0:0:0:0:
324,370,119108,2,0,L|399:350,1,40.625,0|2,3:0|0:0,0:0:0:0:
440,384,119266,6,0,P|451:313|456:274,1,81.25,8|12,1:3|3:0,0:0:0:0:
510,188,119581,6,0,L|451:198,1,40.625,12|0,1:0|0:0,0:0:0:0:
413,148,119739,2,0,L|356:141,1,40.625,0|0,1:0|0:0,0:0:0:0:
202,144,119897,6,0,L|214:92,1,40.625,0|0,1:0|0:0,0:0:0:0:
250,39,120055,2,0,L|236:-28,1,40.625,0|0,1:0|0:0,0:0:0:0:
277,197,120213,5,0,1:0:0:0:
236,216,120292,1,2,0:0:0:0:
216,256,120371,1,0,3:0:0:0:
220,300,120450,1,2,0:0:0:0:
244,337,120529,1,2,0:0:0:0:
320,303,120687,1,2,0:0:0:0:
153,187,120845,5,12,1:0:0:0:
130,149,120923,1,0,0:0:0:0:
88,132,121002,1,0,1:0:0:0:
43,138,121081,1,0,0:0:0:0:
10,168,121160,2,0,P|16:237|19:274,1,81.25,2|2,0:0|0:0,0:0:0:0:
149,55,121476,5,12,1:0:0:0:
172,17,121554,1,0,0:0:0:0:
214,0,121633,1,0,1:0:0:0:
259,6,121712,1,0,0:0:0:0:
292,36,121792,2,0,L|288:94,1,40.625,2|0,0:0|0:0,0:0:0:0:
373,44,121950,2,0,L|368:92,1,40.625,2|0,0:0|0:0,0:0:0:0:
458,66,122108,5,0,1:3:0:0:
487,99,122187,1,4,1:3:0:0:
484,143,122266,1,4,1:3:0:0:
461,181,122345,1,4,1:3:0:0:
419,197,122423,1,4,1:3:0:0:
376,183,122502,1,4,1:3:0:0:
338,159,122581,1,4,1:3:0:0:
293,162,122660,1,4,1:3:0:0:
255,185,122739,1,4,1:3:0:0:
231,223,122818,1,4,1:3:0:0:
231,267,122897,1,4,1:3:0:0:
215,308,122976,1,4,1:3:0:0:
176,329,123055,1,4,1:3:0:0:
131,332,123134,1,4,1:3:0:0:
90,312,123213,1,4,1:3:0:0:
69,272,123292,1,4,1:3:0:0:
80,227,123371,6,0,L|92:176,3,40.625,12|12|12|12,1:3|1:3|1:3|1:3,0:0:0:0:
80,111,123687,2,0,L|65:39,3,40.625,12|12|12|12,1:3|1:3|1:3|1:3,0:0:0:0:
142,17,124002,1,8,1:3:0:0:
161,21,124081,1,8,1:3:0:0:
180,25,124160,1,8,1:3:0:0:
199,29,124239,1,8,1:3:0:0:
219,38,124318,2,0,L|211:85,3,40.625,8|8|8|8,1:3|1:3|1:3|1:3,0:0:0:0:
297,25,124634,6,0,L|292:-3,14,20.3125,8|8|8|8|8|8|8|8|8|8|8|8|8|8|8,1:3|1:3|1:3|1:3|1:3|1:3|1:3|1:3|1:3|1:3|1:3|1:3|1:3|1:3|1:3,0:0:0:0:
385,21,125266,6,0,L|424:26,1,20.3125,8|8,1:3|1:3,0:0:0:0:
389,32,125345,6,0,L|415:40,1,20.3125,8|8,1:3|1:3,0:0:0:0:
393,43,125423,6,0,L|414:42,1,20.3125,8|8,1:3|1:3,0:0:0:0:
397,60,125502,6,0,L|423:50,1,20.3125,8|8,1:3|1:3,0:0:0:0:
405,69,125581,6,0,L|433:76,1,20.3125,8|8,1:3|1:3,0:0:0:0:
412,86,125660,6,0,L|444:78,1,20.3125,8|8,1:3|1:3,0:0:0:0:
420,98,125739,6,0,L|444:98,1,20.3125,8|8,1:3|1:3,0:0:0:0:
427,112,125818,6,0,L|464:118,1,20.3125,8|8,1:3|1:3,0:0:0:0:
432,126,125897,6,0,L|517:140,1,81.25,6|2,1:2|0:0,0:0:0:0:
496,213,126134,1,0,0:0:0:0:
500,295,126213,2,0,L|404:278,1,58.4999982147217,2|0,0:0|0:0,0:0:0:0:
270,197,126371,2,0,L|262:268,1,58.4999982147217,2|0,0:0|0:0,0:0:0:0:
345,372,126529,2,0,L|413:356,1,58.4999982147217,2|0,0:0|0:0,0:0:0:0:
407,201,126687,6,0,L|338:217,1,58.4999982147217
168,237,126845,2,0,B|106:212|106:212|133:81,1,175.499994644165,12|0,1:0|0:0,0:0:0:0:
213,80,127160,5,6,1:0:0:0:
213,80,127239,1,2,0:0:0:0:
213,80,127318,2,0,L|322:55,1,58.4999982147217,2|2,0:0|0:0,0:0:0:0:
454,8,127476,2,0,B|504:40|504:40|473:180,1,175.499994644165,8|2,1:0|0:0,0:0:0:0:
418,214,127792,1,0,1:0:0:0:
384,181,127871,1,2,0:0:0:0:
337,173,127950,1,2,0:0:0:0:
292,186,128029,1,2,0:0:0:0:
261,221,128108,1,8,1:0:0:0:
245,265,128187,1,2,0:0:0:0:
205,289,128266,1,2,0:0:0:0:
158,292,128345,1,2,0:0:0:0:
118,268,128423,6,0,L|102:198,2,58.4999982147217,0|2|2,1:0|0:0|0:0,0:0:0:0:
177,175,128660,2,0,L|189:101,2,58.4999982147217,2|8|2,0:0|1:0|0:0,0:0:0:0:
74,70,128897,2,0,L|95:165,1,58.4999982147217,2|2,0:0|0:0,0:0:0:0:
267,181,129055,1,8,1:3:0:0:
298,215,129134,1,8,3:3:0:0:
344,223,129213,1,12,3:3:0:0:
388,207,129292,1,12,3:3:0:0:
414,168,129371,1,8,1:0:0:0:
398,123,129450,1,4,3:3:0:0:
382,78,129529,1,4,3:3:0:0:
403,36,129608,1,0,3:0:0:0:
446,18,129687,6,0,B|492:42|492:42|470:130,1,116.999996429443,4|2,1:0|0:0,0:0:0:0:
507,186,129923,1,2,0:0:0:0:
507,186,130002,2,0,L|426:207,1,58.4999982147217,8|2,1:0|0:0,0:0:0:0:
448,369,130160,2,0,L|377:350,1,58.4999982147217,2|2,0:0|0:0,0:0:0:0:
305,302,130318,5,0,1:0:0:0:
280,262,130397,1,2,0:0:0:0:
285,215,130476,1,2,0:0:0:0:
320,184,130555,1,2,0:0:0:0:
366,184,130634,1,8,1:0:0:0:
202,363,130792,1,2,0:0:0:0:
202,363,130871,1,2,0:0:0:0:
202,363,130950,6,0,P|148:360|119:353,2,58.4999982147217,0|2|2,3:0|0:0|0:0,0:0:0:0:
140,262,131187,2,0,P|110:272|67:292,2,58.4999982147217,2|8|2,0:0|1:0|0:0,0:0:0:0:
16,329,131423,2,0,L|-1:262,1,58.4999982147217,2|2,0:0|0:0,0:0:0:0:
14,144,131581,1,8,1:3:0:0:
50,114,131660,1,2,0:0:0:0:
96,107,131739,1,12,3:3:0:0:
138,127,131818,1,2,0:0:0:0:
169,161,131897,1,8,1:0:0:0:
211,181,131976,1,2,0:0:0:0:
256,168,132055,2,0,L|339:152,1,58.4999982147217,4|2,3:3|0:0,0:0:0:0:
501,106,132213,6,0,P|443:141|447:266,1,175.499994644165,4|2,1:0|0:0,0:0:0:0:
360,280,132529,2,0,P|298:245|269:252,1,58.4999982147217,8|2,1:0|0:0,0:0:0:0:
65,281,132687,1,2,0:0:0:0:
65,281,132766,1,2,0:0:0:0:
65,281,132845,2,0,P|136:268|176:212,1,116.999996429443,0|2,1:0|0:0,0:0:0:0:
387,98,133160,2,0,P|364:13|300:-10,1,116.999996429443,8|2,1:0|0:0,0:0:0:0:
270,11,133397,1,2,0:0:0:0:
201,36,133476,6,0,P|197:117|258:173,1,116.999996429443,0|2,1:0|0:0,0:0:0:0:
512,358,133792,2,0,B|436:343|470:392|397:373,1,116.999996429443,8|2,1:0|0:0,0:0:0:0:
387,379,134029,1,2,0:0:0:0:
344,359,134108,1,4,1:3:0:0:
337,312,134187,1,4,3:3:0:0:
370,279,134266,1,4,3:3:0:0:
411,257,134345,1,12,3:3:0:0:
415,210,134423,1,8,1:0:0:0:
402,164,134502,1,12,3:3:0:0:
366,133,134581,1,8,3:3:0:0:
319,130,134660,1,8,3:3:0:0:
283,159,134739,6,0,P|173:179|142:179,1,116.999996429443,4|2,1:0|0:0,0:0:0:0:
156,171,134976,1,2,0:0:0:0:
122,138,135055,1,8,1:0:0:0:
75,145,135134,1,2,0:0:0:0:
39,176,135213,1,2,0:0:0:0:
31,222,135292,1,2,0:0:0:0:
48,265,135371,1,0,1:0:0:0:
82,296,135450,1,2,0:0:0:0:
128,304,135529,1,2,0:0:0:0:
171,286,135608,1,2,0:0:0:0:
207,256,135687,1,8,1:0:0:0:
253,257,135766,1,2,0:0:0:0:
290,285,135845,1,2,0:0:0:0:
299,330,135923,1,2,0:0:0:0:
329,365,136002,6,0,P|411:360|474:338,1,116.999996429443,2|2,1:2|3:2,0:0:0:0:
497,143,136318,2,0,P|462:150|427:169,1,58.4999982147217,8|2,1:0|0:0,0:0:0:0:
306,52,136476,2,0,P|325:84|324:107,1,58.4999982147217,2|2,3:2|0:0,0:0:0:0:
273,177,136634,2,0,P|197:143|139:131,1,116.999996429443,8|12,1:3|1:3,0:0:0:0:
100,177,136871,1,4,3:0:0:0:
119,253,136950,2,0,P|195:287|254:297,1,116.999996429443,8|0,1:0|0:0,0:0:0:0:
496,338,137266,6,0,L|480:263,1,58.4999982147217,6|2,1:0|0:0,0:0:0:0:
373,117,137423,2,0,L|392:194,1,58.4999982147217,2|2,0:0|0:0,0:0:0:0:
301,278,137581,2,0,L|436:242,1,116.999996429443,8|2,1:0|0:0,0:0:0:0:
466,107,137897,1,0,1:0:0:0:
455,61,137976,1,2,0:0:0:0:
415,35,138055,1,2,0:0:0:0:
368,30,138134,1,2,0:0:0:0:
323,43,138213,1,8,1:0:0:0:
296,81,138292,1,2,0:0:0:0:
274,122,138371,1,2,0:0:0:0:
231,141,138450,1,2,0:0:0:0:
184,136,138529,6,0,L|163:56,2,58.4999982147217,0|2|2,1:0|0:0|0:0,0:0:0:0:
101,30,138766,2,0,L|36:6,2,58.4999982147217,2|8|2,0:0|1:0|0:0,0:0:0:0:
230,19,139002,2,0,L|285:-24,1,58.4999982147217,2|2,0:0|0:0,0:0:0:0:
95,117,139160,1,8,1:3:0:0:
95,117,139239,1,8,3:3:0:0:
95,117,139318,2,0,L|14:86,1,58.4999982147217,12|12,3:3|3:3,0:0:0:0:
257,104,139476,1,8,1:0:0:0:
292,134,139555,1,4,3:3:0:0:
338,139,139634,1,4,3:3:0:0:
382,123,139713,1,4,3:3:0:0:
401,80,139792,6,0,L|387:19,2,58.4999982147217,0|2|2,1:0|0:0|0:0,0:0:0:0:
478,127,140029,2,0,L|494:70,2,58.4999982147217,2|8|2,0:0|1:0|0:0,0:0:0:0:
512,207,140266,2,0,L|449:218,1,58.4999982147217,2|2,0:0|0:0,0:0:0:0:
389,265,140423,5,0,1:0:0:0:
365,228,140502,1,2,0:0:0:0:
321,209,140581,1,2,0:0:0:0:
275,218,140660,1,2,0:0:0:0:
236,244,140739,1,8,1:0:0:0:
231,290,140818,1,2,0:0:0:0:
205,328,140897,1,2,0:0:0:0:
159,338,140976,1,2,0:0:0:0:
112,333,141055,1,0,1:0:0:0:
80,298,141134,1,2,0:0:0:0:
72,251,141213,1,2,0:0:0:0:
96,211,141292,1,2,0:0:0:0:
140,197,141371,1,8,1:0:0:0:
181,175,141450,1,2,0:0:0:0:
200,132,141529,1,2,0:0:0:0:
200,85,141608,1,2,0:0:0:0:
179,43,141687,1,8,1:3:0:0:
141,15,141766,1,2,0:0:0:0:
94,16,141845,1,12,3:3:0:0:
52,37,141923,1,2,0:0:0:0:
34,80,142002,2,0,L|45:154,1,58.4999982147217,8|2,1:0|0:0,0:0:0:0:
141,220,142160,2,0,L|153:286,1,58.4999982147217,4|2,3:3|0:0,0:0:0:0:
284,384,142318,6,0,P|380:349|509:333,1,175.499994644165,4|2,1:0|0:0,0:0:0:0:
500,275,142634,1,8,1:0:0:0:
321,98,142792,1,2,0:0:0:0:
321,98,142871,1,2,0:0:0:0:
321,98,142950,2,0,P|342:205|345:237,1,116.999996429443,0|2,1:0|0:0,0:0:0:0:
484,91,143266,2,0,P|462:161|461:173,1,58.4999982147217,8|2,1:0|0:0,0:0:0:0:
264,248,143423,2,0,P|245:171|241:164,1,58.4999982147217,2|2,0:0|0:0,0:0:0:0:
170,136,143581,5,0,1:0:0:0:
387,316,143739,2,0,P|347:306|330:300,1,58.4999982147217,2|2,0:0|0:0,0:0:0:0:
68,258,143897,2,0,P|141:246|210:242,1,116.999996429443,8|2,1:0|0:0,0:0:0:0:
199,236,144134,1,2,0:0:0:0:
214,191,144213,1,4,1:3:0:0:
198,146,144292,1,4,3:3:0:0:
158,120,144371,1,4,3:3:0:0:
154,73,144450,1,12,3:3:0:0:
177,32,144529,1,8,1:0:0:0:
221,18,144608,1,12,3:3:0:0:
265,33,144687,2,0,L|338:19,1,58.4999982147217,8|8,3:3|3:3,0:0:0:0:
401,4,144845,5,4,1:0:0:0:
500,257,145002,1,0,3:0:0:0:
331,138,145160,1,8,1:0:0:0:
497,82,145318,1,0,3:0:0:0:
497,82,145397,1,2,0:0:0:0:
497,82,145476,2,0,L|485:148,1,58.4999982147217,0|2,1:0|0:0,0:0:0:0:
428,188,145634,2,0,L|423:254,1,58.4999982147217,0|2,3:0|0:0,0:0:0:0:
355,297,145792,2,0,L|368:362,1,58.4999982147217,8|2,1:0|0:0,0:0:0:0:
287,384,145950,1,0,3:0:0:0:
287,384,146029,1,2,0:0:0:0:
287,384,146108,5,4,1:0:0:0:
266,341,146187,1,0,3:0:0:0:
223,321,146266,1,0,1:0:0:0:
176,323,146345,1,0,3:0:0:0:
137,348,146423,1,8,1:0:0:0:
90,354,146502,1,0,3:0:0:0:
45,338,146581,1,0,1:0:0:0:
22,297,146660,1,0,3:0:0:0:
21,250,146739,2,0,L|36:175,3,58.4999982147217,0|8|12|4,1:0|3:0|1:3|3:0,0:0:0:0:
111,179,147055,2,0,P|103:86|95:35,1,116.999996429443,12|0,1:0|0:0,0:0:0:0:
398,0,147371,6,0,P|499:42|480:179,1,233.999992858887,6|8,1:0|1:0,0:0:0:0:
224,222,147845,1,2,0:0:0:0:
224,222,147923,1,2,0:0:0:0:
224,222,148002,1,4,1:3:0:0:
354,111,148160,1,8,3:0:0:0:
337,326,148318,2,0,P|315:224|311:186,1,116.999996429443,8|8,1:0|3:3,0:0:0:0:
418,263,148634,5,4,1:0:0:0:
137,196,148792,2,0,P|52:176|-7:164,1,116.999996429443,2|8,0:0|1:0,0:0:0:0:
174,13,149108,2,0,P|245:10|284:112,1,175.499994644165,2|8,0:0|3:0,0:0:0:0:
272,102,149423,1,8,3:0:0:0:
467,8,149581,2,0,P|394:21|366:73,1,116.999996429443,8|4,1:0|3:0,0:0:0:0:
413,244,149897,5,4,1:0:0:0:
491,96,150055,1,2,0:0:0:0:
257,51,150213,1,8,1:0:0:0:
338,293,150371,1,2,0:0:0:0:
338,293,150450,1,2,0:0:0:0:
338,293,150529,1,4,1:3:0:0:
121,229,150687,2,0,P|35:244|-20:251,1,116.999996429443,4|8,3:0|1:0,0:0:0:0:
190,381,151002,6,0,P|230:309|328:296,1,175.499994644165,8|2,3:0|0:0,0:0:0:0:
386,336,151318,2,0,P|400:271|396:253,1,58.4999982147217,2|2,0:0|0:0,0:0:0:0:
496,156,151476,1,8,1:0:0:0:
496,156,151555,2,0,P|432:162|356:183,1,116.999996429443,2|2,0:0|0:0,0:0:0:0:
303,157,151792,2,0,P|324:94|332:84,1,58.4999982147217,8|8,1:3|3:0,0:0:0:0:
123,21,151950,2,0,P|128:61|137:103,1,58.4999982147217,8|12,3:0|3:0,0:0:0:0:
9,172,152108,2,0,P|69:187|140:192,1,116.999996429443,8|4,1:0|3:0,0:0:0:0:
225,79,152423,5,4,1:0:0:0:
187,293,152581,1,2,0:0:0:0:
398,348,152739,1,8,1:0:0:0:
388,240,152897,2,0,P|317:247|249:278,1,116.999996429443,2|4,0:0|1:3,0:0:0:0:
117,360,153213,1,4,3:0:0:0:
196,116,153371,2,0,P|186:173|171:230,1,116.999996429443,8|8,1:0|3:0,0:0:0:0:
239,335,153687,5,4,1:0:0:0:
297,108,153845,1,2,0:0:0:0:
86,181,154002,1,8,1:0:0:0:
344,285,154160,2,0,P|398:270|484:262,1,116.999996429443,2|8,0:0|1:3,0:0:0:0:
282,350,154476,6,0,P|228:306|200:305,1,58.4999982147217,8|12,3:0|3:0,0:0:0:0:
322,73,154634,2,0,P|386:6|466:24,1,175.499994644165,8|4,1:0|3:0,0:0:0:0:
435,86,154950,5,4,1:0:0:0:
314,230,155108,1,2,0:0:0:0:
158,126,155266,1,8,1:0:0:0:
115,146,155345,1,2,0:0:0:0:
94,187,155423,1,2,0:0:0:0:
99,233,155502,1,2,0:0:0:0:
126,271,155581,1,4,1:3:0:0:
213,218,155739,1,4,3:0:0:0:
26,356,155897,2,0,P|93:358|158:366,1,116.999996429443,8|8,1:0|3:0,0:0:0:0:
142,363,156134,1,8,3:0:0:0:
142,363,156213,5,4,1:0:0:0:
251,312,156371,1,2,0:0:0:0:
349,378,156529,2,0,P|365:300|370:280,1,58.4999982147217,8|2,1:0|0:0,0:0:0:0:
408,140,156687,2,0,P|396:173|388:218,1,58.4999982147217,2|2,0:0|0:0,0:0:0:0:
497,293,156845,2,0,P|432:276|409:272,1,58.4999982147217,8|0,1:3|0:0,0:0:0:0:
205,217,157002,1,12,1:3:0:0:
205,217,157081,1,4,3:0:0:0:
205,217,157160,2,0,L|333:252,1,116.999996429443,8|0,1:0|0:0,0:0:0:0:
498,99,157476,6,0,P|450:34|339:41,1,175.499994644165,6|2,1:0|0:0,0:0:0:0:
293,77,157792,2,0,P|274:50|231:32,1,58.4999982147217,8|2,1:0|0:0,0:0:0:0:
116,12,157950,2,0,P|66:23|52:50,1,58.4999982147217,2|2,0:0|0:0,0:0:0:0:
108,197,158108,1,4,1:3:0:0:
180,57,158266,1,4,3:0:0:0:
233,231,158423,1,8,1:0:0:0:
97,104,158581,1,8,3:0:0:0:
97,104,158660,1,8,3:0:0:0:
97,104,158739,5,4,1:0:0:0:
274,161,158897,2,0,L|416:141,1,116.999996429443,2|8,0:0|1:0,0:0:0:0:
512,367,159213,6,0,P|435:269|380:293,1,175.499994644165,2|8,0:0|3:0,0:0:0:0:
326,229,159529,2,0,L|314:313,1,58.4999982147217,8|12,3:0|3:0,0:0:0:0:
249,344,159687,1,8,1:0:0:0:
234,299,159766,1,12,3:0:0:0:
190,281,159845,1,4,3:0:0:0:
143,285,159923,1,4,3:0:0:0:
111,319,160002,6,0,P|58:302|33:298,1,58.4999982147217,4|2,1:0|0:0,0:0:0:0:
0,224,160160,1,2,0:0:0:0:
0,224,160239,1,2,0:0:0:0:
0,224,160318,2,0,P|43:210|81:204,1,58.4999982147217,8|2,1:0|0:0,0:0:0:0:
128,169,160476,1,2,0:0:0:0:
32,380,160634,1,4,1:3:0:0:
220,293,160792,2,0,P|296:277|359:268,1,116.999996429443,4|8,3:0|1:0,0:0:0:0:
500,151,161108,6,0,P|456:98|332:107,1,175.499994644165,8|2,3:0|0:0,0:0:0:0:
296,41,161423,2,0,P|272:96|279:116,1,58.4999982147217,0|2,0:0|0:0,0:0:0:0:
202,113,161581,1,8,1:0:0:0:
202,113,161660,2,0,P|96:98|55:95,1,116.999996429443,2|2,0:0|0:0,0:0:0:0:
0,175,161897,6,0,L|78:165,1,58.4999982147217,8|2,1:3|0:0,0:0:0:0:
177,20,162055,2,0,L|244:6,1,58.4999982147217,12|2,3:0|0:0,0:0:0:0:
271,178,162213,2,0,L|400:149,1,116.999996429443,8|4,1:0|3:0,0:0:0:0:
469,330,162529,5,4,1:0:0:0:
344,245,162687,1,2,0:0:0:0:
468,162,162845,1,8,1:0:0:0:
371,352,163002,2,0,P|280:324|197:308,1,175.499994644165,2|4,0:0|3:0,0:0:0:0:
124,308,163318,2,0,P|112:243|115:213,1,58.4999982147217,4|12,3:0|3:0,0:0:0:0:
22,217,163476,2,0,P|42:150|61:135,1,58.4999982147217,8|12,1:0|3:0,0:0:0:0:
8,46,163634,2,0,P|65:8|104:1,1,58.4999982147217,8|8,3:0|3:0,0:0:0:0:
138,4,163792,5,4,1:0:0:0:
261,122,163950,1,2,0:0:0:0:
110,174,164108,1,8,1:0:0:0:
241,13,164266,2,0,P|311:5|366:4,1,116.999996429443,2|8,0:0|1:3,0:0:0:0:
491,167,164581,1,8,3:0:0:0:
441,34,164739,2,0,P|415:128|403:177,1,116.999996429443,8|4,1:0|3:0,0:0:0:0:
411,147,164976,1,4,3:0:0:0:
411,147,165055,5,4,1:0:0:0:
309,210,165213,1,0,3:0:0:0:
459,345,165371,1,8,1:0:0:0:
440,301,165450,1,0,0:0:0:0:
399,278,165529,1,0,3:0:0:0:
352,277,165608,1,0,0:0:0:0:
312,302,165687,1,0,1:0:0:0:
500,235,165845,1,0,3:0:0:0:
500,235,165923,1,0,0:0:0:0:
500,235,166002,1,8,1:0:0:0:
316,384,166160,1,0,3:0:0:0:
180,340,166318,5,8,1:3:0:0:
153,301,166397,1,4,3:0:0:0:
151,254,166476,1,4,1:3:0:0:
182,219,166555,1,12,3:0:0:0:
206,178,166634,1,8,1:0:0:0:
210,131,166713,1,12,3:0:0:0:
191,87,166792,1,8,1:3:0:0:
153,59,166871,1,8,3:0:0:0:
106,56,166950,2,0,L|36:77,1,58.4999982147217,8|12,1:3|1:3,0:0:0:0:
9,278,167108,2,0,L|102:250,1,58.4999982147217,12|4,1:3|1:3,0:0:0:0:
287,189,167266,1,8,1:0:0:0:
287,189,167581,6,0,P|300:245|304:276,1,65,4|2,1:0|0:3,0:0:0:0:
462,248,167897,2,0,P|468:186|476:161,1,65,8|2,1:0|0:3,0:0:0:0:
378,196,168213,1,0,1:0:0:0:
378,196,168292,1,2,0:0:0:0:
378,196,168371,2,0,L|369:140,1,32.5,2|2,0:3|0:0,0:0:0:0:
368,88,168529,1,8,1:0:0:0:
368,88,168687,1,2,0:3:0:0:
283,46,168845,6,0,P|239:54|208:61,1,65,0|2,1:0|0:3,0:0:0:0:
134,11,169160,1,8,1:0:0:0:
71,63,169318,1,2,0:3:0:0:
76,88,169397,1,2,0:0:0:0:
81,113,169476,1,0,0:0:0:0:
87,138,169555,1,2,0:0:0:0:
97,172,169634,1,2,0:3:0:0:
97,172,169713,1,0,0:0:0:0:
97,172,169792,2,0,L|96:260,1,65,12|2,1:0|3:3,0:0:0:0:
6,372,170108,5,4,1:2:0:0:
69,319,170266,1,2,0:3:0:0:
198,374,170423,2,0,P|184:318|165:288,1,65,8|2,1:0|0:3,0:0:0:0:
257,278,170739,1,0,1:0:0:0:
257,278,170818,1,2,0:0:0:0:
257,278,170897,2,0,L|248:221,1,32.5,2|2,0:3|0:0,0:0:0:0:
322,214,171055,2,0,L|401:227,1,65,8|2,1:0|0:3,0:0:0:0:
466,184,171371,5,0,1:0:0:0:
508,115,171529,1,2,0:3:0:0:
438,71,171687,1,8,1:0:0:0:
399,0,171844,1,2,0:3:0:0:
376,4,171923,1,2,0:0:0:0:
336,78,172081,1,2,0:0:0:0:
313,74,172160,1,2,0:3:0:0:
258,10,172318,6,0,P|197:21|139:25,1,97.5,12|0,1:0|0:0,0:0:0:0:
85,1,172634,6,0,P|15:25|19:113,1,146.250005578995,4|0,1:2|0:0,0:0:0:0:
64,145,172950,1,8,1:0:0:0:
64,145,173108,1,2,0:3:0:0:
17,217,173266,1,0,1:0:0:0:
17,217,173345,1,2,0:0:0:0:
17,217,173423,1,2,0:3:0:0:
80,275,173581,1,8,1:0:0:0:
80,275,173739,1,2,0:3:0:0:
21,349,173897,6,0,P|73:358|98:365,1,65,0|2,1:0|0:3,0:0:0:0:
171,336,174213,1,8,1:0:0:0:
253,362,174371,1,2,0:3:0:0:
259,336,174450,1,2,0:0:0:0:
265,310,174529,1,0,1:0:0:0:
271,284,174608,1,2,0:0:0:0:
277,258,174687,1,2,0:3:0:0:
202,245,174845,6,0,P|189:205|174:144,1,97.5,12|0,1:0|0:0,0:0:0:0:
198,78,175160,6,0,P|246:75|300:173,1,146.250005578995,4|0,1:2|0:0,0:0:0:0:
354,202,175476,1,8,1:0:0:0:
428,174,175634,1,2,3:0:0:0:
386,105,175792,1,0,1:0:0:0:
332,276,175950,1,2,3:0:0:0:
504,198,176108,1,8,1:0:0:0:
301,109,176266,1,2,3:3:0:0:
465,321,176423,5,0,1:0:0:0:
444,305,176502,1,0,3:0:0:0:
418,299,176581,1,0,1:0:0:0:
391,298,176660,1,0,3:0:0:0:
365,303,176739,1,8,1:0:0:0:
342,315,176818,1,0,3:0:0:0:
320,328,176897,1,0,1:0:0:0:
298,341,176976,1,0,3:0:0:0:
272,346,177055,1,0,1:0:0:0:
219,333,177134,1,0,3:0:0:0:
166,315,177213,2,0,L|179:274,1,32.5,8|0,1:2|0:0,0:0:0:0:
126,221,177371,1,8,1:2:0:0:
126,221,177529,1,8,1:2:0:0:
45,252,177687,6,0,P|56:298|62:336,1,65,4|2,1:0|0:3,0:0:0:0:
32,168,178002,1,8,1:2:0:0:
73,97,178160,2,0,P|79:58|89:4,1,65,2|0,0:3|1:0,0:0:0:0:
109,30,178397,1,2,0:0:0:0:
134,27,178476,1,2,0:3:0:0:
159,24,178555,1,2,0:0:0:0:
184,21,178634,1,8,1:2:0:0:
260,65,178792,1,2,0:3:0:0:
380,9,178950,6,0,P|372:57|366:97,1,65,0|2,1:0|0:3,0:0:0:0:
423,136,179266,1,8,1:2:0:0:
495,94,179423,1,2,0:3:0:0:
484,73,179502,1,2,0:0:0:0:
478,198,179660,1,2,0:0:0:0:
470,220,179739,1,2,0:3:0:0:
345,156,179897,2,0,P|296:167|271:173,1,65,8|2,1:2|0:3,0:0:0:0:
186,190,180213,6,0,P|190:140|196:108,1,65,4|2,1:2|0:3,0:0:0:0:
117,103,180529,1,8,1:2:0:0:
117,103,180687,1,2,0:3:0:0:
0,180,180845,1,0,1:0:0:0:
24,186,180923,1,2,0:0:0:0:
49,193,181002,1,2,0:3:0:0:
74,200,181081,1,2,0:0:0:0:
99,207,181160,1,8,1:2:0:0:
144,277,181318,1,2,0:3:0:0:
253,368,181476,6,0,P|256:332|261:288,1,65,0|2,1:0|0:3,0:0:0:0:
270,223,181792,1,8,1:2:0:0:
226,150,181950,1,2,0:3:0:0:
242,141,182029,1,2,0:0:0:0:
273,4,182187,1,2,0:0:0:0:
289,11,182266,1,2,0:3:0:0:
213,61,182423,1,8,1:2:0:0:
320,152,182581,1,0,3:0:0:0:
170,216,182739,6,0,P|127:197|82:193,1,65,6|2,1:2|0:3,0:0:0:0:
66,80,183055,2,0,P|49:128|46:169,1,65,8|2,1:2|0:3,0:0:0:0:
352,384,183371,6,0,P|309:364|263:360,1,65,4|2,1:3|0:3,0:0:0:0:
257,290,183687,1,8,1:2:0:0:
257,290,183845,1,6,0:3:0:0:
182,328,184002,1,4,1:2:0:0:
342,282,184160,1,4,0:3:0:0:
182,328,184318,2,0,P|115:312|94:308,1,65,8|2,1:2|0:3,0:0:0:0:
126,286,184555,1,2,0:0:0:0:
133,261,184634,1,8,1:3:0:0:
140,236,184713,1,2,0:0:0:0:
147,211,184792,1,2,0:3:0:0:
65,213,184950,1,8,1:2:0:0:
9,154,185108,1,4,0:3:0:0:
9,154,185187,1,12,0:3:0:0:
9,154,185266,5,6,1:2:0:0:
92,128,185423,1,12,0:3:0:0:
61,52,185581,1,8,1:2:0:0:
127,8,185739,1,12,0:3:0:0:
151,15,185818,1,0,0:0:0:0:
175,22,185897,1,12,1:3:0:0:
199,29,185976,1,2,0:0:0:0:
223,36,186055,1,14,0:3:0:0:
247,43,186134,1,2,0:0:0:0:
271,50,186213,1,8,1:2:0:0:
340,3,186371,1,10,0:3:0:0:
420,35,186529,6,0,L|426:84,1,32.5,6|4,1:2|0:3,0:0:0:0:
496,97,186687,2,0,L|504:148,1,32.5,4|12,3:0|0:3,0:0:0:0:
420,349,186845,2,0,L|426:300,1,32.5,8|12,1:2|0:3,0:0:0:0:
496,287,187003,2,0,L|504:236,1,32.5,8|8,3:3|0:3,0:0:0:0:
446,187,187160,1,6,1:2:0:0:
446,187,187476,6,0,P|357:200|298:212,1,130,8|4,1:0|1:0,0:0:0:0:
