osu file format v14

[General]
AudioFilename: audio.mp3
AudioLeadIn: 0
PreviewTime: 44384
Countdown: 0
SampleSet: Soft
StackLeniency: 0.2
Mode: 0
LetterboxInBreaks: 0
WidescreenStoryboard: 1

[Editor]
Bookmarks: 845,10950,21055,36213,46319,56424,66529,76634,86740,96845,106950,112002,127161,137266,147371,157477,167582,177687,187792,194108
DistanceSpacing: 0.7
BeatDivisor: 6
GridSize: 4
TimelineZoom: 2.299999

[Metadata]
Title:Critical Cannonball (Extended ver.)
TitleUnicode:Critical Cannonball (Extended ver.)
Artist:SEPHID
ArtistUnicode:SEPHID
Creator:DeviousPanda
Version:Lolidiver's Hell Lunatic
Source:東方輝針城 ~ Double Dealing Character.
Tags:o!wc owc grand finals gf HD1 満月の竹林 mangetsu no chikurin bamboo forest of the full moon ZUN Touhou 14 Stage 3 Theme Kishinjou 東方Project drumstep j-core electronic instrumental video game paradogi xlolicore- my angel watame skydiver atalanta talulah waefwerf Sakura Blossom -_ascended_- ascended cycopton Wanpachi Gordon Lazarus Xoul Zelq
BeatmapID:2742940
BeatmapSetID:1189616

[Difficulty]
HPDrainRate:6
CircleSize:4.2
OverallDifficulty:9
ApproachRate:9.5
SliderMultiplier:1.8
SliderTickRate:1

[Events]
//Background and Video events
0,0,"53805150_p0.png",0,0
//Break Periods
2,107150,111462
//Storyboard Layer 0 (Background)
//Storyboard Layer 1 (Fail)
//Storyboard Layer 2 (Pass)
//Storyboard Layer 3 (Foreground)
//Storyboard Layer 4 (Overlay)
//Storyboard Sound Samples

[TimingPoints]
845,315.789473684211,4,2,1,50,1,0
9055,-83.3333333333333,4,2,1,50,0,0
10950,-83.3333333333333,4,2,1,60,0,0
13161,-71.4285714285714,4,2,1,60,0,0
13398,-83.3333333333333,4,2,1,60,0,0
20424,-333.333333333333,4,2,1,60,0,0
20740,-71.4285714285714,4,2,1,80,0,0
21134,-71.4285714285714,4,2,1,60,0,0
26108,-100,4,2,1,60,0,0
26582,-125,4,2,1,60,0,0
27371,-142.857142857143,4,2,1,60,0,0
27845,-83.3333333333333,4,2,1,60,0,0
28319,-111.111111111111,4,2,1,60,0,0
30371,-90.9090909090909,4,2,1,60,0,0
30845,-125,4,2,1,60,0,0
31161,-100,4,2,1,60,0,0
35424,-166.666666666667,4,2,1,60,0,0
36213,-133.333333333333,4,2,1,60,0,0
37160,-100,4,2,1,60,0,0
37476,-133.333333333333,4,2,1,60,0,0
37950,-117.647058823529,4,2,1,60,0,0
38423,-133.333333333333,4,2,1,60,0,0
40397,-100,4,2,1,60,0,0
40950,-303.030303030303,4,2,1,60,0,0
41266,-83.3333333333333,4,2,1,60,0,0
42529,-83.3333333333333,4,2,1,40,0,0
43160,-71.4285714285714,4,2,1,60,0,0
43476,-66.6666666666667,4,2,1,60,0,0
43792,-133.333333333333,4,2,1,40,0,0
44108,-133.333333333333,4,2,1,50,0,0
44424,-100,4,2,1,60,0,0
44503,-100,4,2,1,65,0,0
44582,-100,4,2,1,70,0,0
44661,-100,4,2,1,75,0,0
44740,-100,4,2,1,80,0,0
44819,-100,4,2,1,85,0,0
44898,-100,4,2,1,90,0,0
44977,-100,4,2,1,95,0,0
45055,-100,4,2,1,100,0,0
45213,-133.333333333333,4,2,1,50,0,0
45687,-66.6666666666667,4,2,1,70,0,0
46002,-50,4,2,1,90,0,0
46319,-83.3333333333333,4,2,1,80,0,0
53424,-71.4285714285714,4,2,1,80,0,0
53582,-66.6666666666667,4,2,1,80,0,0
53898,-76.9230769230769,4,2,1,80,0,0
54845,-66.6666666666667,4,2,1,80,0,0
56424,-83.3333333333333,4,2,1,55,0,0
65898,-200,4,2,1,55,0,0
66213,-50,4,2,1,90,0,0
66529,-58.8235294117647,4,2,1,70,0,1
67003,-100,4,2,1,70,0,1
67161,-62.5,4,2,1,70,0,1
67634,-200,4,2,1,70,0,1
67950,-58.8235294117647,4,2,1,70,0,1
68740,-100,4,2,1,70,0,1
69055,-66.6666666666667,4,2,1,70,0,1
69371,-76.9230769230769,4,2,1,70,0,1
69687,-66.6666666666667,4,2,1,70,0,1
71424,-33.3333333333333,4,2,1,70,0,1
71582,-58.8235294117647,4,2,1,70,0,1
71819,-50,4,2,1,70,0,1
71977,-100,4,2,1,70,0,1
72213,-62.5,4,2,1,70,0,1
72687,-83.3333333333333,4,2,1,70,0,1
73161,-66.6666666666667,4,2,1,70,0,1
73398,-55.5555555555556,4,2,1,70,0,1
73792,-100,4,2,1,70,0,1
74108,-58.8235294117647,4,2,1,70,0,1
76002,-58.8235294117647,4,2,1,70,0,0
76634,-66.6666666666667,4,2,1,85,0,1
77266,-50,4,2,1,85,0,1
77582,-66.6666666666667,4,2,1,85,0,1
77898,-200,4,2,1,85,0,1
78055,-66.6666666666667,4,2,1,85,0,1
78529,-55.5555555555556,4,2,1,85,0,1
78845,-66.6666666666667,4,2,1,85,0,1
79634,-133.333333333333,4,2,1,85,0,1
79792,-66.6666666666667,4,2,1,85,0,1
80424,-133.333333333333,4,2,1,85,0,1
80582,-66.6666666666667,4,2,1,85,0,1
80740,-133.333333333333,4,2,1,85,0,1
80977,-66.6666666666667,4,2,1,85,0,1
81292,-80,4,2,1,85,0,1
81529,-50,4,2,1,85,0,1
81845,-80,4,2,1,85,0,1
82003,-133.333333333333,4,2,1,85,0,1
82319,-66.6666666666667,4,2,1,85,0,1
82792,-50,4,2,1,85,0,1
83108,-66.6666666666667,4,2,1,85,0,1
83266,-133.333333333333,4,2,1,85,0,1
83503,-66.6666666666667,4,2,1,85,0,1
83898,-100,4,2,1,85,0,1
84055,-50,4,2,1,85,0,1
84529,-40,4,2,1,85,0,1
84766,-50,4,2,1,85,0,1
85319,-100,4,2,1,85,0,1
85476,-100,4,2,1,85,0,0
86423,-52.6315789473684,4,2,1,85,0,1
86739,-52.6315789473684,4,2,1,65,0,1
88950,-83.3333333333333,4,2,1,65,0,1
89266,-52.6315789473684,4,2,1,65,0,1
89739,-66.6666666666667,4,2,1,65,0,1
89897,-52.6315789473684,4,2,1,65,0,1
91476,-100,4,2,1,65,0,1
91792,-52.6315789473684,4,2,1,65,0,1
94002,-83.3333333333333,4,2,1,65,0,1
94318,-52.6315789473684,4,2,1,65,0,1
94792,-66.6666666666667,4,2,1,65,0,1
94950,-52.6315789473684,4,2,1,65,0,1
96055,-66.6666666666667,4,2,1,65,0,1
96529,-100,4,2,1,65,0,0
96845,-100,4,2,1,65,0,1
97160,-50,4,2,1,65,0,1
97318,-133.333333333333,4,2,1,65,0,1
97476,-40,4,2,1,65,0,1
97792,-133.333333333333,4,2,1,65,0,1
98108,-40,4,2,1,65,0,1
98266,-50,4,2,1,65,0,1
99055,-50,4,2,1,65,0,1
99252,-50,4,2,1,65,0,1
99292,-50,4,2,1,65,0,1
99331,-50,4,2,1,65,0,1
99371,-40,4,2,1,65,0,1
99687,-50,4,2,1,65,0,1
99805,-50,4,2,1,65,0,1
99845,-133.333333333333,4,2,1,65,0,1
100002,-66.6666666666667,4,2,1,65,0,1
100318,-50,4,2,1,65,0,1
100634,-40,4,2,1,65,0,1
100950,-50,4,2,1,65,0,1
101898,-50,4,2,1,85,0,1
102371,-133.333333333333,4,2,1,85,0,1
102529,-50,4,2,1,85,0,1
103634,-133.333333333333,4,2,1,85,0,1
103792,-50,4,2,1,85,0,1
104581,-66.6666666666667,4,2,1,85,0,1
105687,-52.6315789473684,4,2,1,55,0,0
106318,-83.3333333333333,4,2,1,55,0,0
106634,-66.6666666666667,4,2,1,75,0,0
106950,-52.6315789473684,4,2,1,45,0,0
115161,-52.6315789473684,4,2,1,55,0,0
115477,-52.6315789473684,4,2,1,65,0,0
115792,-62.5,4,2,1,75,0,0
117055,-71.4285714285714,4,2,1,75,0,0
118002,-100,4,2,1,75,0,0
118318,-71.4285714285714,4,2,1,75,0,0
120529,-100,4,2,1,75,0,0
120845,-66.6666666666667,4,2,1,75,0,0
121160,-200,4,2,1,75,0,0
121476,-66.6666666666667,4,2,1,75,0,0
121792,-200,4,2,1,75,0,0
122108,-52.6315789473684,4,2,1,48,0,0
122187,-52.6315789473684,4,2,1,50,0,0
122266,-52.6315789473684,4,2,1,52,0,0
122345,-52.6315789473684,4,2,1,54,0,0
122424,-52.6315789473684,4,2,1,56,0,0
122503,-52.6315789473684,4,2,1,58,0,0
122582,-52.6315789473684,4,2,1,60,0,0
122661,-52.6315789473684,4,2,1,62,0,0
122740,-52.6315789473684,4,2,1,64,0,0
122819,-52.6315789473684,4,2,1,66,0,0
122898,-52.6315789473684,4,2,1,68,0,0
122977,-52.6315789473684,4,2,1,70,0,0
123055,-52.6315789473684,4,2,1,72,0,0
123134,-52.6315789473684,4,2,1,74,0,0
123213,-52.6315789473684,4,2,1,76,0,0
123292,-52.6315789473684,4,2,1,78,0,0
123371,-52.6315789473684,4,2,1,80,0,0
123450,-52.6315789473684,4,2,1,82,0,0
123529,-52.6315789473684,4,2,1,84,0,0
123608,-52.6315789473684,4,2,1,86,0,0
123687,-52.6315789473684,4,2,1,78,0,0
123766,-52.6315789473684,4,2,1,80,0,0
123845,-52.6315789473684,4,2,1,82,0,0
123924,-52.6315789473684,4,2,1,84,0,0
124003,-52.6315789473684,4,2,1,86,0,0
124082,-52.6315789473684,4,2,1,88,0,0
124161,-52.6315789473684,4,2,1,90,0,0
124240,-52.6315789473684,4,2,1,92,0,0
124319,-52.6315789473684,4,2,1,94,0,0
124398,-52.6315789473684,4,2,1,96,0,0
124477,-52.6315789473684,4,2,1,98,0,0
124555,-52.6315789473684,4,2,1,100,0,0
124634,-47.6190476190476,4,2,1,100,0,0
124674,-47.6190476190476,4,2,1,55,0,0
125266,-47.6190476190476,4,2,1,75,0,0
125897,-71.4285714285714,4,2,1,75,0,0
126845,-47.6190476190476,4,2,1,100,0,0
127160,-83.3333333333333,4,2,1,95,0,1
127792,-66.6666666666667,4,2,1,95,0,1
128660,-58.8235294117647,4,2,1,95,0,1
129529,-100,4,2,1,95,0,1
129923,-83.3333333333333,4,2,1,95,0,1
131423,-133.333333333333,4,2,1,95,0,1
131581,-83.3333333333333,4,2,1,95,0,1
131897,-133.333333333333,4,2,1,95,0,1
132213,-66.6666666666667,4,2,1,95,0,1
133239,-100,4,2,1,95,0,1
133476,-76.9230769230769,4,2,1,95,0,1
134108,-66.6666666666667,4,2,1,95,0,1
134897,-83.3333333333333,4,2,1,95,0,1
135371,-76.9230769230769,4,2,1,95,0,1
135845,-66.6666666666667,4,2,1,95,0,1
136318,-133.333333333333,4,2,1,95,0,1
136634,-76.9230769230769,4,2,1,95,0,0
136950,-58.8235294117647,4,2,1,95,0,0
137266,-66.6666666666667,4,2,1,95,0,1
147055,-50,4,2,1,75,0,0
147371,-71.4285714285714,4,2,1,100,0,1
156845,-76.9230769230769,4,2,1,100,0,0
157160,-58.8235294117647,4,2,1,75,0,0
157476,-66.6666666666667,4,2,1,100,0,1
157477,-66.6666666666667,4,2,1,100,0,1
163792,-58.8235294117647,4,2,1,100,0,1
167266,-200,4,2,1,100,0,0
167581,-100,4,2,1,65,0,0
167582,-100,4,2,1,65,0,0
169792,-83.3333333333333,4,2,1,65,0,0
170108,-100,4,2,1,65,0,0
172318,-83.3333333333333,4,2,1,65,0,0
172634,-83.3333333333333,4,2,1,65,0,0
175792,-71.4285714285714,4,2,1,65,0,0
177213,-100,4,2,1,55,0,0
177687,-83.3333333333333,4,2,1,50,0,0
184950,-71.4285714285714,4,2,1,50,0,0
185897,-52.6315789473684,4,2,1,50,0,0
187160,-250,4,2,1,60,0,0
187476,-66.6666666666667,4,2,1,80,0,0
187871,-83.3333333333333,4,2,1,5,0,0

[Colours]
Combo1 : 153,255,0
Combo2 : 255,167,34
Combo3 : 54,254,145
Combo4 : 255,100,100

[HitObjects]
312,80,845,5,4,1:1:0:0:
400,42,1003,1,2,0:3:0:0:
476,182,1161,1,8,1:2:0:0:
328,160,1319,2,0,L|238:169,1,90,6|2,0:0|1:2,0:0:0:0:
176,120,1555,5,2,0:0:0:0:
180,102,1634,1,2,0:3:0:0:
184,84,1713,1,2,0:0:0:0:
187,66,1792,1,8,1:2:0:0:
238,169,1950,1,2,0:3:0:0:
112,239,2108,6,0,L|100:150,1,90,0|2,1:0|0:3,0:0:0:0:
168,13,2424,2,0,L|180:102,1,90,8|2,1:2|0:3,0:0:0:0:
238,169,2661,1,2,0:0:0:0:
112,239,2819,5,2,0:0:0:0:
94,237,2898,1,2,0:3:0:0:
161,299,3055,6,0,P|195:272|240:272,1,90,10|2,1:2|0:3,0:0:0:0:
402,377,3371,5,4,1:0:0:0:
266,347,3529,1,2,0:3:0:0:
370,304,3687,1,8,1:2:0:0:
492,253,3845,2,0,L|501:163,1,90,2|0,0:3|1:0,0:0:0:0:
428,124,4082,5,2,0:0:0:0:
426,138,4160,1,2,0:3:0:0:
424,153,4239,1,2,0:0:0:0:
423,168,4318,1,8,1:2:0:0:
492,253,4477,1,2,0:3:0:0:
348,193,4634,5,0,1:0:0:0:
501,163,4792,1,2,0:3:0:0:
359,23,4950,2,0,L|350:113,1,90,8|2,1:2|0:3,0:0:0:0:
423,168,5187,2,0,L|432:78,1,90,2|2,0:0|0:0,0:0:0:0:
433,63,5424,1,2,0:3:0:0:
348,193,5582,6,0,P|353:214|366:232,1,45,8|0,1:2|0:0,0:0:0:0:
380,338,5740,2,0,P|396:322|405:302,1,45,2|0,3:3|0:0,0:0:0:0:
490,238,5898,5,4,1:0:0:0:
452,374,6055,1,2,0:3:0:0:
348,193,6213,1,8,1:2:0:0:
310,329,6371,2,0,L|220:340,1,90,2|0,0:3|1:0,0:0:0:0:
141,262,6608,6,0,L|185:268,1,45,2|2,0:0|0:3,0:0:0:0:
109,333,6766,1,2,0:0:0:0:
97,328,6845,2,0,L|7:339,1,90,8|2,1:2|0:3,0:0:0:0:
139,182,7161,5,0,1:0:0:0:
220,340,7319,1,2,0:3:0:0:
141,262,7477,1,8,1:2:0:0:
256,220,7634,5,2,0:3:0:0:
256,208,7713,1,2,0:0:0:0:
371,262,7871,5,2,0:0:0:0:
384,268,7950,1,2,0:3:0:0:
461,172,8108,6,0,B|454:169|454:169|373:182,1,90,8|2,1:2|0:3,0:0:0:0:
265,57,8424,6,0,L|268:12,1,45,2|0,1:2|0:0,0:0:0:0:
189,67,8582,2,0,L|192:22,1,45,2|0,3:0|0:0,0:0:0:0:
74,98,8740,6,0,L|119:102,1,45,8|0,1:0|0:0,0:0:0:0:
84,174,8898,2,0,L|129:178,1,45,2|0,3:0|0:0,0:0:0:0:
199,148,9055,6,0,P|205:175|201:201,1,53.9999983520508,2|2,1:2|0:0,0:0:0:0:
144,307,9213,2,0,P|138:281|143:255,1,53.9999983520508,2|2,3:0|0:0,0:0:0:0:
217,142,9371,6,0,P|242:150|263:167,1,53.9999983520508,8|0,1:0|0:0,0:0:0:0:
126,313,9529,2,0,P|100:304|79:287,1,53.9999983520508,0|0,3:0|0:0,0:0:0:0:
47,42,9687,5,6,1:2:0:0:
86,6,9765,1,0,3:0:0:0:
139,0,9844,1,0,3:0:0:0:
187,20,9923,1,0,3:0:0:0:
216,65,10002,1,8,1:0:0:0:
215,119,10081,1,0,3:0:0:0:
185,163,10160,1,2,3:0:0:0:
136,183,10239,1,2,3:0:0:0:
84,174,10318,5,0,1:0:0:0:
246,157,10477,1,8,1:2:0:0:
408,140,10634,6,0,L|412:113,1,26.9999991760254,8|0,1:2|0:0,0:0:0:0:
246,157,10792,6,0,L|250:130,1,26.9999991760254,8|0,1:2|0:0,0:0:0:0:
47,42,10950,5,4,1:0:0:0:
136,183,11108,1,2,0:3:0:0:
227,29,11266,2,0,L|281:25,1,53.9999983520508,8|0,1:0|0:0,0:0:0:0:
144,194,11424,2,0,P|83:198|0:205,1,107.999996704102,2|0,0:3|1:0,0:0:0:0:
204,116,11661,5,2,0:0:0:0:
210,142,11740,1,2,0:3:0:0:
216,168,11819,1,2,0:0:0:0:
221,194,11898,2,0,L|207:275,1,53.9999983520508,8|0,1:0|0:0,0:0:0:0:
111,343,12055,2,0,L|120:289,1,53.9999983520508,2|0,0:3|0:0,0:0:0:0:
136,183,12213,5,2,1:2:0:0:
302,265,12371,1,2,0:3:0:0:
196,329,12529,2,0,B|222:336|222:336|245:323,1,53.9999983520508,8|0,1:0|0:0,0:0:0:0:
393,368,12687,5,2,0:3:0:0:
391,346,12766,2,0,L|386:268,1,53.9999983520508,2|0,0:0|0:0,0:0:0:0:
321,144,12924,1,2,0:0:0:0:
323,166,13003,2,0,L|328:244,1,53.9999983520508,2|0,0:3|0:0,0:0:0:0:
512,161,13161,6,0,P|457:216|396:182,1,125.999996154785,8|0,1:0|0:0,0:0:0:0:
409,186,13398,1,0,0:0:0:0:
410,187,13477,5,4,1:0:0:0:
314,45,13634,1,2,0:3:0:0:
190,208,13792,6,0,B|215:221|215:221|255:212,1,53.9999983520508,8|0,1:0|0:0,0:0:0:0:
307,37,13950,2,0,L|314:144,1,107.999996704102,2|0,0:3|1:0,0:0:0:0:
223,145,14187,5,2,0:0:0:0:
223,145,14266,2,0,B|198:132|198:132|158:141,1,53.9999983520508,2|2,0:3|0:0,0:0:0:0:
25,61,14424,2,0,B|26:89|26:89|54:119,1,53.9999983520508,8|0,1:0|0:0,0:0:0:0:
52,275,14582,2,0,B|75:259|75:259|87:220,1,53.9999983520508,2|0,0:3|0:0,0:0:0:0:
133,39,14740,5,0,1:0:0:0:
190,207,14898,1,2,0:3:0:0:
314,144,15055,5,8,1:0:0:0:
218,324,15213,1,2,0:3:0:0:
218,324,15292,2,0,B|259:313|259:313|340:330,1,107.999996704102,2|2,0:0|0:0,0:0:0:0:
405,384,15529,2,0,L|399:330,1,53.9999983520508,2|0,0:3|0:0,0:0:0:0:
474,294,15687,2,0,L|479:347,1,53.9999983520508,8|0,1:0|0:0,0:0:0:0:
391,253,15845,1,2,3:0:0:0:
384,204,15924,1,2,0:0:0:0:
379,155,16003,6,0,L|231:172,1,107.999996704102,4|2,1:0|0:3,0:0:0:0:
144,24,16319,2,0,L|251:36,1,107.999996704102,8|2,1:0|0:3,0:0:0:0:
255,253,16634,2,0,P|196:210|214:112,1,161.999995056153,0|2,1:0|0:0,0:0:0:0:
222,109,16950,1,8,1:0:0:0:
62,32,17108,5,2,0:3:0:0:
70,63,17187,1,0,0:0:0:0:
79,94,17266,1,0,1:0:0:0:
0,184,17424,1,0,3:0:0:0:
98,259,17582,2,0,B|140:276|140:276|259:251,1,161.999995056153,8|2,1:0|2:0,0:0:0:0:
290,160,17898,6,0,P|249:219|264:271,1,107.999996704102,0|2,1:0|0:3,0:0:0:0:
344,286,18134,1,2,0:0:0:0:
344,286,18213,2,0,L|328:206,1,53.9999983520508,8|0,1:0|2:0,2:0:0:0:
301,79,18371,1,0,3:3:0:0:
345,83,18450,1,0,3:0:0:0:
388,88,18529,5,4,1:0:0:0:
333,233,18687,1,2,3:3:0:0:
278,378,18845,5,8,1:0:0:0:
333,233,19003,1,0,3:0:0:0:
478,288,19161,5,4,1:0:0:0:
333,233,19319,1,0,3:0:0:0:
188,178,19477,5,8,1:0:0:0:
333,233,19635,1,0,3:0:0:0:
232,19,19792,5,6,1:2:0:0:
181,38,19871,1,4,3:3:0:0:
152,83,19950,1,4,1:3:0:0:
154,137,20029,1,12,3:3:0:0:
188,178,20108,1,8,1:0:0:0:
228,215,20187,1,12,3:3:0:0:
238,268,20266,1,8,1:3:0:0:
215,317,20345,1,8,1:3:0:0:
168,341,20424,6,0,L|124:338,1,40.4999987640381,6|8,1:2|3:0,0:0:0:0:
0,183,20740,6,0,P|36:248|140:246,1,188.999994232178,12|0,1:0|0:0,0:0:0:0:
256,192,21055,5,4,1:0:0:0:
256,192,21213,12,0,25792,0:0:0:0:
340,145,26108,6,0,B|290:134|283:54|334:34|334:34|366:48,1,180,6|0,0:0|0:0,0:0:0:0:
417,142,26582,2,0,P|350:160|295:118,1,144,2|0,0:0|0:0,0:0:0:0:
366,82,27055,1,2,0:0:0:0:
286,222,27371,6,0,L|380:212,1,94.499997116089,2|0,0:0|0:0,0:0:0:0:
380,212,27687,1,2,0:0:0:0:
502,321,27845,6,0,B|448:318|432:350|432:350|431:314|382:294,1,161.999995056153,2|0,0:0|0:0,0:0:0:0:
355,364,28161,1,2,0:0:0:0:
286,222,28319,6,0,P|249:284|190:243,1,161.999995056153,2|2,0:0|0:0,0:0:0:0:
190,243,28950,6,0,L|109:233,1,80.9999975280763,2|2,0:0|0:0,0:0:0:0:
215,362,29266,2,0,L|134:352,1,80.9999975280763
99,225,29582,6,0,L|219:210,1,121.499996292114,2|0,0:0|0:0,0:0:0:0:
219,210,29898,1,2,0:0:0:0:
219,210,30213,5,2,0:0:0:0:
126,149,30371,2,0,B|148:114|148:114|117:75|139:24|139:24|126:55|93:60,1,198.000006042481,2|2,0:0|0:0,0:0:0:0:
209,63,30845,6,0,L|316:49,1,108,2|0,0:0|0:0,0:0:0:0:
316,49,31161,5,2,0:0:0:0:
469,87,31319,5,2,0:0:0:0:
413,30,31477,1,2,0:0:0:0:
316,49,31634,1,2,0:0:0:0:
308,156,31792,1,2,0:0:0:0:
372,201,31950,6,0,P|387:160|377:117,1,90,2|2,0:0|0:0,0:0:0:0:
377,117,32266,1,2,0:0:0:0:
301,235,32424,5,2,0:0:0:0:
450,215,32582,1,2,0:0:0:0:
392,354,32740,1,2,0:0:0:0:
381,267,32898,1,2,0:0:0:0:
381,267,33055,5,2,0:0:0:0:
260,252,33213,1,2,0:0:0:0:
139,237,33371,2,0,L|49:248,1,90,2|2,0:0|0:0,0:0:0:0:
28,175,33608,1,2,0:0:0:0:
20,169,33687,6,0,P|76:135|140:153,1,135,2|0,0:0|0:0,0:0:0:0:
152,155,34003,2,0,P|160:198|139:237,1,90,2|0,0:0|0:0,0:0:0:0:
188,315,34240,1,2,0:0:0:0:
176,308,34319,2,0,L|131:313,1,45,2|0,0:0|0:0,0:0:0:0:
60,340,34477,2,0,L|150:329,1,90,2|0,0:0|0:0,0:0:0:0:
248,262,34792,5,2,0:0:0:0:
392,354,34950,1,2,0:0:0:0:
176,308,35108,1,2,0:0:0:0:
323,143,35424,2,0,B|346:82|431:73|464:124|464:124|456:144|456:144|439:118|401:111,1,242.999992584229,2|0,0:0|0:0,0:0:0:0:
389,184,36213,5,4,1:2:0:0:
389,184,36371,1,2,0:0:0:0:
407,260,36529,1,2,0:0:0:0:
425,336,36687,2,0,L|272:314,1,135.000005149842,2|2,0:0|0:0,0:0:0:0:
191,330,37160,2,0,B|200:356|237:371|237:371|211:345|216:304,1,135,2|0,0:0|0:0,0:0:0:0:
261,245,37476,6,0,B|245:148|245:148|274:172,1,135.000005149842,2|2,0:0|0:0,0:0:0:0:
28,214,37950,2,0,L|179:236,1,153.000002918243,2|2,0:0|0:0,0:0:0:0:
233,181,38423,2,0,B|249:152|249:152|240:113,1,67.5000025749208,2|2,0:0|0:0,0:0:0:0:
167,139,38739,5,2,0:0:0:0:
167,139,38897,1,2,0:0:0:0:
87,157,39055,5,2,0:0:0:0:
87,157,39213,1,2,0:0:0:0:
0,2,39371,5,2,0:0:0:0:
76,18,39529,1,2,0:0:0:0:
152,34,39687,1,2,0:0:0:0:
152,34,39845,1,2,0:0:0:0:
302,0,40002,5,2,0:0:0:0:
241,118,40160,1,2,0:0:0:0:
335,219,40318,1,2,0:0:0:0:
335,219,40397,2,0,L|423:202,1,90,2|0,0:0|0:0,0:0:0:0:
245,129,40634,6,0,L|234:192,1,45,2|0,0:0|0:0,0:0:0:0:
251,141,40792,2,0,L|243:185,1,45,0|0,3:0|0:0,0:0:0:0:
138,334,40950,6,0,L|130:289,1,44.5499998640442,8|0,1:0|0:0,0:0:0:0:
116,215,41266,5,4,1:2:0:0:
116,215,41423,1,4,3:0:0:0:
265,258,41581,1,4,1:3:0:0:
265,258,41738,1,4,3:3:0:0:
172,35,41897,5,12,1:3:0:0:
6,78,42055,1,12,3:0:0:0:
49,244,42213,1,12,1:3:0:0:
215,201,42371,1,12,3:3:0:0:
84,87,42529,6,0,L|73:172,1,53.9999983520508,8|0,1:3|0:0,0:0:0:0:
157,111,42687,2,0,L|146:196,1,53.9999983520508,8|0,3:0|0:0,0:0:0:0:
294,230,42845,6,0,L|287:176,1,53.9999983520508,8|0,1:3|0:0,0:0:0:0:
221,254,43002,2,0,L|214:200,1,53.9999983520508,8|0,3:0|0:0,0:0:0:0:
406,18,43160,6,0,L|397:80,1,62.9999980773926,8|0,1:3|0:0,0:0:0:0:
479,42,43318,2,0,L|470:104,1,62.9999980773926,8|0,3:0|0:0,0:0:0:0:
230,264,43476,6,0,L|220:197,1,67.5000025749208,8|0,1:3|0:0,0:0:0:0:
302,238,43634,2,0,L|293:171,1,67.5000025749208,8|0,3:3|0:0,0:0:0:0:
420,240,43792,5,8,3:1:0:0:
418,254,43871,1,4,0:3:0:0:
417,267,43950,1,4,0:3:0:0:
415,281,44029,1,4,0:3:0:0:
413,294,44108,1,8,3:1:0:0:
412,307,44187,1,4,3:3:0:0:
410,321,44266,1,4,3:3:0:0:
408,334,44345,1,4,3:3:0:0:
407,347,44423,5,8,3:1:0:0:
447,307,44501,1,12,3:3:0:0:
461,252,44580,1,12,3:3:0:0:
444,198,44659,1,12,3:3:0:0:
401,160,44738,1,8,3:1:0:0:
346,150,44817,1,8,3:3:0:0:
293,171,44896,1,8,3:3:0:0:
258,216,44975,1,8,3:3:0:0:
252,272,45054,1,4,1:0:0:0:
132,120,45213,6,0,L|164:128,1,33.7500012874604,2|0,0:3|0:0,0:0:0:0:
139,131,45371,2,0,L|171:138,1,33.7500012874604,2|0,0:3|0:0,0:0:0:0:
146,142,45529,2,0,L|178:149,1,33.7500012874604,2|0,0:3|0:0,0:0:0:0:
256,67,45687,6,0,B|246:113|246:113|260:148|260:148|242:218,1,135.000005149842,0|0,3:2|3:2,0:0:0:0:
196,384,45923,5,0,3:2:0:0:
195,383,46002,2,0,P|205:298|287:272,1,180,12|0,1:1|0:0,0:0:0:0:
432,193,46319,6,0,L|325:203,1,107.999996704102,4|2,1:0|0:2,0:0:0:0:
325,203,46555,1,2,0:2:0:0:
325,203,46634,1,8,1:0:0:0:
355,321,46792,1,2,0:2:0:0:
246,189,46950,5,0,1:2:0:0:
216,164,47029,1,2,0:2:0:0:
178,162,47108,1,2,0:2:0:0:
144,179,47187,1,2,0:2:0:0:
107,188,47266,1,8,1:0:0:0:
71,175,47345,1,4,3:3:0:0:
48,144,47424,2,0,P|43:117|49:91,1,53.9999983520508,12|8,3:3|3:3,0:0:0:0:
188,245,47582,6,0,P|192:271|186:297,1,53.9999983520508,4|2,1:0|0:0,0:0:0:0:
34,348,47740,1,2,0:0:0:0:
34,348,47819,6,0,L|25:282,1,53.9999983520508,2|8,0:0|1:0,0:0:0:0:
101,280,47977,1,2,0:2:0:0:
101,280,48055,2,0,L|109:334,1,53.9999983520508,2|2,0:2|0:2,0:0:0:0:
144,179,48213,5,2,1:2:0:0:
188,244,48292,5,2,0:0:0:0:
219,202,48370,1,2,0:2:0:0:
217,149,48449,1,2,0:0:0:0:
182,109,48528,5,8,1:0:0:0:
161,104,48607,1,8,3:3:0:0:
139,99,48687,2,0,L|86:87,1,53.9999983520508,12|4,3:3|3:3,0:0:0:0:
0,196,48845,5,4,1:0:0:0:
9,209,48924,1,2,0:2:0:0:
18,222,49003,2,0,L|70:210,1,53.9999983520508,2|2,0:2|0:2,0:0:0:0:
139,99,49161,5,8,1:0:0:0:
161,104,49240,1,2,0:2:0:0:
182,109,49319,2,0,L|234:120,1,53.9999983520508,2|2,0:2|0:2,0:0:0:0:
380,196,49477,5,2,1:2:0:0:
414,163,49555,1,2,0:0:0:0:
413,114,49634,1,2,0:2:0:0:
369,73,49713,2,0,L|381:180,1,107.999996704102,2|2,0:2|0:0,0:0:0:0:
466,245,49950,2,0,L|460:192,1,53.9999983520508,2|2,3:2|0:0,0:0:0:0:
316,13,50108,5,4,1:0:0:0:
294,44,50187,1,2,0:2:0:0:
290,81,50266,1,2,0:2:0:0:
303,116,50345,1,2,0:2:0:0:
330,142,50424,5,8,1:0:0:0:
369,73,50503,2,0,L|422:63,2,53.9999983520508,2|2|2,0:2|0:2|0:2,0:0:0:0:
391,194,50740,5,8,1:3:0:0:
398,192,50818,1,8,3:0:0:0:
406,191,50897,1,8,3:0:0:0:
413,189,50976,1,12,3:0:0:0:
421,188,51055,1,8,1:0:0:0:
428,187,51134,1,12,3:0:0:0:
436,185,51213,1,4,3:0:0:0:
444,184,51292,1,4,3:0:0:0:
449,184,51371,6,0,B|475:230|475:230|458:281,1,107.999996704102,4|2,1:0|0:2,0:0:0:0:
363,370,51687,2,0,L|256:360,1,107.999996704102,8|2,1:0|0:2,0:0:0:0:
222,131,52003,1,0,1:0:0:0:
222,131,52082,2,0,L|330:142,1,107.999996704102,2|2,0:2|0:2,0:0:0:0:
369,211,52319,2,0,P|344:221|317:222,1,53.9999983520508,8|4,1:0|3:0,0:0:0:0:
245,53,52477,2,0,L|298:59,1,53.9999983520508,12|8,3:0|3:0,0:0:0:0:
369,210,52634,5,4,1:0:0:0:
404,171,52712,1,2,0:0:0:0:
405,118,52791,1,2,0:2:0:0:
372,77,52870,1,2,0:0:0:0:
329,141,52950,5,8,1:0:0:0:
330,158,53028,1,2,0:0:0:0:
332,176,53107,1,2,0:2:0:0:
334,194,53186,1,2,0:0:0:0:
394,248,53266,6,0,P|415:231|426:207,1,53.9999983520508,0|2,1:0|0:2,0:0:0:0:
298,59,53424,6,0,P|268:48|238:52,1,62.9999980773926,2|2,0:2|0:2,0:0:0:0:
144,192,53582,6,0,B|48:184|48:184|76:158,1,135.000005149842,8|8,1:0|3:0,0:0:0:0:
139,112,53819,1,4,3:0:0:0:
209,148,53898,6,0,P|221:173|223:204,1,58.4999973220826,4|0,1:0|0:0,0:0:0:0:
138,250,54055,2,0,L|144:192,1,58.4999973220826,2|0,1:2|0:0,0:0:0:0:
259,182,54213,6,0,P|256:210|243:236,1,58.4999973220826,8|2,1:0|0:2,0:0:0:0:
118,311,54371,2,0,L|123:252,1,58.4999973220826,2|0,1:2|0:0,0:0:0:0:
139,112,54529,5,2,1:2:0:0:
119,110,54607,1,0,3:0:0:0:
100,108,54686,1,2,1:2:0:0:
80,106,54766,1,0,3:0:0:0:
10,73,54845,6,0,P|29:45|59:30,1,67.5000025749208,8|0,1:0|0:0,0:0:0:0:
209,148,55003,6,0,P|233:170|242:203,1,67.5000025749208,0|0,1:0|0:0,0:0:0:0:
205,363,55161,5,4,1:0:0:0:
168,369,55239,1,8,1:3:0:0:
131,357,55318,1,8,1:3:0:0:
105,329,55397,1,12,1:3:0:0:
95,293,55476,1,8,1:0:0:0:
103,255,55555,1,8,1:3:0:0:
127,226,55634,1,4,1:3:0:0:
162,212,55713,1,4,1:3:0:0:
240,221,55792,6,0,L|236:187,1,33.7500012874604,4|0,1:0|3:0,0:0:0:0:
288,225,55871,2,0,L|284:191,1,33.7500012874604,0|4,1:0|3:0,0:0:0:0:
364,207,55950,5,0,1:0:0:0:
414,226,56029,1,0,1:0:0:0:
464,209,56108,6,0,P|416:137|364:207,1,202.500007724762,8|0,1:0|0:0,0:0:0:0:
416,344,56424,6,0,P|385:338|362:335,1,53.9999983520508,4|0,1:0|0:0,0:0:0:0:
240,221,56582,1,2,0:3:0:0:
276,366,56740,1,8,0:2:0:0:
132,232,56898,2,0,L|246:220,1,107.999996704102,2|0,0:3|0:0,0:0:0:0:
89,159,57134,5,2,0:0:0:0:
89,159,57213,2,0,P|68:176|55:200,1,53.9999983520508,2|2,0:3|0:0,0:0:0:0:
138,285,57371,2,0,L|129:209,1,53.9999983520508,2|0,0:3|0:0,0:0:0:0:
82,105,57529,2,0,L|88:158,1,53.9999983520508,2|0,0:3|0:0,0:0:0:0:
48,288,57687,5,6,0:2:0:0:
239,220,57845,1,2,0:3:0:0:
172,150,58003,1,2,0:3:0:0:
127,366,58161,5,2,0:3:0:0:
148,364,58240,2,0,L|208:357,1,53.9999983520508,2|0,0:0|0:0,0:0:0:0:
313,211,58398,1,2,0:0:0:0:
292,213,58477,2,0,L|238:219,1,53.9999983520508,2|0,0:3|0:0,0:0:0:0:
320,384,58634,6,0,P|285:337|324:281,1,107.999996704102,12|0,1:2|0:0,0:0:0:0:
373,154,58950,2,0,P|406:193|392:243,1,107.999996704102,4|2,1:0|0:3,0:0:0:0:
300,295,59266,1,2,0:3:0:0:
198,98,59424,2,0,L|311:90,1,107.999996704102,2|0,0:3|0:0,0:0:0:0:
388,2,59661,1,2,0:0:0:0:
385,23,59740,1,2,0:3:0:0:
382,44,59819,1,2,0:0:0:0:
380,65,59898,1,2,0:3:0:0:
473,145,60055,1,2,0:3:0:0:
313,211,60213,5,2,0:3:0:0:
255,0,60371,1,2,0:3:0:0:
198,98,60529,1,2,0:3:0:0:
62,26,60687,5,2,0:3:0:0:
74,36,60766,2,0,L|133:29,1,53.9999983520508,2|0,0:0|0:0,0:0:0:0:
237,182,60924,1,2,0:0:0:0:
225,192,61003,2,0,L|171:198,1,53.9999983520508,2|0,0:3|0:0,0:0:0:0:
65,122,61161,6,0,P|86:132|74:178,1,53.9999983520508,6|0,1:2|0:0,0:0:0:0:
41,219,61319,2,0,P|20:209|32:163,1,53.9999983520508,0|2,0:0|0:0,0:0:0:0:
29,295,61477,6,0,P|62:297|99:260,1,53.9999983520508,6|4,1:2|3:0,0:0:0:0:
139,241,61634,2,0,P|164:244|190:264,1,53.9999983520508,4|4,3:0|3:0,0:0:0:0:
155,384,61792,6,0,L|147:318,1,53.9999983520508,4|4,3:0|3:0,0:0:0:0:
262,254,61950,2,0,P|260:281|247:305,3,53.9999983520508,4|4|4|4,3:0|3:0|3:0|3:0,0:0:0:0:
338,384,62266,6,0,P|324:360|322:333,1,53.9999983520508,4|4,3:0|3:0,0:0:0:0:
246,305,62424,2,0,P|248:278|263:255,1,53.9999983520508,4|4,3:0|3:0,0:0:0:0:
400,247,62582,2,0,L|341:257,1,53.9999983520508,4|4,3:0|3:0,0:0:0:0:
219,97,62740,6,0,P|253:101|274:119,1,53.9999983520508,6|12,1:2|3:0,0:0:0:0:
304,183,62898,2,0,P|327:170|341:147,1,53.9999983520508,12|12,3:0|3:0,0:0:0:0:
345,14,63055,2,0,L|334:66,1,53.9999983520508,12|12,3:0|3:0,0:0:0:0:
216,177,63213,5,12,3:0:0:0:
216,177,63292,2,0,P|189:175|166:161,1,53.9999983520508,12|12,3:0|3:0,0:0:0:0:
130,36,63450,1,12,3:0:0:0:
130,36,63529,2,0,P|141:60|141:87,1,53.9999983520508,12|12,3:0|3:0,0:0:0:0:
0,223,63687,6,0,L|53:229,1,53.9999983520508,12|12,3:0|3:0,0:0:0:0:
89,155,63845,2,0,L|36:149,1,53.9999983520508,12|12,3:0|3:0,0:0:0:0:
33,312,64003,5,6,1:2:0:0:
54,309,64081,1,8,3:3:0:0:
75,306,64160,1,8,1:3:0:0:
97,303,64239,1,8,3:0:0:0:
118,301,64318,1,8,1:3:0:0:
140,298,64397,1,8,3:0:0:0:
161,295,64477,1,8,1:3:0:0:
183,293,64555,1,8,3:0:0:0:
201,319,64634,5,6,1:2:0:0:
227,337,64713,1,8,3:0:0:0:
258,344,64792,1,8,1:3:0:0:
290,343,64871,1,8,3:0:0:0:
320,330,64950,1,8,1:3:0:0:
341,305,65029,1,8,3:0:0:0:
353,274,65108,1,8,1:3:0:0:
350,241,65187,1,8,3:0:0:0:
339,204,65266,6,0,L|363:180,1,26.9999991760254,6|8,1:2|3:3,0:0:0:0:
309,180,65345,2,0,L|322:148,1,26.9999991760254,8|8,1:3|3:3,0:0:0:0:
272,171,65424,2,0,L|277:136,1,26.9999991760254,8|8,1:3|3:3,0:0:0:0:
234,174,65503,2,0,L|229:139,1,26.9999991760254,8|8,1:3|3:3,0:0:0:0:
200,192,65582,6,0,L|195:231,1,26.9999991760254,8|8,1:3|3:3,0:0:0:0:
162,191,65661,2,0,L|152:230,1,26.9999991760254,8|8,1:3|3:3,0:0:0:0:
127,175,65740,2,0,L|104:209,1,26.9999991760254,8|8,1:3|3:3,0:0:0:0:
101,147,65819,2,0,L|67:165,1,26.9999991760254,8|0,1:3|0:0,0:0:0:0:
93,108,65898,6,0,L|103:32,1,67.5,4|8,1:0|3:2,0:0:0:0:
105,17,66213,6,0,P|161:68|85:103,1,180,12|0,1:0|0:0,0:0:0:0:
46,240,66529,6,0,P|3:152|101:147,1,229.500004377365,4|0,1:0|0:0,0:0:0:0:
221,263,66845,6,0,L|183:258,1,38.2500007295609,6|0,1:2|0:0,0:0:0:0:
160,254,66924,2,0,L|123:250,1,38.2500007295609,2|2,0:0|0:0,0:0:0:0:
77,313,67003,6,0,L|32:317,1,45,2|0,0:0|0:0,0:0:0:0:
99,145,67161,6,0,P|162:166|203:112,1,144,6|0,1:2|0:0,0:0:0:0:
227,337,67398,6,0,P|290:315|331:369,1,144,6|0,1:2|0:0,0:0:0:0:
478,201,67634,6,0,B|456:202|456:202|453:204|453:204|450:203|450:203|411:207,1,67.5,6|0,1:2|0:0,0:0:0:0:
405,213,67950,6,0,L|328:219,1,76.5000014591217,6|0,1:2|0:0,0:0:0:0:
353,3,68108,6,0,B|387:26|387:26|373:137,1,153.000002918243,6|8,1:2|1:3,0:0:0:0:
328,218,68345,2,0,L|280:222,4,38.2500007295609,12|2|2|2|2,1:0|0:0|0:0|0:0|0:0,0:0:0:0:
402,283,68582,6,0,B|417:248|417:248|405:213,1,76.5000014591217,0|0,1:0|0:0,0:0:0:0:
306,68,68740,2,0,B|253:74|253:74|234:90|234:90|170:97,1,135,12|0,1:0|0:0,0:0:0:0:
0,122,69055,6,0,B|1:62|54:33|115:51|115:51|103:64|101:91,1,202.500007724762,6|8,1:2|0:3,0:0:0:0:
256,176,69371,6,0,B|277:121|236:82|177:95|177:95|188:124,1,175.499991966248,6|4,1:2|0:3,0:0:0:0:
88,203,69687,6,0,B|62:201|62:201|59:204|59:204|57:201|57:201|24:198,1,67.5000025749208,12|0,1:0|0:0,0:0:0:0:
181,334,69845,1,2,3:2:0:0:
165,332,69924,6,0,B|139:330|139:330|136:333|136:333|134:330|134:330|100:326,1,67.5000025749208,0|2,1:0|0:0,0:0:0:0:
256,176,70082,1,2,0:0:0:0:
265,188,70161,6,0,B|298:191|298:191|300:194|300:194|303:191|303:191|329:193,1,67.5000025749208,4|0,1:2|0:0,0:0:0:0:
494,380,70319,5,2,3:2:0:0:
474,322,70398,1,2,3:2:0:0:
425,297,70477,1,2,1:2:0:0:
378,303,70555,1,2,3:2:0:0:
301,320,70634,6,0,B|290:234|337:283|328:185,1,135.000005149842,6|8,1:2|3:0,0:0:0:0:
309,115,70871,1,4,3:0:0:0:
281,41,70950,6,0,B|285:18|327:3|327:3|367:20|365:59,1,135.000005149842,12|0,1:0|0:0,0:0:0:0:
259,175,71187,6,0,B|237:182|203:153|203:153|198:110|232:92,1,135.000005149842,4|0,1:2|0:0,0:0:0:0:
388,128,71424,6,0,B|405:142|397:186|397:186|362:212|329:192,1,135.000005149842,4|0,1:2|0:0,0:0:0:0:
202,143,71582,5,4,1:0:0:0:
204,154,71661,2,0,L|117:149,1,76.5000014591217,2|2,3:2|3:2,0:0:0:0:
41,20,71819,5,2,3:2:0:0:
0,89,71898,2,0,P|65:96|114:52,1,135,6|0,1:2|0:0,0:0:0:0:
133,81,72055,6,0,L|128:149,1,67.5,2|0,3:2|0:0,0:0:0:0:
83,215,72213,6,0,B|0:178|0:178|52:175,1,144,12|0,1:0|0:0,0:0:0:0:
141,296,72450,6,0,B|150:387|150:387|121:343,1,144,6|0,1:2|0:0,0:0:0:0:
182,206,72687,6,0,B|248:164|248:164|234:190,1,107.999996704102,6|6,1:2|0:0,0:0:0:0:
466,300,73003,6,0,L|440:296,1,26.9999991760254,6|2,1:2|0:2,0:0:0:0:
398,288,73082,2,0,L|372:284,1,26.9999991760254,2|2,3:2|0:0,0:0:0:0:
337,353,73161,6,0,B|328:297|328:297|332:284|332:284|322:219,1,135.000005149842,6|2,1:2|0:0,0:0:0:0:
403,203,73398,6,0,B|414:279|414:279|409:304|409:304|419:362,1,161.999995056153,6|2,1:2|0:0,0:0:0:0:
503,373,73634,6,0,L|490:292,1,80.9999975280763,6|0,1:2|0:0,0:0:0:0:
318,196,73792,6,0,L|322:219,1,22.5,4|0,1:0|0:0,0:0:0:0:
464,152,74108,6,0,P|454:137|437:130,4,38.2500007295609,8|0|8|0|8,1:3|3:0|3:3|3:0|3:3,0:0:0:0:
345,104,74424,6,0,P|326:104|311:116,4,38.2500007295609,8|0|8|0|8,1:3|3:0|3:3|3:0|3:3,0:0:0:0:
242,183,74740,6,0,P|233:199|235:218,2,38.2500007295609,12|0|12,1:3|3:0|3:0,0:0:0:0:
331,285,74977,2,0,P|320:269|302:261,2,38.2500007295609,12|0|4,1:3|3:0|3:0,0:0:0:0:
197,309,75213,6,0,P|216:309|232:297,6,38.2500007295609,4|4|4|4|4|4|4,1:3|3:0|3:0|3:0|1:3|3:0|3:0,0:0:0:0:
235,218,75529,6,0,P|244:201|242:181,2,38.2500007295609,6|0|0,1:2|3:0|3:0,0:0:0:0:
175,139,75687,6,0,P|165:122|147:114,4,38.2500007295609,6|0|0|0|6,1:2|3:0|3:0|3:0|3:2,0:0:0:0:
76,151,75924,6,0,P|57:151|41:163,1,38.2500007295609,0|0,1:0|3:0,0:0:0:0:
87,230,76002,5,4,1:0:0:0:
132,208,76081,1,8,3:3:0:0:
155,163,76160,1,8,3:0:0:0:
148,114,76239,1,12,3:0:0:0:
80,26,76319,5,12,3:0:0:0:
75,41,76397,1,12,3:0:0:0:
75,57,76476,1,4,1:3:0:0:
81,72,76555,1,4,1:3:0:0:
150,103,76634,6,0,B|216:91|216:91|272:119|272:119|347:104,1,202.500007724762,4|0,1:0|0:0,0:0:0:0:
390,208,76950,2,0,P|341:259|371:329,1,135.000005149842,6|0,1:2|0:0,0:0:0:0:
491,372,77187,5,0,0:0:0:0:
503,366,77266,2,0,L|510:316,2,45,12|0|0,1:0|0:0|0:0,0:0:0:0:
375,297,77424,1,2,0:3:0:0:
365,306,77503,1,6,1:2:0:0:
355,315,77582,2,0,L|267:323,1,67.5000025749208,0|2,0:0|0:3,0:0:0:0:
242,384,77740,2,0,P|209:380|185:356,1,67.5000025749208,4|0,1:3|0:0,0:0:0:0:
84,94,77898,6,0,L|78:56,1,22.5,6|0,3:2|0:0,0:0:0:0:
30,149,78055,2,0,L|35:182,2,33.7500012874604,6|2|2,1:2|3:0|3:0,0:0:0:0:
158,275,78213,2,0,P|224:275|266:225,1,135.000005149842,4|2,1:0|0:0,0:0:0:0:
268,209,78450,1,2,1:2:0:0:
217,154,78529,6,0,P|176:143|203:174,2,107.999996704102,12|0|0,1:0|3:0|3:0,0:0:0:0:
297,134,78845,5,12,3:0:0:0:
360,185,78950,5,0,3:0:0:0:
440,174,79055,5,0,3:0:0:0:
500,119,79161,6,0,P|485:85|487:57,1,67.5000025749208,4|0,1:0|0:0,0:0:0:0:
390,2,79319,1,2,0:3:0:0:
376,5,79398,1,2,3:0:0:0:
362,8,79477,2,0,P|364:41|350:71,1,67.5000025749208,6|0,1:2|0:0,0:0:0:0:
286,128,79634,2,0,L|237:133,1,33.7500012874604,2|2,3:0|3:3,0:0:0:0:
93,42,79792,6,0,P|126:41|154:59,1,67.5000025749208,12|0,1:0|0:0,0:0:0:0:
199,181,79950,1,2,0:0:0:0:
205,192,80029,2,0,P|208:224|192:254,2,67.5000025749208,6|0|2,1:2|0:0|0:0,0:0:0:0:
154,59,80266,5,6,1:2:0:0:
97,70,80345,1,2,3:2:0:0:
40,81,80424,2,0,L|6:86,1,33.7500012874604,2|0,3:0|0:0,0:0:0:0:
208,201,80582,6,0,P|211:234|195:264,1,67.5000025749208,4|0,1:0|0:0,0:0:0:0:
129,317,80740,6,0,L|126:293,3,22.5000008583069,6|2|2|2,1:2|0:0|0:0|0:0,0:0:0:0:
52,213,80977,5,2,1:3:0:0:
111,168,81055,2,0,L|243:193,1,135.000005149842,12|4,1:0|3:0,0:0:0:0:
290,256,81292,2,0,B|269:291|269:291|288:377,1,112.5,4|12,1:3|3:0,0:0:0:0:
451,384,81529,5,8,1:3:0:0:
493,369,81608,1,8,1:3:0:0:
512,329,81687,2,0,L|502:230,1,90,4|0,1:0|0:0,0:0:0:0:
311,131,81845,2,0,L|317:186,1,56.25,2|0,1:2|0:0,0:0:0:0:
447,192,82003,6,0,P|473:171|506:166,1,67.5000025749208,6|0,1:2|0:0,0:0:0:0:
270,65,82319,6,0,B|172:77|172:77|201:38,1,135.000005149842,12|2,1:0|3:0,0:0:0:0:
323,224,82555,2,0,B|288:175|310:130|310:130|340:145,1,135.000005149842,6|0,1:2|0:0,0:0:0:0:
425,266,82792,5,0,1:0:0:0:
413,318,82871,1,0,1:0:0:0:
399,370,82950,2,0,L|288:353,1,90,4|0,1:0|0:0,0:0:0:0:
205,206,83108,2,0,P|222:179|225:137,1,67.5000025749208,6|0,1:2|0:0,0:0:0:0:
34,261,83266,6,0,P|37:294|55:322,1,67.5000025749208,0|0,1:0|0:0,0:0:0:0:
120,362,83503,5,0,1:0:0:0:
49,328,83582,2,0,P|31:299|27:266,1,67.5000025749208,12|0,1:0|0:0,0:0:0:0:
136,176,83740,2,0,P|154:147|158:114,1,67.5000025749208,6|2,1:2|3:0,0:0:0:0:
80,73,83898,6,0,L|86:117,1,45,4|2,1:0|3:0,0:0:0:0:
113,248,84055,1,6,1:2:0:0:
175,239,84134,1,0,1:0:0:0:
237,230,84213,2,0,B|290:217|290:217|307:254|297:309|259:328,1,180,4|2,1:0|3:2,0:0:0:0:
512,384,84450,5,4,1:0:0:0:
500,374,84529,2,0,B|431:322|444:248|485:221|533:247|506:305,1,225,8|8,1:0|1:3,0:0:0:0:
398,363,84766,5,12,1:3:0:0:
398,363,84845,1,12,1:3:0:0:
345,38,85003,5,4,1:3:0:0:
406,49,85082,1,12,1:3:0:0:
467,62,85161,1,8,1:0:0:0:
237,230,85319,5,4,1:3:0:0:
269,165,85398,5,12,1:3:0:0:
227,106,85477,5,4,1:0:0:0:
462,17,85634,6,0,L|466:62,1,45,8|8,3:0|3:0,0:0:0:0:
476,137,85792,1,12,1:0:0:0:
260,33,85950,5,8,3:0:0:0:
260,33,86029,1,8,3:0:0:0:
225,24,86108,1,12,1:0:0:0:
189,31,86187,1,12,3:0:0:0:
162,55,86266,1,4,3:0:0:0:
162,55,86424,6,0,B|150:117|82:129|31:97|31:97|38:33|110:40,1,256.499993150711,12|0,1:0|0:0,0:0:0:0:
227,106,86739,6,0,B|334:84|277:163|406:133,1,170.999995433807,4|2,1:0|1:2,0:0:0:0:
449,86,86976,1,0,0:0:0:0:
423,11,87055,6,0,P|375:19|353:63,1,85.4999977169037,12|0,1:0|0:0,0:0:0:0:
390,139,87213,1,2,3:2:0:0:
459,162,87292,2,0,B|406:168|406:168|405:171|405:171|402:169|402:169|291:179,1,170.999995433807,0|0,1:0|0:0,0:0:0:0:
349,260,87529,5,8,1:3:0:0:
376,255,87608,1,2,3:0:0:0:
401,253,87687,6,0,B|421:289|421:289|409:330,1,85.4999977169037,4|0,1:0|3:3,0:0:0:0:
252,280,87845,1,2,1:3:0:0:
248,259,87923,1,0,3:0:0:0:
195,202,88002,6,0,B|178:213|178:213|166:277,1,85.4999977169037,4|0,3:0|0:0,0:0:0:0:
223,355,88160,2,0,B|240:344|240:344|252:280,1,85.4999977169037,12|0,1:3|0:0,0:0:0:0:
350,153,88318,6,0,L|265:162,1,85.4999977169037,12|0,1:0|0:0,0:0:0:0:
155,133,88476,1,0,1:0:0:0:
169,66,88555,1,0,3:2:0:0:
183,0,88634,5,0,1:2:0:0:
184,17,88713,1,0,3:2:0:0:
185,34,88792,1,0,1:2:0:0:
186,51,88871,2,0,L|189:94,1,42.7499988584519,0|0,1:2|0:0,0:0:0:0:
147,168,88950,6,0,B|91:158|91:158|65:133|65:133|-9:120,1,161.999995056153,8|0,1:0|0:0,0:0:0:0:
23,242,89266,6,0,B|46:227|46:227|187:248,1,170.999995433807,4|0,1:0|1:0,0:0:0:0:
209,252,89502,1,0,1:0:0:0:
274,208,89581,6,0,P|286:270|249:320,1,128.249996575356,8|0,1:0|0:0,0:0:0:0:
234,326,89739,2,0,P|199:331|165:317,1,67.5000025749208,0|0,1:0|0:0,0:0:0:0:
205,172,89897,6,0,B|224:135|270:118|306:136|306:136|293:107|306:76,1,170.999995433807,0|0,3:0|1:0,0:0:0:0:
338,15,90134,1,0,1:0:0:0:
417,8,90213,6,0,P|458:14|490:41,1,85.4999977169037,8|0,1:0|0:0,0:0:0:0:
453,135,90371,2,0,P|412:129|380:102,1,85.4999977169037,0|0,3:0|0:0,0:0:0:0:
139,214,90529,6,0,P|121:194|127:167,1,56.9999984779358,2|0,3:2|0:0,0:0:0:0:
199,95,90634,6,0,P|226:88|246:108,1,56.9999984779358,2|0,3:2|0:0,0:0:0:0:
274,208,90739,6,0,P|265:234|239:242,1,56.9999984779358,2|0,3:2|0:0,0:0:0:0:
46,202,90845,6,0,B|150:225|106:148|205:172,1,170.999995433807,8|8,1:0|3:3,0:0:0:0:
274,208,91081,1,0,0:0:0:0:
280,225,91160,6,0,B|288:266|288:266|262:299,1,85.4999977169037,12|0,1:3|0:0,0:0:0:0:
76,125,91318,2,0,B|68:84|68:84|94:51,1,85.4999977169037,4|0,3:3|0:0,0:0:0:0:
199,95,91476,6,0,B|195:128|195:128|197:133|197:133|194:138|194:138|180:237,1,135,8|0,1:0|0:0,0:0:0:0:
176,239,91792,6,0,B|236:229|236:229|277:251|277:251|340:241,1,170.999995433807,4|0,1:0|1:0,0:0:0:0:
361,238,92029,1,0,1:0:0:0:
411,140,92108,6,0,B|398:157|398:157|292:172,1,128.249996575356,8|0,1:0|0:0,0:0:0:0:
279,164,92266,2,0,B|268:123|268:123|299:80,1,85.4999977169037,0|0,3:0|3:0,0:0:0:0:
445,224,92423,2,0,L|361:238,1,85.4999977169037,6|0,3:2|0:0,0:0:0:0:
283,345,92581,5,0,1:0:0:0:
297,343,92660,2,0,L|381:329,1,85.4999977169037,4|8,3:1|1:0,0:0:0:0:
176,239,92818,5,0,0:0:0:0:
159,236,92897,1,0,1:0:0:0:
142,233,92976,1,0,3:0:0:0:
66,247,93055,5,6,1:2:0:0:
21,270,93134,1,0,3:0:0:0:
11,322,93213,1,0,3:0:0:0:
31,369,93292,1,0,3:0:0:0:
79,380,93371,2,0,P|114:355|126:315,1,85.4999977169037,8|0,1:0|0:0,0:0:0:0:
201,163,93529,6,0,L|196:111,1,42.7499988584519,0|0,1:0|0:0,0:0:0:0:
212,157,93608,2,0,L|207:105,1,42.7499988584519,2|0,3:2|0:0,0:0:0:0:
286,146,93687,5,2,3:2:0:0:
302,149,93766,1,2,3:2:0:0:
318,152,93845,1,0,1:0:0:0:
334,155,93923,2,0,L|379:167,1,42.7499988584519,0|0,1:0|0:0,0:0:0:0:
440,118,94002,6,0,B|484:73|484:73|387:87,1,161.999995056153,8|0,1:0|0:0,0:0:0:0:
260,218,94318,6,0,B|323:231|323:231|346:268|346:268|421:284,1,170.999995433807,4|0,1:0|1:0,0:0:0:0:
248,296,94555,1,0,3:0:0:0:
227,290,94634,6,0,P|184:245|189:183,1,128.249996575356,8|0,1:0|0:0,0:0:0:0:
203,162,94792,2,0,P|230:141|263:137,1,67.5000025749208,0|0,3:0|3:0,0:0:0:0:
321,268,94950,6,0,P|325:313|303:351,1,85.4999977169037,6|0,3:2|0:0,0:0:0:0:
35,322,95108,5,0,3:0:0:0:
19,294,95187,1,0,1:0:0:0:
1,262,95266,2,0,B|50:243|50:243|59:221|59:221|107:203,1,128.249996575356,8|0,1:0|0:0,0:0:0:0:
107,180,95423,2,0,B|59:162|59:162|50:140|50:140|1:122,1,128.249996575356,0|0,1:0|0:0,0:0:0:0:
41,52,95581,6,0,L|127:45,1,85.4999977169037,4|0,1:0|0:0,0:0:0:0:
259,130,95739,5,0,1:0:0:0:
256,145,95818,1,0,3:0:0:0:
213,219,95897,6,0,L|298:219,1,85.4999977169037,8|0,1:0|0:0,0:0:0:0:
289,48,96055,6,0,L|222:48,1,67.5000025749208,0|0,1:0|0:0,0:0:0:0:
364,327,96213,6,0,P|386:328|404:316,1,45.0000017166138,6|0,1:2|0:0,0:0:0:0:
431,178,96318,6,0,P|422:158|402:150,1,45.0000017166138,2|0,1:2|0:0,0:0:0:0:
268,195,96423,6,0,P|255:213|259:235,1,45.0000017166138,2|0,1:2|0:0,0:0:0:0:
363,243,96529,6,0,P|353:221|352:243,2,60,10|10|10,0:0|0:0|0:0,0:0:0:0:
401,149,96845,5,4,1:0:0:0:
413,106,96923,1,2,0:2:0:0:
400,64,97002,1,2,0:2:0:0:
366,36,97081,1,2,0:2:0:0:
322,32,97160,2,0,B|304:68|304:68|321:132,1,90,8|2,1:0|0:2,0:0:0:0:
117,95,97318,6,0,L|123:61,1,33.7500012874604,2|2,0:2|0:2,0:0:0:0:
164,157,97476,2,0,B|229:153|229:153|184:138,1,112.5,2|2,1:2|0:0,0:0:0:0:
59,20,97634,2,0,B|14:5|14:5|78:0,1,112.5,2|2,0:0|0:0,0:0:0:0:
205,32,97792,6,0,L|198:65,1,33.7500012874604,8|0,1:0|0:0,0:0:0:0:
49,142,97950,5,2,3:2:0:0:
98,203,98029,1,2,3:2:0:0:
90,281,98108,2,0,B|69:278|41:298|41:298|62:257|106:241|151:243|196:263,1,225,0|2,1:0|0:0,0:0:0:0:
322,324,98345,5,2,0:0:0:0:
327,340,98423,2,0,B|301:384|301:384|262:359|249:310|274:271,1,180,8|2,1:0|0:0,0:0:0:0:
350,207,98660,5,2,0:0:0:0:
355,219,98739,5,0,1:0:0:0:
395,253,98817,1,2,0:0:0:0:
448,253,98896,1,2,0:0:0:0:
488,219,98975,1,2,0:0:0:0:
496,166,99055,2,0,B|492:125|492:125|497:120|497:120|492:117|492:117|488:81,1,90,8|0,1:0|0:0,0:0:0:0:
273,12,99213,6,0,L|317:19,1,45,2|0,3:2|0:0,0:0:0:0:
278,23,99292,2,0,L|322:30,1,45,2|0,3:2|0:0,0:0:0:0:
258,95,99371,6,0,B|290:143|286:198|279:237|279:237|271:205|246:166,1,225,4|0,1:0|0:0,0:0:0:0:
63,57,99608,1,2,0:0:0:0:
54,73,99687,2,0,B|90:100|90:100|187:78,1,135,8|0,1:0|0:0,0:0:0:0:
188,63,99845,2,0,L|155:70,1,33.7500012874604,2|2,0:0|0:0,0:0:0:0:
74,171,100002,5,0,1:0:0:0:
145,189,100081,1,2,3:2:0:0:
190,247,100160,1,2,3:2:0:0:
180,320,100239,1,2,3:2:0:0:
125,372,100318,2,0,B|86:368|86:368|84:362|84:362|81:367|81:367|39:363,1,90,8|2,1:0|0:0,0:0:0:0:
202,240,100476,2,0,B|240:243|240:243|243:238|243:238|245:244|245:244|284:248,1,90,0|2,3:0|0:0,0:0:0:0:
512,384,100634,6,0,B|442:368|420:309|443:254|443:254|489:283,1,225,0|2,1:0|0:0,0:0:0:0:
372,360,100871,1,2,0:0:0:0:
355,366,100950,2,0,P|320:362|349:342,1,90,8|2,1:0|0:0,0:0:0:0:
444,256,101108,2,0,P|474:238|439:232,1,90,0|2,3:0|0:0,0:0:0:0:
358,181,101266,5,2,1:2:0:0:
289,209,101371,2,0,B|229:202|229:202|283:178,1,120,2|2,3:2|3:2,0:0:0:0:
361,91,101581,5,12,1:0:0:0:
247,0,101739,5,0,3:0:0:0:
247,0,101897,5,4,1:0:0:0:
180,3,101975,1,2,0:0:0:0:
129,45,102054,1,2,0:0:0:0:
112,109,102133,1,2,0:0:0:0:
136,171,102213,2,0,P|156:215|138:274,1,90,8|2,1:0|0:0,0:0:0:0:
74,384,102371,2,0,L|27:375,1,33.7500012874604,2|2,0:0|0:0,0:0:0:0:
0,145,102529,5,0,1:0:0:0:
25,202,102607,1,2,0:0:0:0:
74,239,102686,1,2,0:0:0:0:
137,245,102765,1,2,0:0:0:0:
193,219,102845,2,0,P|233:199|284:210,1,90,8|2,1:0|0:0,0:0:0:0:
512,384,103002,5,2,0:0:0:0:
512,384,103081,1,2,0:0:0:0:
512,384,103160,1,0,1:0:0:0:
457,353,103238,1,2,0:0:0:0:
426,300,103317,1,2,0:0:0:0:
426,237,103396,1,2,0:0:0:0:
458,184,103476,2,0,P|482:146|476:94,1,90,8|2,1:0|0:0,0:0:0:0:
258,0,103634,6,0,L|261:51,1,33.7500012874604,2|2,0:0|0:0,0:0:0:0:
411,126,103792,2,0,B|365:139|365:139|326:122|310:66|356:24,2,180,0|2|8,1:0|0:0|1:0,0:0:0:0:
335,207,104266,1,2,0:0:0:0:
165,105,104423,6,0,B|189:89|189:89|184:11,1,90,4|0,1:0|0:0,0:0:0:0:
335,207,104581,2,0,P|296:205|258:222,1,67.5000025749208,6|0,3:2|0:0,0:0:0:0:
95,312,104739,5,0,1:0:0:0:
95,312,104818,1,0,3:0:0:0:
95,312,104897,2,0,P|116:279|120:237,1,67.5000025749208,6|0,3:2|0:0,0:0:0:0:
125,52,105055,5,0,1:0:0:0:
125,52,105134,1,0,3:0:0:0:
125,52,105213,2,0,P|142:86|176:111,1,67.5000025749208,6|0,3:2|0:0,0:0:0:0:
335,207,105371,5,0,1:0:0:0:
335,207,105450,1,0,3:0:0:0:
335,207,105529,2,0,P|296:205|258:222,1,67.5000025749208,6|0,3:2|0:0,0:0:0:0:
120,251,105687,5,8,0:1:0:0:
236,383,105845,5,0,3:0:0:0:
238,366,105923,1,0,3:0:0:0:
239,349,106002,1,8,0:1:0:0:
347,132,106160,5,0,3:0:0:0:
387,147,106239,1,0,3:0:0:0:
409,183,106318,2,0,P|405:225|371:261,2,53.9999983520508,8|0|4,0:1|0:0|3:0,0:0:0:0:
495,59,106634,6,0,B|513:16|513:16|455:0|403:6|363:55,1,202.500007724762,8|0,1:0|0:0,0:0:0:0:
461,127,106950,5,4,1:0:0:0:
256,192,112002,12,2,115318,0:0:0:0:
87,345,115476,5,2,0:0:0:0:
69,345,115555,1,2,0:0:0:0:
45,338,115634,1,2,0:0:0:0:
20,302,115713,1,2,0:0:0:0:
33,244,115792,6,0,P|50:216|93:197,1,72,4|0,1:0|0:0,0:0:0:0:
253,111,115950,6,0,B|226:182|157:160|157:160|133:114|80:117,1,216,6|0,1:2|0:0,0:0:0:0:
80,116,116266,1,6,1:2:0:0:
105,275,116423,1,0,0:0:0:0:
263,250,116581,6,0,L|298:243,1,36,0|0,1:0|3:0,0:0:0:0:
340,236,116660,2,0,L|375:229,1,36,0|0,3:0|3:0,0:0:0:0:
417,222,116739,6,0,P|444:311|350:314,1,216,12|0,1:0|0:0,0:0:0:0:
263,250,117055,6,0,L|201:261,1,62.9999980773926,4|2,1:0|0:0,0:0:0:0:
105,275,117213,2,0,B|100:305|100:305|116:332,1,62.9999980773926,0|2,3:0|0:0,0:0:0:0:
0,151,117371,6,0,L|62:163,1,62.9999980773926,0|2,1:0|0:0,0:0:0:0:
176,175,117529,2,0,B|191:148|191:148|187:117,1,62.9999980773926,0|2,3:0|0:0,0:0:0:0:
71,52,117687,5,0,1:0:0:0:
41,84,117766,1,2,0:0:0:0:
37,128,117845,1,0,3:0:0:0:
62,163,117923,1,2,0:0:0:0:
132,131,118002,6,0,B|144:111|144:111|141:89,3,45,2|0|0|0,0:1|0:0|0:0|0:0,0:0:0:0:
225,17,118318,6,0,L|236:80,1,62.9999980773926,12|2,1:0|0:0,0:0:0:0:
142,193,118476,2,0,L|132:131,1,62.9999980773926,0|2,3:0|0:0,0:0:0:0:
316,64,118634,6,0,P|315:95|305:125,1,62.9999980773926,0|2,1:0|0:0,0:0:0:0:
72,236,118792,2,0,P|62:206|61:174,1,62.9999980773926,0|2,3:0|0:0,0:0:0:0:
360,184,118950,5,0,1:0:0:0:
385,241,119029,1,2,0:0:0:0:
362,300,119108,1,0,3:0:0:0:
303,323,119187,1,2,0:0:0:0:
243,235,119266,5,8,1:3:0:0:
264,238,119344,1,14,0:3:0:0:
285,241,119423,1,12,3:0:0:0:
306,244,119502,1,8,0:3:0:0:
387,276,119581,6,0,P|417:269|449:266,1,62.9999980773926,12|0,1:0|0:0,0:0:0:0:
285,159,119739,2,0,P|253:156|222:149,1,62.9999980773926,0|0,1:0|0:0,0:0:0:0:
303,322,119897,6,0,P|299:353|313:381,1,62.9999980773926,0|0,1:0|0:0,0:0:0:0:
439,183,120055,2,0,P|442:152|428:124,1,62.9999980773926,0|0,1:0|0:0,0:0:0:0:
243,73,120213,5,0,1:0:0:0:
192,77,120292,1,2,0:0:0:0:
154,110,120371,1,0,3:0:0:0:
145,159,120450,1,2,0:0:0:0:
198,229,120529,6,0,L|243:235,3,45,2|2|2|2,0:0|0:0|0:0|0:0,0:0:0:0:
127,262,120845,6,0,B|96:247|96:247|63:251,1,67.5000025749208,12|0,1:0|0:0,0:0:0:0:
223,149,121002,2,0,B|256:153|256:153|287:139,1,67.5000025749208,0|0,1:0|0:0,0:0:0:0:
72,75,121160,6,0,L|77:120,1,45,2|2,0:0|0:0,0:0:0:0:
195,300,121476,6,0,P|206:268|201:235,1,67.5000025749208,12|0,1:0|0:0,0:0:0:0:
0,132,121634,2,0,P|-5:165|4:197,1,67.5000025749208,0|0,1:0|0:0,0:0:0:0:
243,73,121792,6,0,L|198:69,1,45,2|2,0:0|0:0,0:0:0:0:
145,237,122108,5,0,1:3:0:0:
130,253,122186,1,4,1:3:0:0:
120,272,122265,1,4,1:3:0:0:
115,292,122344,1,4,1:3:0:0:
116,314,122423,1,4,1:3:0:0:
122,334,122502,1,4,1:3:0:0:
134,352,122581,1,4,1:3:0:0:
150,366,122660,1,4,1:3:0:0:
169,375,122739,1,4,1:3:0:0:
190,379,122818,1,4,1:3:0:0:
211,377,122897,1,4,1:3:0:0:
231,370,122976,1,4,1:3:0:0:
248,358,123055,1,4,1:3:0:0:
262,341,123134,1,4,1:3:0:0:
271,322,123213,1,4,1:3:0:0:
274,301,123292,1,4,1:3:0:0:
271,280,123371,5,12,1:3:0:0:
269,237,123449,1,12,1:3:0:0:
282,197,123528,1,12,1:3:0:0:
308,163,123607,1,12,1:3:0:0:
344,140,123686,1,12,1:3:0:0:
385,131,123765,1,12,1:3:0:0:
428,137,123844,1,12,1:3:0:0:
465,157,123923,1,12,1:3:0:0:
493,189,124002,5,8,1:3:0:0:
435,225,124081,1,8,1:3:0:0:
368,207,124160,1,8,1:3:0:0:
344,140,124239,1,8,1:3:0:0:
361,73,124318,1,8,1:3:0:0:
324,15,124397,1,8,1:3:0:0:
256,4,124476,1,8,1:3:0:0:
208,53,124555,1,8,1:3:0:0:
214,121,124634,6,0,P|238:112|269:115,1,47.2499985580445,8|8,1:3|1:3,0:0:0:0:
219,135,124713,2,0,P|244:132|273:143,1,47.2499985580445,8|8,1:3|1:3,0:0:0:0:
222,151,124792,2,0,P|247:155|272:173,1,47.2499985580445,8|8,1:3|1:3,0:0:0:0:
221,167,124871,2,0,P|244:177|264:201,1,47.2499985580445,8|8,1:3|1:3,0:0:0:0:
216,183,124950,2,0,P|235:199|248:227,1,47.2499985580445,8|8,1:3|1:3,0:0:0:0:
208,196,125029,2,0,P|222:216|228:247,1,47.2499985580445,8|8,1:3|1:3,0:0:0:0:
197,208,125108,2,0,P|206:232|203:263,1,47.2499985580445,8|8,1:3|1:3,0:0:0:0:
184,217,125187,2,0,P|186:242|175:271,1,47.2499985580445,8|8,1:3|1:3,0:0:0:0:
169,223,125266,2,0,P|164:248|146:273,1,47.2499985580445,8|8,1:3|1:3,0:0:0:0:
153,226,125345,2,0,P|142:249|118:269,1,47.2499985580445,8|8,1:3|1:3,0:0:0:0:
137,225,125424,2,0,P|120:244|92:257,1,47.2499985580445,8|8,1:3|1:3,0:0:0:0:
122,220,125503,2,0,P|101:234|70:240,1,47.2499985580445,8|8,1:3|1:3,0:0:0:0:
108,212,125582,2,0,P|83:221|52:218,1,47.2499985580445,8|8,1:3|1:3,0:0:0:0:
96,201,125660,2,0,P|70:203|41:192,1,47.2499985580445,8|8,1:3|1:3,0:0:0:0:
87,188,125739,2,0,P|61:183|36:165,1,47.2499985580445,8|8,1:3|1:3,0:0:0:0:
81,173,125818,2,0,P|57:162|37:138,1,47.2499985580445,8|8,1:3|1:3,0:0:0:0:
103,98,125897,5,6,1:2:0:0:
98,39,126055,6,0,B|112:68|112:68|103:98,1,62.9999980773926,2|0,0:0|0:0,0:0:0:0:
165,140,126213,2,0,B|183:114|183:114|213:107,1,62.9999980773926,2|0,0:0|0:0,0:0:0:0:
220,32,126371,2,0,B|188:28|188:28|166:6,1,62.9999980773926,2|0,0:0|0:0,0:0:0:0:
81,173,126529,5,2,0:0:0:0:
77,191,126608,1,2,0:0:0:0:
72,209,126687,1,2,0:0:0:0:
68,227,126766,1,2,0:0:0:0:
67,307,126845,5,12,1:0:0:0:
119,286,126923,1,2,0:2:0:0:
174,298,127002,1,2,0:2:0:0:
201,347,127081,1,2,0:2:0:0:
274,375,127160,5,6,1:0:0:0:
288,367,127239,1,2,0:0:0:0:
302,360,127318,2,0,L|374:356,1,53.9999983520508,2|2,0:0|0:0,0:0:0:0:
167,173,127476,1,8,1:0:0:0:
167,173,127555,1,2,0:0:0:0:
167,173,127634,2,0,L|171:245,1,53.9999983520508,2|2,0:0|0:0,0:0:0:0:
451,140,127792,6,0,P|418:141|391:161,1,67.5000025749208,0|2,1:0|0:0,0:0:0:0:
155,94,127950,1,2,0:0:0:0:
155,94,128029,2,0,P|188:96|216:116,1,67.5000025749208,2|8,0:0|1:0,0:0:0:0:
247,252,128187,1,2,0:0:0:0:
247,252,128266,2,0,L|242:182,1,67.5000025749208,2|2,0:0|0:0,0:0:0:0:
161,17,128423,5,0,1:0:0:0:
131,61,128502,1,2,0:0:0:0:
142,113,128581,1,2,0:0:0:0:
185,143,128660,2,0,L|365:133,1,153.000002918243,2|2,0:0|0:0,0:0:0:0:
408,165,128897,2,0,B|428:205|428:205|412:246,1,76.5000014591217,2|2,0:0|0:0,0:0:0:0:
284,349,129055,5,8,1:3:0:0:
360,332,129134,1,8,3:3:0:0:
323,282,129213,1,12,3:3:0:0:
262,275,129292,1,12,3:3:0:0:
208,305,129371,5,8,1:0:0:0:
217,283,129450,1,4,3:3:0:0:
221,260,129529,2,0,L|216:215,1,45,4|0,3:3|3:0,0:0:0:0:
360,332,129687,5,4,1:0:0:0:
376,331,129765,1,2,0:0:0:0:
393,330,129845,2,0,B|452:325,1,45,2|2,0:0|0:0,0:0:0:0:
512,243,130002,5,8,1:0:0:0:
485,246,130081,1,2,0:0:0:0:
458,249,130160,2,0,B|405:253,1,53.9999983520508,2|2,0:0|0:0,0:0:0:0:
326,141,130318,5,0,1:0:0:0:
304,98,130396,1,2,0:0:0:0:
317,51,130475,1,2,0:0:0:0:
360,27,130555,2,0,P|409:38|429:62,1,53.9999983520508,2|8,0:0|1:0,0:0:0:0:
243,54,130713,1,2,0:0:0:0:
243,54,130792,2,0,P|218:42|192:41,1,53.9999983520508,2|2,0:0|0:0,0:0:0:0:
72,158,130950,5,0,3:0:0:0:
77,189,131028,1,2,0:0:0:0:
81,221,131107,1,2,0:0:0:0:
88,253,131187,2,0,B|124:270|124:270|191:253,1,107.999996704102,2|2,0:0|0:0,0:0:0:0:
242,305,131423,2,0,L|236:357,1,33.7500012874604,2|2,0:0|0:0,0:0:0:0:
92,379,131581,6,0,P|76:354|78:328,1,53.9999983520508,8|2,1:3|0:0,0:0:0:0:
190,253,131739,2,0,P|191:227|177:205,1,53.9999983520508,12|2,3:3|0:0,0:0:0:0:
18,215,131897,6,0,L|15:248,1,33.7500012874604,8|2,1:0|0:0,0:0:0:0:
92,379,132055,2,0,L|95:343,1,33.7500012874604,4|2,3:3|0:0,0:0:0:0:
189,252,132213,5,4,1:0:0:0:
211,254,132291,1,2,0:0:0:0:
232,256,132370,1,2,0:0:0:0:
254,258,132449,1,2,0:0:0:0:
275,259,132528,1,8,1:0:0:0:
285,312,132607,1,2,0:0:0:0:
321,351,132686,1,2,0:0:0:0:
373,364,132765,1,2,0:0:0:0:
423,346,132845,6,0,P|448:315|450:272,1,67.5000025749208,0|2,1:0|0:0,0:0:0:0:
261,198,133002,1,2,0:0:0:0:
261,198,133081,2,0,P|236:229|234:272,1,67.5000025749208,2|8,0:0|1:0,0:0:0:0:
430,218,133239,5,2,0:0:0:0:
430,218,133318,2,0,L|420:158,1,45,2|2,0:0|0:0,0:0:0:0:
292,114,133476,5,0,1:0:0:0:
258,74,133554,1,2,0:0:0:0:
272,23,133633,1,2,0:0:0:0:
322,6,133713,2,0,L|306:174,1,116.999994644165,2|2,0:0|0:0,0:0:0:0:
415,150,133950,5,2,0:0:0:0:
358,136,134029,1,2,0:0:0:0:
310,122,134108,2,0,L|223:133,1,67.5000025749208,4|4,1:3|3:3,0:0:0:0:
122,58,134266,5,4,3:3:0:0:
122,58,134345,1,12,3:3:0:0:
122,58,134423,1,8,1:0:0:0:
76,108,134502,1,12,3:3:0:0:
89,174,134581,1,8,3:3:0:0:
148,205,134660,1,8,3:3:0:0:
213,187,134739,2,0,P|240:154|240:118,1,67.5000025749208,4|0,1:0|0:0,0:0:0:0:
411,181,134897,5,2,0:0:0:0:
448,218,134975,1,2,0:0:0:0:
462,270,135054,1,8,1:0:0:0:
448,321,135133,1,2,0:0:0:0:
409,358,135212,1,2,0:0:0:0:
357,370,135291,1,2,0:0:0:0:
305,353,135371,6,0,B|294:323|294:323|309:272,1,58.4999973220826,0|2,1:0|0:0,0:0:0:0:
204,180,135529,2,0,L|209:238,1,58.4999973220826,2|0,0:0|0:0,0:0:0:0:
145,329,135687,2,0,L|74:317,1,58.4999973220826,8|2,1:0|0:0,0:0:0:0:
306,290,135845,2,0,L|374:279,1,67.5000025749208,2|2,0:0|0:0,0:0:0:0:
453,47,136002,6,0,B|399:34|399:34|351:74|362:129|401:161,1,202.500007724762,2|2,1:2|0:0,0:0:0:0:
450,269,136318,2,0,L|445:302,1,33.7500012874604,8|2,1:0|0:0,0:0:0:0:
430,375,136476,1,2,3:2:0:0:
172,232,136634,6,0,P|203:189|288:191,1,116.999994644165,8|12,1:3|1:3,0:0:0:0:
244,251,136871,1,4,3:0:0:0:
271,166,136950,2,0,P|197:175|159:239,1,153.000002918243,8|0,1:0|0:0,0:0:0:0:
191,311,137266,6,0,L|124:319,1,67.5000025749208,6|2,1:0|0:0,0:0:0:0:
43,217,137423,1,2,0:0:0:0:
32,208,137502,2,0,P|24:175|37:145,1,67.5000025749208,2|8,0:0|1:0,0:0:0:0:
143,79,137660,1,2,0:0:0:0:
173,83,137739,2,0,L|240:92,1,67.5000025749208,2|2,0:0|0:0,0:0:0:0:
424,192,137897,5,0,1:0:0:0:
466,158,137976,1,2,0:0:0:0:
468,104,138055,1,2,0:0:0:0:
435,61,138134,2,0,L|368:52,1,67.5000025749208,2|8,0:0|1:0,0:0:0:0:
271,164,138292,5,2,0:0:0:0:
261,181,138371,1,2,0:0:0:0:
220,187,138450,1,2,0:0:0:0:
180,193,138529,5,0,1:0:0:0:
134,222,138608,1,2,0:0:0:0:
124,275,138687,1,2,0:0:0:0:
146,322,138766,2,0,P|178:341|216:338,1,67.5000025749208,2|8,0:0|1:0,0:0:0:0:
468,283,138923,5,2,0:0:0:0:
426,231,139002,1,2,0:0:0:0:
359,237,139081,1,2,0:0:0:0:
345,260,139160,5,8,1:3:0:0:
323,276,139239,5,8,3:3:0:0:
268,277,139318,1,12,3:3:0:0:
226,241,139397,1,12,3:3:0:0:
220,187,139476,5,8,1:0:0:0:
202,158,139555,1,4,3:3:0:0:
171,143,139634,1,4,3:3:0:0:
137,141,139713,1,4,3:3:0:0:
109,160,139792,5,0,1:0:0:0:
33,134,139871,2,0,B|23:112|23:112|36:1,1,135.000005149842,2|2,0:0|0:0,0:0:0:0:
116,92,140108,2,0,L|109:160,1,67.5000025749208,8|2,1:0|0:0,0:0:0:0:
229,84,140266,2,0,L|236:16,1,67.5000025749208,2|2,0:0|0:0,0:0:0:0:
323,276,140423,5,0,1:0:0:0:
349,273,140502,1,2,0:0:0:0:
375,270,140581,1,2,0:0:0:0:
401,268,140660,1,2,0:0:0:0:
469,231,140739,5,8,1:0:0:0:
488,188,140818,1,2,0:0:0:0:
471,143,140897,1,2,0:0:0:0:
428,121,140976,1,2,0:0:0:0:
355,146,141055,6,0,L|287:150,1,67.5000025749208,0|2,1:0|0:0,0:0:0:0:
399,46,141213,1,2,0:0:0:0:
425,42,141292,2,0,P|457:48|486:66,1,67.5000025749208,2|8,0:0|1:0,0:0:0:0:
295,197,141450,5,2,0:0:0:0:
277,138,141529,1,2,0:0:0:0:
304,83,141608,1,2,0:0:0:0:
281,26,141687,5,8,1:3:0:0:
267,25,141766,1,2,0:0:0:0:
253,24,141845,1,12,3:3:0:0:
239,23,141923,1,2,0:0:0:0:
225,22,142002,1,8,1:0:0:0:
211,22,142081,1,2,0:0:0:0:
197,21,142160,1,4,3:3:0:0:
183,20,142239,1,2,0:0:0:0:
169,19,142318,5,4,1:0:0:0:
128,23,142397,1,2,0:0:0:0:
96,48,142476,1,2,0:0:0:0:
84,86,142555,1,2,0:0:0:0:
94,125,142634,1,8,1:0:0:0:
123,152,142713,1,2,0:0:0:0:
162,161,142792,1,2,0:0:0:0:
200,147,142871,1,2,0:0:0:0:
225,115,142950,5,0,1:0:0:0:
277,103,143029,1,2,0:0:0:0:
322,131,143108,1,2,0:0:0:0:
327,184,143187,1,2,0:0:0:0:
296,228,143266,1,8,1:0:0:0:
302,281,143345,1,2,0:0:0:0:
340,317,143423,1,2,0:0:0:0:
393,314,143502,1,2,0:0:0:0:
428,273,143581,6,0,L|506:282,1,67.5000025749208,0|0,1:0|0:0,0:0:0:0:
275,364,143739,1,2,0:0:0:0:
275,364,143818,1,2,0:0:0:0:
275,364,143897,2,0,P|261:333|261:300,1,67.5000025749208,8|2,1:0|0:0,0:0:0:0:
225,115,144055,2,0,P|225:148|211:178,1,67.5000025749208,2|2,0:0|0:0,0:0:0:0:
98,227,144213,5,4,1:3:0:0:
77,228,144292,1,4,3:3:0:0:
57,223,144371,1,4,3:3:0:0:
40,210,144450,1,12,3:3:0:0:
30,192,144529,5,8,1:0:0:0:
17,139,144608,1,12,3:3:0:0:
52,98,144687,1,8,3:3:0:0:
106,97,144766,1,8,3:3:0:0:
148,127,144845,6,0,P|177:145|210:147,1,67.5000025749208,4|2,1:0|0:0,0:0:0:0:
305,19,145002,6,0,P|240:17|199:68,1,135.000005149842,0|8,3:0|1:0,0:0:0:0:
251,213,145239,1,2,3:2:0:0:
268,201,145318,2,0,P|284:172|286:138,1,67.5000025749208,0|2,3:0|0:0,0:0:0:0:
154,19,145476,6,0,P|171:48|199:67,1,67.5000025749208,0|2,1:0|0:0,0:0:0:0:
293,98,145634,2,0,P|326:98|356:83,1,67.5000025749208,0|2,3:0|0:0,0:0:0:0:
384,8,145792,6,0,L|451:14,1,67.5000025749208,8|2,1:0|0:0,0:0:0:0:
480,192,145950,1,0,3:0:0:0:
477,178,146029,1,2,3:2:0:0:
475,164,146108,5,4,1:0:0:0:
422,153,146187,1,0,3:0:0:0:
375,180,146266,1,0,1:0:0:0:
372,233,146345,1,0,3:0:0:0:
400,278,146423,1,8,1:0:0:0:
395,331,146502,1,0,3:0:0:0:
351,362,146581,1,0,1:0:0:0:
297,358,146660,1,0,3:0:0:0:
258,319,146739,6,0,L|267:271,1,33.7500012874604,0|0,1:0|3:0,0:0:0:0:
230,317,146818,2,0,L|239:269,1,33.7500012874604,8|0,3:0|0:0,0:0:0:0:
202,317,146897,6,0,L|134:312,1,67.5000025749208,12|4,1:3|3:0,0:0:0:0:
37,261,147055,2,0,P|8:337|81:373,1,180,12|0,1:0|0:0,0:0:0:0:
222,182,147371,6,0,B|213:122|213:122|216:116|216:116|206:58,1,125.999996154785,6|2,1:0|0:0,0:0:0:0:
206,30,147608,1,2,0:0:0:0:
206,30,147687,1,8,1:0:0:0:
410,139,147845,1,2,0:0:0:0:
151,245,148002,5,4,1:3:0:0:
175,200,148081,1,4,3:0:0:0:
222,182,148160,1,8,3:0:0:0:
270,195,148239,1,12,3:0:0:0:
335,238,148318,5,8,1:0:0:0:
354,253,148397,1,12,3:3:0:0:
378,259,148476,1,8,3:3:0:0:
403,261,148555,1,8,3:3:0:0:
483,236,148634,5,4,1:0:0:0:
490,218,148713,1,2,0:0:0:0:
497,200,148792,2,0,B|506:168|506:168|487:119,1,62.9999980773926,2|2,0:0|0:0,0:0:0:0:
335,34,148950,5,8,1:0:0:0:
328,52,149029,1,2,0:0:0:0:
321,70,149108,2,0,B|312:102|312:102|331:151,1,62.9999980773926,2|2,0:0|0:0,0:0:0:0:
238,359,149266,5,8,1:3:0:0:
243,377,149345,5,8,3:0:0:0:
298,338,149423,1,8,3:0:0:0:
308,272,149502,1,12,3:0:0:0:
268,218,149581,1,8,1:0:0:0:
250,210,149660,1,12,3:0:0:0:
231,206,149739,2,0,L|123:221,1,62.9999980773926,4|4,3:0|3:0,0:0:0:0:
0,55,149897,5,4,1:0:0:0:
13,75,149976,1,0,0:0:0:0:
33,90,150055,1,2,0:0:0:0:
57,94,150134,1,2,0:0:0:0:
82,92,150213,5,8,1:0:0:0:
33,122,150292,1,2,0:0:0:0:
11,174,150371,1,2,0:0:0:0:
28,227,150450,1,2,0:0:0:0:
73,261,150529,5,4,1:3:0:0:
126,220,150607,1,4,3:0:0:0:
192,233,150686,1,4,3:0:0:0:
227,291,150765,1,12,3:0:0:0:
207,355,150844,1,8,1:0:0:0:
197,364,150923,1,12,3:0:0:0:
187,372,151002,2,0,L|109:360,1,62.9999980773926,8|8,3:0|3:0,0:0:0:0:
70,273,151160,5,4,1:0:0:0:
47,227,151239,1,2,0:0:0:0:
62,179,151318,1,2,0:0:0:0:
104,151,151397,1,2,0:0:0:0:
181,175,151476,6,0,L|166:250,3,62.9999980773926,8|2|2|2,1:0|0:0|0:0|0:0,0:0:0:0:
267,158,151792,5,8,1:3:0:0:
266,151,151870,1,8,3:0:0:0:
265,145,151949,1,8,3:0:0:0:
264,139,152028,1,12,3:0:0:0:
263,133,152107,1,8,1:0:0:0:
262,126,152186,1,12,3:0:0:0:
261,120,152265,1,4,3:0:0:0:
261,114,152344,1,4,3:0:0:0:
189,70,152423,6,0,P|165:90|136:102,1,62.9999980773926,4|2,1:0|0:0,0:0:0:0:
322,59,152581,6,0,P|350:75|381:81,1,62.9999980773926,2|2,0:0|0:0,0:0:0:0:
271,186,152739,5,8,1:0:0:0:
428,321,152897,5,2,0:0:0:0:
428,321,152976,1,2,0:0:0:0:
428,321,153055,2,0,L|442:233,1,62.9999980773926,4|4,1:3|3:0,0:0:0:0:
271,186,153213,1,4,3:0:0:0:
273,201,153292,2,0,L|282:263,2,62.9999980773926,12|8|12,3:0|1:0|3:0,0:0:0:0:
334,354,153529,5,8,3:0:0:0:
315,351,153608,1,8,3:0:0:0:
296,347,153687,2,0,L|217:332,1,62.9999980773926,4|2,1:0|0:0,0:0:0:0:
62,314,153845,5,2,0:0:0:0:
81,311,153924,1,2,0:0:0:0:
100,307,154003,2,0,L|179:292,1,62.9999980773926,8|2,1:0|0:0,0:0:0:0:
94,109,154160,5,2,0:0:0:0:
87,127,154239,1,2,0:0:0:0:
80,144,154318,1,8,1:3:0:0:
58,86,154396,1,8,3:0:0:0:
85,31,154475,1,8,3:0:0:0:
144,13,154554,1,12,3:0:0:0:
197,44,154634,5,8,1:0:0:0:
249,98,154713,5,4,3:0:0:0:
317,131,154791,5,4,3:0:0:0:
392,136,154870,5,4,3:0:0:0:
463,114,154950,6,0,P|491:86|475:1,1,125.999996154785,4|2,1:0|0:0,0:0:0:0:
317,131,155187,1,2,0:0:0:0:
313,149,155266,2,0,L|333:251,1,62.9999980773926,8|2,1:0|0:0,0:0:0:0:
342,286,155423,2,0,L|362:388,1,62.9999980773926,2|2,0:0|0:0,0:0:0:0:
103,308,155581,5,4,1:3:0:0:
141,244,155659,1,4,3:0:0:0:
214,257,155738,1,4,3:0:0:0:
229,329,155817,1,12,3:0:0:0:
168,370,155897,2,0,L|74:347,1,62.9999980773926,8|12,1:0|3:0,0:0:0:0:
0,191,156055,5,8,3:0:0:0:
18,186,156134,1,8,3:0:0:0:
36,180,156213,2,0,L|97:166,1,62.9999980773926,4|2,1:0|0:0,0:0:0:0:
224,232,156371,2,0,L|181:186,1,62.9999980773926,2|2,0:0|0:0,0:0:0:0:
176,43,156529,2,0,L|157:102,1,62.9999980773926,8|2,1:0|0:0,0:0:0:0:
35,190,156687,2,0,L|96:176,1,62.9999980773926,2|2,0:0|0:0,0:0:0:0:
311,333,156845,6,0,P|312:275|353:236,1,116.999994644165,8|12,1:3|1:3,0:0:0:0:
380,306,157082,1,4,3:0:0:0:
351,221,157161,2,0,P|297:271|303:344,1,153.000002918243,8|0,1:0|0:0,0:0:0:0:
482,211,157476,5,6,1:0:0:0:
473,196,157555,1,2,0:0:0:0:
458,186,157634,1,2,0:0:0:0:
440,184,157713,1,2,0:0:0:0:
423,189,157792,5,8,1:0:0:0:
418,151,157871,1,2,0:0:0:0:
389,126,157950,1,2,0:0:0:0:
351,121,158029,1,2,0:0:0:0:
318,140,158108,5,4,1:3:0:0:
318,89,158187,1,4,3:0:0:0:
283,52,158266,1,4,3:0:0:0:
232,45,158345,1,12,3:0:0:0:
191,72,158423,6,0,L|182:138,1,67.5000025749208,8|12,1:0|3:0,0:0:0:0:
54,250,158581,5,8,3:0:0:0:
67,254,158660,1,8,3:0:0:0:
80,258,158740,2,0,L|72:192,1,67.5000025749208,4|2,1:0|0:0,0:0:0:0:
37,96,158897,5,2,0:0:0:0:
37,96,158976,1,2,0:0:0:0:
37,96,159055,2,0,L|103:104,1,67.5000025749208,8|2,1:0|0:0,0:0:0:0:
318,140,159213,5,2,0:0:0:0:
338,137,159292,1,2,0:0:0:0:
358,135,159371,5,8,1:3:0:0:
383,87,159450,1,8,3:0:0:0:
356,40,159529,1,8,3:0:0:0:
302,31,159608,1,12,3:0:0:0:
262,68,159687,6,0,B|254:100|254:100|265:132,1,67.5000025749208,8|12,1:0|3:0,0:0:0:0:
434,210,159845,2,0,B|445:178|445:178|437:146,1,67.5000025749208,4|4,3:0|3:0,0:0:0:0:
265,132,160002,5,4,1:0:0:0:
229,113,160081,1,2,0:0:0:0:
188,113,160160,1,2,0:0:0:0:
157,139,160239,1,2,0:0:0:0:
144,177,160318,1,8,1:0:0:0:
131,215,160397,1,2,0:0:0:0:
100,241,160476,1,2,0:0:0:0:
59,241,160555,1,2,0:0:0:0:
23,222,160634,6,0,L|14:155,1,67.5000025749208,4|4,1:3|3:0,0:0:0:0:
164,286,160792,1,4,3:0:0:0:
162,304,160871,2,0,L|153:371,1,67.5000025749208,12|8,3:0|1:0,0:0:0:0:
254,233,161029,5,12,3:0:0:0:
314,225,161108,1,8,3:0:0:0:
374,217,161187,1,8,3:0:0:0:
434,210,161266,5,4,1:0:0:0:
475,231,161345,1,2,0:0:0:0:
489,275,161423,1,0,0:0:0:0:
478,321,161502,1,2,0:0:0:0:
444,354,161581,5,8,1:0:0:0:
367,365,161660,2,0,P|342:341|336:309,1,67.5000025749208,2|0,0:0|0:0,0:0:0:0:
267,59,161818,5,2,0:0:0:0:
274,74,161897,2,0,P|307:79|340:80,1,67.5000025749208,8|2,1:3|0:0,0:0:0:0:
424,34,162055,6,0,P|418:67|417:100,1,67.5000025749208,12|2,3:0|0:0,0:0:0:0:
464,183,162213,6,0,P|430:177|397:176,1,67.5000025749208,8|2,1:0|0:0,0:0:0:0:
314,225,162371,6,0,P|319:191|320:158,1,67.5000025749208,4|2,3:0|0:0,0:0:0:0:
200,100,162529,5,4,1:0:0:0:
180,105,162608,1,0,0:0:0:0:
159,103,162687,1,2,0:0:0:0:
141,93,162766,1,2,0:0:0:0:
127,77,162845,5,8,1:0:0:0:
82,62,162923,1,2,0:0:0:0:
37,77,163002,1,2,0:0:0:0:
17,120,163081,1,2,0:0:0:0:
28,165,163160,5,4,1:3:0:0:
81,193,163239,1,4,3:0:0:0:
108,246,163318,1,4,3:0:0:0:
89,303,163397,1,12,3:0:0:0:
36,332,163476,6,0,B|21:301|21:301|27:269,1,67.5000025749208,8|12,1:0|3:0,0:0:0:0:
178,206,163634,2,0,B|192:236|192:236|186:268,1,67.5000025749208,8|8,3:0|3:0,0:0:0:0:
220,341,163792,6,0,B|250:365|250:365|287:367,1,76.5000014591217,4|2,1:0|0:0,0:0:0:0:
438,298,163950,2,0,B|444:260|444:260|426:227,1,76.5000014591217,2|2,0:0|0:0,0:0:0:0:
292,131,164108,5,8,1:0:0:0:
281,111,164187,1,2,0:0:0:0:
274,73,164266,1,2,0:0:0:0:
299,35,164345,1,2,0:0:0:0:
351,27,164423,5,8,1:3:0:0:
402,60,164502,1,8,3:0:0:0:
403,128,164581,1,8,3:0:0:0:
338,173,164660,1,12,3:0:0:0:
262,151,164739,6,0,B|195:143|195:143|190:148|190:148|111:140,1,153.000002918243,8|4,1:0|3:0,0:0:0:0:
49,91,164976,1,4,3:0:0:0:
38,81,165056,6,0,P|27:45|44:12,1,76.5000014591217,4|0,1:0|0:0,0:0:0:0:
212,223,165213,2,0,P|223:259|206:292,1,76.5000014591217,0|2,3:0|0:0,0:0:0:0:
197,65,165371,6,0,L|274:73,1,76.5000014591217,8|0,1:0|0:0,0:0:0:0:
77,243,165529,2,0,L|0:234,1,76.5000014591217,0|0,3:0|0:0,0:0:0:0:
288,367,165687,5,0,1:0:0:0:
285,351,165766,1,0,0:0:0:0:
282,335,165845,1,0,3:0:0:0:
279,320,165923,1,0,0:0:0:0:
276,304,166002,6,0,L|351:314,1,76.5000014591217,8|0,1:0|0:0,0:0:0:0:
429,325,166160,2,0,L|504:335,1,76.5000014591217,0|0,3:0|0:0,0:0:0:0:
464,124,166318,5,8,1:3:0:0:
438,85,166397,1,4,3:0:0:0:
393,73,166476,1,4,1:3:0:0:
348,84,166555,1,12,3:0:0:0:
325,160,166634,5,8,1:0:0:0:
285,196,166713,1,12,3:0:0:0:
230,195,166792,1,8,1:3:0:0:
192,159,166871,1,8,3:0:0:0:
192,80,166950,5,8,1:3:0:0:
156,19,167029,1,12,1:3:0:0:
88,6,167108,1,12,1:3:0:0:
30,44,167187,1,4,1:3:0:0:
24,116,167266,5,8,1:0:0:0:
27,128,167581,5,4,1:0:0:0:
197,88,167739,1,2,0:3:0:0:
103,195,167897,1,8,1:0:0:0:
181,314,168055,2,0,L|306:329,1,90,2|0,0:3|1:0,0:0:0:0:
337,284,168292,5,2,0:0:0:0:
333,265,168371,1,2,0:3:0:0:
329,248,168450,1,2,0:0:0:0:
325,230,168529,1,8,1:0:0:0:
309,156,168687,1,2,0:3:0:0:
474,36,168845,6,0,B|488:79|488:79|463:129,1,90,0|2,1:0|0:3,0:0:0:0:
313,150,169160,2,0,L|403:161,1,90,8|2,1:0|0:3,0:0:0:0:
469,195,169397,1,2,0:0:0:0:
316,45,169555,5,2,0:0:0:0:
322,28,169634,1,2,0:3:0:0:
256,90,169792,6,0,B|206:95|206:95|199:101|199:101|138:108,1,107.999996704102,12|2,1:0|3:3,0:0:0:0:
0,10,170108,5,4,1:2:0:0:
53,100,170266,1,2,0:3:0:0:
11,195,170423,1,8,1:0:0:0:
159,319,170581,6,0,B|171:296|171:296|155:233,1,90,2|0,0:3|1:0,0:0:0:0:
212,183,170818,1,2,0:0:0:0:
231,186,170897,2,0,L|290:196,1,45,2|2,0:3|0:0,0:0:0:0:
86,286,171055,2,0,L|41:293,1,45,8|0,1:0|0:0,0:0:0:0:
248,356,171213,5,2,0:3:0:0:
248,356,171371,2,0,L|337:343,1,90,0|2,1:0|0:3,0:0:0:0:
155,233,171687,1,8,1:0:0:0:
367,186,171845,5,2,0:3:0:0:
350,183,171924,1,2,0:0:0:0:
342,257,172081,5,2,0:0:0:0:
325,254,172160,1,2,0:3:0:0:
473,375,172318,6,0,B|497:343|497:343|485:269,1,107.999996704102,12|0,1:0|0:0,0:0:0:0:
455,89,172634,5,4,1:2:0:0:
357,55,172792,1,2,0:3:0:0:
424,232,172950,1,8,1:0:0:0:
236,145,173108,6,0,L|343:133,1,107.999996704102,2|0,0:3|1:0,0:0:0:0:
357,55,173345,5,2,0:0:0:0:
335,58,173423,2,0,L|261:68,1,53.9999983520508,2|2,0:3|0:0,0:0:0:0:
205,76,173581,5,8,1:0:0:0:
343,132,173739,1,2,0:3:0:0:
226,252,173897,6,0,L|237:128,1,107.999996704102,0|2,1:0|0:3,0:0:0:0:
52,228,174213,1,8,1:0:0:0:
267,343,174371,5,2,0:3:0:0:
263,321,174450,1,2,0:0:0:0:
222,230,174608,5,2,0:0:0:0:
226,252,174687,1,2,0:3:0:0:
85,359,174845,6,0,B|121:353|121:353|200:381,1,107.999996704102,12|2,1:0|0:3,0:0:0:0:
294,207,175160,6,0,L|281:123,1,53.9999983520508,4|0,1:2|0:0,0:0:0:0:
222,230,175318,2,0,L|209:146,1,53.9999983520508,2|0,3:0|0:0,0:0:0:0:
373,99,175476,6,0,L|364:152,1,53.9999983520508,8|0,1:0|0:0,0:0:0:0:
445,123,175634,2,0,L|436:176,1,53.9999983520508,2|0,3:0|0:0,0:0:0:0:
222,230,175792,6,0,L|145:207,1,62.9999980773926,0|2,1:0|0:0,0:0:0:0:
445,123,175950,2,0,L|505:141,1,62.9999980773926,2|2,3:0|0:0,0:0:0:0:
387,289,176108,2,0,L|368:349,1,62.9999980773926,8|0,1:0|0:0,0:0:0:0:
280,64,176266,2,0,L|298:3,1,62.9999980773926,2|0,3:3|0:0,0:0:0:0:
110,83,176423,5,0,1:0:0:0:
111,89,176501,1,0,3:0:0:0:
112,95,176580,1,0,1:0:0:0:
113,101,176659,1,0,3:0:0:0:
114,107,176738,1,8,1:0:0:0:
116,113,176817,1,0,3:0:0:0:
117,120,176896,1,0,1:0:0:0:
118,126,176975,1,0,3:0:0:0:
119,132,177054,1,0,1:0:0:0:
134,206,177213,5,8,1:2:0:0:
0,53,177371,6,0,L|3:30,1,22.5,8|0,1:2|0:0,0:0:0:0:
110,83,177529,6,0,L|113:60,1,22.5,8|0,1:2|0:0,0:0:0:0:
220,113,177687,5,4,1:0:0:0:
162,0,177845,1,2,0:3:0:0:
144,172,178002,1,8,1:2:0:0:
296,132,178160,2,0,L|403:121,1,107.999996704102,2|0,0:3|1:0,0:0:0:0:
441,117,178397,5,2,0:0:0:0:
469,91,178476,1,2,0:3:0:0:
473,58,178555,1,2,0:0:0:0:
462,33,178634,2,0,P|438:20|411:21,1,53.9999983520508,8|0,1:2|0:0,0:0:0:0:
326,120,178792,2,0,P|327:147|341:170,1,53.9999983520508,2|0,0:3|0:0,0:0:0:0:
469,192,178950,5,0,1:0:0:0:
319,298,179108,1,2,0:3:0:0:
447,320,179266,1,8,1:2:0:0:
341,170,179423,5,2,0:3:0:0:
320,168,179502,1,2,0:0:0:0:
447,320,179660,5,2,0:0:0:0:
468,322,179739,1,2,0:3:0:0:
257,348,179897,6,0,B|233:320|233:320|241:249,1,107.999996704102,8|2,1:2|0:3,0:0:0:0:
140,192,180213,6,0,L|32:202,1,107.999996704102,4|2,1:2|0:3,0:0:0:0:
220,113,180529,1,8,1:2:0:0:
127,17,180687,2,0,B|103:45|103:45|112:116,1,107.999996704102,2|0,0:3|1:0,0:0:0:0:
140,192,180923,6,0,L|83:197,1,53.9999983520508,2|2,0:0|0:3,0:0:0:0:
23,245,181081,1,2,0:0:0:0:
14,259,181160,2,0,P|5:285|9:311,1,53.9999983520508,8|0,1:2|0:0,0:0:0:0:
153,360,181318,2,0,P|157:334|149:309,1,53.9999983520508,2|0,0:3|0:0,0:0:0:0:
199,246,181476,5,0,1:0:0:0:
330,258,181634,1,2,0:3:0:0:
148,308,181792,1,8,1:2:0:0:
244,181,181950,5,2,0:3:0:0:
260,186,182029,2,0,L|367:174,1,107.999996704102,2|2,0:0|0:0,0:0:0:0:
367,174,182266,1,2,0:3:0:0:
330,258,182423,6,0,L|276:265,1,53.9999983520508,8|0,1:2|0:0,0:0:0:0:
379,164,182581,2,0,L|432:156,1,53.9999983520508,0|0,3:0|0:0,0:0:0:0:
488,247,182739,6,0,B|509:273|509:273|502:347,1,107.999996704102,6|2,1:2|0:3,0:0:0:0:
367,174,183055,2,0,B|346:148|346:148|352:73,1,107.999996704102,8|2,1:2|0:3,0:0:0:0:
276,264,183371,5,4,1:3:0:0:
260,266,183450,1,2,0:0:0:0:
244,268,183529,1,2,0:3:0:0:
228,271,183608,1,2,0:0:0:0:
212,274,183687,2,0,L|158:266,1,53.9999983520508,8|0,1:2|0:0,0:0:0:0:
80,254,183845,2,0,L|26:246,1,53.9999983520508,6|0,0:3|0:0,0:0:0:0:
112,181,184002,5,4,1:2:0:0:
130,340,184160,1,4,0:3:0:0:
112,181,184318,1,8,1:2:0:0:
8,347,184476,5,2,0:3:0:0:
0,336,184555,2,0,L|53:329,1,53.9999983520508,2|8,0:0|1:3,0:0:0:0:
212,301,184713,1,2,0:0:0:0:
204,314,184792,2,0,L|257:306,1,53.9999983520508,2|4,0:3|0:3,0:0:0:0:
310,186,184950,6,0,B|296:214|296:214|305:244,1,62.9999980773926,8|0,1:2|0:0,0:0:0:0:
329,339,185108,5,4,0:3:0:0:
405,349,185187,1,12,0:3:0:0:
480,359,185266,2,0,P|478:327|464:300,1,62.9999980773926,6|0,1:2|0:0,0:0:0:0:
509,235,185423,2,0,P|480:221|450:219,1,62.9999980773926,12|0,0:3|0:0,0:0:0:0:
416,148,185581,2,0,P|389:166|373:191,1,62.9999980773926,8|0,1:2|0:0,0:0:0:0:
294,185,185739,2,0,P|296:217|310:244,1,62.9999980773926,12|0,0:3|0:0,0:0:0:0:
130,340,185897,6,0,P|133:298|121:257,1,85.4999977169037,12|2,1:3|0:0,0:0:0:0:
382,44,186055,2,0,P|379:86|391:127,1,85.4999977169037,14|2,0:3|0:0,0:0:0:0:
404,318,186213,6,0,P|362:315|321:327,1,85.4999977169037,8|0,1:2|0:0,0:0:0:0:
108,66,186371,2,0,P|150:69|191:57,1,85.4999977169037,10|0,0:3|0:0,0:0:0:0:
462,187,186529,5,6,1:2:0:0:
416,148,186608,1,4,0:3:0:0:
356,146,186687,1,4,3:0:0:0:
306,179,186766,1,12,0:3:0:0:
294,237,186845,5,8,1:2:0:0:
282,295,186923,1,12,0:3:0:0:
232,328,187002,1,8,3:3:0:0:
172,326,187081,1,8,0:3:0:0:
126,287,187160,6,0,L|131:233,1,54,6|8,1:2|0:3,0:0:0:0:
100,109,187476,6,0,B|40:124|23:186|52:226|52:226|54:198|74:179,1,202.500007724762,8|0,1:0|0:0,0:0:0:0:
73,179,187792,1,4,1:0:0:0:
256,192,187871,12,0,194108,0:0:0:0:
