osu file format v14

[General]
AudioFilename: audio.mp3
AudioLeadIn: 0
PreviewTime: 44384
Countdown: 0
SampleSet: Soft
StackLeniency: 0.7
Mode: 0
LetterboxInBreaks: 0
WidescreenStoryboard: 0

[Editor]
DistanceSpacing: 2.3
BeatDivisor: 8
GridSize: 32
TimelineZoom: 2.699998

[Metadata]
Title:Critical Cannonball (Extended ver.)
TitleUnicode:Critical Cannonball (Extended ver.)
Artist:SEPHID
ArtistUnicode:SEPHID
Creator:DeviousPanda
Version:Limit Break
Source:東方輝針城 ~ Double Dealing Character.
Tags:o!wc owc grand finals gf HD1 満月の竹林 mangetsu no chikurin bamboo forest of the full moon ZUN Touhou 14 Stage 3 Theme Kishinjou 東方Project drumstep j-core electronic instrumental video game paradogi xlolicore- my angel watame skydiver atalanta talulah waefwerf Sakura Blossom -_ascended_- ascended cycopton Wanpachi Gordon Lazarus Xoul Zelq
BeatmapID:2478754
BeatmapSetID:1189616

[Difficulty]
HPDrainRate:5.4
CircleSize:4.1
OverallDifficulty:9.4
ApproachRate:9.7
SliderMultiplier:2.2
SliderTickRate:1

[Events]
//Background and Video events
0,0,"53805150_p0.png",0,0
//Break Periods
2,107150,111434
//Storyboard Layer 0 (Background)
//Storyboard Layer 1 (Fail)
//Storyboard Layer 2 (Pass)
//Storyboard Layer 3 (Foreground)
//Storyboard Layer 4 (Overlay)
//Storyboard Sound Samples

[TimingPoints]
845.470825084464,315.789473684211,4,2,1,50,1,0
10950,-83.3333333333333,4,2,1,60,0,0
20424,-250,4,2,1,60,0,0
20740,-83.3333333333333,4,2,1,80,0,0
21134,-250,4,2,1,60,0,0
26108,-166.666666666667,4,2,1,60,0,0
36213,-125,4,2,1,60,0,0
38740,-166.666666666667,4,2,1,60,0,0
42529,-166.666666666667,4,2,1,40,0,0
43161,-100,4,2,1,60,0,0
43792,-100,4,2,1,40,0,0
44108,-100,4,2,1,50,0,0
44424,-100,4,2,1,60,0,0
44503,-100,4,2,1,65,0,0
44582,-100,4,2,1,70,0,0
44661,-100,4,2,1,75,0,0
44740,-100,4,2,1,80,0,0
44819,-100,4,2,1,85,0,0
44898,-100,4,2,1,90,0,0
44977,-100,4,2,1,95,0,0
45055,-100,4,2,1,100,0,0
45213,-166.666666666667,4,2,1,50,0,0
45687,-166.666666666667,4,2,1,70,0,0
46003,-50,4,2,1,90,0,0
46319,-83.3333333333333,4,2,1,80,0,1
56108,-125,4,2,1,80,0,1
56424,-100,4,2,1,55,0,0
65898,-166.666666666667,4,2,1,55,0,0
66213,-250,4,2,1,90,0,0
66529,-66.6666666666667,4,2,1,70,0,0
69371,-133.333333333333,4,2,1,70,0,0
69687,-66.6666666666667,4,2,1,70,0,0
70950,-50,4,2,1,70,0,0
71582,-66.6666666666667,4,2,1,70,0,0
72845,-57.1428571428571,4,2,1,70,0,0
73003,-66.6666666666667,4,2,1,70,0,0
74740,-100,4,2,1,70,0,0
76634,-66.6666666666667,4,2,1,85,0,1
85634,-83.3333333333333,4,2,1,85,0,1
86424,-50,4,2,1,85,0,1
86740,-100,4,2,1,65,0,0
87055,-66.6666666666667,4,2,1,65,0,0
88950,-250,4,2,1,65,0,0
89266,-66.6666666666667,4,2,1,65,0,0
91477,-100,4,2,1,65,0,0
92108,-66.6666666666667,4,2,1,65,0,0
94003,-100,4,2,1,65,0,0
94319,-66.6666666666667,4,2,1,65,0,0
96529,-200,4,2,1,65,0,0
96845,-100,4,2,1,65,0,0
100634,-66.6666666666667,4,2,1,65,0,0
101898,-83.3333333333333,4,2,1,85,0,1
105687,-100,4,2,1,55,0,0
106634,-100,4,2,1,75,0,0
106950,-100,4,2,1,45,0,0
114687,-200,4,2,1,45,0,0
115161,-133.333333333333,4,2,1,55,0,0
115477,-133.333333333333,4,2,1,65,0,0
115792,-100,4,2,1,75,0,0
118003,-66.6666666666667,4,2,1,75,0,0
118319,-100,4,2,1,75,0,0
120529,-250,4,2,1,75,0,0
120845,-100,4,2,1,75,0,0
122108,-100,4,2,1,48,0,0
122187,-100,4,2,1,50,0,0
122266,-100,4,2,1,52,0,0
122345,-100,4,2,1,54,0,0
122424,-100,4,2,1,56,0,0
122503,-100,4,2,1,58,0,0
122582,-100,4,2,1,60,0,0
122661,-100,4,2,1,62,0,0
122740,-100,4,2,1,64,0,0
122819,-100,4,2,1,66,0,0
122898,-100,4,2,1,68,0,0
122977,-100,4,2,1,70,0,0
123055,-100,4,2,1,72,0,0
123134,-100,4,2,1,74,0,0
123213,-100,4,2,1,76,0,0
123292,-100,4,2,1,78,0,0
123371,-100,4,2,1,80,0,0
123450,-100,4,2,1,82,0,0
123529,-100,4,2,1,84,0,0
123608,-100,4,2,1,86,0,0
123687,-100,4,2,1,78,0,0
123766,-100,4,2,1,80,0,0
123845,-100,4,2,1,82,0,0
123924,-100,4,2,1,84,0,0
124003,-100,4,2,1,86,0,0
124082,-100,4,2,1,88,0,0
124161,-100,4,2,1,90,0,0
124240,-100,4,2,1,92,0,0
124319,-100,4,2,1,94,0,0
124398,-100,4,2,1,96,0,0
124477,-100,4,2,1,98,0,0
124555,-100,4,2,1,100,0,0
124674,-100,4,2,1,55,0,0
125266,-100,4,2,1,75,0,0
126845,-333.333333333333,4,2,1,100,0,0
127161,-62.5,4,2,1,95,0,1
129529,-100,4,2,1,95,0,1
131187,-62.5,4,2,1,95,0,1
131582,-83.3333333333333,4,2,1,95,0,1
131898,-71.4285714285714,4,2,1,95,0,1
133477,-83.3333333333333,4,2,1,95,0,1
134740,-62.5,4,2,1,95,0,1
136003,-71.4285714285714,4,2,1,95,0,1
136950,-500,4,2,1,95,0,0
137266,-62.5,4,2,1,95,0,1
141687,-83.3333333333333,4,2,1,95,0,1
142003,-71.4285714285714,4,2,1,95,0,1
143898,-83.3333333333333,4,2,1,95,0,1
144845,-71.4285714285714,4,2,1,95,0,1
145477,-62.5,4,2,1,95,0,1
147055,-55.5555555555556,4,2,1,75,0,0
147371,-62.5,4,2,1,100,0,1
157161,-333.333333333333,4,2,1,75,0,0
157477,-62.5,4,2,1,100,0,1
167582,-100,4,2,1,65,0,0
177213,-100,4,2,1,55,0,0
177687,-133.333333333333,4,2,1,50,0,0
187161,-333.333333333333,4,2,1,60,0,0
187477,-66.6666666666667,4,2,1,80,0,0
187871,-100,4,2,1,5,0,0

[Colours]
Combo1 : 153,255,0
Combo2 : 255,167,34
Combo3 : 54,254,145
Combo4 : 255,100,100

[HitObjects]
137,123,845,5,4,1:1:0:0:
177,57,1003,1,2,0:3:0:0:
107,23,1161,1,8,1:2:0:0:
0,138,1319,6,0,P|43:169|50:228,1,110,6|2,0:0|1:2,0:0:0:0:
102,276,1555,1,2,0:0:0:0:
115,319,1634,1,2,0:3:0:0:
139,329,1713,1,2,0:0:0:0:
153,328,1792,6,0,B|174:310|174:310|171:275,1,55,8|0,1:2|0:0,0:0:0:0:
38,319,1950,2,0,B|28:345|28:345|48:373,1,55,2|0,0:3|0:0,0:0:0:0:
234,379,2108,5,0,1:0:0:0:
304,352,2266,1,2,0:3:0:0:
274,281,2424,1,8,1:2:0:0:
402,328,2582,5,2,0:3:0:0:
413,321,2661,2,0,L|421:245,1,55,2|0,0:0|1:0,0:0:0:0:
347,156,2819,1,2,0:0:0:0:
354,160,2898,2,0,L|365:235,1,55,2|0,0:3|0:0,0:0:0:0:
504,240,3055,5,10,1:2:0:0:
504,240,3213,1,2,0:3:0:0:
504,240,3371,5,4,1:0:0:0:
444,182,3529,1,2,0:3:0:0:
349,283,3687,1,8,1:2:0:0:
203,176,3845,6,0,P|213:119|276:80,1,110,2|0,0:3|1:0,0:0:0:0:
319,111,4082,1,2,0:0:0:0:
331,119,4161,2,0,P|370:118|400:84,1,55,2|2,0:3|0:0,0:0:0:0:
512,45,4319,6,0,B|514:22|514:22|492:0,1,55,8|0,1:2|0:0,0:0:0:0:
426,21,4477,2,0,B|425:45|425:45|447:67,1,55,2|0,0:3|0:0,0:0:0:0:
491,195,4634,5,0,1:0:0:0:
411,177,4792,1,2,0:3:0:0:
498,189,4950,1,8,1:2:0:0:
394,301,5108,5,2,0:3:0:0:
379,285,5187,2,0,L|305:277,1,55,2|0,0:0|1:0,0:0:0:0:
262,210,5345,5,2,0:0:0:0:
253,218,5424,2,0,L|156:229,1,55,2|0,0:3|0:0,0:0:0:0:
136,268,5582,5,8,1:2:0:0:
439,246,5740,5,2,3:3:0:0:
138,275,5898,5,4,1:0:0:0:
53,302,6055,1,2,0:3:0:0:
19,216,6213,1,8,1:2:0:0:
193,105,6371,6,0,P|238:132|329:116,1,110,2|0,0:3|1:0,0:0:0:0:
346,78,6608,1,2,0:0:0:0:
348,34,6687,1,2,0:3:0:0:
325,15,6766,1,2,0:0:0:0:
305,14,6845,6,0,B|280:29|280:29|275:55,1,55,8|0,1:2|0:0,0:0:0:0:
417,121,7003,2,0,B|431:95|431:95|422:70,1,55,2|0,0:3|0:0,0:0:0:0:
191,23,7161,5,0,1:0:0:0:
100,44,7319,1,2,0:3:0:0:
0,67,7477,1,8,1:2:0:0:
147,241,7634,5,2,0:3:0:0:
156,239,7713,2,0,B|170:215|170:215|156:170,1,55,2|0,0:0|1:0,0:0:0:0:
42,164,7871,5,2,0:0:0:0:
39,172,7950,2,0,B|52:196|52:196|98:206,1,55,2|0,0:3|0:0,0:0:0:0:
222,109,8108,6,0,L|83:123,1,110,8|2,1:2|0:3,0:0:0:0:
25,332,8424,5,2,1:2:0:0:
135,327,8582,1,2,3:0:0:0:
363,283,8740,5,8,1:0:0:0:
226,258,8898,1,2,3:0:0:0:
246,358,9055,5,2,1:2:0:0:
246,360,9134,1,2,0:0:0:0:
249,366,9213,1,2,3:0:0:0:
251,373,9292,1,2,0:0:0:0:
254,380,9371,5,8,1:0:0:0:
308,169,9529,1,0,3:0:0:0:
143,40,9687,5,6,1:2:0:0:
112,41,9766,1,0,3:0:0:0:
86,64,9845,1,0,3:0:0:0:
77,95,9924,1,0,3:0:0:0:
87,122,10003,1,8,1:0:0:0:
110,142,10082,1,0,3:0:0:0:
118,169,10161,5,2,3:0:0:0:
114,178,10240,2,0,L|121:247,1,55,2|0,3:0|1:0,0:0:0:0:
379,158,10398,5,2,3:0:0:0:
384,164,10477,2,0,L|377:202,1,27.5,8|0,1:2|0:0,0:0:0:0:
208,90,10634,6,0,L|213:129,1,27.5,8|0,1:2|0:0,0:0:0:0:
314,45,10792,6,0,L|308:82,1,27.5,8|0,1:2|0:0,0:0:0:0:
217,245,10950,5,4,1:0:0:0:
315,230,11108,1,2,0:3:0:0:
211,251,11266,6,0,B|190:229|190:229|197:165,1,65.9999979858399,8|0,1:0|0:0,0:0:0:0:
380,265,11424,2,0,B|405:291|405:291|385:387,1,131.99999597168,2|0,0:3|1:0,0:0:0:0:
299,351,11661,5,2,0:0:0:0:
279,332,11740,1,2,0:3:0:0:
230,328,11819,1,2,0:0:0:0:
189,352,11898,6,0,L|104:338,1,65.9999979858399,8|0,1:0|0:0,0:0:0:0:
293,153,12055,2,0,L|403:136,1,98.9999969787599,2|0,0:3|0:0,0:0:0:0:
390,137,12213,6,0,B|416:164|416:164|405:216,1,65.9999979858399,2|0,1:2|0:0,0:0:0:0:
210,168,12371,2,0,L|220:99,1,65.9999979858399,2|0,0:3|0:0,0:0:0:0:
332,281,12529,2,0,L|340:215,1,65.9999979858399,8|0,1:0|0:0,0:0:0:0:
360,48,12687,5,2,0:3:0:0:
294,70,12766,1,2,0:0:0:0:
122,17,12924,5,2,0:0:0:0:
193,32,13003,1,2,0:3:0:0:
215,287,13161,6,0,B|246:262|246:262|222:88,1,197.99999395752,8|0,1:0|0:0,0:0:0:0:
114,97,13477,5,4,1:0:0:0:
95,195,13634,1,2,0:3:0:0:
121,92,13792,6,0,B|110:61|110:61|69:51,1,65.9999979858399,8|0,1:0|0:0,0:0:0:0:
34,250,13950,2,0,L|163:224,1,131.99999597168,2|0,0:3|1:0,0:0:0:0:
213,161,14187,5,2,0:0:0:0:
242,156,14266,1,2,0:3:0:0:
277,176,14345,1,2,0:0:0:0:
289,220,14424,6,0,L|266:331,1,65.9999979858399,8|0,1:0|0:0,0:0:0:0:
124,375,14582,2,0,L|107:257,1,98.9999969787599,2|0,0:3|0:0,0:0:0:0:
109,277,14740,6,0,B|143:264|143:264|171:289,1,65.9999979858399,0|0,1:0|0:0,0:0:0:0:
346,370,14898,2,0,B|311:382|311:382|283:357,1,65.9999979858399,2|0,0:3|0:0,0:0:0:0:
222,333,15055,5,8,1:0:0:0:
373,221,15213,5,2,0:3:0:0:
358,294,15292,1,2,0:0:0:0:
114,180,15450,5,2,0:0:0:0:
129,107,15529,1,2,0:3:0:0:
167,247,15687,6,0,B|222:270|249:221|247:209|246:193|269:149|324:166,1,197.99999395752,8|0,1:0|0:0,0:0:0:0:
323,165,16003,6,0,B|359:130|359:130|330:29,1,131.99999597168,4|2,1:0|0:3,0:0:0:0:
70,20,16319,2,0,B|34:55|34:55|63:156,1,131.99999597168,8|2,1:0|0:3,0:0:0:0:
195,26,16634,5,0,1:0:0:0:
195,26,16713,1,2,0:0:0:0:
195,26,16792,1,2,0:3:0:0:
195,26,16871,1,2,0:0:0:0:
195,26,16950,6,0,L|285:9,1,65.9999979858399,8|0,1:0|0:0,0:0:0:0:
179,193,17108,2,0,L|89:176,1,65.9999979858399,2|0,0:3|0:0,0:0:0:0:
43,115,17266,5,0,1:0:0:0:
191,102,17424,1,0,3:0:0:0:
341,86,17582,1,8,1:0:0:0:
275,231,17740,5,2,2:3:0:0:
286,227,17819,2,0,B|279:192|279:192|310:162,1,65.9999979858399,2|0,2:0|1:0,2:0:0:0:
482,211,17977,5,2,0:0:0:0:
479,224,18055,1,2,0:3:0:0:
476,236,18134,1,2,0:0:0:0:
473,250,18213,2,0,B|446:271|446:271|404:259,1,65.9999979858399,8|0,1:0|2:0,2:0:0:0:
414,49,18371,5,0,3:3:0:0:
414,49,18450,1,0,3:0:0:0:
414,49,18529,2,0,L|427:147,1,65.9999979858399,4|0,1:0|0:0,0:0:0:0:
323,363,18687,2,0,L|336:265,1,65.9999979858399,2|0,3:3|0:0,0:0:0:0:
228,147,18845,6,0,L|326:134,1,65.9999979858399,8|0,1:0|0:0,0:0:0:0:
512,305,19003,2,0,L|414:292,1,65.9999979858399,0|0,3:0|0:0,0:0:0:0:
382,212,19161,5,4,1:0:0:0:
382,212,19240,1,2,0:0:0:0:
382,212,19319,1,0,3:0:0:0:
382,212,19398,1,2,0:0:0:0:
382,212,19477,5,8,1:0:0:0:
141,157,19634,1,0,3:0:0:0:
111,301,19792,5,6,1:2:0:0:
184,313,19871,1,4,3:3:0:0:
248,276,19950,1,4,1:3:0:0:
260,203,20029,1,12,3:3:0:0:
269,128,20108,1,8,1:0:0:0:
331,88,20187,1,12,3:3:0:0:
406,90,20266,1,8,1:3:0:0:
457,144,20345,1,8,1:3:0:0:
451,220,20424,6,0,L|365:214,1,66,6|8,1:2|3:0,0:0:0:0:
23,205,20740,6,0,L|253:190,1,230.99999295044,12|0,1:0|0:0,0:0:0:0:
253,190,21055,5,4,1:0:0:0:
256,192,21134,12,0,24845,0:0:0:0:
81,84,26108,6,0,P|98:136|117:219,1,131.99999597168,6|0,0:0|0:0,0:0:0:0:
244,256,26582,2,0,P|227:204|208:121,1,131.99999597168,2|0,0:0|0:0,0:0:0:0:
199,124,27055,1,2,0:0:0:0:
115,211,27371,6,0,P|115:268|155:288,1,98.9999969787599,2|0,0:0|0:0,0:0:0:0:
146,287,27687,1,2,0:0:0:0:
96,351,27845,2,0,P|184:330|235:324,1,131.99999597168,2|2,0:0|0:0,0:0:0:0:
232,318,28319,1,2,0:0:0:0:
318,371,28634,5,2,0:0:0:0:
374,317,28950,1,2,0:0:0:0:
374,317,29108,2,0,P|384:246|401:184,1,131.99999597168,2|0,0:0|0:0,0:0:0:0:
313,109,29582,2,0,P|302:179|293:227,1,98.9999969787599,2|0,0:0|0:0,0:0:0:0:
297,206,29898,1,2,0:0:0:0:
447,126,30213,5,2,0:0:0:0:
383,93,30371,2,0,B|418:102|442:79|442:72|441:66|467:41|501:47,1,131.99999597168,2|2,0:0|0:0,0:0:0:0:
504,55,30845,2,0,P|457:55|434:39,1,65.9999979858399,2|0,0:0|0:0,0:0:0:0:
261,2,31161,6,0,P|288:23|284:71,1,65.9999979858399,2|2,0:0|0:0,0:0:0:0:
130,90,31477,2,0,P|134:56|178:35,1,65.9999979858399,2|2,0:0|0:0,0:0:0:0:
276,165,31792,2,0,P|244:177|204:150,1,65.9999979858399,2|2,0:0|0:0,0:0:0:0:
226,93,32108,5,2,0:0:0:0:
226,93,32266,1,2,0:0:0:0:
226,93,32424,5,2,0:0:0:0:
151,115,32582,1,2,0:0:0:0:
82,90,32740,1,2,0:0:0:0:
50,24,32898,1,2,0:0:0:0:
77,98,33055,5,2,0:0:0:0:
0,228,33213,1,2,0:0:0:0:
65,176,33371,1,2,0:0:0:0:
0,94,33529,5,2,0:0:0:0:
0,94,33608,1,2,0:0:0:0:
0,94,33687,1,2,0:0:0:0:
256,192,33766,12,0,35898,0:0:0:0:
303,133,36213,5,4,1:2:0:0:
376,119,36371,1,2,0:0:0:0:
429,176,36529,1,2,0:0:0:0:
358,196,36687,2,0,P|348:114|331:13,1,176,2|2,0:0|0:0,0:0:0:0:
332,21,37161,6,0,B|377:14|377:14|419:57,1,88,2|2,0:0|0:0,0:0:0:0:
257,47,37477,1,2,0:0:0:0:
181,37,37634,1,2,0:0:0:0:
135,100,37792,1,2,0:0:0:0:
161,176,37950,1,2,0:0:0:0:
278,258,38108,5,2,0:0:0:0:
324,197,38265,1,2,0:0:0:0:
293,125,38423,1,2,0:0:0:0:
216,114,38581,1,2,0:0:0:0:
187,260,38740,6,0,P|194:292|198:337,1,65.9999979858399,2|2,0:0|0:0,0:0:0:0:
356,384,39055,2,0,P|360:355|371:309,1,65.9999979858399,2|2,0:0|0:0,0:0:0:0:
289,328,39371,5,2,0:0:0:0:
289,328,39529,1,2,0:0:0:0:
289,328,39687,1,2,0:0:0:0:
289,328,39845,1,2,0:0:0:0:
424,263,40003,5,2,0:0:0:0:
462,202,40161,1,2,0:0:0:0:
411,149,40319,1,2,0:0:0:0:
411,149,40398,1,2,0:0:0:0:
364,210,40634,1,2,0:0:0:0:
364,210,40792,6,0,L|310:203,1,32.99999899292,0|0,3:0|0:0,0:0:0:0:
447,64,40950,6,0,L|323:80,1,98.9999969787599,8|0,1:0|0:0,0:0:0:0:
348,76,41266,5,4,1:2:0:0:
278,56,41424,1,4,3:0:0:0:
168,177,41582,5,4,1:3:0:0:
250,155,41740,1,4,3:3:0:0:
398,267,41898,5,12,1:3:0:0:
292,237,42056,1,12,3:0:0:0:
131,365,42214,5,12,1:3:0:0:
260,330,42371,1,12,3:3:0:0:
284,62,42529,6,0,L|292:94,1,32.99999899292,8|0,1:3|0:0,0:0:0:0:
245,159,42687,2,0,L|236:191,1,32.99999899292,8|0,3:0|0:0,0:0:0:0:
297,243,42845,6,0,L|305:275,1,32.99999899292,8|0,1:3|0:0,0:0:0:0:
255,336,43003,2,0,L|246:368,1,32.99999899292,8|0,3:0|0:0,0:0:0:0:
359,128,43161,6,0,P|390:123|439:111,1,55,8|0,1:3|0:0,0:0:0:0:
196,284,43319,2,0,P|163:279|113:265,1,55,8|0,3:0|0:0,0:0:0:0:
192,162,43477,6,0,P|188:134|176:78,1,55,8|0,1:3|0:0,0:0:0:0:
386,284,43635,2,0,P|380:314|376:372,1,55,8|0,3:3|0:0,0:0:0:0:
132,50,43792,5,8,3:1:0:0:
155,35,43871,1,4,0:3:0:0:
185,31,43950,1,4,0:3:0:0:
215,37,44029,1,4,0:3:0:0:
235,58,44108,1,8,3:1:0:0:
261,90,44187,1,4,3:3:0:0:
305,98,44266,1,4,3:3:0:0:
336,74,44345,1,4,3:3:0:0:
341,41,44424,5,8,3:1:0:0:
295,30,44503,1,12,3:3:0:0:
257,66,44582,1,12,3:3:0:0:
252,120,44661,1,12,3:3:0:0:
289,160,44740,1,8,3:1:0:0:
318,210,44819,1,8,3:3:0:0:
304,268,44898,1,8,3:3:0:0:
250,294,44977,1,8,3:3:0:0:
186,253,45055,5,4,1:0:0:0:
415,159,45213,6,0,L|365:163,1,32.99999899292,2|0,0:3|0:0,0:0:0:0:
422,153,45371,2,0,L|472:157,1,32.99999899292,2|0,0:3|0:0,0:0:0:0:
415,147,45529,2,0,L|365:151,1,32.99999899292,2|0,0:3|0:0,0:0:0:0:
415,239,45687,5,0,3:2:0:0:
433,236,45766,1,0,3:2:0:0:
411,233,45845,1,0,3:2:0:0:
435,230,45924,1,0,3:2:0:0:
506,268,46003,6,0,B|529:299|529:299|382:316|382:316|357:288|357:288|227:305,1,330,12|0,1:1|0:0,0:0:0:0:
146,338,46319,5,4,1:0:0:0:
122,347,46398,1,2,0:2:0:0:
82,335,46477,1,2,0:2:0:0:
63,290,46555,1,2,0:2:0:0:
82,239,46634,2,0,P|114:224|163:227,1,65.9999979858399,8|0,1:0|0:0,0:0:0:0:
184,149,46792,5,2,0:2:0:0:
184,149,46871,1,2,0:2:0:0:
184,149,46950,1,0,1:2:0:0:
211,170,47029,1,2,0:2:0:0:
267,163,47108,1,2,0:2:0:0:
301,111,47187,1,2,0:2:0:0:
316,44,47266,1,8,1:0:0:0:
375,2,47345,1,4,3:3:0:0:
448,12,47424,1,12,3:3:0:0:
482,82,47503,1,8,3:3:0:0:
458,160,47582,6,0,P|409:146|363:143,1,65.9999979858399,4|2,1:0|0:0,0:0:0:0:
223,43,47740,1,2,0:0:0:0:
216,50,47819,1,2,0:0:0:0:
211,57,47898,2,0,P|163:63|129:71,1,65.9999979858399,8|2,1:0|0:2,0:0:0:0:
358,225,48055,5,2,0:2:0:0:
351,222,48134,1,2,0:2:0:0:
342,220,48213,2,0,P|309:179|263:145,1,65.9999979858399,2|2,1:2|0:0,0:0:0:0:
293,3,48371,2,0,P|303:54|329:112,1,65.9999979858399,2|2,0:2|0:0,0:0:0:0:
282,270,48529,5,8,1:0:0:0:
324,302,48608,1,8,3:3:0:0:
368,298,48687,1,12,3:3:0:0:
388,285,48766,1,4,3:3:0:0:
463,289,48845,5,4,1:0:0:0:
466,276,48924,1,2,0:2:0:0:
470,262,49003,1,2,0:2:0:0:
475,250,49082,1,2,0:2:0:0:
448,224,49161,5,8,1:0:0:0:
443,206,49240,1,2,0:2:0:0:
438,187,49319,1,2,0:2:0:0:
431,171,49398,1,2,0:2:0:0:
453,130,49477,6,0,B|480:111|480:111|515:116,1,65.9999979858399,2|2,1:2|0:0,0:0:0:0:
361,192,49634,2,0,B|328:194|328:194|300:173,1,65.9999979858399,2|2,0:2|0:0,0:0:0:0:
396,20,49792,5,8,1:0:0:0:
396,20,49871,1,4,3:0:0:0:
396,20,49950,1,12,3:0:0:0:
396,20,50029,1,8,3:0:0:0:
396,20,50108,5,4,1:0:0:0:
370,48,50187,1,2,0:2:0:0:
312,56,50266,1,2,0:2:0:0:
258,33,50345,1,2,0:2:0:0:
200,8,50424,1,8,1:0:0:0:
131,17,50503,1,2,0:2:0:0:
80,67,50582,1,2,0:2:0:0:
71,141,50661,1,2,0:2:0:0:
122,202,50740,5,8,1:3:0:0:
173,206,50819,1,8,3:0:0:0:
200,177,50898,1,8,3:0:0:0:
199,143,50977,1,12,3:0:0:0:
179,129,51055,1,8,1:0:0:0:
167,129,51134,1,12,3:0:0:0:
161,135,51213,1,4,3:0:0:0:
161,139,51292,1,4,3:0:0:0:
163,142,51371,6,0,P|158:108|153:47,1,65.9999979858399,4|2,1:0|0:0,0:0:0:0:
47,217,51529,2,0,P|44:183|37:122,1,65.9999979858399,2|2,0:2|0:0,0:0:0:0:
8,13,51687,6,0,P|4:45|0:78,1,65.9999979858399,8|2,1:0|0:0,0:0:0:0:
218,212,51845,2,0,P|214:244|211:277,1,65.9999979858399,2|2,0:2|0:0,0:0:0:0:
432,240,52003,5,0,1:0:0:0:
422,212,52082,1,2,0:2:0:0:
390,190,52161,1,2,0:2:0:0:
343,191,52240,1,2,0:2:0:0:
314,233,52319,1,8,1:0:0:0:
294,284,52398,1,4,3:0:0:0:
262,342,52477,1,12,3:0:0:0:
195,355,52555,1,8,3:0:0:0:
136,311,52634,6,0,B|122:279|122:279|137:238,1,65.9999979858399,4|2,1:0|0:0,0:0:0:0:
252,88,52792,2,0,B|265:119|265:119|250:160,1,65.9999979858399,2|2,0:2|0:0,0:0:0:0:
56,88,52950,6,0,B|87:74|87:74|128:89,1,65.9999979858399,8|2,1:0|0:0,0:0:0:0:
300,289,53108,2,0,B|268:302|268:302|227:287,1,65.9999979858399,2|2,0:2|0:0,0:0:0:0:
212,19,53266,5,0,1:0:0:0:
251,8,53345,1,2,0:2:0:0:
300,22,53424,1,2,0:2:0:0:
327,71,53503,1,2,0:2:0:0:
312,134,53582,2,0,P|220:123|152:122,1,131.99999597168,8|8,1:0|3:0,0:0:0:0:
21,81,53819,5,4,3:0:0:0:
30,88,53898,1,4,1:0:0:0:
181,49,54055,1,2,1:2:0:0:
128,207,54213,5,8,1:0:0:0:
92,172,54292,1,2,3:2:0:0:
38,170,54371,1,2,1:2:0:0:
47,14,54529,5,2,1:2:0:0:
187,164,54687,1,2,1:2:0:0:
123,0,54845,5,8,1:0:0:0:
64,250,55003,1,0,1:0:0:0:
64,250,55082,1,0,1:0:0:0:
64,250,55161,5,4,1:0:0:0:
75,298,55240,1,8,1:3:0:0:
127,323,55319,1,8,1:3:0:0:
187,311,55398,1,12,1:3:0:0:
225,258,55477,1,8,1:0:0:0:
241,190,55555,1,8,1:3:0:0:
298,145,55634,1,4,1:3:0:0:
372,147,55713,1,4,1:3:0:0:
421,213,55792,6,0,P|415:235|415:273,4,32.99999899292,4|0|0|4|0,1:0|3:0|1:0|3:0|1:0,0:0:0:0:
488,169,56029,1,0,1:0:0:0:
488,169,56108,2,0,B|496:130|496:130|460:90|460:90|469:38,1,132,8|0,1:0|0:0,0:0:0:0:
459,46,56424,5,4,1:0:0:0:
383,52,56582,1,2,0:3:0:0:
327,2,56740,1,8,0:2:0:0:
255,12,56898,1,2,0:3:0:0:
336,112,57134,5,2,0:0:0:0:
335,122,57213,1,2,0:3:0:0:
333,133,57292,1,2,0:0:0:0:
332,144,57371,1,2,0:3:0:0:
358,214,57529,1,2,0:3:0:0:
385,327,57687,5,6,0:2:0:0:
418,261,57845,1,2,0:3:0:0:
354,220,58003,1,2,0:3:0:0:
316,362,58161,5,2,0:3:0:0:
318,370,58240,1,2,0:0:0:0:
270,273,58398,5,2,0:0:0:0:
272,265,58477,1,2,0:3:0:0:
180,351,58634,6,0,P|110:341|117:249,1,165,12|0,1:2|0:0,0:0:0:0:
101,251,58950,1,4,1:0:0:0:
125,183,59108,1,2,0:3:0:0:
192,206,59266,1,2,0:3:0:0:
19,281,59424,6,0,P|16:232|-1:135,1,110,2|0,0:3|0:0,0:0:0:0:
67,124,59661,1,2,0:0:0:0:
77,119,59740,2,0,P|86:82|92:42,1,55,2|2,0:3|0:0,0:0:0:0:
40,7,59898,1,2,0:3:0:0:
23,0,59977,1,2,0:0:0:0:
6,5,60055,2,0,P|10:47|20:86,1,55,2|2,0:3|0:3,0:0:0:0:
189,167,60213,5,2,0:3:0:0:
334,126,60371,1,2,0:3:0:0:
196,175,60529,2,0,P|260:170|293:176,1,55,2|2,0:3|0:0,0:0:0:0:
400,204,60687,5,2,0:3:0:0:
398,212,60766,1,2,0:0:0:0:
450,136,60924,5,2,0:0:0:0:
453,128,61003,1,2,0:3:0:0:
512,243,61161,6,0,P|446:247|306:274,1,165,6|2,1:2|0:0,0:0:0:0:
281,218,61477,5,6,1:2:0:0:
274,252,61555,1,4,3:0:0:0:
248,275,61634,1,4,3:0:0:0:
208,278,61713,1,4,3:0:0:0:
177,258,61792,1,4,3:0:0:0:
160,224,61871,1,4,3:0:0:0:
122,210,61950,1,4,3:0:0:0:
86,220,62029,1,4,3:0:0:0:
68,256,62108,1,4,3:0:0:0:
79,297,62187,1,4,3:0:0:0:
112,308,62266,1,4,3:0:0:0:
143,298,62345,1,4,3:0:0:0:
163,261,62424,1,4,3:0:0:0:
156,222,62503,1,4,3:0:0:0:
136,189,62582,1,4,3:0:0:0:
130,145,62661,1,4,3:0:0:0:
142,104,62740,5,6,1:2:0:0:
113,146,62819,1,12,3:0:0:0:
60,149,62898,1,12,3:0:0:0:
21,120,62977,1,12,3:0:0:0:
11,70,63055,1,12,3:0:0:0:
29,21,63134,1,12,3:0:0:0:
74,5,63213,1,12,3:0:0:0:
121,18,63292,1,12,3:0:0:0:
143,57,63371,1,12,3:0:0:0:
181,84,63450,1,12,3:0:0:0:
229,93,63529,1,12,3:0:0:0:
280,85,63608,1,12,3:0:0:0:
316,51,63687,1,12,3:0:0:0:
362,36,63766,1,12,3:0:0:0:
406,47,63845,1,12,3:0:0:0:
434,82,63924,1,12,3:0:0:0:
431,129,64003,6,0,L|348:120,1,55,6|8,1:2|3:3,0:0:0:0:
299,241,64161,2,0,L|374:234,1,55,8|8,1:3|3:0,0:0:0:0:
442,287,64319,6,0,L|451:204,1,55,8|8,1:3|3:0,0:0:0:0:
274,95,64477,2,0,L|281:170,1,55,8|8,1:3|3:0,0:0:0:0:
374,342,64634,5,6,1:2:0:0:
328,372,64713,1,8,3:0:0:0:
274,361,64792,1,8,1:3:0:0:
242,316,64871,1,8,3:0:0:0:
219,265,64950,1,8,1:3:0:0:
166,237,65029,1,8,3:0:0:0:
107,234,65108,1,8,1:3:0:0:
61,269,65187,1,8,3:0:0:0:
46,324,65266,6,0,P|51:345|52:369,14,27.5,6|8|8|8|8|8|8|8|8|8|8|8|8|8|8,1:2|3:3|1:3|3:3|1:3|3:3|1:3|3:3|1:3|3:3|1:3|3:3|1:3|3:3|1:3,0:0:0:0:
8,206,65898,6,0,P|54:212|108:229,1,98.9999969787599,4|8,1:0|3:2,0:0:0:0:
510,227,66213,6,0,P|469:218|428:205,1,77,12|0,1:0|0:0,0:0:0:0:
429,213,66529,6,0,P|343:212|346:364,1,247.500009441376,4|0,1:0|0:0,0:0:0:0:
396,329,66845,5,6,1:2:0:0:
401,319,66924,2,0,P|392:297|374:278,2,41.2500015735627,2|2|2,0:0|0:0|0:0,0:0:0:0:
323,346,67161,6,0,P|401:359|503:393,1,165.000006294251,6|0,1:2|0:0,0:0:0:0:
429,213,67398,2,0,P|356:203|252:171,1,165.000006294251,6|0,1:2|0:0,0:0:0:0:
190,138,67634,6,0,B|156:189|191:257|211:247|233:238|269:302|233:358,1,247.500009441376,6|0,1:2|0:0,0:0:0:0:
233,357,67950,2,0,B|197:372|197:372|160:325,1,82.5000031471254,6|0,1:2|0:0,0:0:0:0:
301,249,68108,6,0,L|111:270,1,165.000006294251,6|8,1:2|1:3,0:0:0:0:
137,267,68305,1,12,1:3:0:0:
137,267,68345,2,0,B|99:236|99:236|122:110,1,165.000006294251,12|0,1:0|0:0,0:0:0:0:
58,58,68582,6,0,L|148:48,1,82.5000031471254,0|0,1:0|0:0,0:0:0:0:
369,144,68740,6,0,B|243:132|243:132|236:137|236:137|105:126,1,247.500009441376,12|0,1:0|0:0,0:0:0:0:
236,110,69055,6,0,L|243:173,6,41.2500015735627,6|8|8|8|8|8|8,1:2|0:3|0:3|0:3|0:3|0:3|0:3,0:0:0:0:
129,133,69371,6,0,L|132:165,6,20.6250007867813,6|4|4|4|4|4|4,1:2|0:3|0:3|0:3|0:3|0:3|0:3,0:0:0:0:
265,37,69687,6,0,P|298:16|353:45,1,82.5000031471254,12|0,1:0|0:0,0:0:0:0:
408,11,69845,1,2,3:2:0:0:
413,16,69924,2,0,P|414:55|362:88,1,82.5000031471254,0|2,1:0|0:0,0:0:0:0:
370,155,70082,1,2,0:0:0:0:
355,161,70161,2,0,P|320:142|318:80,1,82.5000031471254,4|0,1:2|0:0,0:0:0:0:
491,126,70319,5,2,3:2:0:0:
464,174,70398,1,2,3:2:0:0:
481,212,70477,1,2,1:2:0:0:
466,242,70555,1,2,3:2:0:0:
471,260,70634,6,0,P|398:252|359:335,1,165.000006294251,6|8,1:2|3:0,0:0:0:0:
357,323,70871,1,4,3:0:0:0:
480,370,70950,6,0,B|423:381|423:381|319:203|319:203|228:222,2,330,12|4|4,1:0|1:2|1:2,0:0:0:0:
480,370,71582,5,4,1:0:0:0:
503,339,71661,1,2,3:2:0:0:
488,301,71740,1,2,3:2:0:0:
447,292,71819,1,2,3:2:0:0:
416,318,71898,5,6,1:2:0:0:
201,294,72055,5,2,3:2:0:0:
201,294,72213,2,0,P|221:228|238:93,1,165.000006294251,12|0,1:0|0:0,0:0:0:0:
408,32,72450,2,0,P|388:98|371:233,1,165.000006294251,6|0,1:2|0:0,0:0:0:0:
372,192,72687,6,0,B|412:203|412:203|448:173,1,82.5000031471254,6|0,1:2|0:0,0:0:0:0:
243,66,72845,2,0,B|199:55|177:96|179:100|182:105|161:139|110:132,1,144.375001376867,6|0,0:0|0:2,0:0:0:0:
125,132,73003,2,0,L|70:124,2,41.2500015735627,6|2|2,1:2|0:2|3:2,0:0:0:0:
40,191,73161,6,0,L|236:157,1,165.000006294251,6|2,1:2|0:0,0:0:0:0:
77,265,73398,2,0,L|259:233,1,165.000006294251,6|2,1:2|0:0,0:0:0:0:
239,236,73634,2,0,B|264:268|264:268|253:315,1,82.5000031471254,6|0,1:2|0:0,0:0:0:0:
119,332,73792,6,0,L|188:320,1,41.2500015735627,4|0,1:0|0:0,0:0:0:0:
415,187,74108,6,0,L|403:239,4,41.2500015735627,8|0|8|0|8,1:3|3:0|3:3|3:0|3:3,0:0:0:0:
459,326,74424,6,0,L|419:289,4,41.2500015735627,8|0|8|0|8,1:3|3:0|3:3|3:0|3:3,0:0:0:0:
352,287,74740,6,0,L|325:295,2,27.5,12|0|12,1:3|3:0|3:0,0:0:0:0:
400,229,74977,2,0,L|405:202,2,27.5,12|0|4,1:3|3:0|3:0,0:0:0:0:
424,301,75213,2,0,L|444:319,2,27.5,4|0|4,1:3|3:0|3:0,0:0:0:0:
419,131,75371,6,0,L|426:98,2,27.5,4|0|4,1:3|3:0|3:0,0:0:0:0:
419,131,75529,1,6,1:2:0:0:
247,13,75687,6,0,L|260:101,1,55,6|0,1:2|0:0,0:0:0:0:
493,182,75845,2,0,L|485:208,2,27.5,6|0|0,3:2|3:0|1:0,0:0:0:0:
482,30,76003,5,4,1:0:0:0:
426,13,76082,1,8,3:3:0:0:
370,38,76161,1,8,3:0:0:0:
341,91,76240,1,12,3:0:0:0:
301,135,76319,1,12,3:0:0:0:
244,148,76398,1,12,3:0:0:0:
199,128,76477,5,4,1:3:0:0:
199,128,76555,1,4,1:3:0:0:
199,128,76634,6,0,B|260:94|316:141|311:150|307:162|335:221|410:214,1,247.500009441376,4|0,1:0|0:0,0:0:0:0:
419,140,76950,2,0,B|358:106|302:153|307:162|311:174|280:235|207:216,1,247.500009441376,6|0,1:2|0:0,0:0:0:0:
207,216,77266,6,0,B|178:245|178:245|185:292,1,82.5000031471254,12|0,1:0|0:0,0:0:0:0:
338,285,77424,1,2,0:3:0:0:
347,279,77503,2,0,B|335:239|335:239|291:222,1,82.5000031471254,6|0,1:2|0:0,0:0:0:0:
217,358,77661,1,2,0:3:0:0:
215,370,77740,2,0,B|255:379|255:379|292:350,1,82.5000031471254,4|0,1:3|0:0,0:0:0:0:
257,287,77898,5,6,3:2:0:0:
114,318,78055,6,0,L|61:312,2,41.2500015735627,6|2|2,1:2|3:0|3:0,0:0:0:0:
17,271,78213,2,0,L|197:294,1,165.000006294251,4|2,1:0|0:0,0:0:0:0:
155,212,78450,5,2,1:2:0:0:
155,212,78529,1,12,1:0:0:0:
100,187,78608,1,10,3:0:0:0:
79,117,78687,1,8,1:3:0:0:
97,56,78766,1,12,3:0:0:0:
145,28,78845,1,12,3:0:0:0:
187,34,78924,1,4,3:0:0:0:
203,58,79003,1,4,3:0:0:0:
203,74,79082,1,4,3:0:0:0:
198,83,79161,6,0,P|128:71|8:31,1,165.000006294251,4|2,1:0|0:3,0:0:0:0:
140,163,79398,1,2,3:0:0:0:
153,156,79477,2,0,P|208:168|263:187,1,82.5000031471254,6|0,1:2|0:0,0:0:0:0:
354,11,79634,5,2,3:0:0:0:
354,11,79713,1,2,3:3:0:0:
354,11,79792,2,0,B|371:51|343:91|336:87|326:83|293:111|305:157,1,165.000006294251,12|2,1:0|0:0,0:0:0:0:
204,248,80029,2,0,B|230:213|278:217|278:225|280:236|321:250|354:217,1,165.000006294251,6|2,1:2|0:0,0:0:0:0:
466,140,80266,1,6,1:2:0:0:
466,140,80345,1,2,3:2:0:0:
466,140,80424,2,0,L|357:154,1,82.5000031471254,2|0,3:0|0:0,0:0:0:0:
384,150,80582,6,0,B|357:119|357:119|384:60,1,82.5000031471254,4|0,1:0|0:0,0:0:0:0:
477,54,80740,2,0,B|511:97|511:97|482:223,1,165.000006294251,6|2,1:2|0:0,0:0:0:0:
424,279,80977,5,2,1:3:0:0:
430,285,81055,2,0,L|556:275,1,82.5000031471254,12|0,1:0|0:0,0:0:0:0:
441,358,81213,5,4,3:0:0:0:
398,363,81292,1,4,1:3:0:0:
365,341,81371,1,12,3:0:0:0:
350,296,81450,1,12,3:0:0:0:
360,238,81529,1,8,1:3:0:0:
349,182,81608,1,8,1:3:0:0:
300,152,81687,6,0,B|259:157|259:157|241:204,1,82.5000031471254,4|0,1:0|0:0,0:0:0:0:
189,248,81845,2,0,B|213:281|213:281|263:273,1,82.5000031471254,2|0,1:2|0:0,0:0:0:0:
427,155,82003,6,0,L|154:113,1,247.500009441376,6|8,1:2|3:0,0:0:0:0:
182,117,82279,1,4,3:0:0:0:
182,117,82319,2,0,B|156:82|156:82|177:36,1,82.5000031471254,12|0,1:0|0:0,0:0:0:0:
428,20,82477,5,2,3:0:0:0:
420,28,82555,2,0,L|232:45,1,165.000006294251,6|0,1:2|0:0,0:0:0:0:
37,17,82792,5,0,1:0:0:0:
37,17,82871,1,0,1:0:0:0:
37,17,82950,2,0,B|78:24|78:24|93:85,1,82.5000031471254,4|0,1:0|0:0,0:0:0:0:
0,161,83108,2,0,B|-14:121|-14:121|30:78,1,82.5000031471254,6|0,1:2|0:0,0:0:0:0:
223,97,83266,6,0,B|183:90|183:90|119:148|119:148|51:137,1,165.000006294251,0|0,1:0|0:0,0:0:0:0:
18,260,83503,1,0,1:0:0:0:
27,268,83582,2,0,B|69:258|69:258|86:209,1,82.5000031471254,12|0,1:0|0:0,0:0:0:0:
211,177,83740,6,0,L|260:169,2,41.2500015735627,6|0|2,1:2|3:0|3:0,0:0:0:0:
220,250,83898,2,0,L|269:242,2,41.2500015735627,4|0|2,1:0|3:0|3:0,0:0:0:0:
132,310,84055,5,6,1:2:0:0:
132,310,84134,1,0,1:0:0:0:
132,310,84213,2,0,B|173:315|173:315|208:374|208:374|286:389,1,165.000006294251,4|2,1:0|3:2,0:0:0:0:
330,355,84450,1,4,1:0:0:0:
338,357,84529,2,0,B|358:320|358:320|333:276,1,82.5000031471254,8|2,1:0|0:3,0:0:0:0:
11,376,84687,5,8,1:3:0:0:
37,373,84766,1,12,1:3:0:0:
65,369,84845,1,12,1:3:0:0:
378,208,85003,5,4,1:3:0:0:
332,202,85082,1,12,1:3:0:0:
286,197,85161,1,8,1:0:0:0:
0,84,85319,5,4,1:3:0:0:
69,72,85398,1,12,1:3:0:0:
140,60,85477,1,4,1:0:0:0:
286,18,85634,5,8,3:0:0:0:
286,18,85713,1,8,3:0:0:0:
286,18,85792,2,0,B|298:48|298:48|278:89,1,65.9999979858399,12|0,1:0|0:0,0:0:0:0:
151,367,85950,5,8,3:0:0:0:
151,367,86029,1,8,3:0:0:0:
151,367,86108,1,12,1:0:0:0:
140,313,86187,1,12,3:0:0:0:
131,257,86266,1,4,3:0:0:0:
341,270,86424,6,0,B|233:309|192:202|202:180|216:152|153:55|38:102,1,385,12|0,1:0|0:0,0:0:0:0:
50,97,86740,6,0,B|58:124|58:124|99:136,1,55,4|0,1:0|0:0,0:0:0:0:
156,99,86898,2,0,B|183:105|183:105|214:76,1,55,2|0,1:2|0:0,0:0:0:0:
182,0,87055,6,0,L|10:21,1,165.000006294251,12|2,1:0|3:2,0:0:0:0:
0,171,87292,6,0,L|172:186,1,165.000006294251,0|0,1:0|0:0,0:0:0:0:
164,185,87529,2,0,B|196:213|196:213|164:262,1,82.5000031471254,8|2,1:3|3:0,0:0:0:0:
0,317,87687,5,4,1:0:0:0:
22,311,87766,1,0,3:3:0:0:
46,305,87845,1,2,1:3:0:0:
67,300,87924,1,0,3:0:0:0:
89,296,88003,6,0,B|85:333|85:333|78:342|78:342|73:382,1,82.5000031471254,4|0,3:0|0:0,0:0:0:0:
285,253,88161,2,0,B|281:216|281:216|274:207|274:207|269:167,1,82.5000031471254,12|0,1:3|0:0,0:0:0:0:
125,215,88319,6,0,B|165:214|186:255|180:273|174:286|184:320|221:332,1,165.000006294251,12|0,1:0|1:0,0:0:0:0:
221,332,88555,1,0,3:2:0:0:
261,324,88634,1,0,1:2:0:0:
299,336,88713,1,0,3:2:0:0:
368,305,88792,5,0,1:2:0:0:
430,347,88871,1,0,1:2:0:0:
500,318,88950,2,0,B|515:288|515:288|500:252,1,66,8|0,1:0|0:0,0:0:0:0:
314,62,89266,6,0,L|327:162,1,82.5000031471254,4|0,1:0|0:0,0:0:0:0:
324,143,89424,1,0,1:0:0:0:
401,164,89503,1,0,1:0:0:0:
474,180,89582,1,8,1:0:0:0:
362,303,89740,1,0,1:0:0:0:
468,17,89898,6,0,B|432:21|432:21|426:30|426:30|373:36,1,82.5000031471254,0|0,3:0|0:0,0:0:0:0:
436,252,90055,1,0,1:0:0:0:
436,252,90134,1,0,1:0:0:0:
436,252,90213,2,0,B|471:256|471:256|477:265|477:265|512:269,1,82.5000031471254,8|0,1:0|0:0,0:0:0:0:
332,149,90371,5,0,3:0:0:0:
185,384,90529,5,2,3:2:0:0:
247,314,90634,5,2,3:2:0:0:
164,270,90740,5,2,3:2:0:0:
227,188,90845,6,0,B|220:147|220:147|167:118,1,82.5000031471254,8|0,1:0|0:0,0:0:0:0:
60,195,91003,2,0,B|99:209|99:209|150:178,1,82.5000031471254,8|0,3:3|0:0,0:0:0:0:
264,65,91161,6,0,L|113:49,1,123.750004720688,12|0,1:3|0:0,0:0:0:0:
141,53,91319,2,0,B|108:79|108:79|110:139,1,82.5000031471254,4|0,3:3|0:0,0:0:0:0:
308,267,91477,6,0,B|338:239|338:239|321:86,1,165.000006294251,8|0,1:0|0:0,0:0:0:0:
324,115,91792,6,0,B|349:101|349:101|379:119,1,55,4|0,1:0|0:0,0:0:0:0:
446,93,91950,1,0,1:0:0:0:
446,93,92029,1,0,1:0:0:0:
446,93,92108,2,0,B|480:116|480:116|472:182,1,82.5000031471254,8|0,1:0|0:0,0:0:0:0:
503,230,92266,2,0,B|496:270|496:270|433:291,1,82.5000031471254,0|0,3:0|3:0,0:0:0:0:
509,363,92424,6,0,L|366:345,1,123.750004720688,6|0,3:2|0:0,0:0:0:0:
386,347,92582,1,0,1:0:0:0:
319,383,92661,1,4,3:1:0:0:
266,325,92740,2,0,B|265:284|265:284|327:241,1,82.5000031471254,8|0,1:0|0:0,0:0:0:0:
379,216,92898,5,0,1:0:0:0:
377,210,92977,1,0,3:0:0:0:
375,204,93055,1,6,1:2:0:0:
309,179,93134,1,0,3:0:0:0:
243,201,93213,1,0,3:0:0:0:
178,178,93292,1,0,3:0:0:0:
115,210,93371,6,0,B|75:217|75:217|39:184,1,82.5000031471254,8|0,1:0|0:0,0:0:0:0:
168,41,93529,5,0,1:0:0:0:
239,49,93608,1,2,3:2:0:0:
310,58,93687,1,2,3:2:0:0:
381,69,93766,1,2,3:2:0:0:
460,88,93845,5,0,1:0:0:0:
460,88,93924,1,0,1:0:0:0:
460,88,94003,2,0,B|495:112|495:112|469:271,1,165,8|0,1:0|0:0,0:0:0:0:
511,302,94319,6,0,L|371:319,1,82.5000031471254,4|0,1:0|0:0,0:0:0:0:
251,178,94477,1,0,1:0:0:0:
251,178,94555,1,0,3:0:0:0:
251,178,94634,2,0,B|289:185|289:185|318:264|318:264|365:270,1,165.000006294251,8|0,1:0|3:0,0:0:0:0:
400,384,94871,5,0,3:0:0:0:
400,384,94950,2,0,B|432:358|432:358|417:286,1,82.5000031471254,6|0,3:2|0:0,0:0:0:0:
504,100,95108,5,0,3:0:0:0:
492,169,95187,1,0,1:0:0:0:
480,238,95266,1,8,1:0:0:0:
372,126,95424,1,0,1:0:0:0:
355,275,95582,6,0,B|324:259|295:285|297:291|299:297|283:318|246:315,1,123.750004720688,4|0,1:0|0:0,0:0:0:0:
247,315,95740,1,0,1:0:0:0:
182,284,95819,1,0,3:0:0:0:
128,342,95898,6,0,B|86:343|86:343|58:303,1,82.5000031471254,8|0,1:0|0:0,0:0:0:0:
175,207,96055,2,0,B|196:242|196:242|176:287,1,82.5000031471254,0|0,1:0|0:0,0:0:0:0:
0,259,96213,5,6,1:2:0:0:
74,195,96319,5,2,1:2:0:0:
0,134,96424,5,2,1:2:0:0:
59,64,96529,6,0,L|109:56,2,36.6666666666667,10|10|10,0:0|0:0|0:0,0:0:0:0:
180,13,96845,5,4,1:0:0:0:
190,56,96924,1,2,0:2:0:0:
223,79,97003,1,2,0:2:0:0:
264,84,97082,1,2,0:2:0:0:
298,63,97161,1,8,1:0:0:0:
339,48,97240,1,2,0:2:0:0:
379,55,97319,1,2,0:2:0:0:
399,88,97398,1,2,0:2:0:0:
396,127,97477,5,2,1:2:0:0:
362,92,97555,1,2,0:0:0:0:
371,43,97634,1,2,0:0:0:0:
421,28,97713,1,2,0:0:0:0:
462,49,97792,2,0,P|474:82|466:119,1,55,8|0,1:0|0:0,0:0:0:0:
350,198,97950,5,2,3:2:0:0:
350,198,98029,1,2,3:2:0:0:
350,198,98108,2,0,B|322:184|322:184|309:143,1,55,0|2,1:0|0:0,0:0:0:0:
437,197,98266,2,0,B|439:227|439:227|409:260,1,55,2|2,0:0|0:0,0:0:0:0:
344,90,98424,5,8,1:0:0:0:
301,78,98503,1,2,0:0:0:0:
263,95,98582,1,2,0:0:0:0:
241,129,98661,1,2,0:0:0:0:
227,174,98740,1,0,1:0:0:0:
181,217,98819,1,2,0:0:0:0:
112,228,98898,1,2,0:0:0:0:
55,182,98977,1,2,0:0:0:0:
62,105,99055,6,0,L|146:114,1,55,8|0,1:0|0:0,0:0:0:0:
335,265,99213,1,2,3:2:0:0:
335,265,99292,1,2,3:2:0:0:
335,265,99371,2,0,B|293:258|293:258|261:182|261:182|199:176,1,165,4|2,1:0|0:0,0:0:0:0:
48,269,99687,5,8,1:0:0:0:
24,304,99766,1,2,0:0:0:0:
35,344,99845,1,2,0:0:0:0:
72,363,99924,1,2,0:0:0:0:
108,351,100003,5,0,1:0:0:0:
178,362,100082,1,2,3:2:0:0:
240,323,100161,1,2,3:2:0:0:
312,330,100240,1,2,3:2:0:0:
377,292,100319,6,0,B|395:274|395:274|385:226,1,55,8|2,1:0|0:0,0:0:0:0:
219,100,100477,2,0,B|201:118|201:118|211:166,1,55,0|2,3:0|0:0,0:0:0:0:
306,259,100634,6,0,L|292:85,1,165.000006294251,0|2,1:0|0:0,0:0:0:0:
338,31,100871,1,2,0:0:0:0:
338,31,100950,2,0,B|377:27|377:27|417:76,1,82.5000031471254,8|2,1:0|0:0,0:0:0:0:
238,316,101108,2,0,B|199:320|199:320|159:271,1,82.5000031471254,0|2,3:0|0:0,0:0:0:0:
150,149,101266,5,2,1:2:0:0:
238,160,101371,5,2,3:2:0:0:
325,171,101477,5,2,3:2:0:0:
417,187,101582,5,12,1:0:0:0:
417,187,101740,1,0,3:0:0:0:
417,187,101898,5,4,1:0:0:0:
467,235,101977,1,2,0:0:0:0:
457,304,102055,1,2,0:0:0:0:
397,339,102134,1,2,0:0:0:0:
331,319,102213,1,8,1:0:0:0:
276,277,102292,1,2,0:0:0:0:
206,275,102371,1,2,0:0:0:0:
149,315,102450,1,2,0:0:0:0:
147,384,102529,5,0,1:0:0:0:
156,315,102608,1,2,0:0:0:0:
125,253,102687,1,2,0:0:0:0:
63,222,102766,1,2,0:0:0:0:
25,165,102845,1,8,1:0:0:0:
29,94,102924,1,2,0:0:0:0:
74,39,103003,1,2,0:0:0:0:
144,39,103082,1,2,0:0:0:0:
194,88,103161,6,0,L|205:197,1,65.9999979858399,0|2,1:0|0:0,0:0:0:0:
327,376,103319,2,0,L|338:267,1,65.9999979858399,2|2,0:0|0:0,0:0:0:0:
81,314,103477,6,0,L|190:303,1,65.9999979858399,8|2,1:0|0:0,0:0:0:0:
440,136,103635,2,0,L|331:125,1,65.9999979858399,2|2,0:0|0:0,0:0:0:0:
91,66,103792,5,0,1:0:0:0:
163,54,103871,1,2,0:0:0:0:
227,83,103950,1,2,0:0:0:0:
246,154,104029,1,2,0:0:0:0:
242,228,104108,1,8,1:0:0:0:
274,295,104187,1,2,0:0:0:0:
342,325,104266,1,2,0:0:0:0:
410,303,104345,1,2,0:0:0:0:
443,238,104424,5,4,1:0:0:0:
56,129,104582,1,6,3:2:0:0:
370,109,104740,5,0,1:0:0:0:
370,109,104819,1,0,3:0:0:0:
370,109,104898,2,0,L|384:9,1,65.9999979858399,6|0,3:2|0:0,0:0:0:0:
257,193,105055,5,0,1:0:0:0:
257,193,105134,1,0,3:0:0:0:
257,193,105213,2,0,L|271:93,1,65.9999979858399,6|0,3:2|0:0,0:0:0:0:
144,277,105371,5,0,1:0:0:0:
144,277,105450,1,0,3:0:0:0:
144,277,105529,2,0,L|158:177,1,65.9999979858399,6|0,3:2|0:0,0:0:0:0:
172,12,105687,5,8,0:1:0:0:
102,32,105845,1,0,3:0:0:0:
102,32,105924,1,0,3:0:0:0:
102,32,106003,1,8,0:1:0:0:
160,90,106161,1,0,3:0:0:0:
160,90,106240,1,0,3:0:0:0:
160,90,106319,2,0,B|175:113|175:113|163:170,1,55,8|0,0:1|0:0,0:0:0:0:
95,160,106477,2,0,B|79:136|79:136|91:79,1,55,4|0,3:0|0:0,0:0:0:0:
256,0,106634,5,8,1:0:0:0:
256,0,106950,1,4,1:0:0:0:
256,192,112003,12,0,114529,0:0:0:0:
37,50,114687,5,2,0:0:0:0:
37,50,114766,1,2,0:0:0:0:
37,50,114845,2,0,L|28:97,3,27.5,2|2|2|2,0:0|0:0|0:0|0:0,0:0:0:0:
107,77,115161,2,0,L|95:136,3,41.2500015735627,2|2|2|2,0:0|0:0|0:0|0:0,0:0:0:0:
178,111,115477,5,2,0:0:0:0:
173,128,115555,1,2,0:0:0:0:
169,146,115634,1,2,0:0:0:0:
165,162,115713,1,2,0:0:0:0:
162,176,115792,6,0,B|188:183|188:183|224:164,1,55,4|0,1:0|0:0,0:0:0:0:
287,61,115950,2,0,L|312:261,1,165,6|0,1:2|0:0,0:0:0:0:
307,224,116266,6,0,B|349:243|386:198|380:186|380:176|392:125|455:135,1,192.5,6|0,1:2|0:0,0:0:0:0:
455,134,116582,6,0,B|464:143|464:143|455:175,4,27.5,0|0|0|0|12,1:0|3:0|3:0|3:0|1:0,0:0:0:0:
328,0,117055,5,4,1:0:0:0:
293,35,117134,1,2,0:0:0:0:
285,86,117213,1,0,3:0:0:0:
311,126,117292,1,2,0:0:0:0:
352,158,117371,1,0,1:0:0:0:
373,208,117450,1,2,0:0:0:0:
365,260,117529,1,0,3:0:0:0:
326,288,117608,1,2,0:0:0:0:
274,286,117687,5,0,1:0:0:0:
271,275,117766,1,2,0:0:0:0:
271,265,117845,1,0,3:0:0:0:
273,257,117924,1,2,0:0:0:0:
277,249,118003,6,0,B|350:225|381:291|377:300|374:308|407:369|485:346,1,247.500009441376,2|0,0:1|0:0,0:0:0:0:
500,259,118319,5,12,1:0:0:0:
453,244,118398,1,2,0:0:0:0:
406,266,118477,1,0,3:0:0:0:
383,312,118555,1,2,0:0:0:0:
345,342,118634,1,0,1:0:0:0:
297,337,118713,1,2,0:0:0:0:
290,341,118792,6,0,P|289:310|274:244,1,55,0|2,3:0|0:0,0:0:0:0:
308,59,118950,5,0,1:0:0:0:
365,68,119029,1,2,0:0:0:0:
396,109,119108,1,0,3:0:0:0:
391,159,119187,1,2,0:0:0:0:
364,190,119266,1,8,1:3:0:0:
320,189,119345,1,14,0:3:0:0:
301,166,119424,1,12,3:0:0:0:
301,149,119503,1,8,0:3:0:0:
311,140,119582,6,0,L|399:150,1,55,12|0,1:0|0:0,0:0:0:0:
188,300,119740,2,0,L|100:310,1,55,0|0,1:0|0:0,0:0:0:0:
357,298,119898,6,0,L|347:386,1,55,0|0,1:0|0:0,0:0:0:0:
159,148,120056,2,0,L|149:60,1,55,0|0,1:0|0:0,0:0:0:0:
260,232,120213,5,0,1:0:0:0:
260,232,120292,1,2,0:0:0:0:
260,232,120371,1,0,3:0:0:0:
260,232,120450,1,2,0:0:0:0:
260,232,120529,2,0,L|254:262,3,22,2|2|2|2,0:0|0:0|0:0|0:0,0:0:0:0:
370,142,120845,6,0,L|315:135,1,55,12|0,1:0|0:0,0:0:0:0:
129,313,121003,2,0,L|183:306,1,55,0|0,1:0|0:0,0:0:0:0:
270,69,121161,5,2,0:0:0:0:
232,368,121319,1,2,0:0:0:0:
142,93,121477,6,0,L|148:147,1,55,12|0,1:0|0:0,0:0:0:0:
358,359,121635,2,0,L|364:304,1,55,0|0,1:0|0:0,0:0:0:0:
94,198,121792,5,2,0:0:0:0:
418,251,121950,1,2,0:0:0:0:
258,235,122108,5,0,1:3:0:0:
247,226,122187,1,4,1:3:0:0:
244,210,122266,1,4,1:3:0:0:
252,194,122345,1,4,1:3:0:0:
276,186,122424,1,4,1:3:0:0:
303,195,122503,1,4,1:3:0:0:
320,223,122582,1,4,1:3:0:0:
316,263,122661,1,4,1:3:0:0:
292,291,122740,1,4,1:3:0:0:
253,301,122819,1,4,1:3:0:0:
209,289,122898,1,4,1:3:0:0:
176,250,122977,1,4,1:3:0:0:
173,197,123055,1,4,1:3:0:0:
192,147,123134,1,4,1:3:0:0:
234,112,123213,1,4,1:3:0:0:
286,105,123292,1,4,1:3:0:0:
339,120,123371,1,12,1:3:0:0:
381,155,123450,1,12,1:3:0:0:
401,212,123529,1,12,1:3:0:0:
398,268,123608,1,12,1:3:0:0:
378,322,123687,1,12,1:3:0:0:
337,364,123766,1,12,1:3:0:0:
280,384,123845,1,12,1:3:0:0:
220,384,123924,1,12,1:3:0:0:
162,364,124003,1,8,1:3:0:0:
111,324,124082,1,8,1:3:0:0:
81,267,124161,1,8,1:3:0:0:
69,203,124240,1,8,1:3:0:0:
75,137,124319,1,8,1:3:0:0:
97,75,124398,1,8,1:3:0:0:
149,27,124477,1,8,1:3:0:0:
217,5,124555,1,8,1:3:0:0:
291,8,124634,6,0,L|287:43,14,27.5,8|8|8|8|8|8|8|8|8|8|8|8|8|8|8,1:3|1:3|1:3|1:3|1:3|1:3|1:3|1:3|1:3|1:3|1:3|1:3|1:3|1:3|1:3,0:0:0:0:
240,88,125266,6,0,L|247:133,1,27.5,8|8,1:3|1:3,0:0:0:0:
278,116,125345,6,0,L|271:161,1,27.5,8|8,1:3|1:3,0:0:0:0:
248,149,125424,6,0,L|255:194,1,27.5,8|8,1:3|1:3,0:0:0:0:
273,173,125503,6,0,L|266:218,1,27.5,8|8,1:3|1:3,0:0:0:0:
245,196,125582,6,0,L|252:241,1,27.5,8|8,1:3|1:3,0:0:0:0:
264,208,125661,6,0,L|257:253,1,27.5,8|8,1:3|1:3,0:0:0:0:
247,236,125740,6,0,L|254:281,1,27.5,8|8,1:3|1:3,0:0:0:0:
258,244,125819,6,0,L|251:289,1,27.5,8|8,1:3|1:3,0:0:0:0:
254,277,125898,5,6,1:2:0:0:
263,384,126055,5,2,0:0:0:0:
263,384,126213,1,2,0:0:0:0:
263,384,126371,1,2,0:0:0:0:
263,384,126529,1,2,0:0:0:0:
258,0,126845,6,0,L|254:51,1,49.4999984893799,12|0,1:0|0:0,0:0:0:0:
55,189,127161,5,6,1:0:0:0:
33,181,127240,1,2,0:0:0:0:
8,190,127319,1,2,0:0:0:0:
0,218,127398,1,2,0:0:0:0:
13,242,127477,5,8,1:0:0:0:
3,280,127555,1,2,0:0:0:0:
23,318,127634,1,2,0:0:0:0:
67,318,127713,1,2,0:0:0:0:
90,293,127792,5,0,1:0:0:0:
148,306,127871,1,2,0:0:0:0:
201,272,127950,1,2,0:0:0:0:
208,211,128029,1,2,0:0:0:0:
178,166,128108,5,8,1:0:0:0:
172,94,128187,1,2,0:0:0:0:
228,45,128266,1,2,0:0:0:0:
302,57,128345,1,2,0:0:0:0:
339,133,128424,5,0,1:0:0:0:
339,133,128503,1,2,0:0:0:0:
339,133,128582,2,0,P|324:193|321:239,1,88,2|2,0:0|0:0,0:0:0:0:
457,349,128740,5,8,1:0:0:0:
512,301,128819,1,2,0:0:0:0:
501,230,128898,1,2,0:0:0:0:
431,218,128977,1,2,0:0:0:0:
387,273,129055,5,8,1:3:0:0:
371,337,129134,1,8,3:3:0:0:
326,375,129213,1,12,3:3:0:0:
279,376,129292,1,12,3:3:0:0:
247,355,129371,1,8,1:0:0:0:
240,337,129450,1,4,3:3:0:0:
241,324,129529,2,0,P|251:297|269:272,1,55,4|0,3:3|3:0,0:0:0:0:
498,106,129687,5,4,1:0:0:0:
483,109,129766,1,2,0:0:0:0:
469,111,129845,1,2,0:0:0:0:
456,113,129924,1,2,0:0:0:0:
428,141,130003,5,8,1:0:0:0:
406,136,130082,1,2,0:0:0:0:
386,133,130161,1,2,0:0:0:0:
367,130,130240,1,2,0:0:0:0:
330,93,130319,5,0,1:0:0:0:
304,97,130398,1,2,0:0:0:0:
281,100,130477,1,2,0:0:0:0:
259,103,130556,1,2,0:0:0:0:
222,134,130635,5,8,1:0:0:0:
178,124,130714,1,2,0:0:0:0:
138,118,130793,1,2,0:0:0:0:
100,111,130872,1,2,0:0:0:0:
68,107,130950,5,0,3:0:0:0:
23,127,131029,1,2,0:0:0:0:
11,174,131108,1,2,0:0:0:0:
39,214,131187,1,2,0:0:0:0:
83,208,131266,5,8,1:0:0:0:
113,225,131345,1,2,0:0:0:0:
117,255,131424,1,2,0:0:0:0:
104,279,131503,1,2,0:0:0:0:
78,287,131582,6,0,L|-4:273,1,65.9999979858399,8|2,1:3|0:0,0:0:0:0:
200,181,131740,2,0,L|282:167,1,65.9999979858399,12|2,3:3|0:0,0:0:0:0:
201,372,131898,6,0,L|213:296,1,76.9999976501466,8|2,1:0|0:0,0:0:0:0:
86,67,132055,2,0,L|98:146,1,76.9999976501466,4|2,3:3|0:0,0:0:0:0:
461,331,132213,5,4,1:0:0:0:
504,310,132292,1,2,0:0:0:0:
512,261,132371,1,2,0:0:0:0:
487,226,132450,1,2,0:0:0:0:
447,215,132529,5,8,1:0:0:0:
393,225,132608,1,2,0:0:0:0:
345,192,132687,1,2,0:0:0:0:
335,137,132766,1,2,0:0:0:0:
364,90,132845,5,0,1:0:0:0:
341,23,132924,1,2,0:0:0:0:
271,5,133003,1,2,0:0:0:0:
219,64,133082,1,2,0:0:0:0:
216,142,133161,5,8,1:0:0:0:
155,186,133240,1,2,0:0:0:0:
89,150,133319,1,2,0:0:0:0:
80,74,133398,1,2,0:0:0:0:
128,9,133477,6,0,L|210:22,1,65.9999979858399,0|2,1:0|0:0,0:0:0:0:
371,213,133634,2,0,L|289:226,1,65.9999979858399,2|2,0:0|0:0,0:0:0:0:
369,0,133792,6,0,L|356:82,1,65.9999979858399,8|2,1:0|0:0,0:0:0:0:
185,268,133950,2,0,L|172:186,1,65.9999979858399,2|2,0:0|0:0,0:0:0:0:
259,118,134108,5,4,1:3:0:0:
259,118,134187,1,4,3:3:0:0:
259,118,134266,1,4,3:3:0:0:
259,118,134345,1,12,3:3:0:0:
330,132,134424,5,8,1:0:0:0:
252,141,134503,1,12,3:3:0:0:
177,152,134582,1,8,3:3:0:0:
101,161,134661,1,8,3:3:0:0:
29,175,134740,6,0,B|82:165|98:217|95:223|91:232|99:272|156:273,1,176,4|2,1:0|0:0,0:0:0:0:
195,341,134977,1,2,0:0:0:0:
195,341,135055,1,8,1:0:0:0:
224,302,135134,1,2,0:0:0:0:
274,299,135213,1,2,0:0:0:0:
314,331,135292,1,2,0:0:0:0:
353,353,135371,1,0,1:0:0:0:
397,350,135450,1,2,0:0:0:0:
421,333,135529,1,2,0:0:0:0:
428,311,135608,1,2,0:0:0:0:
423,298,135687,5,8,1:0:0:0:
380,238,135766,1,2,0:0:0:0:
416,176,135845,1,2,0:0:0:0:
385,109,135924,1,2,0:0:0:0:
425,47,136003,6,0,L|519:61,1,76.9999976501466,2|2,1:2|0:2,0:0:0:0:
325,181,136161,2,0,L|231:195,1,76.9999976501466,2|2,3:2|0:0,0:0:0:0:
511,172,136319,6,0,L|497:266,1,76.9999976501466,8|2,1:0|0:0,0:0:0:0:
214,90,136477,2,0,L|200:-4,1,76.9999976501466,2|2,3:2|0:0,0:0:0:0:
379,112,136634,5,8,1:3:0:0:
254,384,136792,5,12,1:3:0:0:
254,384,136871,1,4,3:0:0:0:
254,384,136950,2,0,L|249:347,1,33,8|0,1:0|0:0,0:0:0:0:
157,336,137266,5,6,1:0:0:0:
133,346,137345,1,2,0:0:0:0:
108,335,137424,1,2,0:0:0:0:
99,319,137503,1,2,0:0:0:0:
101,306,137582,5,8,1:0:0:0:
70,275,137661,1,2,0:0:0:0:
77,229,137740,1,2,0:0:0:0:
109,206,137819,1,2,0:0:0:0:
145,207,137898,5,0,1:0:0:0:
166,151,137977,1,2,0:0:0:0:
224,138,138055,1,2,0:0:0:0:
267,174,138134,1,2,0:0:0:0:
270,230,138213,5,8,1:0:0:0:
309,289,138292,1,2,0:0:0:0:
380,289,138371,1,2,0:0:0:0:
413,227,138450,1,2,0:0:0:0:
396,159,138529,5,0,1:0:0:0:
462,118,138608,1,2,0:0:0:0:
461,39,138687,1,2,0:0:0:0:
389,7,138766,1,2,0:0:0:0:
324,43,138845,6,0,P|279:35|226:16,1,88,8|2,1:0|0:0,0:0:0:0:
85,115,139003,1,2,0:0:0:0:
85,115,139082,1,2,0:0:0:0:
85,115,139161,5,8,1:3:0:0:
144,72,139240,1,8,3:3:0:0:
215,90,139319,1,12,3:3:0:0:
248,151,139398,1,12,3:3:0:0:
255,213,139477,1,8,1:0:0:0:
288,253,139555,1,4,3:3:0:0:
332,271,139634,1,4,3:3:0:0:
364,264,139713,1,4,3:3:0:0:
378,251,139792,5,0,1:0:0:0:
397,258,139871,1,2,0:0:0:0:
410,279,139950,1,2,0:0:0:0:
407,301,140029,1,2,0:0:0:0:
393,315,140108,5,8,1:0:0:0:
383,354,140187,1,2,0:0:0:0:
340,375,140266,1,2,0:0:0:0:
297,356,140345,1,2,0:0:0:0:
276,313,140424,5,0,1:0:0:0:
214,320,140503,1,2,0:0:0:0:
172,276,140582,1,2,0:0:0:0:
182,215,140661,1,2,0:0:0:0:
218,173,140740,5,8,1:0:0:0:
185,110,140819,1,2,0:0:0:0:
215,47,140898,1,2,0:0:0:0:
285,46,140977,1,2,0:0:0:0:
332,113,141055,5,0,1:0:0:0:
332,113,141134,1,2,0:0:0:0:
332,113,141213,2,0,P|407:100|445:77,1,88,2|2,0:0|0:0,0:0:0:0:
508,307,141371,5,8,1:0:0:0:
508,307,141450,1,2,0:0:0:0:
508,307,141529,1,2,0:0:0:0:
508,307,141608,1,2,0:0:0:0:
508,307,141687,6,0,L|413:293,1,65.9999979858399,8|2,1:3|0:0,0:0:0:0:
194,167,141845,2,0,L|284:148,1,65.9999979858399,12|2,3:3|0:0,0:0:0:0:
508,62,142003,6,0,L|491:144,1,76.9999976501466,8|2,1:0|0:0,0:0:0:0:
291,366,142161,2,0,L|276:286,1,76.9999976501466,4|2,3:3|0:0,0:0:0:0:
186,42,142319,5,4,1:0:0:0:
218,0,142398,1,2,0:0:0:0:
270,4,142477,1,2,0:0:0:0:
291,45,142555,1,2,0:0:0:0:
285,90,142634,5,8,1:0:0:0:
338,113,142713,1,2,0:0:0:0:
355,171,142792,1,2,0:0:0:0:
317,216,142871,1,2,0:0:0:0:
259,219,142950,5,0,1:0:0:0:
201,260,143029,1,2,0:0:0:0:
207,329,143108,1,2,0:0:0:0:
275,353,143187,1,2,0:0:0:0:
335,315,143266,5,8,1:0:0:0:
374,377,143345,1,2,0:0:0:0:
450,364,143424,1,2,0:0:0:0:
474,294,143503,1,2,0:0:0:0:
425,237,143582,5,0,1:0:0:0:
136,382,143740,5,2,0:0:0:0:
136,382,143819,1,2,0:0:0:0:
136,382,143898,2,0,L|121:306,1,65.9999979858399,8|2,1:0|0:0,0:0:0:0:
366,70,144055,2,0,L|351:146,1,65.9999979858399,2|2,0:0|0:0,0:0:0:0:
456,267,144213,5,4,1:3:0:0:
389,296,144292,1,4,3:3:0:0:
321,273,144371,1,4,3:3:0:0:
280,213,144450,1,12,3:3:0:0:
261,141,144529,1,8,1:0:0:0:
213,84,144608,1,12,3:3:0:0:
140,69,144687,1,8,3:3:0:0:
76,106,144766,1,8,3:3:0:0:
79,182,144845,6,0,L|165:173,1,76.9999976501466,4|2,1:0|0:0,0:0:0:0:
394,305,145003,2,0,L|280:299,1,76.9999976501466,0|2,3:0|0:0,0:0:0:0:
337,105,145161,6,0,L|346:191,1,76.9999976501466,8|2,1:0|0:0,0:0:0:0:
135,370,145319,2,0,L|141:256,1,76.9999976501466,0|2,3:0|0:0,0:0:0:0:
63,177,145477,6,0,L|150:166,1,88,0|2,1:0|0:0,0:0:0:0:
405,315,145635,2,0,L|317:309,1,88,0|2,3:0|0:0,0:0:0:0:
345,94,145792,6,0,L|352:181,1,88,8|2,1:0|0:0,0:0:0:0:
124,384,145950,2,0,L|129:296,1,88,0|2,3:0|0:0,0:0:0:0:
250,232,146108,5,4,1:0:0:0:
250,232,146187,1,0,3:0:0:0:
250,232,146266,1,0,1:0:0:0:
250,232,146345,1,0,3:0:0:0:
217,301,146424,5,8,1:0:0:0:
224,226,146503,1,0,3:0:0:0:
223,153,146582,1,0,1:0:0:0:
229,79,146661,1,0,3:0:0:0:
239,7,146740,6,0,B|256:-6|256:-6|285:0,2,44,0|0|8,1:0|3:0|3:0,0:0:0:0:
110,93,146898,5,12,1:3:0:0:
110,93,146977,1,4,3:0:0:0:
110,93,147055,2,0,B|185:61|238:146|227:160|217:176|270:256|346:222,1,296.99999093628,12|0,1:0|0:0,0:0:0:0:
429,178,147371,5,6,1:0:0:0:
457,173,147450,1,2,0:0:0:0:
479,140,147529,1,2,0:0:0:0:
464,90,147608,1,2,0:0:0:0:
418,70,147687,2,0,P|370:87|330:150,1,88,8|2,1:0|0:0,0:0:0:0:
389,296,147845,5,2,0:0:0:0:
389,296,147924,1,2,0:0:0:0:
389,296,148003,1,4,1:3:0:0:
348,315,148082,1,4,3:0:0:0:
305,303,148161,1,8,3:0:0:0:
273,261,148240,1,12,3:0:0:0:
261,201,148319,1,8,1:0:0:0:
236,131,148398,1,12,3:3:0:0:
164,101,148477,1,8,3:3:0:0:
89,122,148555,1,8,3:3:0:0:
68,204,148634,6,0,P|81:246|88:300,1,88,4|2,1:0|0:0,0:0:0:0:
348,213,148792,1,2,0:0:0:0:
348,213,148871,1,2,0:0:0:0:
348,213,148950,2,0,P|355:167|372:106,1,88,8|2,1:0|0:0,0:0:0:0:
185,26,149108,5,2,0:0:0:0:
185,26,149187,1,2,0:0:0:0:
185,26,149266,1,8,1:3:0:0:
213,81,149345,1,8,3:0:0:0:
182,131,149424,1,8,3:0:0:0:
208,178,149503,1,12,3:0:0:0:
190,220,149582,1,8,1:0:0:0:
206,261,149661,1,12,3:0:0:0:
198,296,149740,1,4,3:0:0:0:
207,322,149819,1,4,3:0:0:0:
199,341,149898,6,0,P|296:355|310:245,1,176,4|2,1:0|0:0,0:0:0:0:
392,252,150134,1,2,0:0:0:0:
392,252,150213,1,8,1:0:0:0:
385,218,150292,1,2,0:0:0:0:
377,191,150371,1,2,0:0:0:0:
365,167,150450,1,2,0:0:0:0:
413,108,150529,5,4,1:3:0:0:
418,71,150608,1,4,3:0:0:0:
434,34,150687,1,4,3:0:0:0:
456,2,150766,1,12,3:0:0:0:
495,71,150845,5,8,1:0:0:0:
421,76,150924,1,12,3:0:0:0:
345,79,151003,1,8,3:0:0:0:
272,86,151082,1,8,3:0:0:0:
199,91,151161,6,0,B|192:135|192:135|241:201,1,88,4|2,1:0|0:0,0:0:0:0:
474,267,151319,2,0,B|481:223|481:223|432:157,1,88,2|2,0:0|0:0,0:0:0:0:
227,346,151477,6,0,B|271:353|271:353|337:304,1,88,8|2,1:0|0:0,0:0:0:0:
409,36,151635,2,0,B|365:29|365:29|299:78,1,88,2|2,0:0|0:0,0:0:0:0:
379,375,151792,5,8,1:3:0:0:
402,301,151871,1,8,3:0:0:0:
372,234,151950,1,8,3:0:0:0:
304,213,152029,1,12,3:0:0:0:
244,191,152108,1,8,1:0:0:0:
214,144,152187,1,12,3:0:0:0:
211,103,152266,1,4,3:0:0:0:
227,77,152345,1,4,3:0:0:0:
244,70,152424,6,0,L|355:89,1,88,4|2,1:0|0:0,0:0:0:0:
219,316,152582,2,0,L|108:335,1,88,2|2,0:0|0:0,0:0:0:0:
397,208,152740,6,0,L|378:319,1,88,8|2,1:0|0:0,0:0:0:0:
106,196,152898,2,0,L|87:85,1,88,2|2,0:0|0:0,0:0:0:0:
316,1,153055,5,4,1:3:0:0:
360,1,153134,1,4,3:0:0:0:
402,27,153213,1,4,3:0:0:0:
416,82,153292,1,12,3:0:0:0:
389,136,153371,1,8,1:0:0:0:
356,194,153450,1,12,3:0:0:0:
364,262,153529,1,8,3:0:0:0:
415,316,153608,1,8,3:0:0:0:
487,307,153687,6,0,P|481:267|477:211,1,88,4|2,1:0|0:0,0:0:0:0:
244,141,153845,2,0,P|250:101|254:45,1,88,2|2,0:0|0:0,0:0:0:0:
512,35,154003,6,0,P|506:75|502:131,1,88,8|2,1:0|0:0,0:0:0:0:
198,238,154161,2,0,P|204:278|208:334,1,88,2|2,0:0|0:0,0:0:0:0:
419,155,154319,5,8,1:3:0:0:
419,155,154398,1,8,3:0:0:0:
419,155,154477,1,8,3:0:0:0:
419,156,154555,1,12,3:0:0:0:
419,156,154634,2,0,B|378:137|344:175|343:187|346:198|324:234|271:218,1,176,8|4,1:0|3:0,0:0:0:0:
205,244,154871,5,4,3:0:0:0:
205,244,154950,1,4,1:0:0:0:
188,203,155029,1,2,0:0:0:0:
139,190,155108,1,2,0:0:0:0:
86,218,155187,1,2,0:0:0:0:
72,278,155266,1,8,1:0:0:0:
96,338,155345,1,2,0:0:0:0:
158,363,155424,1,2,0:0:0:0:
227,350,155503,1,2,0:0:0:0:
272,287,155582,5,4,1:3:0:0:
315,228,155661,1,4,3:0:0:0:
378,212,155740,1,4,3:0:0:0:
430,228,155819,1,12,3:0:0:0:
455,269,155898,1,8,1:0:0:0:
447,316,155977,1,12,3:0:0:0:
411,340,156055,1,8,3:0:0:0:
380,331,156134,1,8,3:0:0:0:
376,314,156213,5,4,1:0:0:0:
402,244,156292,1,2,0:0:0:0:
360,184,156371,1,2,0:0:0:0:
382,113,156450,1,2,0:0:0:0:
352,47,156529,6,0,B|318:20|318:20|260:31,1,88,8|2,1:0|0:0,0:0:0:0:
83,235,156687,2,0,B|117:262|117:262|175:251,1,88,2|2,0:0|0:0,0:0:0:0:
230,94,156845,6,0,L|239:249,1,132,8|0,1:3|0:0,0:0:0:0:
238,226,157003,5,12,1:3:0:0:
238,226,157082,1,4,3:0:0:0:
238,226,157161,2,0,L|233:280,1,49.4999984893799,8|0,1:0|0:0,0:0:0:0:
325,351,157477,5,6,1:0:0:0:
343,372,157555,1,2,0:0:0:0:
394,371,157634,1,2,0:0:0:0:
425,325,157713,1,2,0:0:0:0:
417,255,157792,2,0,P|390:224|326:214,1,88,8|2,1:0|0:0,0:0:0:0:
203,357,157950,5,2,0:0:0:0:
203,357,158029,1,2,0:0:0:0:
203,357,158108,1,4,1:3:0:0:
156,380,158187,1,4,3:0:0:0:
101,359,158266,1,4,3:0:0:0:
80,301,158345,1,12,3:0:0:0:
90,232,158424,1,8,1:0:0:0:
138,173,158503,1,12,3:0:0:0:
156,100,158582,1,8,3:0:0:0:
122,29,158661,1,8,3:0:0:0:
41,35,158740,5,4,1:0:0:0:
27,68,158819,1,2,0:0:0:0:
38,90,158898,1,2,0:0:0:0:
62,100,158977,1,2,0:0:0:0:
83,96,159055,5,8,1:0:0:0:
98,139,159134,1,2,0:0:0:0:
140,158,159213,1,2,0:0:0:0:
187,137,159292,1,2,0:0:0:0:
197,88,159371,5,8,1:3:0:0:
232,21,159450,1,8,3:0:0:0:
301,0,159529,1,8,3:0:0:0:
368,14,159608,1,12,3:0:0:0:
408,55,159687,1,8,1:0:0:0:
450,81,159766,1,12,3:0:0:0:
485,76,159845,1,4,3:0:0:0:
501,58,159924,1,4,3:0:0:0:
498,41,160003,5,4,1:0:0:0:
494,62,160082,1,2,0:0:0:0:
493,83,160161,1,2,0:0:0:0:
492,105,160240,1,2,0:0:0:0:
499,154,160319,5,8,1:0:0:0:
502,188,160398,1,2,0:0:0:0:
508,224,160477,1,2,0:0:0:0:
512,256,160555,1,2,0:0:0:0:
506,309,160634,5,4,1:3:0:0:
472,329,160713,1,4,3:0:0:0:
415,321,160792,1,4,3:0:0:0:
371,274,160871,1,12,3:0:0:0:
332,215,160950,1,8,1:0:0:0:
261,202,161029,1,12,3:0:0:0:
196,242,161108,1,8,3:0:0:0:
185,321,161187,1,8,3:0:0:0:
239,384,161266,6,0,B|276:373|276:373|301:302,1,88,4|2,1:0|0:0,0:0:0:0:
196,74,161424,2,0,B|174:106|174:106|201:176,1,88,0|2,0:0|0:0,0:0:0:0:
408,257,161582,5,8,1:0:0:0:
334,249,161661,2,0,L|78:229,1,176,2|2,0:0|0:0,0:0:0:0:
58,187,161898,6,0,P|65:229|71:299,1,88,8|2,1:3|0:0,0:0:0:0:
292,137,162055,2,0,P|301:90|317:36,1,88,12|2,3:0|0:0,0:0:0:0:
248,336,162213,6,0,P|290:329|360:323,1,88,8|2,1:0|0:0,0:0:0:0:
113,64,162371,2,0,P|67:56|14:42,1,88,4|2,3:0|0:0,0:0:0:0:
183,99,162529,6,0,L|202:322,1,176,4|2,1:0|0:0,0:0:0:0:
147,333,162766,1,2,0:0:0:0:
147,333,162845,2,0,B|106:318|106:318|93:239,1,88,8|2,1:0|0:0,0:0:0:0:
245,53,163003,2,0,B|286:68|286:68|299:147,1,88,2|2,0:0|0:0,0:0:0:0:
44,69,163161,5,4,1:3:0:0:
118,49,163240,1,4,3:0:0:0:
180,93,163319,1,4,3:0:0:0:
184,168,163398,1,12,3:0:0:0:
172,243,163477,1,8,1:0:0:0:
222,297,163555,1,12,3:0:0:0:
298,301,163634,1,8,3:0:0:0:
351,245,163713,1,8,3:0:0:0:
348,164,163792,6,0,P|296:168|228:182,1,88,4|2,1:0|0:0,0:0:0:0:
426,28,163950,2,0,P|476:37|540:44,1,88,2|2,0:0|0:0,0:0:0:0:
268,89,164108,6,0,P|264:37|250:-31,1,88,8|2,1:0|0:0,0:0:0:0:
483,147,164266,2,0,P|474:197|467:261,1,88,2|2,0:0|0:0,0:0:0:0:
391,100,164424,5,8,1:3:0:0:
391,100,164503,1,8,3:0:0:0:
391,100,164582,1,8,3:0:0:0:
391,100,164661,1,12,3:0:0:0:
391,100,164740,1,8,1:0:0:0:
71,354,164898,5,4,3:0:0:0:
71,354,164977,1,4,3:0:0:0:
71,354,165055,2,0,B|51:315|51:315|77:256,1,88,4|0,1:0|0:0,0:0:0:0:
279,76,165213,2,0,B|299:115|299:115|273:174,1,88,0|2,3:0|0:0,0:0:0:0:
0,167,165371,6,0,B|23:130|23:130|66:124,1,88,8|0,1:0|0:0,0:0:0:0:
370,238,165529,2,0,B|346:274|346:274|301:279,1,88,0|0,3:0|0:0,0:0:0:0:
112,27,165687,6,0,B|155:29|155:29|182:64,1,88,0|0,1:0|0:0,0:0:0:0:
244,361,165845,2,0,B|200:358|200:358|174:323,1,88,0|0,3:0|0:0,0:0:0:0:
287,75,166003,6,0,B|307:114|307:114|290:153,1,88,8|0,1:0|0:0,0:0:0:0:
64,353,166161,2,0,B|43:314|43:314|62:273,1,88,0|0,3:0|0:0,0:0:0:0:
418,214,166319,5,8,1:3:0:0:
363,155,166398,1,4,3:0:0:0:
283,158,166477,1,4,1:3:0:0:
224,213,166555,1,12,3:0:0:0:
204,290,166634,1,8,1:0:0:0:
146,346,166713,1,12,3:0:0:0:
66,334,166792,1,8,1:3:0:0:
21,268,166871,1,8,3:0:0:0:
34,189,166950,5,8,1:3:0:0:
126,214,167029,1,12,1:3:0:0:
219,239,167108,1,12,1:3:0:0:
311,265,167187,1,4,1:3:0:0:
408,292,167266,1,8,1:0:0:0:
408,292,167582,6,0,P|396:220|391:157,1,110,4|2,1:0|0:3,0:0:0:0:
316,268,167898,2,0,P|323:302|328:344,1,55,8|0,1:0|0:0,0:0:0:0:
319,339,168055,1,2,0:3:0:0:
304,181,168213,5,0,1:0:0:0:
280,174,168292,1,2,0:0:0:0:
256,168,168371,1,2,0:3:0:0:
232,162,168450,1,2,0:0:0:0:
208,156,168529,1,8,1:0:0:0:
399,175,168687,1,2,0:3:0:0:
305,49,168845,6,0,B|283:67|283:67|286:104,1,55,0|0,1:0|0:0,0:0:0:0:
411,52,169003,2,0,B|406:23|406:23|372:8,1,55,2|0,0:3|0:0,0:0:0:0:
365,108,169161,6,0,L|507:89,1,110,8|2,1:0|0:3,0:0:0:0:
474,93,169398,2,0,B|502:122|502:122|485:219,1,110,2|2,0:0|0:0,0:0:0:0:
497,202,169634,1,2,0:3:0:0:
379,348,169792,6,0,L|391:251,1,55,12|0,1:0|0:0,0:0:0:0:
453,371,169950,2,0,L|462:281,1,55,2|0,3:3|0:0,0:0:0:0:
373,213,170108,6,0,B|343:207|321:226|326:239|303:256|270:249,1,110,4|2,1:2|0:3,0:0:0:0:
301,379,170424,2,0,P|269:369|223:365,1,55,8|0,1:0|0:0,0:0:0:0:
236,351,170582,1,2,0:3:0:0:
207,120,170740,5,0,1:0:0:0:
204,150,170819,1,2,0:0:0:0:
201,182,170898,1,2,0:3:0:0:
198,212,170977,1,2,0:0:0:0:
195,242,171055,1,8,1:0:0:0:
143,70,171213,1,2,0:3:0:0:
73,381,171371,6,0,B|95:368|95:368|92:316,1,55,0|0,1:0|0:0,0:0:0:0:
0,267,171529,2,0,B|0:292|0:292|46:315,1,55,2|0,0:3|0:0,0:0:0:0:
203,251,171687,6,0,L|79:269,1,110,8|2,1:0|0:3,0:0:0:0:
94,266,171924,2,0,L|105:197,1,55,2|0,0:0|1:0,0:0:0:0:
30,196,172082,1,2,0:0:0:0:
30,196,172161,2,0,L|41:127,1,55,2|0,0:3|0:0,0:0:0:0:
104,22,172319,6,0,B|124:43|124:43|288:14,1,165,12|0,1:0|0:0,0:0:0:0:
257,19,172634,2,0,B|293:42|293:42|268:149,1,110,4|2,1:2|0:3,0:0:0:0:
167,177,172950,2,0,L|153:95,1,55,8|0,1:0|0:0,0:0:0:0:
165,111,173108,1,2,0:3:0:0:
273,194,173266,5,0,1:0:0:0:
305,200,173345,1,2,0:0:0:0:
334,206,173424,1,2,0:3:0:0:
361,211,173503,1,2,0:0:0:0:
385,216,173582,1,8,1:0:0:0:
283,112,173740,1,2,0:3:0:0:
458,41,173898,6,0,L|372:49,1,55,0|0,1:0|0:0,0:0:0:0:
482,112,174055,2,0,L|405:118,1,55,2|0,0:3|0:0,0:0:0:0:
293,116,174213,6,0,L|304:15,1,82.5,8|0,1:0|0:0,0:0:0:0:
301,33,174371,5,2,0:3:0:0:
301,33,174450,2,0,B|275:13|275:13|230:18,1,55,2|0,0:0|1:0,0:0:0:0:
183,0,174608,1,2,0:0:0:0:
183,0,174687,2,0,B|152:12|152:12|134:53,1,55,2|0,0:3|0:0,0:0:0:0:
61,117,174845,6,0,L|176:102,1,110,12|2,1:0|0:3,0:0:0:0:
191,269,175161,5,4,1:2:0:0:
167,372,175319,1,2,3:0:0:0:
18,267,175477,5,8,1:0:0:0:
1,164,175634,1,2,3:0:0:0:
111,274,175792,5,0,1:0:0:0:
111,274,175871,1,2,0:0:0:0:
111,274,175950,1,2,3:0:0:0:
111,274,176029,1,2,0:0:0:0:
111,274,176108,1,8,1:0:0:0:
266,240,176266,1,2,3:3:0:0:
431,104,176424,5,0,1:0:0:0:
389,125,176503,1,0,3:0:0:0:
343,117,176582,1,0,1:0:0:0:
314,80,176661,1,0,3:0:0:0:
286,40,176740,1,8,1:0:0:0:
240,34,176819,1,0,3:0:0:0:
205,57,176898,5,0,1:0:0:0:
211,65,176977,2,0,P|203:102|200:150,1,55,0|0,3:0|1:0,0:0:0:0:
283,185,177134,5,0,3:0:0:0:
291,181,177213,2,0,L|327:186,1,27.5,8|0,1:2|0:0,0:0:0:0:
210,245,177371,6,0,L|160:250,1,27.5,8|0,1:2|0:0,0:0:0:0:
262,316,177529,6,0,L|303:326,1,27.5,8|0,1:2|0:0,0:0:0:0:
219,384,177687,5,4,1:0:0:0:
162,334,177845,1,2,0:3:0:0:
91,366,178003,1,8,1:2:0:0:
34,322,178161,1,2,0:3:0:0:
45,246,178319,5,0,1:0:0:0:
59,243,178398,1,2,0:0:0:0:
73,240,178477,1,2,0:3:0:0:
84,238,178555,1,2,0:0:0:0:
94,236,178634,1,8,1:2:0:0:
121,169,178792,1,2,0:3:0:0:
68,119,178950,5,0,1:0:0:0:
73,49,179108,1,2,0:3:0:0:
137,18,179266,1,8,1:2:0:0:
197,62,179424,1,2,0:3:0:0:
196,73,179503,1,2,0:0:0:0:
238,136,179661,1,2,0:0:0:0:
236,147,179740,1,2,0:3:0:0:
288,197,179898,1,8,1:2:0:0:
363,192,180055,1,2,0:3:0:0:
436,45,180213,5,4,1:2:0:0:
363,58,180371,1,2,0:3:0:0:
396,124,180529,1,8,1:2:0:0:
468,113,180687,1,2,0:3:0:0:
504,177,180845,5,0,1:0:0:0:
502,192,180924,1,2,0:0:0:0:
501,205,181003,1,2,0:3:0:0:
500,216,181082,1,2,0:0:0:0:
498,230,181161,1,8,1:2:0:0:
434,262,181319,1,2,0:3:0:0:
437,333,181477,5,0,1:0:0:0:
379,376,181634,1,2,0:3:0:0:
312,343,181792,1,8,1:2:0:0:
301,268,181950,1,2,0:3:0:0:
304,258,182029,1,2,0:0:0:0:
270,190,182187,1,2,0:0:0:0:
273,180,182266,1,2,0:3:0:0:
320,117,182424,6,0,B|344:115|344:115|371:141,1,41.2500015735627,8|0,1:2|0:0,0:0:0:0:
221,251,182582,2,0,B|197:253|197:253|170:227,1,41.2500015735627,0|0,3:0|0:0,0:0:0:0:
214,45,182740,6,0,L|222:138,1,82.5000031471254,6|2,1:2|0:3,0:0:0:0:
39,275,183055,2,0,L|51:183,1,82.5000031471254,8|2,1:2|0:3,0:0:0:0:
162,173,183371,5,4,1:3:0:0:
162,173,183450,1,2,0:0:0:0:
162,173,183529,1,2,0:3:0:0:
162,173,183608,1,2,0:0:0:0:
162,173,183687,2,0,L|105:165,1,41.2500015735627,8|0,1:2|0:0,0:0:0:0:
63,91,183845,2,0,L|120:83,1,41.2500015735627,6|0,0:3|0:0,0:0:0:0:
342,30,184003,5,4,1:2:0:0:
324,131,184161,1,4,0:3:0:0:
305,228,184319,1,8,1:2:0:0:
289,333,184477,5,2,0:3:0:0:
289,333,184555,2,0,L|346:325,1,41.2500015735627,2|8,0:0|1:3,0:0:0:0:
418,248,184713,5,2,0:0:0:0:
418,248,184792,1,2,0:3:0:0:
418,248,184871,1,4,0:3:0:0:
418,248,184950,2,0,L|361:256,1,41.2500015735627,8|0,1:2|0:0,0:0:0:0:
174,284,185108,5,4,0:3:0:0:
174,284,185187,1,12,0:3:0:0:
174,284,185266,2,0,B|172:262|172:262|184:247,1,41.2500015735627,6|0,1:2|0:0,0:0:0:0:
150,54,185424,2,0,B|152:76|152:76|140:91,1,41.2500015735627,12|0,0:3|0:0,0:0:0:0:
291,181,185582,6,0,B|269:183|269:183|254:171,1,41.2500015735627,8|0,1:2|0:0,0:0:0:0:
60,196,185740,2,0,B|82:194|82:194|97:206,1,41.2500015735627,12|0,0:3|0:0,0:0:0:0:
178,177,185898,5,12,1:3:0:0:
178,177,185977,1,2,0:0:0:0:
178,177,186055,1,14,0:3:0:0:
178,177,186134,1,2,0:0:0:0:
178,177,186213,1,8,1:2:0:0:
362,140,186371,1,10,0:3:0:0:
121,96,186529,5,6,1:2:0:0:
174,77,186608,1,4,0:3:0:0:
222,101,186687,1,4,3:0:0:0:
246,149,186766,1,12,0:3:0:0:
249,203,186845,1,8,1:2:0:0:
280,244,186924,1,12,0:3:0:0:
327,265,187003,1,8,3:3:0:0:
378,250,187082,1,8,0:3:0:0:
386,260,187161,6,0,P|381:287|378:319,1,49.4999984893799,6|8,1:2|0:3,0:0:0:0:
224,98,187477,6,0,P|239:185|256:396,1,288.750011014939,8|0,1:0|0:0,0:0:0:0:
255,384,187792,5,4,1:0:0:0:
256,192,187871,12,0,194108,0:0:0:0:
