osu file format v14

[General]
AudioFilename: audio.mp3
AudioLeadIn: 0
PreviewTime: 44384
Countdown: 0
SampleSet: Soft
StackLeniency: 0.4
Mode: 0
LetterboxInBreaks: 0
WidescreenStoryboard: 1

[Editor]
Bookmarks: 21055,56423,66529,72213,86739,106950,127160,167581,187777,194093
DistanceSpacing: 1
BeatDivisor: 4
GridSize: 32
TimelineZoom: 2.399998

[Metadata]
Title:Critical Cannonball (Extended ver.)
TitleUnicode:Critical Cannonball (Extended ver.)
Artist:SEPHID
ArtistUnicode:SEPHID
Creator:DeviousPanda
Version:Collab Normal
Source:東方輝針城 ~ Double Dealing Character.
Tags:o!wc owc grand finals gf HD1 満月の竹林 mangetsu no chikurin bamboo forest of the full moon ZUN Touhou 14 Stage 3 Theme Kishinjou 東方Project drumstep j-core electronic instrumental video game paradogi xlolicore- my angel watame skydiver atalanta talulah waefwerf Sakura Blossom -_ascended_- ascended cycopton Wanpachi Gordon Lazarus Xoul Zelq
BeatmapID:2979748
BeatmapSetID:1189616

[Difficulty]
HPDrainRate:3
CircleSize:2.7
OverallDifficulty:4
ApproachRate:6
SliderMultiplier:1.1
SliderTickRate:1

[Events]
//Background and Video events
0,0,"53805150_p0.png",0,0
//Break Periods
2,26308,30110
2,112202,114742
//Storyboard Layer 0 (Background)
//Storyboard Layer 1 (Fail)
//Storyboard Layer 2 (Pass)
//Storyboard Layer 3 (Foreground)
//Storyboard Layer 4 (Overlay)
//Storyboard Sound Samples

[TimingPoints]
845,315.789473684211,4,2,1,50,1,0
845,-111.111111111111,4,2,1,50,0,0
10950,-111.111111111111,4,2,1,60,0,0
20740,-100,4,2,1,80,0,0
21055,-111.111111111111,4,2,1,80,0,0
21134,-111.111111111111,4,2,1,60,0,0
36198,-111.111111111111,4,2,1,60,0,0
39988,-111.111111111111,4,2,1,60,0,0
40935,-111.111111111111,4,2,1,60,0,0
42529,-111.111111111111,4,2,1,40,0,0
43161,-111.111111111111,4,2,1,60,0,0
43792,-111.111111111111,4,2,1,40,0,0
44108,-111.111111111111,4,2,1,50,0,0
44424,-111.111111111111,4,2,1,60,0,0
44503,-111.111111111111,4,2,1,65,0,0
44582,-111.111111111111,4,2,1,70,0,0
44661,-111.111111111111,4,2,1,75,0,0
44740,-111.111111111111,4,2,1,80,0,0
44819,-111.111111111111,4,2,1,85,0,0
44898,-111.111111111111,4,2,1,90,0,0
44977,-111.111111111111,4,2,1,95,0,0
45055,-111.111111111111,4,2,1,100,0,0
45213,-111.111111111111,4,2,1,50,0,0
45687,-111.111111111111,4,2,1,70,0,0
46003,-111.111111111111,4,2,1,90,0,0
46318,-90.9090909090909,4,2,1,80,0,1
56423,-111.111111111111,4,2,1,55,0,0
66213,-111.111111111111,4,2,1,90,0,0
66514,-100,4,2,1,90,0,0
66529,-100,4,2,1,70,0,0
76634,-100,4,2,1,85,0,0
86740,-100,4,2,1,65,0,0
101898,-100,4,2,1,85,0,0
105687,-100,4,2,1,55,0,0
106634,-100,4,2,1,75,0,0
106950,-100,4,2,1,45,0,0
115161,-100,4,2,1,55,0,0
115477,-100,4,2,1,65,0,0
115792,-100,4,2,1,75,0,0
122108,-100,4,2,1,48,0,0
122187,-100,4,2,1,50,0,0
122266,-100,4,2,1,52,0,0
122345,-100,4,2,1,54,0,0
122424,-100,4,2,1,56,0,0
122503,-100,4,2,1,58,0,0
122582,-100,4,2,1,60,0,0
122661,-100,4,2,1,62,0,0
122740,-100,4,2,1,64,0,0
122819,-100,4,2,1,66,0,0
122898,-100,4,2,1,68,0,0
122977,-100,4,2,1,70,0,0
123055,-100,4,2,1,72,0,0
123134,-100,4,2,1,74,0,0
123213,-100,4,2,1,76,0,0
123292,-100,4,2,1,78,0,0
123371,-100,4,2,1,80,0,0
123450,-100,4,2,1,82,0,0
123529,-100,4,2,1,84,0,0
123608,-100,4,2,1,86,0,0
123687,-100,4,2,1,78,0,0
123766,-100,4,2,1,80,0,0
123845,-100,4,2,1,82,0,0
123924,-100,4,2,1,84,0,0
124003,-100,4,2,1,86,0,0
124082,-100,4,2,1,88,0,0
124161,-100,4,2,1,90,0,0
124240,-100,4,2,1,92,0,0
124319,-100,4,2,1,94,0,0
124398,-100,4,2,1,96,0,0
124477,-100,4,2,1,98,0,0
124555,-100,4,2,1,100,0,0
124674,-100,4,2,1,55,0,0
125266,-100,4,2,1,75,0,0
125883,-111.111111111111,4,2,1,75,0,0
126845,-111.111111111111,4,2,1,100,0,0
127160,-100,4,2,1,95,0,1
147055,-100,4,2,1,75,0,1
147371,-90.9090909090909,4,2,1,100,0,1
157161,-100,4,2,1,75,0,1
157477,-100,4,2,1,100,0,1
167581,-111.111111111111,4,2,1,65,0,0
177213,-111.111111111111,4,2,1,55,0,0
177687,-111.111111111111,4,2,1,50,0,0
187161,-111.111111111111,4,2,1,60,0,0
187477,-111.111111111111,4,2,1,80,0,0
187777,-111.111111111111,4,2,1,80,0,0
187856,-111.111111111111,4,2,1,80,0,0
187871,-111.111111111111,4,2,1,5,0,0

[Colours]
Combo1 : 153,255,0
Combo2 : 255,167,34
Combo3 : 54,254,145
Combo4 : 255,100,100

[HitObjects]
433,33,845,6,0,P|483:49|512:107,2,98.9999969787599,4|8|2,1:1|1:2|1:2,0:0:0:0:
334,41,1792,1,8,1:2:0:0:
266,113,2108,2,0,P|279:160|290:208,1,98.9999969787599,0|8,1:0|1:2,0:0:0:0:
259,303,2739,2,0,P|223:286|207:285,1,49.4999984893799,0|2,1:0|0:3,0:0:0:0:
171,258,3055,1,10,1:2:0:0:
74,279,3371,6,0,P|87:326|98:374,2,98.9999969787599,4|8|0,1:0|1:2|1:0,0:0:0:0:
105,185,4318,1,8,1:2:0:0:
77,89,4634,2,0,L|183:74,1,98.9999969787599,0|8,1:0|1:2,0:0:0:0:
266,113,5266,2,0,P|259:136|253:160,1,49.4999984893799,0|2,1:0|0:3,0:0:0:0:
269,207,5581,1,8,1:2:0:0:
344,271,5897,6,0,P|392:269|432:302,2,98.9999969787599,4|8|0,1:0|1:2|1:0,0:0:0:0:
265,331,6845,1,8,1:2:0:0:
185,272,7160,2,0,P|180:236|156:169,1,98.9999969787599,0|8,1:0|1:2,0:0:0:0:
249,133,7792,2,0,P|254:97|278:30,1,98.9999969787599,0|8,1:0|1:2,0:0:0:0:
370,15,8423,6,0,L|472:7,2,98.9999969787599,2|8|2,1:2|1:0|1:2,0:0:0:0:
274,37,9371,1,8,1:0:0:0:
191,91,9687,2,0,P|140:69|84:51,1,98.9999969787599,6|8,1:2|1:0,0:0:0:0:
42,136,10318,2,0,L|48:189,1,49.4999984893799,0|8,1:0|1:2,0:0:0:0:
80,222,10634,2,0,L|74:275,1,49.4999984893799,8|8,1:2|1:2,0:0:0:0:
60,319,10950,6,0,P|105:310|171:331,1,98.9999969787599,4|8,1:0|1:0,0:0:0:0:
230,257,11581,1,0,1:0:0:0:
319,300,11897,1,8,1:0:0:0:
416,281,12213,2,0,P|408:336|405:393,2,98.9999969787599,2|8|0,1:2|1:0|0:0,0:0:0:0:
455,190,13160,1,8,1:0:0:0:
425,95,13476,6,0,P|449:68|524:57,2,98.9999969787599,4|8|0,1:0|1:0|1:0,0:0:0:0:
326,81,14423,1,8,1:0:0:0:
251,146,14739,2,0,P|246:204|249:268,1,98.9999969787599,0|8,1:0|1:0,0:0:0:0:
270,340,15371,2,0,P|291:327|315:322,1,49.4999984893799,0|2,0:0|0:3,0:0:0:0:
358,296,15686,1,8,1:0:0:0:
411,212,16002,6,0,L|515:198,2,98.9999969787599,4|8|0,1:0|1:0|1:0,0:0:0:0:
329,158,16950,1,8,1:0:0:0:
253,221,17266,2,0,P|200:220|154:242,1,98.9999969787599,0|8,1:0|1:0,0:0:0:0:
74,290,17897,2,0,L|65:183,1,98.9999969787599,0|8,1:0|1:0,0:0:0:0:
82,93,18529,6,0,P|30:88|-25:59,2,98.9999969787599,4|8|4,1:0|1:0|1:0,0:0:0:0:
180,85,19476,1,8,1:0:0:0:
275,109,19792,2,0,P|316:85|374:70,1,98.9999969787599,6|8,1:2|1:0,0:0:0:0:
461,95,20423,1,6,1:2:0:0:
502,184,20739,1,12,1:0:0:0:
430,253,21055,5,4,1:0:0:0:
256,192,21371,12,6,26108,0:0:0:0:
256,192,31160,12,0,35423,0:0:0:0:
127,56,36213,6,0,P|96:41|45:127,2,148.49999546814,4|2|2,1:2|0:0|0:0,0:0:0:0:
196,126,37476,2,0,P|260:117|294:124,1,98.9999969787599,2|2,0:0|0:0,0:0:0:0:
339,105,37950,1,2,0:0:0:0:
414,169,38266,1,2,0:0:0:0:
414,169,38423,1,2,0:0:0:0:
403,267,38739,6,0,P|434:252|485:338,2,148.49999546814,2|2|2,0:0|0:0|0:0,0:0:0:0:
334,337,40002,2,0,P|270:328|236:335,1,98.9999969787599,2|2,0:0|0:0,0:0:0:0:
191,313,40476,1,0,0:0:0:0:
108,364,40792,1,0,3:0:0:0:
108,364,40949,1,8,1:0:0:0:
27,306,41266,6,0,P|13:260|28:206,1,98.9999969787599,4|4,1:2|1:3,0:0:0:0:
62,178,41739,1,4,3:3:0:0:
62,178,41897,2,0,L|115:185,1,49.4999984893799,12|12,1:3|3:0,0:0:0:0:
153,158,42213,1,12,1:3:0:0:
238,107,42529,6,0,L|235:44,2,49.4999984893799,8|8|8,1:3|3:0|1:3,0:0:0:0:
274,141,43002,1,8,3:0:0:0:
274,141,43160,2,0,L|327:148,1,49.4999984893799,8|8,1:3|3:0,0:0:0:0:
366,172,43476,1,8,1:3:0:0:
462,193,43792,6,0,P|487:229|484:292,1,98.9999969787599,8|8,3:1|3:1,0:0:0:0:
419,354,44423,2,0,P|394:318|397:254,1,98.9999969787599,8|8,3:1|3:1,0:0:0:0:
366,172,45055,6,0,L|313:168,1,49.4999984893799,4|2,1:0|0:3,0:0:0:0:
274,141,45371,2,0,L|221:146,1,49.4999984893799,2|2,0:3|0:3,0:0:0:0:
178,163,45687,1,0,3:2:0:0:
97,105,46002,1,12,1:1:0:0:
2,161,46318,6,0,P|-7:210|21:278,1,121.000003692627,4|8,1:0|1:0,0:0:0:0:
73,311,46792,1,2,0:2:0:0:
73,311,46950,2,0,L|134:305,1,60.5000018463135,0|2,1:2|0:2,0:0:0:0:
186,274,47266,1,8,1:0:0:0:
300,310,47581,2,0,P|300:255|334:186,1,121.000003692627,4|8,1:0|1:0,0:0:0:0:
369,152,48055,1,2,0:2:0:0:
369,152,48213,1,2,1:2:0:0:
283,66,48529,1,8,1:0:0:0:
210,162,48845,6,0,P|238:202|257:282,1,121.000003692627,4|8,1:0|1:0,0:0:0:0:
236,330,49318,1,2,0:2:0:0:
236,330,49477,2,0,L|174:336,1,60.5000018463135,2|2,1:2|0:2,0:0:0:0:
121,307,49793,1,8,1:0:0:0:
13,361,50108,2,0,L|3:238,1,121.000003692627,4|8,1:0|1:0,0:0:0:0:
34,190,50581,1,2,0:2:0:0:
34,190,50739,2,0,L|44:125,1,60.5000018463135,8|8,1:3|3:0,0:0:0:0:
21,73,51055,1,8,1:0:0:0:
130,19,51371,6,0,B|188:0|183:71|262:43,1,121.000003692627,4|8,1:0|1:0,0:0:0:0:
300,79,51845,1,2,0:2:0:0:
300,79,52002,2,0,L|291:141,1,60.5000018463135,0|2,1:0|0:2,0:0:0:0:
260,191,52318,1,8,1:0:0:0:
304,303,52634,2,0,P|350:327|423:308,1,121.000003692627,4|8,1:0|1:0,0:0:0:0:
457,269,53108,1,2,0:2:0:0:
457,269,53266,2,0,L|461:206,1,60.5000018463135,0|2,1:0|0:2,0:0:0:0:
492,156,53581,1,8,1:0:0:0:
404,71,53897,6,0,P|337:41|278:72,2,121.000003692627,4|8|2,1:0|1:0|1:2,0:0:0:0:
394,134,54687,1,2,1:2:0:0:
394,134,54845,1,8,1:0:0:0:
331,237,55160,2,0,B|273:218|278:289|199:261,1,121.000003692627,4|8,1:0|1:0,0:0:0:0:
175,232,55634,1,4,1:3:0:0:
175,232,55792,2,0,L|169:172,1,60.5000018463135,4|0,1:0|1:0,0:0:0:0:
194,117,56108,1,8,1:0:0:0:
129,42,56423,6,0,P|83:25|36:41,2,98.9999969787599,4|8|0,1:0|0:2|0:0,0:0:0:0:
220,3,57371,1,2,0:3:0:0:
306,51,57687,2,0,L|296:158,1,98.9999969787599,6|2,0:2|0:3,0:0:0:0:
322,198,58160,1,2,0:3:0:0:
322,198,58318,2,0,P|356:222|361:279,1,98.9999969787599,0|12,0:0|1:2,0:0:0:0:
314,361,58950,6,0,P|265:362|215:380,2,98.9999969787599,4|2|0,1:0|0:3|0:0,0:0:0:0:
412,374,59897,1,2,0:3:0:0:
477,300,60213,2,0,P|483:246|469:194,1,98.9999969787599,2|2,0:3|0:3,0:0:0:0:
445,169,60687,1,2,0:3:0:0:
445,169,60845,2,0,L|343:159,1,98.9999969787599,0|6,0:0|1:2,0:0:0:0:
263,105,61476,6,0,P|252:74|210:9,2,98.9999969787599,6|4|4,1:2|3:0|3:0,0:0:0:0:
213,190,62423,1,4,3:0:0:0:
234,286,62739,2,0,P|282:269|338:267,2,98.9999969787599,6|12|12,1:2|3:0|3:0,0:0:0:0:
141,322,63687,1,12,3:0:0:0:
49,285,64002,6,0,P|55:331|58:383,2,98.9999969787599,6|8|6,1:2|1:3|1:2,0:0:0:0:
33,238,64792,1,8,1:3:0:0:
33,238,64950,1,8,1:3:0:0:
69,146,65266,2,0,L|122:142,1,49.4999984893799,6|8,1:2|1:3,0:0:0:0:
160,116,65582,2,0,L|213:121,1,49.4999984893799,8|8,1:3|1:3,0:0:0:0:
254,141,65898,1,4,1:0:0:0:
334,83,66213,1,12,1:0:0:0:
431,134,66529,6,0,L|422:245,1,110,4|6,1:0|1:2,0:0:0:0:
415,353,67160,2,0,L|498:359,2,82.5,6|6|6,1:2|1:2|1:2,0:0:0:0:
305,337,67950,1,6,1:2:0:0:
305,337,68108,1,6,1:2:0:0:
198,362,68423,2,0,L|129:356,1,55,0|0,0:0|1:0,0:0:0:0:
88,349,68739,1,12,1:0:0:0:
23,259,69055,6,0,B|16:214|16:214|32:201|32:201|23:149,1,110,6|6,1:2|1:2,0:0:0:0:
107,83,69687,2,0,B|90:43|90:43|113:5,2,82.5,12|0|4,1:0|1:0|1:2,0:0:0:0:
176,168,70476,1,2,1:2:0:0:
176,168,70634,2,0,L|244:162,1,55,6|8,1:2|3:0,0:0:0:0:
253,213,70950,2,0,L|246:296,2,82.5,12|4|4,1:0|1:2|1:2,0:0:0:0:
308,211,71581,6,0,L|438:200,1,110,4|6,1:0|1:2,0:0:0:0:
470,105,72213,2,0,L|463:22,2,82.5,12|6|6,1:0|1:2|1:2,0:0:0:0:
365,70,73002,1,6,1:2:0:0:
365,70,73160,1,6,1:2:0:0:
255,59,73476,2,0,L|186:53,1,55,0|6,0:0|1:2,0:0:0:0:
145,46,73792,1,4,1:0:0:0:
48,98,74108,6,0,B|37:126|37:126|52:152,1,55,8|8,1:3|3:3,0:0:0:0:
88,186,74423,2,0,B|100:207|100:207|89:235,1,55,8|8,1:3|3:3,0:0:0:0:
73,288,74739,2,0,B|37:268|37:268|-1:285,2,82.5,12|12|4,1:3|1:3|1:3,0:0:0:0:
166,347,75529,1,6,1:2:0:0:
166,347,75687,1,6,1:2:0:0:
265,300,76002,2,0,P|316:316|374:327,1,110,4|12,1:0|3:0,0:0:0:0:
471,280,76634,6,0,P|491:225|456:181,1,110,4|6,1:0|1:2,0:0:0:0:
410,174,77108,1,0,0:0:0:0:
410,174,77266,2,0,P|420:135|422:88,2,82.5,12|6|4,1:0|1:2|1:3,0:0:0:0:
313,222,78055,1,6,1:2:0:0:
313,222,78213,2,0,P|277:187|252:186,1,55,4|2,1:0|0:0,0:0:0:0:
220,200,78529,2,0,P|168:186|106:184,1,110,12|12,1:0|3:0,0:0:0:0:
5,210,79160,6,0,P|-15:155|20:111,1,110,4|6,1:0|1:2,0:0:0:0:
59,88,79634,1,2,3:0:0:0:
59,88,79792,2,0,P|69:49|71:2,2,82.5,12|6|6,1:0|1:2|1:2,0:0:0:0:
170,69,80581,1,4,1:0:0:0:
170,69,80739,2,0,P|206:34|231:33,1,55,6|2,1:2|0:0,0:0:0:0:
263,47,81055,2,0,P|314:33|376:31,1,110,12|12,1:0|3:0,0:0:0:0:
459,97,81687,6,0,P|469:131|461:158,1,55,4|2,1:0|1:2,0:0:0:0:
430,192,82002,1,6,1:2:0:0:
322,213,82318,2,0,P|283:198|243:203,2,82.5,12|6|0,1:0|1:2|1:0,0:0:0:0:
355,258,82950,2,0,P|363:297|353:319,1,55,4|6,1:0|1:2,0:0:0:0:
317,347,83265,1,0,1:0:0:0:
207,333,83581,2,0,P|141:343|82:348,1,110,12|4,1:0|1:0,0:0:0:0:
33,257,84213,6,0,P|38:194|93:175,1,110,4|8,1:0|1:0,0:0:0:0:
115,136,84687,1,8,1:3:0:0:
115,136,84845,2,0,P|181:146|240:151,1,110,12|8,1:3|1:0,0:0:0:0:
276,132,85318,1,4,1:3:0:0:
276,132,85476,1,4,1:0:0:0:
413,304,86108,1,12,1:0:0:0:
496,232,86423,1,12,1:0:0:0:
445,133,86739,6,0,L|359:146,1,55,4|2,1:0|1:2,0:0:0:0:
342,113,87055,2,0,P|359:56|346:23,2,82.5,12|0|8,1:0|1:0|1:3,0:0:0:0:
290,133,87687,1,4,1:0:0:0:
193,81,88002,2,0,L|134:89,1,55,4|12,3:0|1:3,0:0:0:0:
94,122,88318,2,0,B|111:174|111:174|81:233,1,110,12|0,1:0|1:2,0:0:0:0:
55,269,88792,1,0,1:2:0:0:
55,269,88950,1,8,1:0:0:0:
140,338,89266,6,0,L|219:332,1,55,4|0,1:0|1:0,0:0:0:0:
235,296,89581,2,0,P|296:310|328:354,1,110,8|0,1:0|3:0,0:0:0:0:
430,313,90213,2,0,L|442:250,1,55,8|0,1:0|3:0,0:0:0:0:
412,211,90529,2,0,P|362:223|321:200,2,82.5,2|0|8,3:2|0:0|3:3,0:0:0:0:
444,166,91160,2,0,L|433:111,1,55,12|4,1:3|3:3,0:0:0:0:
403,65,91476,1,8,1:0:0:0:
302,21,91792,6,0,B|284:76|284:76|314:143,1,110,4|8,1:0|1:0,0:0:0:0:
329,173,92266,1,0,3:0:0:0:
329,173,92423,2,0,P|387:162|420:157,2,82.5,6|4|0,3:2|3:1|1:0,0:0:0:0:
303,222,93055,2,0,L|299:296,1,55,6|0,1:2|3:0,0:0:0:0:
269,323,93371,1,8,1:0:0:0:
171,271,93687,2,0,L|167:197,2,55,2|0|8,3:2|1:0|1:0,0:0:0:0:
105,359,94318,6,0,P|61:302|66:268,1,110,4|8,1:0|1:0,0:0:0:0:
83,218,94792,1,0,3:0:0:0:
83,218,94950,2,0,L|-17:213,2,82.5,6|0|0,3:2|1:0|1:0,0:0:0:0:
117,175,95581,2,0,L|121:95,1,55,4|0,1:0|1:0,0:0:0:0:
120,64,95897,1,8,1:0:0:0:
226,90,96213,2,0,B|262:78|262:78|300:96,2,73.3333333333333,6|2|10,1:2|1:2|0:0,0:0:0:0:
199,158,96845,6,0,P|216:230|227:294,1,110,4|8,1:0|1:0,0:0:0:0:
228,324,97318,1,2,0:2:0:0:
228,324,97476,2,0,P|289:334|315:279,1,110,2|8,1:2|1:0,0:0:0:0:
393,223,98108,2,0,L|413:98,1,110,0|8,1:0|1:0,0:0:0:0:
373,82,98581,1,2,0:0:0:0:
373,82,98739,2,0,L|363:19,1,55,0|2,1:0|0:0,0:0:0:0:
311,10,99055,1,8,1:0:0:0:
217,68,99371,6,0,B|163:81|163:81|103:48,1,110,4|8,1:0|1:0,0:0:0:0:
70,87,99845,1,2,0:0:0:0:
70,87,100002,2,0,P|60:153|73:209,1,110,0|8,1:0|1:0,0:0:0:0:
132,284,100634,2,0,P|191:268|241:288,1,110,0|8,1:0|1:0,0:0:0:0:
290,310,101108,1,0,3:0:0:0:
290,310,101266,2,0,L|385:289,1,55,2|0,1:2|0:0,0:0:0:0:
382,258,101581,1,12,1:0:0:0:
303,180,101897,6,0,B|282:129|282:129|312:57,1,110,4|8,1:0|1:0,0:0:0:0:
335,33,102371,1,2,0:0:0:0:
335,33,102529,2,0,P|401:55|453:55,1,110,0|8,1:0|1:0,0:0:0:0:
503,146,103160,2,0,P|459:191|483:248,1,110,0|8,1:0|1:0,0:0:0:0:
505,272,103634,1,2,0:0:0:0:
505,272,103792,2,0,P|423:293|378:316,1,110,0|8,1:0|1:0,0:0:0:0:
309,366,104423,5,4,1:0:0:0:
309,366,104581,1,6,3:2:0:0:
228,291,104897,1,6,3:2:0:0:
278,193,105213,1,6,3:2:0:0:
225,96,105529,2,0,B|221:102|221:102|197:81|158:78|125:107|125:107|126:110|126:110|105:153|48:152|48:152|35:143,1,220,6|0,3:2|3:0,0:0:0:0:
10,192,106318,6,0,L|22:262,1,55,8|4,0:1|3:0,0:0:0:0:
1,298,106634,1,8,1:0:0:0:
101,343,106950,1,4,1:0:0:0:
256,192,107266,12,0,112002,0:0:0:0:
512,135,115792,5,4,1:0:0:0:
512,135,115950,1,6,1:2:0:0:
431,61,116266,1,6,1:2:0:0:
431,61,116423,2,0,P|376:80|323:75,1,110,0|12,0:0|1:0,0:0:0:0:
227,25,117055,6,0,B|242:48|242:48|249:146,1,110,4|0,1:0|1:0,0:0:0:0:
284,179,117529,1,0,3:0:0:0:
284,179,117687,2,0,L|278:234,1,55,0|0,1:0|3:0,0:0:0:0:
293,286,118002,1,2,0:1:0:0:
200,346,118318,6,0,P|158:338|88:330,2,110,12|0|0,1:0|1:0|1:0,0:0:0:0:
246,383,119108,1,0,3:0:0:0:
246,383,119266,1,8,1:3:0:0:
336,320,119581,6,0,P|345:278|371:196,1,110,12|0,1:0|1:0,0:0:0:0:
358,163,120055,1,0,1:0:0:0:
358,163,120213,2,0,P|341:127|334:113,1,55,0|0,1:0|3:0,0:0:0:0:
342,58,120529,1,2,0:0:0:0:
240,15,120845,6,0,P|183:8|117:19,1,110,12|2,1:0|0:0,0:0:0:0:
90,52,121318,1,2,0:0:0:0:
90,52,121476,2,0,L|83:113,1,55,12|0,1:0|1:0,0:0:0:0:
111,154,121792,1,2,0:0:0:0:
93,262,122108,6,0,P|37:253|-3:291,2,110,0|4|4,1:3|1:3|1:3,0:0:0:0:
188,317,123055,1,4,1:3:0:0:
289,274,123371,2,0,L|279:391,2,110,12|12|8,1:3|1:3|1:3,0:0:0:0:
340,176,124318,1,8,1:3:0:0:
427,242,124634,6,0,P|470:233|513:281,2,110,8|8|8,1:3|1:3|1:3,0:0:0:0:
400,292,125423,1,8,1:3:0:0:
400,292,125581,1,8,1:3:0:0:
301,280,125897,2,0,L|297:227,1,49.4999984893799,6|2,1:2|0:0,0:0:0:0:
271,188,126213,2,0,L|276:135,1,49.4999984893799,2|2,0:0|0:0,0:0:0:0:
299,95,126529,1,2,0:0:0:0:
224,30,126844,1,12,1:0:0:0:
117,56,127160,6,0,P|144:95|168:159,1,110,6|8,1:0|1:0,0:0:0:0:
210,196,127634,1,2,0:0:0:0:
210,196,127792,2,0,P|192:222|175:251,1,55,0|2,1:0|0:0,0:0:0:0:
132,262,128108,1,8,1:0:0:0:
168,366,128423,2,0,P|111:369|55:386,2,110,0|8|8,1:0|1:0|1:3,0:0:0:0:
228,377,129213,1,12,3:3:0:0:
228,377,129371,1,8,1:0:0:0:
323,322,129687,6,0,P|367:318|430:349,1,110,4|8,1:0|1:0,0:0:0:0:
475,379,130160,1,2,0:0:0:0:
475,379,130318,2,0,B|457:341|457:341|463:255,1,110,0|8,1:0|1:0,0:0:0:0:
445,164,130950,2,0,L|508:155,2,55,0|2|8,3:0|0:0|1:0,0:0:0:0:
397,137,131423,1,2,0:0:0:0:
397,137,131581,2,0,L|338:125,1,55,8|12,1:3|3:3,0:0:0:0:
293,150,131897,1,8,1:0:0:0:
190,110,132213,6,0,P|187:52|170:-3,2,110,4|8|0,1:0|1:0|1:0,0:0:0:0:
168,160,133002,1,2,0:0:0:0:
168,160,133160,1,8,1:0:0:0:
92,240,133476,2,0,P|145:250|195:273,1,110,0|8,1:0|1:0,0:0:0:0:
237,310,133950,1,2,0:0:0:0:
237,310,134108,2,0,P|264:305|290:298,1,55,4|4,1:3|3:3,0:0:0:0:
333,263,134424,1,8,1:0:0:0:
379,163,134739,6,0,P|432:157|482:191,1,110,4|8,1:0|1:0,0:0:0:0:
499,237,135213,1,2,0:0:0:0:
499,237,135371,2,0,L|491:350,1,110,0|8,1:0|1:0,0:0:0:0:
384,375,136002,2,0,P|327:358|255:346,1,110,2|8,1:2|1:0,0:0:0:0:
239,316,136476,1,2,3:2:0:0:
239,316,136634,2,0,L|233:255,1,55,8|12,1:3|1:3,0:0:0:0:
252,209,136950,1,8,1:0:0:0:
231,100,137266,6,0,P|196:84|120:99,2,110,6|8|0,1:0|1:0|1:0,0:0:0:0:
281,74,138055,1,2,0:0:0:0:
281,74,138213,1,8,1:0:0:0:
386,41,138529,2,0,P|370:85|363:153,1,110,0|8,1:0|1:0,0:0:0:0:
333,193,139003,1,2,0:0:0:0:
333,193,139161,2,0,P|357:213|381:237,1,55,8|12,1:3|3:3,0:0:0:0:
389,283,139476,1,8,1:0:0:0:
287,325,139792,6,0,P|241:306|179:309,2,110,0|8|0,1:0|1:0|1:0,0:0:0:0:
324,373,140581,1,2,0:0:0:0:
324,373,140739,1,8,1:0:0:0:
429,342,141055,2,0,L|433:285,1,55,0|2,1:0|0:0,0:0:0:0:
463,241,141371,2,0,L|457:184,1,55,8|2,1:0|0:0,0:0:0:0:
434,136,141687,1,8,1:3:0:0:
487,40,142002,1,8,1:0:0:0:
382,6,142318,6,0,P|327:2|269:30,1,110,4|8,1:0|1:0,0:0:0:0:
236,58,142792,1,2,0:0:0:0:
236,58,142950,2,0,P|190:70|173:68,1,55,0|2,1:0|0:0,0:0:0:0:
133,45,143266,1,8,1:0:0:0:
84,143,143581,2,0,P|48:103|-12:76,2,110,0|8|4,1:0|1:0|1:3,0:0:0:0:
87,198,144371,1,4,3:3:0:0:
87,198,144529,1,8,1:0:0:0:
196,205,144845,6,0,B|167:253|156:314,2,110,4|8|0,1:0|1:0|1:0,0:0:0:0:
232,164,145634,1,0,3:0:0:0:
232,164,145792,1,8,1:0:0:0:
329,214,146108,2,0,P|346:271|358:343,1,110,4|8,1:0|1:0,0:0:0:0:
388,359,146582,1,0,1:0:0:0:
388,359,146740,2,0,L|449:365,1,55,0|12,1:0|1:3,0:0:0:0:
487,331,147056,1,12,1:0:0:0:
512,212,147371,6,0,P|521:163|493:95,1,121.000003692627,6|8,1:0|1:0,0:0:0:0:
447,72,147845,1,2,0:0:0:0:
447,72,148003,2,0,L|386:78,1,60.5000018463135,4|8,1:3|3:0,0:0:0:0:
338,114,148319,1,8,1:0:0:0:
230,59,148634,2,0,P|230:114|196:183,1,121.000003692627,4|8,1:0|1:0,0:0:0:0:
153,206,149108,1,2,0:0:0:0:
153,206,149266,1,8,1:3:0:0:
227,301,149582,1,8,1:0:0:0:
304,208,149898,6,0,P|276:168|257:88,1,121.000003692627,4|8,1:0|1:0,0:0:0:0:
277,44,150372,1,2,0:0:0:0:
277,44,150530,2,0,L|339:38,1,60.5000018463135,4|4,1:3|3:0,0:0:0:0:
394,59,150846,1,8,1:0:0:0:
501,4,151161,2,0,L|511:127,1,121.000003692627,4|8,1:0|1:0,0:0:0:0:
473,172,151634,1,2,0:0:0:0:
473,172,151792,2,0,L|463:237,1,60.5000018463135,8|8,1:3|3:0,0:0:0:0:
481,290,152108,1,8,1:0:0:0:
374,346,152424,6,0,B|316:365|321:294|242:322,1,121.000003692627,4|8,1:0|1:0,0:0:0:0:
213,290,152898,1,2,0:0:0:0:
213,290,153055,2,0,L|222:228,1,60.5000018463135,4|4,1:3|3:0,0:0:0:0:
251,177,153371,1,8,1:0:0:0:
211,61,153687,2,0,P|165:37|92:56,1,121.000003692627,4|8,1:0|1:0,0:0:0:0:
60,97,154161,1,2,0:0:0:0:
60,97,154319,2,0,L|56:160,1,60.5000018463135,8|8,1:3|3:0,0:0:0:0:
25,209,154634,1,8,1:0:0:0:
112,293,154950,6,0,P|179:323|238:292,2,121.000003692627,4|8|4,1:0|1:0|1:3,0:0:0:0:
118,236,155740,1,4,3:0:0:0:
118,236,155898,1,8,1:0:0:0:
182,133,156213,2,0,B|240:152|235:81|314:109,1,121.000003692627,4|8,1:0|1:0,0:0:0:0:
353,133,156687,1,2,0:0:0:0:
353,133,156845,2,0,L|359:193,1,60.5000018463135,8|12,1:3|1:3,0:0:0:0:
336,249,157160,1,8,1:0:0:0:
253,322,157476,6,0,P|218:338|142:323,2,110,6|8|4,1:0|1:0|1:3,0:0:0:0:
303,348,158265,1,4,3:0:0:0:
303,348,158423,1,8,1:0:0:0:
408,381,158739,2,0,P|392:337|385:269,1,110,4|8,1:0|1:0,0:0:0:0:
355,229,159213,1,2,0:0:0:0:
355,229,159371,2,0,P|379:209|403:185,1,55,8|8,1:3|3:0,0:0:0:0:
411,139,159686,1,8,1:0:0:0:
309,97,160002,6,0,P|263:116|201:113,2,110,4|8|4,1:0|1:0|1:3,0:0:0:0:
346,49,160791,1,4,3:0:0:0:
346,49,160949,1,8,1:0:0:0:
451,80,161265,2,0,L|455:137,1,55,4|0,1:0|0:0,0:0:0:0:
485,181,161581,2,0,L|479:238,1,55,8|0,1:0|0:0,0:0:0:0:
491,289,161897,1,8,1:3:0:0:
415,368,162212,1,8,1:0:0:0:
320,311,162529,6,0,P|273:304|215:329,1,110,4|8,1:0|1:0,0:0:0:0:
178,366,163002,1,2,0:0:0:0:
178,366,163160,2,0,B|191:324|191:324|173:246,1,110,4|8,1:3|1:0,0:0:0:0:
183,149,163792,2,0,P|128:145|68:127,2,110,4|8|8,1:0|1:0|1:3,0:0:0:0:
290,127,164739,1,8,1:0:0:0:
392,166,165055,6,0,L|383:279,1,110,4|8,1:0|1:0,0:0:0:0:
343,313,165529,1,0,3:0:0:0:
343,313,165687,2,0,P|295:285|237:280,1,110,0|8,1:0|1:0,0:0:0:0:
138,240,166318,2,0,P|147:292|159:356,2,110,8|8|8,1:3|1:0|1:3,0:0:0:0:
125,130,167266,1,8,1:0:0:0:
83,40,167581,6,0,P|32:57|4:115,2,98.9999969787599,4|8|0,1:0|1:0|1:0,0:0:0:0:
179,14,168529,1,8,1:0:0:0:
242,89,168845,2,0,P|228:137|217:185,1,98.9999969787599,0|8,1:0|1:0,0:0:0:0:
248,278,169476,2,0,P|284:261|300:260,1,49.4999984893799,0|2,0:0|0:3,0:0:0:0:
336,233,169792,1,12,1:0:0:0:
426,276,170108,6,0,P|412:324|401:372,2,98.9999969787599,4|8|0,1:2|1:0|1:0,0:0:0:0:
412,177,171055,1,8,1:0:0:0:
437,81,171371,2,0,L|331:66,1,98.9999969787599,0|8,1:0|1:0,0:0:0:0:
250,112,172002,2,0,P|256:136|262:160,1,49.4999984893799,0|2,1:0|0:3,0:0:0:0:
246,208,172318,1,12,1:0:0:0:
169,271,172634,6,0,P|121:269|81:302,2,98.9999969787599,4|8|0,1:2|1:0|1:0,0:0:0:0:
247,331,173581,1,8,1:0:0:0:
328,273,173897,2,0,P|333:237|357:170,1,98.9999969787599,0|8,1:0|1:0,0:0:0:0:
264,131,174529,2,0,P|259:95|235:28,1,98.9999969787599,0|12,1:0|1:0,0:0:0:0:
142,15,175160,6,0,L|40:7,2,98.9999969787599,4|8|0,1:2|1:0|1:0,0:0:0:0:
236,38,176108,1,8,1:0:0:0:
320,90,176423,2,0,P|370:69|426:51,1,98.9999969787599,0|8,1:0|1:0,0:0:0:0:
469,136,177055,2,0,L|463:189,1,49.4999984893799,0|8,1:0|1:2,0:0:0:0:
431,222,177371,2,0,L|437:275,1,49.4999984893799,8|8,1:2|1:2,0:0:0:0:
450,320,177687,6,0,P|403:311|335:333,1,98.9999969787599,4|8,1:0|1:2,0:0:0:0:
278,258,178318,1,0,1:0:0:0:
188,302,178634,1,8,1:2:0:0:
90,282,178950,2,0,P|98:337|101:394,2,98.9999969787599,0|8|0,1:0|1:2|0:0,0:0:0:0:
42,196,179897,1,8,1:2:0:0:
86,108,180213,6,0,P|42:77|0:77,2,98.9999969787599,4|8|0,1:2|1:2|1:0,0:0:0:0:
181,83,181159,1,8,1:2:0:0:
257,147,181476,2,0,P|262:205|258:270,1,98.9999969787599,0|8,1:0|1:2,0:0:0:0:
236,343,182108,2,0,P|214:331|190:326,1,49.4999984893799,0|2,0:0|0:3,0:0:0:0:
148,298,182422,1,8,1:2:0:0:
97,213,182739,6,0,L|-7:199,2,98.9999969787599,6|8|4,1:2|1:2|1:3,0:0:0:0:
179,159,183687,1,8,1:2:0:0:
256,220,184002,2,0,P|309:219|355:241,1,98.9999969787599,4|8,1:2|1:2,0:0:0:0:
435,289,184634,2,0,L|444:182,1,98.9999969787599,8|8,1:3|1:2,0:0:0:0:
430,93,185266,6,0,P|460:66|527:69,2,98.9999969787599,6|8|12,1:2|1:2|1:3,0:0:0:0:
332,76,186213,1,8,1:2:0:0:
250,128,186529,2,0,L|258:230,1,98.9999969787599,6|8,1:2|1:2,0:0:0:0:
210,313,187160,1,6,1:2:0:0:
120,271,187476,1,8,1:0:0:0:
41,332,187792,5,4,1:0:0:0:
256,192,188108,12,0,194108,0:0:0:0:
