osu file format v14

[General]
AudioFilename: audio.mp3
AudioLeadIn: 0
PreviewTime: 40870
Countdown: 0
SampleSet: None
StackLeniency: 0.7
Mode: 3
LetterboxInBreaks: 0
SpecialStyle: 0
WidescreenStoryboard: 1

[Editor]
DistanceSpacing: 1.4
BeatDivisor: 6
GridSize: 32
TimelineZoom: 2.6

[Metadata]
Title:Kaze no Yukue -2nd-
TitleUnicode:風の行方 -2nd-
Artist:SENTIVE
ArtistUnicode:SENTIVE
Creator:paperlens
Version:6k Special
Source:
Tags:
BeatmapID:1184191
BeatmapSetID:553484

[Difficulty]
HPDrainRate:5
CircleSize:6
OverallDifficulty:5
ApproachRate:5
SliderMultiplier:1.4
SliderTickRate:1

[Events]
//Background and Video events
//Break Periods
//Storyboard Layer 0 (Background)
//Storyboard Layer 1 (Fail)
//Storyboard Layer 2 (Pass)
//Storyboard Layer 3 (Foreground)
//Storyboard Sound Samples

[TimingPoints]
70,300,4,1,0,0,1,0
18370,-133.333333333333,4,1,0,0,0,0
18570,-66.6666666666667,4,1,0,0,0,0
18670,-133.333333333333,4,1,0,0,0,0
18870,-66.6666666666667,4,1,0,0,0,0
18970,-133.333333333333,4,1,0,0,0,0
19070,-66.6666666666667,4,1,0,0,0,0
19120,-133.333333333333,4,1,0,0,0,0
19320,-66.6666666666667,4,1,0,0,0,0
19420,-100,4,1,0,0,0,0
38320,-133.333333333333,4,1,0,0,0,0
38620,-66.6666666666667,4,1,0,0,0,0
38770,-100,4,1,0,0,0,0
40870,-100,4,1,0,0,0,1
60370,-100,4,1,0,0,0,0
99070,-133.333333333333,4,1,0,0,0,0
99270,-66.6666666666667,4,1,0,0,0,0
99370,-100,4,1,0,0,0,0
100420,-133.333333333333,4,1,0,0,0,0
100520,-66.6666666666667,4,1,0,0,0,0
100570,-100,4,1,0,0,0,0
100870,-100,4,1,0,0,0,1
120370,-100,4,1,0,0,0,0
137770,-200,4,1,0,0,0,0
138220,-66.6666666666667,4,1,0,0,0,0
138370,-200,4,1,0,0,0,0
138820,-66.6666666666667,4,1,0,0,0,0
138970,-100,4,1,0,0,0,1
158170,-100,4,1,0,0,0,0

[HitObjects]
469,192,70,5,0,0:0:0:0:
42,192,70,1,0,0:0:0:0:
298,192,220,1,0,0:0:0:0:
128,192,370,1,0,0:0:0:0:
384,192,370,1,0,0:0:0:0:
128,192,670,1,0,0:0:0:0:
128,192,970,1,0,0:0:0:0:
298,192,970,1,0,0:0:0:0:
128,192,1270,1,0,0:0:0:0:
213,192,1570,1,0,0:0:0:0:
469,192,1570,1,0,0:0:0:0:
213,192,1870,1,0,0:0:0:0:
213,192,2170,1,0,0:0:0:0:
384,192,2395,1,0,0:0:0:0:
469,192,2470,1,0,0:0:0:0:
213,192,2470,1,0,0:0:0:0:
42,192,2770,1,0,0:0:0:0:
384,192,2770,1,0,0:0:0:0:
298,192,3070,1,0,0:0:0:0:
42,192,3070,1,0,0:0:0:0:
42,192,3370,1,0,0:0:0:0:
213,192,3370,1,0,0:0:0:0:
298,192,3670,1,0,0:0:0:0:
42,192,3670,1,0,0:0:0:0:
213,192,3820,1,0,0:0:0:0:
42,192,3970,1,0,0:0:0:0:
42,192,4270,1,0,0:0:0:0:
42,192,4570,1,0,0:0:0:0:
213,192,4570,1,0,0:0:0:0:
469,192,4870,1,0,0:0:0:0:
213,192,4870,1,0,0:0:0:0:
298,192,5020,1,0,0:0:0:0:
128,192,5170,1,0,0:0:0:0:
384,192,5170,1,0,0:0:0:0:
128,192,5470,1,0,0:0:0:0:
128,192,5770,1,0,0:0:0:0:
298,192,5770,1,0,0:0:0:0:
128,192,6070,1,0,0:0:0:0:
213,192,6370,1,0,0:0:0:0:
469,192,6370,1,0,0:0:0:0:
213,192,6670,1,0,0:0:0:0:
213,192,6970,1,0,0:0:0:0:
384,192,6970,1,0,0:0:0:0:
298,192,7270,1,0,0:0:0:0:
213,192,7270,1,0,0:0:0:0:
213,192,7570,1,0,0:0:0:0:
42,192,7570,1,0,0:0:0:0:
42,192,7870,1,0,0:0:0:0:
384,192,7870,1,0,0:0:0:0:
42,192,8170,1,0,0:0:0:0:
469,192,8470,1,0,0:0:0:0:
42,192,8470,1,0,0:0:0:0:
298,192,8695,1,0,0:0:0:0:
469,192,8770,1,0,0:0:0:0:
42,192,8770,1,0,0:0:0:0:
128,192,9070,1,0,0:0:0:0:
298,192,9070,1,0,0:0:0:0:
213,192,9370,1,0,0:0:0:0:
128,192,9370,1,0,0:0:0:0:
42,192,9670,1,0,0:0:0:0:
469,192,9670,1,0,0:0:0:0:
298,192,9820,1,0,0:0:0:0:
384,192,9970,1,0,0:0:0:0:
128,192,9970,1,0,0:0:0:0:
128,192,10270,1,0,0:0:0:0:
128,192,10570,1,0,0:0:0:0:
298,192,10570,1,0,0:0:0:0:
128,192,10870,1,0,0:0:0:0:
469,192,11170,1,0,0:0:0:0:
213,192,11170,1,0,0:0:0:0:
213,192,11470,1,0,0:0:0:0:
213,192,11770,1,0,0:0:0:0:
384,192,11995,1,0,0:0:0:0:
469,192,12070,1,0,0:0:0:0:
213,192,12070,1,0,0:0:0:0:
42,192,12370,1,0,0:0:0:0:
384,192,12370,1,0,0:0:0:0:
298,192,12670,1,0,0:0:0:0:
42,192,12670,1,0,0:0:0:0:
42,192,12970,1,0,0:0:0:0:
213,192,12970,1,0,0:0:0:0:
298,192,13270,1,0,0:0:0:0:
42,192,13270,1,0,0:0:0:0:
384,192,13420,1,0,0:0:0:0:
42,192,13570,1,0,0:0:0:0:
469,192,13870,1,0,0:0:0:0:
298,192,13870,1,0,0:0:0:0:
128,192,13870,1,0,0:0:0:0:
128,192,14170,1,0,0:0:0:0:
213,192,14170,1,0,0:0:0:0:
384,192,14170,1,0,0:0:0:0:
298,192,14470,1,0,0:0:0:0:
42,192,14470,1,0,0:0:0:0:
128,192,14470,1,0,0:0:0:0:
213,192,14770,1,0,0:0:0:0:
128,192,14770,1,0,0:0:0:0:
384,192,14770,1,0,0:0:0:0:
128,192,15070,1,0,0:0:0:0:
128,192,15370,1,0,0:0:0:0:
384,192,15370,1,0,0:0:0:0:
469,192,15670,1,0,0:0:0:0:
128,192,15670,1,0,0:0:0:0:
298,192,15970,1,0,0:0:0:0:
213,192,15970,1,0,0:0:0:0:
213,192,16270,1,0,0:0:0:0:
213,192,16570,1,0,0:0:0:0:
298,192,16570,1,0,0:0:0:0:
384,192,16870,1,0,0:0:0:0:
213,192,16870,1,0,0:0:0:0:
298,192,17170,1,0,0:0:0:0:
42,192,17170,1,0,0:0:0:0:
384,192,18370,1,0,0:0:0:0:
128,192,18370,1,0,0:0:0:0:
128,192,18670,1,0,0:0:0:0:
384,192,18670,1,0,0:0:0:0:
213,192,18970,1,0,0:0:0:0:
298,192,18970,1,0,0:0:0:0:
384,192,19120,1,0,0:0:0:0:
128,192,19120,1,0,0:0:0:0:
384,192,19420,1,0,0:0:0:0:
128,192,19420,1,0,0:0:0:0:
469,192,19570,1,0,0:0:0:0:
128,192,19870,1,0,0:0:0:0:
469,192,20020,1,0,0:0:0:0:
42,192,20170,1,0,0:0:0:0:
384,192,20170,1,0,0:0:0:0:
128,192,20470,1,0,0:0:0:0:
469,192,20470,1,0,0:0:0:0:
213,192,20620,1,0,0:0:0:0:
128,192,20770,1,0,0:0:0:0:
298,192,20770,1,0,0:0:0:0:
128,192,21070,1,0,0:0:0:0:
298,192,21070,1,0,0:0:0:0:
42,192,21370,1,0,0:0:0:0:
384,192,21370,1,0,0:0:0:0:
128,192,21670,1,0,0:0:0:0:
213,192,21820,1,0,0:0:0:0:
128,192,21970,1,0,0:0:0:0:
298,192,21970,1,0,0:0:0:0:
128,192,22270,1,0,0:0:0:0:
384,192,22270,1,0,0:0:0:0:
384,192,22570,1,0,0:0:0:0:
42,192,22570,1,0,0:0:0:0:
128,192,22870,1,0,0:0:0:0:
213,192,23020,1,0,0:0:0:0:
128,192,23170,1,0,0:0:0:0:
298,192,23170,1,0,0:0:0:0:
128,192,23470,1,0,0:0:0:0:
298,192,23470,1,0,0:0:0:0:
42,192,23770,1,0,0:0:0:0:
384,192,23770,1,0,0:0:0:0:
469,192,23920,128,0,24220:0:0:0:0:
213,192,24070,128,0,24370:0:0:0:0:
469,192,24370,1,0,0:0:0:0:
128,192,24670,1,0,0:0:0:0:
469,192,24820,1,0,0:0:0:0:
42,192,24970,1,0,0:0:0:0:
384,192,24970,1,0,0:0:0:0:
128,192,25270,1,0,0:0:0:0:
469,192,25270,1,0,0:0:0:0:
213,192,25420,1,0,0:0:0:0:
128,192,25570,1,0,0:0:0:0:
298,192,25570,1,0,0:0:0:0:
128,192,25870,1,0,0:0:0:0:
298,192,25870,1,0,0:0:0:0:
42,192,26170,1,0,0:0:0:0:
384,192,26170,1,0,0:0:0:0:
128,192,26470,1,0,0:0:0:0:
213,192,26620,1,0,0:0:0:0:
128,192,26770,1,0,0:0:0:0:
298,192,26770,1,0,0:0:0:0:
128,192,27070,1,0,0:0:0:0:
384,192,27070,1,0,0:0:0:0:
384,192,27370,1,0,0:0:0:0:
42,192,27370,1,0,0:0:0:0:
128,192,27670,1,0,0:0:0:0:
213,192,27820,1,0,0:0:0:0:
128,192,27970,1,0,0:0:0:0:
298,192,27970,1,0,0:0:0:0:
128,192,28270,1,0,0:0:0:0:
298,192,28270,1,0,0:0:0:0:
42,192,28570,1,0,0:0:0:0:
384,192,28570,1,0,0:0:0:0:
469,192,28720,128,0,29020:0:0:0:0:
213,192,28870,128,0,29170:0:0:0:0:
469,192,29170,1,0,0:0:0:0:
42,192,29170,1,0,0:0:0:0:
213,192,29320,1,0,0:0:0:0:
128,192,29470,1,0,0:0:0:0:
298,192,29470,1,0,0:0:0:0:
213,192,29620,1,0,0:0:0:0:
469,192,29620,1,0,0:0:0:0:
42,192,29770,1,0,0:0:0:0:
298,192,29770,1,0,0:0:0:0:
384,192,29770,1,0,0:0:0:0:
128,192,29920,1,0,0:0:0:0:
213,192,30070,1,0,0:0:0:0:
298,192,30070,1,0,0:0:0:0:
128,192,30220,1,0,0:0:0:0:
384,192,30220,1,0,0:0:0:0:
42,192,30370,1,0,0:0:0:0:
298,192,30370,1,0,0:0:0:0:
384,192,30520,1,0,0:0:0:0:
42,192,30670,1,0,0:0:0:0:
469,192,30670,1,0,0:0:0:0:
298,192,30820,1,0,0:0:0:0:
384,192,30970,1,0,0:0:0:0:
42,192,30970,1,0,0:0:0:0:
213,192,30970,1,0,0:0:0:0:
469,192,31120,1,0,0:0:0:0:
128,192,31270,1,0,0:0:0:0:
298,192,31270,1,0,0:0:0:0:
384,192,31420,1,0,0:0:0:0:
42,192,31570,1,0,0:0:0:0:
298,192,31570,1,0,0:0:0:0:
213,192,31720,1,0,0:0:0:0:
128,192,31870,1,0,0:0:0:0:
384,192,31870,1,0,0:0:0:0:
213,192,32020,1,0,0:0:0:0:
42,192,32170,1,0,0:0:0:0:
298,192,32170,1,0,0:0:0:0:
469,192,32170,1,0,0:0:0:0:
128,192,32320,1,0,0:0:0:0:
213,192,32470,1,0,0:0:0:0:
298,192,32470,1,0,0:0:0:0:
128,192,32620,1,0,0:0:0:0:
384,192,32620,1,0,0:0:0:0:
42,192,32770,1,0,0:0:0:0:
469,192,32770,1,0,0:0:0:0:
298,192,32920,1,0,0:0:0:0:
42,192,33070,1,0,0:0:0:0:
384,192,33070,1,0,0:0:0:0:
469,192,33220,1,0,0:0:0:0:
42,192,33370,1,0,0:0:0:0:
213,192,33370,1,0,0:0:0:0:
298,192,33370,1,0,0:0:0:0:
213,192,33520,1,0,0:0:0:0:
384,192,33520,1,0,0:0:0:0:
128,192,33670,1,0,0:0:0:0:
469,192,33670,1,0,0:0:0:0:
384,192,33820,1,0,0:0:0:0:
42,192,33970,1,0,0:0:0:0:
298,192,33970,1,0,0:0:0:0:
213,192,34120,1,0,0:0:0:0:
128,192,34270,1,0,0:0:0:0:
298,192,34270,1,0,0:0:0:0:
213,192,34420,1,0,0:0:0:0:
384,192,34420,1,0,0:0:0:0:
298,192,34570,1,0,0:0:0:0:
42,192,34570,1,0,0:0:0:0:
469,192,34570,1,0,0:0:0:0:
128,192,34720,1,0,0:0:0:0:
213,192,34870,1,0,0:0:0:0:
298,192,34870,1,0,0:0:0:0:
384,192,35020,1,0,0:0:0:0:
128,192,35020,1,0,0:0:0:0:
469,192,35170,1,0,0:0:0:0:
42,192,35170,1,0,0:0:0:0:
213,192,35320,1,0,0:0:0:0:
42,192,35470,1,0,0:0:0:0:
298,192,35470,1,0,0:0:0:0:
469,192,35620,1,0,0:0:0:0:
213,192,35770,1,0,0:0:0:0:
42,192,35770,1,0,0:0:0:0:
298,192,35770,1,0,0:0:0:0:
384,192,35920,1,0,0:0:0:0:
128,192,36070,1,0,0:0:0:0:
469,192,36070,1,0,0:0:0:0:
298,192,36220,1,0,0:0:0:0:
42,192,36370,1,0,0:0:0:0:
384,192,36370,1,0,0:0:0:0:
213,192,36520,1,0,0:0:0:0:
298,192,36670,1,0,0:0:0:0:
128,192,36670,1,0,0:0:0:0:
384,192,36820,1,0,0:0:0:0:
469,192,36970,1,0,0:0:0:0:
42,192,36970,1,0,0:0:0:0:
213,192,36970,1,0,0:0:0:0:
384,192,37120,1,0,0:0:0:0:
213,192,37270,1,0,0:0:0:0:
298,192,37270,1,0,0:0:0:0:
128,192,37420,1,0,0:0:0:0:
384,192,37420,1,0,0:0:0:0:
42,192,37570,1,0,0:0:0:0:
469,192,37570,1,0,0:0:0:0:
42,192,37870,1,0,0:0:0:0:
128,192,38170,128,0,38770:0:0:0:0:
384,192,38320,128,0,38770:0:0:0:0:
469,192,38770,128,0,39070:0:0:0:0:
42,192,38770,128,0,39370:0:0:0:0:
298,192,39070,1,0,0:0:0:0:
213,192,39220,128,0,39370:0:0:0:0:
384,192,39220,1,0,0:0:0:0:
298,192,39370,1,0,0:0:0:0:
469,192,39370,1,0,0:0:0:0:
42,192,39520,1,0,0:0:0:0:
298,192,39670,1,0,0:0:0:0:
213,192,39745,1,0,0:0:0:0:
298,192,39820,1,0,0:0:0:0:
213,192,39895,1,0,0:0:0:0:
384,192,39970,128,0,40270:0:0:0:0:
128,192,39970,128,0,40120:0:0:0:0:
213,192,40120,1,0,0:0:0:0:
42,192,40120,1,0,0:0:0:0:
42,192,40270,1,0,0:0:0:0:
298,192,40270,1,0,0:0:0:0:
469,192,40420,1,0,0:0:0:0:
42,192,40420,1,0,0:0:0:0:
213,192,40570,1,0,0:0:0:0:
469,192,40570,1,0,0:0:0:0:
469,192,40720,1,0,0:0:0:0:
298,192,40720,1,0,0:0:0:0:
42,192,40870,1,0,0:0:0:0:
384,192,40870,1,0,0:0:0:0:
298,192,41020,1,0,0:0:0:0:
128,192,41020,1,0,0:0:0:0:
213,192,41170,128,0,41770:0:0:0:0:
469,192,41170,1,0,0:0:0:0:
384,192,41320,1,0,0:0:0:0:
469,192,41470,1,0,0:0:0:0:
42,192,41470,1,0,0:0:0:0:
298,192,41620,1,0,0:0:0:0:
469,192,41770,1,0,0:0:0:0:
42,192,41770,1,0,0:0:0:0:
384,192,41770,128,0,42370:0:0:0:0:
213,192,41920,1,0,0:0:0:0:
128,192,42070,1,0,0:0:0:0:
298,192,42070,1,0,0:0:0:0:
213,192,42220,1,0,0:0:0:0:
42,192,42370,128,0,43270:0:0:0:0:
469,192,42370,1,0,0:0:0:0:
213,192,42520,1,0,0:0:0:0:
384,192,42520,1,0,0:0:0:0:
298,192,42670,1,0,0:0:0:0:
384,192,42820,1,0,0:0:0:0:
298,192,42970,1,0,0:0:0:0:
128,192,42970,1,0,0:0:0:0:
469,192,43120,1,0,0:0:0:0:
384,192,43270,1,0,0:0:0:0:
213,192,43270,1,0,0:0:0:0:
42,192,43420,1,0,0:0:0:0:
213,192,43420,1,0,0:0:0:0:
298,192,43570,1,0,0:0:0:0:
469,192,43570,1,0,0:0:0:0:
128,192,43720,1,0,0:0:0:0:
213,192,43870,1,0,0:0:0:0:
384,192,43870,1,0,0:0:0:0:
42,192,44020,1,0,0:0:0:0:
128,192,44170,1,0,0:0:0:0:
298,192,44170,1,0,0:0:0:0:
469,192,44320,1,0,0:0:0:0:
213,192,44470,1,0,0:0:0:0:
384,192,44470,1,0,0:0:0:0:
128,192,44470,1,0,0:0:0:0:
298,192,44620,1,0,0:0:0:0:
128,192,44620,1,0,0:0:0:0:
469,192,44770,1,0,0:0:0:0:
42,192,44920,1,0,0:0:0:0:
213,192,44920,1,0,0:0:0:0:
298,192,45070,1,0,0:0:0:0:
469,192,45070,1,0,0:0:0:0:
128,192,45220,1,0,0:0:0:0:
213,192,45370,1,0,0:0:0:0:
384,192,45370,1,0,0:0:0:0:
298,192,45520,1,0,0:0:0:0:
384,192,45670,1,0,0:0:0:0:
42,192,45670,1,0,0:0:0:0:
298,192,45820,1,0,0:0:0:0:
128,192,45820,128,0,46270:0:0:0:0:
469,192,45970,1,0,0:0:0:0:
213,192,45970,1,0,0:0:0:0:
384,192,46120,1,0,0:0:0:0:
298,192,46270,1,0,0:0:0:0:
42,192,46270,128,0,46570:0:0:0:0:
213,192,46420,1,0,0:0:0:0:
128,192,46570,1,0,0:0:0:0:
469,192,46570,1,0,0:0:0:0:
298,192,46570,1,0,0:0:0:0:
213,192,46720,1,0,0:0:0:0:
384,192,46720,128,0,47020:0:0:0:0:
298,192,46870,1,0,0:0:0:0:
42,192,46870,1,0,0:0:0:0:
213,192,47020,128,0,47320:0:0:0:0:
42,192,47170,1,0,0:0:0:0:
298,192,47170,1,0,0:0:0:0:
384,192,47170,1,0,0:0:0:0:
469,192,47320,1,0,0:0:0:0:
128,192,47320,1,0,0:0:0:0:
213,192,47470,128,0,47770:0:0:0:0:
42,192,47470,1,0,0:0:0:0:
384,192,47470,1,0,0:0:0:0:
298,192,47620,1,0,0:0:0:0:
128,192,47770,1,0,0:0:0:0:
469,192,47770,1,0,0:0:0:0:
384,192,47770,1,0,0:0:0:0:
213,192,47920,1,0,0:0:0:0:
384,192,48070,1,0,0:0:0:0:
298,192,48070,1,0,0:0:0:0:
42,192,48070,1,0,0:0:0:0:
128,192,48220,1,0,0:0:0:0:
469,192,48220,1,0,0:0:0:0:
213,192,48370,1,0,0:0:0:0:
384,192,48370,1,0,0:0:0:0:
42,192,48520,1,0,0:0:0:0:
128,192,48670,1,0,0:0:0:0:
469,192,48670,1,0,0:0:0:0:
213,192,48820,128,0,49120:0:0:0:0:
298,192,48970,1,0,0:0:0:0:
469,192,48970,1,0,0:0:0:0:
42,192,49120,1,0,0:0:0:0:
128,192,49270,1,0,0:0:0:0:
384,192,49270,1,0,0:0:0:0:
213,192,49420,128,0,49720:0:0:0:0:
298,192,49420,1,0,0:0:0:0:
469,192,49570,1,0,0:0:0:0:
384,192,49570,1,0,0:0:0:0:
42,192,49720,1,0,0:0:0:0:
298,192,49720,1,0,0:0:0:0:
128,192,49870,1,0,0:0:0:0:
384,192,49870,1,0,0:0:0:0:
213,192,50020,1,0,0:0:0:0:
469,192,50020,128,0,50470:0:0:0:0:
298,192,50170,1,0,0:0:0:0:
128,192,50170,1,0,0:0:0:0:
384,192,50170,1,0,0:0:0:0:
213,192,50320,1,0,0:0:0:0:
42,192,50320,1,0,0:0:0:0:
384,192,50470,1,0,0:0:0:0:
128,192,50470,1,0,0:0:0:0:
298,192,50620,1,0,0:0:0:0:
213,192,50620,1,0,0:0:0:0:
42,192,50770,1,0,0:0:0:0:
469,192,50770,128,0,51370:0:0:0:0:
213,192,50920,1,0,0:0:0:0:
298,192,51070,128,0,51370:0:0:0:0:
213,192,51220,1,0,0:0:0:0:
384,192,51370,1,0,0:0:0:0:
128,192,51370,1,0,0:0:0:0:
298,192,51520,1,0,0:0:0:0:
42,192,51520,128,0,51820:0:0:0:0:
213,192,51670,1,0,0:0:0:0:
128,192,51820,1,0,0:0:0:0:
384,192,51820,128,0,52120:0:0:0:0:
213,192,51970,1,0,0:0:0:0:
42,192,51970,1,0,0:0:0:0:
298,192,52120,1,0,0:0:0:0:
469,192,52120,1,0,0:0:0:0:
213,192,52270,1,0,0:0:0:0:
128,192,52270,1,0,0:0:0:0:
298,192,52420,1,0,0:0:0:0:
384,192,52420,1,0,0:0:0:0:
213,192,52570,1,0,0:0:0:0:
469,192,52570,1,0,0:0:0:0:
42,192,52570,1,0,0:0:0:0:
298,192,52720,1,0,0:0:0:0:
128,192,52720,1,0,0:0:0:0:
384,192,52870,1,0,0:0:0:0:
213,192,52870,1,0,0:0:0:0:
469,192,52870,1,0,0:0:0:0:
128,192,53020,1,0,0:0:0:0:
298,192,53020,1,0,0:0:0:0:
213,192,53170,1,0,0:0:0:0:
42,192,53170,128,0,53470:0:0:0:0:
469,192,53170,128,0,53470:0:0:0:0:
384,192,53470,1,0,0:0:0:0:
213,192,53470,1,0,0:0:0:0:
298,192,53620,1,0,0:0:0:0:
128,192,53620,1,0,0:0:0:0:
42,192,53770,1,0,0:0:0:0:
384,192,53770,1,0,0:0:0:0:
469,192,53770,1,0,0:0:0:0:
213,192,53920,1,0,0:0:0:0:
42,192,54070,1,0,0:0:0:0:
469,192,54070,1,0,0:0:0:0:
298,192,54070,1,0,0:0:0:0:
128,192,54220,1,0,0:0:0:0:
213,192,54220,1,0,0:0:0:0:
298,192,54370,1,0,0:0:0:0:
469,192,54370,1,0,0:0:0:0:
128,192,54520,1,0,0:0:0:0:
213,192,54520,1,0,0:0:0:0:
469,192,54670,1,0,0:0:0:0:
42,192,54670,1,0,0:0:0:0:
384,192,54670,1,0,0:0:0:0:
213,192,54820,1,0,0:0:0:0:
298,192,54970,1,0,0:0:0:0:
42,192,54970,1,0,0:0:0:0:
469,192,54970,1,0,0:0:0:0:
213,192,55120,1,0,0:0:0:0:
128,192,55270,1,0,0:0:0:0:
298,192,55270,1,0,0:0:0:0:
384,192,55270,1,0,0:0:0:0:
213,192,55420,1,0,0:0:0:0:
298,192,55570,1,0,0:0:0:0:
469,192,55570,1,0,0:0:0:0:
42,192,55570,1,0,0:0:0:0:
213,192,55720,1,0,0:0:0:0:
298,192,55870,1,0,0:0:0:0:
128,192,55870,1,0,0:0:0:0:
213,192,56020,1,0,0:0:0:0:
469,192,56020,1,0,0:0:0:0:
42,192,56170,1,0,0:0:0:0:
298,192,56170,1,0,0:0:0:0:
384,192,56170,1,0,0:0:0:0:
128,192,56320,1,0,0:0:0:0:
469,192,56320,1,0,0:0:0:0:
213,192,56470,1,0,0:0:0:0:
384,192,56470,1,0,0:0:0:0:
298,192,56620,1,0,0:0:0:0:
128,192,56620,1,0,0:0:0:0:
213,192,56770,1,0,0:0:0:0:
42,192,56770,1,0,0:0:0:0:
469,192,56770,1,0,0:0:0:0:
298,192,56920,1,0,0:0:0:0:
384,192,57070,1,0,0:0:0:0:
42,192,57070,1,0,0:0:0:0:
298,192,57220,1,0,0:0:0:0:
128,192,57220,1,0,0:0:0:0:
469,192,57370,1,0,0:0:0:0:
42,192,57370,1,0,0:0:0:0:
213,192,57370,1,0,0:0:0:0:
298,192,57520,1,0,0:0:0:0:
384,192,57670,1,0,0:0:0:0:
128,192,57670,1,0,0:0:0:0:
213,192,57670,1,0,0:0:0:0:
469,192,57820,1,0,0:0:0:0:
384,192,57970,1,0,0:0:0:0:
42,192,57970,128,0,58420:0:0:0:0:
213,192,57970,1,0,0:0:0:0:
298,192,58120,128,0,58270:0:0:0:0:
469,192,58270,128,0,58420:0:0:0:0:
384,192,58420,128,0,58570:0:0:0:0:
213,192,58420,1,0,0:0:0:0:
298,192,58570,128,0,58720:0:0:0:0:
42,192,58570,1,0,0:0:0:0:
213,192,58720,128,0,58870:0:0:0:0:
469,192,58720,1,0,0:0:0:0:
298,192,58870,128,0,59020:0:0:0:0:
42,192,58870,128,0,59020:0:0:0:0:
384,192,59020,128,0,59170:0:0:0:0:
128,192,59020,128,0,59170:0:0:0:0:
213,192,59170,128,0,59320:0:0:0:0:
469,192,59170,128,0,59320:0:0:0:0:
42,192,59320,1,0,0:0:0:0:
298,192,59320,1,0,0:0:0:0:
213,192,59620,128,0,59770:0:0:0:0:
469,192,59620,128,0,59770:0:0:0:0:
42,192,59770,1,0,0:0:0:0:
298,192,59770,1,0,0:0:0:0:
213,192,59920,128,0,60070:0:0:0:0:
469,192,59920,128,0,60070:0:0:0:0:
42,192,60070,1,0,0:0:0:0:
298,192,60070,1,0,0:0:0:0:
384,192,60370,1,0,0:0:0:0:
213,192,60370,1,0,0:0:0:0:
42,192,60370,1,0,0:0:0:0:
298,192,60520,1,0,0:0:0:0:
384,192,60670,1,0,0:0:0:0:
469,192,60970,1,0,0:0:0:0:
384,192,61270,1,0,0:0:0:0:
42,192,61270,128,0,62470:0:0:0:0:
213,192,61270,128,0,62470:0:0:0:0:
298,192,62470,1,0,0:0:0:0:
384,192,62620,1,0,0:0:0:0:
298,192,62770,1,0,0:0:0:0:
128,192,62770,128,0,63970:0:0:0:0:
42,192,62770,1,0,0:0:0:0:
469,192,63370,1,0,0:0:0:0:
298,192,63670,1,0,0:0:0:0:
384,192,63670,1,0,0:0:0:0:
42,192,63970,1,0,0:0:0:0:
213,192,63970,1,0,0:0:0:0:
469,192,64270,1,0,0:0:0:0:
298,192,64270,1,0,0:0:0:0:
128,192,64570,1,0,0:0:0:0:
213,192,64570,1,0,0:0:0:0:
298,192,65120,1,0,0:0:0:0:
384,192,65145,1,0,0:0:0:0:
469,192,65170,1,0,0:0:0:0:
213,192,65170,1,0,0:0:0:0:
42,192,65170,1,0,0:0:0:0:
384,192,65320,1,0,0:0:0:0:
469,192,65470,1,0,0:0:0:0:
298,192,65770,1,0,0:0:0:0:
469,192,65770,1,0,0:0:0:0:
213,192,66070,128,0,67270:0:0:0:0:
384,192,66070,1,0,0:0:0:0:
42,192,66070,128,0,67270:0:0:0:0:
298,192,67270,1,0,0:0:0:0:
384,192,67420,1,0,0:0:0:0:
298,192,67570,1,0,0:0:0:0:
128,192,67570,128,0,68470:0:0:0:0:
213,192,67570,128,0,68470:0:0:0:0:
384,192,68170,1,0,0:0:0:0:
469,192,68770,1,0,0:0:0:0:
213,192,68770,1,0,0:0:0:0:
42,192,68770,1,0,0:0:0:0:
128,192,69370,1,0,0:0:0:0:
213,192,69370,1,0,0:0:0:0:
384,192,69370,1,0,0:0:0:0:
298,192,69895,1,0,0:0:0:0:
384,192,69932,1,0,0:0:0:0:
469,192,69970,1,0,0:0:0:0:
213,192,69970,1,0,0:0:0:0:
42,192,69970,1,0,0:0:0:0:
298,192,70120,1,0,0:0:0:0:
384,192,70270,1,0,0:0:0:0:
298,192,70570,1,0,0:0:0:0:
469,192,70570,1,0,0:0:0:0:
298,192,70870,1,0,0:0:0:0:
384,192,70870,1,0,0:0:0:0:
42,192,70870,128,0,72070:0:0:0:0:
213,192,70870,128,0,72070:0:0:0:0:
298,192,72070,1,0,0:0:0:0:
384,192,72220,1,0,0:0:0:0:
298,192,72370,1,0,0:0:0:0:
128,192,72370,128,0,73270:0:0:0:0:
42,192,72370,1,0,0:0:0:0:
384,192,72970,1,0,0:0:0:0:
298,192,73270,1,0,0:0:0:0:
213,192,73570,1,0,0:0:0:0:
42,192,73570,1,0,0:0:0:0:
298,192,73870,1,0,0:0:0:0:
384,192,73870,1,0,0:0:0:0:
469,192,73870,1,0,0:0:0:0:
42,192,74020,1,0,0:0:0:0:
213,192,74020,1,0,0:0:0:0:
384,192,74170,1,0,0:0:0:0:
42,192,74320,1,0,0:0:0:0:
213,192,74320,1,0,0:0:0:0:
298,192,74470,128,0,74770:0:0:0:0:
213,192,74620,128,0,74770:0:0:0:0:
42,192,74770,1,0,0:0:0:0:
469,192,74770,1,0,0:0:0:0:
42,192,75270,1,0,0:0:0:0:
213,192,75370,1,0,0:0:0:0:
469,192,75370,1,0,0:0:0:0:
298,192,75670,1,0,0:0:0:0:
42,192,75670,1,0,0:0:0:0:
213,192,75670,1,0,0:0:0:0:
42,192,75870,1,0,0:0:0:0:
298,192,75970,1,0,0:0:0:0:
298,192,76170,1,0,0:0:0:0:
42,192,76270,1,0,0:0:0:0:
213,192,76570,1,0,0:0:0:0:
384,192,76570,1,0,0:0:0:0:
298,192,76870,128,0,77170:0:0:0:0:
42,192,76870,1,0,0:0:0:0:
42,192,77070,1,0,0:0:0:0:
213,192,77170,1,0,0:0:0:0:
469,192,77170,128,0,77770:0:0:0:0:
213,192,77370,1,0,0:0:0:0:
42,192,77470,1,0,0:0:0:0:
42,192,77670,1,0,0:0:0:0:
128,192,77770,1,0,0:0:0:0:
298,192,77770,1,0,0:0:0:0:
384,192,77770,128,0,78370:0:0:0:0:
42,192,78070,1,0,0:0:0:0:
42,192,78270,1,0,0:0:0:0:
298,192,78370,128,0,78970:0:0:0:0:
469,192,78370,1,0,0:0:0:0:
213,192,78370,128,0,78970:0:0:0:0:
469,192,78570,1,0,0:0:0:0:
42,192,78670,1,0,0:0:0:0:
384,192,78970,128,0,79570:0:0:0:0:
128,192,78970,128,0,79570:0:0:0:0:
298,192,79570,1,0,0:0:0:0:
469,192,79570,1,0,0:0:0:0:
42,192,79570,128,0,79870:0:0:0:0:
298,192,79720,1,0,0:0:0:0:
384,192,79870,1,0,0:0:0:0:
213,192,79870,1,0,0:0:0:0:
213,192,80070,1,0,0:0:0:0:
42,192,80170,1,0,0:0:0:0:
469,192,80170,1,0,0:0:0:0:
384,192,80170,1,0,0:0:0:0:
384,192,80470,1,0,0:0:0:0:
298,192,80470,128,0,81370:0:0:0:0:
42,192,80470,1,0,0:0:0:0:
42,192,80670,1,0,0:0:0:0:
213,192,80770,1,0,0:0:0:0:
213,192,80970,1,0,0:0:0:0:
42,192,81070,1,0,0:0:0:0:
469,192,81370,1,0,0:0:0:0:
128,192,81370,1,0,0:0:0:0:
213,192,81370,1,0,0:0:0:0:
298,192,81670,1,0,0:0:0:0:
42,192,81670,1,0,0:0:0:0:
384,192,81820,1,0,0:0:0:0:
298,192,81970,1,0,0:0:0:0:
469,192,81970,1,0,0:0:0:0:
42,192,81970,1,0,0:0:0:0:
42,192,82170,1,0,0:0:0:0:
213,192,82270,1,0,0:0:0:0:
213,192,82470,1,0,0:0:0:0:
128,192,82570,1,0,0:0:0:0:
42,192,82570,1,0,0:0:0:0:
384,192,82570,1,0,0:0:0:0:
298,192,82870,1,0,0:0:0:0:
42,192,82870,1,0,0:0:0:0:
42,192,83070,1,0,0:0:0:0:
469,192,83170,128,0,83470:0:0:0:0:
213,192,83170,1,0,0:0:0:0:
213,192,83370,1,0,0:0:0:0:
298,192,83470,1,0,0:0:0:0:
42,192,83470,1,0,0:0:0:0:
384,192,83770,128,0,84070:0:0:0:0:
128,192,83770,1,0,0:0:0:0:
213,192,83770,1,0,0:0:0:0:
213,192,84070,1,0,0:0:0:0:
213,192,84270,1,0,0:0:0:0:
298,192,84320,1,0,0:0:0:0:
384,192,84345,1,0,0:0:0:0:
469,192,84370,1,0,0:0:0:0:
42,192,84370,1,0,0:0:0:0:
298,192,84520,1,0,0:0:0:0:
42,192,84570,1,0,0:0:0:0:
384,192,84670,1,0,0:0:0:0:
213,192,84670,1,0,0:0:0:0:
213,192,84870,1,0,0:0:0:0:
384,192,84970,1,0,0:0:0:0:
469,192,84970,1,0,0:0:0:0:
42,192,84970,1,0,0:0:0:0:
469,192,85270,1,0,0:0:0:0:
42,192,85270,1,0,0:0:0:0:
298,192,85270,128,0,86170:0:0:0:0:
42,192,85470,1,0,0:0:0:0:
213,192,85570,1,0,0:0:0:0:
213,192,85770,1,0,0:0:0:0:
42,192,85870,1,0,0:0:0:0:
128,192,86170,1,0,0:0:0:0:
469,192,86170,1,0,0:0:0:0:
213,192,86170,1,0,0:0:0:0:
298,192,86470,1,0,0:0:0:0:
42,192,86470,1,0,0:0:0:0:
384,192,86620,1,0,0:0:0:0:
42,192,86670,1,0,0:0:0:0:
298,192,86770,1,0,0:0:0:0:
469,192,86770,1,0,0:0:0:0:
213,192,86770,1,0,0:0:0:0:
213,192,86970,1,0,0:0:0:0:
42,192,87070,1,0,0:0:0:0:
42,192,87270,1,0,0:0:0:0:
128,192,87370,1,0,0:0:0:0:
213,192,87370,1,0,0:0:0:0:
384,192,87370,1,0,0:0:0:0:
42,192,87670,1,0,0:0:0:0:
42,192,87870,1,0,0:0:0:0:
298,192,87970,128,0,88270:0:0:0:0:
469,192,87970,128,0,88270:0:0:0:0:
213,192,87970,1,0,0:0:0:0:
213,192,88170,1,0,0:0:0:0:
42,192,88270,1,0,0:0:0:0:
42,192,88570,1,0,0:0:0:0:
213,192,88570,1,0,0:0:0:0:
298,192,88570,128,0,88870:0:0:0:0:
384,192,88570,1,0,0:0:0:0:
128,192,88870,1,0,0:0:0:0:
384,192,88870,1,0,0:0:0:0:
128,192,89070,1,0,0:0:0:0:
298,192,89095,1,0,0:0:0:0:
384,192,89132,1,0,0:0:0:0:
469,192,89170,1,0,0:0:0:0:
42,192,89170,1,0,0:0:0:0:
298,192,89320,1,0,0:0:0:0:
42,192,89370,1,0,0:0:0:0:
213,192,89470,1,0,0:0:0:0:
384,192,89470,1,0,0:0:0:0:
213,192,89670,1,0,0:0:0:0:
42,192,89770,1,0,0:0:0:0:
384,192,89770,1,0,0:0:0:0:
469,192,89770,1,0,0:0:0:0:
213,192,90070,1,0,0:0:0:0:
469,192,90070,1,0,0:0:0:0:
42,192,90070,1,0,0:0:0:0:
298,192,90070,128,0,90970:0:0:0:0:
42,192,90270,1,0,0:0:0:0:
213,192,90370,1,0,0:0:0:0:
213,192,90570,1,0,0:0:0:0:
42,192,90670,1,0,0:0:0:0:
128,192,90970,1,0,0:0:0:0:
213,192,90970,1,0,0:0:0:0:
469,192,90970,1,0,0:0:0:0:
298,192,91270,1,0,0:0:0:0:
42,192,91270,1,0,0:0:0:0:
384,192,91420,1,0,0:0:0:0:
42,192,91470,1,0,0:0:0:0:
469,192,91570,1,0,0:0:0:0:
213,192,91570,1,0,0:0:0:0:
213,192,91770,1,0,0:0:0:0:
42,192,91870,1,0,0:0:0:0:
42,192,92070,1,0,0:0:0:0:
213,192,92170,1,0,0:0:0:0:
384,192,92170,1,0,0:0:0:0:
128,192,92170,1,0,0:0:0:0:
298,192,92470,1,0,0:0:0:0:
42,192,92470,1,0,0:0:0:0:
42,192,92670,1,0,0:0:0:0:
213,192,92770,1,0,0:0:0:0:
384,192,92770,128,0,93070:0:0:0:0:
213,192,92970,1,0,0:0:0:0:
298,192,93070,1,0,0:0:0:0:
469,192,93070,1,0,0:0:0:0:
42,192,93070,1,0,0:0:0:0:
128,192,93370,1,0,0:0:0:0:
213,192,93370,1,0,0:0:0:0:
384,192,93370,1,0,0:0:0:0:
298,192,93670,1,0,0:0:0:0:
42,192,93670,1,0,0:0:0:0:
42,192,93870,1,0,0:0:0:0:
128,192,93970,1,0,0:0:0:0:
213,192,93970,1,0,0:0:0:0:
384,192,93970,128,0,94570:0:0:0:0:
213,192,94170,1,0,0:0:0:0:
42,192,94270,1,0,0:0:0:0:
42,192,94470,1,0,0:0:0:0:
469,192,94570,1,0,0:0:0:0:
213,192,94570,1,0,0:0:0:0:
128,192,94570,1,0,0:0:0:0:
384,192,94870,1,0,0:0:0:0:
298,192,94870,128,0,95770:0:0:0:0:
42,192,94870,1,0,0:0:0:0:
42,192,95070,1,0,0:0:0:0:
213,192,95170,1,0,0:0:0:0:
213,192,95370,1,0,0:0:0:0:
42,192,95470,1,0,0:0:0:0:
213,192,95770,1,0,0:0:0:0:
128,192,95770,1,0,0:0:0:0:
469,192,95770,1,0,0:0:0:0:
298,192,96070,1,0,0:0:0:0:
42,192,96070,1,0,0:0:0:0:
384,192,96070,1,0,0:0:0:0:
42,192,96270,1,0,0:0:0:0:
298,192,96370,1,0,0:0:0:0:
469,192,96370,128,0,96970:0:0:0:0:
213,192,96370,1,0,0:0:0:0:
213,192,96570,1,0,0:0:0:0:
42,192,96670,1,0,0:0:0:0:
42,192,96870,1,0,0:0:0:0:
384,192,96970,128,0,97570:0:0:0:0:
128,192,96970,1,0,0:0:0:0:
213,192,96970,1,0,0:0:0:0:
42,192,97270,1,0,0:0:0:0:
42,192,97470,1,0,0:0:0:0:
298,192,97570,128,0,98170:0:0:0:0:
213,192,97570,128,0,98170:0:0:0:0:
469,192,97570,1,0,0:0:0:0:
469,192,97770,1,0,0:0:0:0:
42,192,97870,1,0,0:0:0:0:
384,192,98170,128,0,98770:0:0:0:0:
128,192,98170,128,0,98770:0:0:0:0:
42,192,98170,1,0,0:0:0:0:
469,192,98170,1,0,0:0:0:0:
213,192,98470,1,0,0:0:0:0:
213,192,98670,1,0,0:0:0:0:
469,192,98770,1,0,0:0:0:0:
42,192,98770,1,0,0:0:0:0:
213,192,99070,128,0,99370:0:0:0:0:
298,192,99070,128,0,99370:0:0:0:0:
128,192,99670,1,0,0:0:0:0:
384,192,99745,1,0,0:0:0:0:
128,192,99820,1,0,0:0:0:0:
384,192,99895,1,0,0:0:0:0:
128,192,99970,1,0,0:0:0:0:
298,192,99970,1,0,0:0:0:0:
42,192,100120,1,0,0:0:0:0:
469,192,100120,1,0,0:0:0:0:
213,192,100420,128,0,100570:0:0:0:0:
298,192,100420,128,0,100570:0:0:0:0:
128,192,100570,1,0,0:0:0:0:
384,192,100570,1,0,0:0:0:0:
384,192,100870,1,0,0:0:0:0:
42,192,100870,128,0,101020:0:0:0:0:
298,192,101020,1,0,0:0:0:0:
128,192,101020,128,0,101170:0:0:0:0:
213,192,101170,128,0,101770:0:0:0:0:
469,192,101170,1,0,0:0:0:0:
384,192,101320,1,0,0:0:0:0:
469,192,101470,1,0,0:0:0:0:
42,192,101470,1,0,0:0:0:0:
298,192,101620,1,0,0:0:0:0:
469,192,101770,1,0,0:0:0:0:
42,192,101770,1,0,0:0:0:0:
384,192,101770,128,0,102370:0:0:0:0:
213,192,101920,1,0,0:0:0:0:
128,192,102070,1,0,0:0:0:0:
298,192,102070,1,0,0:0:0:0:
213,192,102220,1,0,0:0:0:0:
42,192,102370,128,0,103270:0:0:0:0:
469,192,102370,1,0,0:0:0:0:
213,192,102520,1,0,0:0:0:0:
384,192,102520,1,0,0:0:0:0:
298,192,102670,1,0,0:0:0:0:
384,192,102820,1,0,0:0:0:0:
298,192,102970,1,0,0:0:0:0:
128,192,102970,1,0,0:0:0:0:
469,192,103120,1,0,0:0:0:0:
384,192,103270,1,0,0:0:0:0:
213,192,103270,1,0,0:0:0:0:
42,192,103420,1,0,0:0:0:0:
213,192,103420,1,0,0:0:0:0:
298,192,103570,1,0,0:0:0:0:
469,192,103570,1,0,0:0:0:0:
128,192,103720,1,0,0:0:0:0:
213,192,103870,1,0,0:0:0:0:
384,192,103870,1,0,0:0:0:0:
42,192,104020,1,0,0:0:0:0:
128,192,104170,1,0,0:0:0:0:
298,192,104170,1,0,0:0:0:0:
469,192,104320,1,0,0:0:0:0:
213,192,104470,1,0,0:0:0:0:
384,192,104470,1,0,0:0:0:0:
128,192,104470,1,0,0:0:0:0:
298,192,104620,1,0,0:0:0:0:
128,192,104620,1,0,0:0:0:0:
469,192,104770,1,0,0:0:0:0:
42,192,104920,1,0,0:0:0:0:
213,192,104920,1,0,0:0:0:0:
298,192,105070,1,0,0:0:0:0:
469,192,105070,1,0,0:0:0:0:
128,192,105220,1,0,0:0:0:0:
213,192,105370,1,0,0:0:0:0:
384,192,105370,1,0,0:0:0:0:
298,192,105520,1,0,0:0:0:0:
384,192,105670,1,0,0:0:0:0:
42,192,105670,1,0,0:0:0:0:
298,192,105820,1,0,0:0:0:0:
128,192,105820,128,0,106270:0:0:0:0:
469,192,105970,1,0,0:0:0:0:
213,192,105970,1,0,0:0:0:0:
384,192,106120,1,0,0:0:0:0:
298,192,106270,1,0,0:0:0:0:
42,192,106270,128,0,106570:0:0:0:0:
213,192,106420,1,0,0:0:0:0:
128,192,106570,1,0,0:0:0:0:
469,192,106570,1,0,0:0:0:0:
298,192,106570,1,0,0:0:0:0:
213,192,106720,1,0,0:0:0:0:
384,192,106720,128,0,107020:0:0:0:0:
298,192,106870,1,0,0:0:0:0:
42,192,106870,1,0,0:0:0:0:
213,192,107020,128,0,107320:0:0:0:0:
42,192,107170,1,0,0:0:0:0:
298,192,107170,1,0,0:0:0:0:
384,192,107170,1,0,0:0:0:0:
469,192,107320,1,0,0:0:0:0:
128,192,107320,1,0,0:0:0:0:
213,192,107470,128,0,107770:0:0:0:0:
42,192,107470,1,0,0:0:0:0:
384,192,107470,1,0,0:0:0:0:
298,192,107620,1,0,0:0:0:0:
128,192,107770,1,0,0:0:0:0:
469,192,107770,1,0,0:0:0:0:
384,192,107770,1,0,0:0:0:0:
213,192,107920,1,0,0:0:0:0:
384,192,108070,1,0,0:0:0:0:
298,192,108070,1,0,0:0:0:0:
42,192,108070,1,0,0:0:0:0:
128,192,108220,1,0,0:0:0:0:
469,192,108220,1,0,0:0:0:0:
213,192,108370,1,0,0:0:0:0:
384,192,108370,1,0,0:0:0:0:
42,192,108520,1,0,0:0:0:0:
128,192,108670,1,0,0:0:0:0:
469,192,108670,1,0,0:0:0:0:
213,192,108820,128,0,109120:0:0:0:0:
298,192,108970,1,0,0:0:0:0:
469,192,108970,1,0,0:0:0:0:
42,192,109120,1,0,0:0:0:0:
128,192,109270,1,0,0:0:0:0:
384,192,109270,1,0,0:0:0:0:
213,192,109420,128,0,109720:0:0:0:0:
298,192,109420,1,0,0:0:0:0:
469,192,109570,1,0,0:0:0:0:
384,192,109570,1,0,0:0:0:0:
42,192,109720,1,0,0:0:0:0:
298,192,109720,1,0,0:0:0:0:
128,192,109870,1,0,0:0:0:0:
384,192,109870,1,0,0:0:0:0:
213,192,110020,1,0,0:0:0:0:
469,192,110020,128,0,110470:0:0:0:0:
298,192,110170,1,0,0:0:0:0:
128,192,110170,1,0,0:0:0:0:
384,192,110170,1,0,0:0:0:0:
213,192,110320,1,0,0:0:0:0:
42,192,110320,1,0,0:0:0:0:
384,192,110470,1,0,0:0:0:0:
128,192,110470,1,0,0:0:0:0:
298,192,110620,1,0,0:0:0:0:
213,192,110620,1,0,0:0:0:0:
42,192,110770,1,0,0:0:0:0:
469,192,110770,128,0,111370:0:0:0:0:
213,192,110920,1,0,0:0:0:0:
298,192,111070,128,0,111370:0:0:0:0:
213,192,111220,1,0,0:0:0:0:
384,192,111370,1,0,0:0:0:0:
128,192,111370,1,0,0:0:0:0:
298,192,111520,1,0,0:0:0:0:
42,192,111520,128,0,111820:0:0:0:0:
213,192,111670,1,0,0:0:0:0:
128,192,111820,1,0,0:0:0:0:
384,192,111820,128,0,112120:0:0:0:0:
213,192,111970,1,0,0:0:0:0:
42,192,111970,1,0,0:0:0:0:
298,192,112120,1,0,0:0:0:0:
469,192,112120,1,0,0:0:0:0:
213,192,112270,1,0,0:0:0:0:
128,192,112270,1,0,0:0:0:0:
298,192,112420,1,0,0:0:0:0:
384,192,112420,1,0,0:0:0:0:
213,192,112570,1,0,0:0:0:0:
469,192,112570,1,0,0:0:0:0:
42,192,112570,1,0,0:0:0:0:
298,192,112720,1,0,0:0:0:0:
128,192,112720,1,0,0:0:0:0:
384,192,112870,1,0,0:0:0:0:
213,192,112870,1,0,0:0:0:0:
469,192,112870,1,0,0:0:0:0:
128,192,113020,1,0,0:0:0:0:
298,192,113020,1,0,0:0:0:0:
213,192,113170,1,0,0:0:0:0:
42,192,113170,128,0,113470:0:0:0:0:
469,192,113170,128,0,113470:0:0:0:0:
384,192,113470,1,0,0:0:0:0:
213,192,113470,1,0,0:0:0:0:
298,192,113620,1,0,0:0:0:0:
128,192,113620,1,0,0:0:0:0:
42,192,113770,1,0,0:0:0:0:
384,192,113770,1,0,0:0:0:0:
469,192,113770,1,0,0:0:0:0:
213,192,113920,1,0,0:0:0:0:
42,192,114070,1,0,0:0:0:0:
469,192,114070,1,0,0:0:0:0:
298,192,114070,1,0,0:0:0:0:
128,192,114220,1,0,0:0:0:0:
213,192,114220,1,0,0:0:0:0:
298,192,114370,1,0,0:0:0:0:
469,192,114370,1,0,0:0:0:0:
128,192,114520,1,0,0:0:0:0:
213,192,114520,1,0,0:0:0:0:
469,192,114670,1,0,0:0:0:0:
42,192,114670,1,0,0:0:0:0:
384,192,114670,1,0,0:0:0:0:
213,192,114820,1,0,0:0:0:0:
298,192,114970,1,0,0:0:0:0:
42,192,114970,1,0,0:0:0:0:
469,192,114970,1,0,0:0:0:0:
213,192,115120,1,0,0:0:0:0:
128,192,115270,1,0,0:0:0:0:
298,192,115270,1,0,0:0:0:0:
384,192,115270,1,0,0:0:0:0:
213,192,115420,1,0,0:0:0:0:
298,192,115570,1,0,0:0:0:0:
469,192,115570,1,0,0:0:0:0:
42,192,115570,1,0,0:0:0:0:
213,192,115720,1,0,0:0:0:0:
298,192,115870,1,0,0:0:0:0:
128,192,115870,1,0,0:0:0:0:
213,192,116020,1,0,0:0:0:0:
469,192,116020,1,0,0:0:0:0:
42,192,116170,1,0,0:0:0:0:
298,192,116170,1,0,0:0:0:0:
384,192,116170,1,0,0:0:0:0:
128,192,116320,1,0,0:0:0:0:
469,192,116320,1,0,0:0:0:0:
213,192,116470,1,0,0:0:0:0:
384,192,116470,1,0,0:0:0:0:
298,192,116620,1,0,0:0:0:0:
128,192,116620,1,0,0:0:0:0:
213,192,116770,1,0,0:0:0:0:
42,192,116770,1,0,0:0:0:0:
469,192,116770,1,0,0:0:0:0:
298,192,116920,1,0,0:0:0:0:
384,192,117070,1,0,0:0:0:0:
42,192,117070,1,0,0:0:0:0:
298,192,117220,1,0,0:0:0:0:
128,192,117220,1,0,0:0:0:0:
469,192,117370,1,0,0:0:0:0:
42,192,117370,1,0,0:0:0:0:
213,192,117370,1,0,0:0:0:0:
298,192,117520,1,0,0:0:0:0:
384,192,117670,1,0,0:0:0:0:
128,192,117670,1,0,0:0:0:0:
213,192,117670,1,0,0:0:0:0:
469,192,117820,1,0,0:0:0:0:
384,192,117970,1,0,0:0:0:0:
42,192,117970,128,0,118420:0:0:0:0:
213,192,117970,1,0,0:0:0:0:
298,192,118120,128,0,118270:0:0:0:0:
469,192,118270,128,0,118420:0:0:0:0:
384,192,118420,128,0,118570:0:0:0:0:
213,192,118420,1,0,0:0:0:0:
298,192,118570,128,0,118720:0:0:0:0:
42,192,118570,1,0,0:0:0:0:
213,192,118720,128,0,118870:0:0:0:0:
469,192,118720,1,0,0:0:0:0:
298,192,118870,128,0,119020:0:0:0:0:
42,192,118870,128,0,119020:0:0:0:0:
384,192,119020,128,0,119170:0:0:0:0:
128,192,119020,128,0,119170:0:0:0:0:
213,192,119170,128,0,119320:0:0:0:0:
469,192,119170,128,0,119320:0:0:0:0:
42,192,119320,1,0,0:0:0:0:
298,192,119320,1,0,0:0:0:0:
213,192,119620,128,0,119770:0:0:0:0:
469,192,119620,128,0,119770:0:0:0:0:
42,192,119770,1,0,0:0:0:0:
298,192,119770,1,0,0:0:0:0:
469,192,119920,128,0,120070:0:0:0:0:
213,192,119920,128,0,120070:0:0:0:0:
42,192,120070,1,0,0:0:0:0:
298,192,120070,1,0,0:0:0:0:
469,192,120220,1,0,0:0:0:0:
384,192,120370,1,0,0:0:0:0:
128,192,120370,1,0,0:0:0:0:
128,192,120670,1,0,0:0:0:0:
128,192,120970,1,0,0:0:0:0:
298,192,120970,1,0,0:0:0:0:
128,192,121270,1,0,0:0:0:0:
213,192,121570,1,0,0:0:0:0:
469,192,121570,1,0,0:0:0:0:
213,192,121870,1,0,0:0:0:0:
213,192,122170,1,0,0:0:0:0:
384,192,122395,1,0,0:0:0:0:
469,192,122470,1,0,0:0:0:0:
213,192,122470,1,0,0:0:0:0:
42,192,122770,1,0,0:0:0:0:
384,192,122770,1,0,0:0:0:0:
298,192,123070,1,0,0:0:0:0:
42,192,123070,1,0,0:0:0:0:
42,192,123370,1,0,0:0:0:0:
213,192,123370,1,0,0:0:0:0:
298,192,123670,1,0,0:0:0:0:
42,192,123670,1,0,0:0:0:0:
213,192,123820,1,0,0:0:0:0:
42,192,123970,1,0,0:0:0:0:
42,192,124270,1,0,0:0:0:0:
213,192,124270,1,0,0:0:0:0:
298,192,124345,1,0,0:0:0:0:
213,192,124420,1,0,0:0:0:0:
298,192,124495,1,0,0:0:0:0:
42,192,124570,1,0,0:0:0:0:
213,192,124570,1,0,0:0:0:0:
42,192,124720,1,0,0:0:0:0:
469,192,124870,1,0,0:0:0:0:
213,192,124870,1,0,0:0:0:0:
298,192,125020,1,0,0:0:0:0:
128,192,125170,1,0,0:0:0:0:
384,192,125170,1,0,0:0:0:0:
128,192,125470,1,0,0:0:0:0:
128,192,125770,1,0,0:0:0:0:
298,192,125770,1,0,0:0:0:0:
128,192,126070,1,0,0:0:0:0:
213,192,126370,1,0,0:0:0:0:
469,192,126370,1,0,0:0:0:0:
213,192,126670,1,0,0:0:0:0:
213,192,126970,1,0,0:0:0:0:
384,192,126970,1,0,0:0:0:0:
298,192,127270,1,0,0:0:0:0:
213,192,127270,1,0,0:0:0:0:
213,192,127570,1,0,0:0:0:0:
42,192,127570,1,0,0:0:0:0:
42,192,127870,1,0,0:0:0:0:
384,192,127870,1,0,0:0:0:0:
42,192,128170,1,0,0:0:0:0:
469,192,128470,1,0,0:0:0:0:
42,192,128470,1,0,0:0:0:0:
298,192,128695,1,0,0:0:0:0:
469,192,128770,1,0,0:0:0:0:
42,192,128770,1,0,0:0:0:0:
128,192,129070,1,0,0:0:0:0:
469,192,129070,1,0,0:0:0:0:
298,192,129145,1,0,0:0:0:0:
469,192,129220,1,0,0:0:0:0:
298,192,129295,1,0,0:0:0:0:
213,192,129370,1,0,0:0:0:0:
128,192,129370,1,0,0:0:0:0:
469,192,129370,1,0,0:0:0:0:
469,192,129520,1,0,0:0:0:0:
42,192,129670,1,0,0:0:0:0:
298,192,129670,1,0,0:0:0:0:
469,192,129820,1,0,0:0:0:0:
384,192,129970,1,0,0:0:0:0:
128,192,129970,1,0,0:0:0:0:
128,192,130270,1,0,0:0:0:0:
128,192,130570,1,0,0:0:0:0:
298,192,130570,1,0,0:0:0:0:
128,192,130870,1,0,0:0:0:0:
469,192,131170,1,0,0:0:0:0:
213,192,131170,1,0,0:0:0:0:
213,192,131470,1,0,0:0:0:0:
213,192,131770,1,0,0:0:0:0:
384,192,131995,1,0,0:0:0:0:
469,192,132070,1,0,0:0:0:0:
213,192,132070,1,0,0:0:0:0:
42,192,132370,1,0,0:0:0:0:
384,192,132370,1,0,0:0:0:0:
298,192,132670,1,0,0:0:0:0:
42,192,132670,1,0,0:0:0:0:
42,192,132970,1,0,0:0:0:0:
213,192,132970,1,0,0:0:0:0:
298,192,133270,1,0,0:0:0:0:
42,192,133270,1,0,0:0:0:0:
384,192,133420,1,0,0:0:0:0:
42,192,133570,1,0,0:0:0:0:
384,192,133570,1,0,0:0:0:0:
298,192,133645,1,0,0:0:0:0:
384,192,133720,1,0,0:0:0:0:
298,192,133795,1,0,0:0:0:0:
469,192,133870,1,0,0:0:0:0:
128,192,133870,1,0,0:0:0:0:
213,192,133870,1,0,0:0:0:0:
213,192,134170,1,0,0:0:0:0:
384,192,134170,1,0,0:0:0:0:
42,192,134170,1,0,0:0:0:0:
298,192,134470,1,0,0:0:0:0:
42,192,134470,1,0,0:0:0:0:
128,192,134470,1,0,0:0:0:0:
213,192,134770,1,0,0:0:0:0:
128,192,134770,1,0,0:0:0:0:
384,192,134770,1,0,0:0:0:0:
128,192,135070,1,0,0:0:0:0:
128,192,135370,1,0,0:0:0:0:
384,192,135370,1,0,0:0:0:0:
469,192,135670,1,0,0:0:0:0:
128,192,135670,1,0,0:0:0:0:
298,192,135970,1,0,0:0:0:0:
213,192,135970,1,0,0:0:0:0:
213,192,136270,1,0,0:0:0:0:
213,192,136570,1,0,0:0:0:0:
298,192,136570,1,0,0:0:0:0:
384,192,136870,1,0,0:0:0:0:
213,192,136870,1,0,0:0:0:0:
384,192,137170,1,0,0:0:0:0:
128,192,137170,1,0,0:0:0:0:
298,192,137245,1,0,0:0:0:0:
384,192,137320,1,0,0:0:0:0:
128,192,137320,1,0,0:0:0:0:
298,192,137395,1,0,0:0:0:0:
128,192,137470,1,0,0:0:0:0:
384,192,137470,1,0,0:0:0:0:
384,192,137620,1,0,0:0:0:0:
128,192,137620,1,0,0:0:0:0:
42,192,137770,128,0,138370:0:0:0:0:
298,192,137770,128,0,138370:0:0:0:0:
469,192,137770,1,0,0:0:0:0:
128,192,138370,128,0,138970:0:0:0:0:
384,192,138370,128,0,138970:0:0:0:0:
469,192,138370,1,0,0:0:0:0:
213,192,138970,128,0,139570:0:0:0:0:
298,192,138970,128,0,139570:0:0:0:0:
469,192,138970,1,0,0:0:0:0:
42,192,138970,1,0,0:0:0:0:
128,192,139120,1,0,0:0:0:0:
384,192,139270,1,0,0:0:0:0:
42,192,139420,1,0,0:0:0:0:
469,192,139570,1,0,0:0:0:0:
128,192,139570,128,0,140170:0:0:0:0:
384,192,139570,128,0,140170:0:0:0:0:
42,192,139570,1,0,0:0:0:0:
298,192,139720,1,0,0:0:0:0:
213,192,139870,1,0,0:0:0:0:
42,192,139870,1,0,0:0:0:0:
298,192,140020,1,0,0:0:0:0:
42,192,140170,128,0,141070:0:0:0:0:
469,192,140170,128,0,141070:0:0:0:0:
213,192,140170,1,0,0:0:0:0:
298,192,140320,1,0,0:0:0:0:
128,192,140470,1,0,0:0:0:0:
384,192,140470,1,0,0:0:0:0:
298,192,140620,1,0,0:0:0:0:
213,192,140770,1,0,0:0:0:0:
128,192,140770,1,0,0:0:0:0:
298,192,140920,1,0,0:0:0:0:
384,192,140920,1,0,0:0:0:0:
128,192,141070,1,0,0:0:0:0:
298,192,141070,1,0,0:0:0:0:
213,192,141220,1,0,0:0:0:0:
384,192,141220,1,0,0:0:0:0:
42,192,141370,128,0,141670:0:0:0:0:
469,192,141370,128,0,141670:0:0:0:0:
298,192,141370,1,0,0:0:0:0:
128,192,141670,128,0,141970:0:0:0:0:
384,192,141670,128,0,141970:0:0:0:0:
213,192,141670,1,0,0:0:0:0:
469,192,141820,1,0,0:0:0:0:
42,192,141970,1,0,0:0:0:0:
213,192,141970,128,0,142120:0:0:0:0:
298,192,141970,128,0,142120:0:0:0:0:
469,192,142120,1,0,0:0:0:0:
42,192,142195,1,0,0:0:0:0:
128,192,142270,1,0,0:0:0:0:
384,192,142270,1,0,0:0:0:0:
298,192,142420,128,0,143170:0:0:0:0:
213,192,142420,128,0,143170:0:0:0:0:
42,192,142420,1,0,0:0:0:0:
469,192,142420,1,0,0:0:0:0:
384,192,142570,1,0,0:0:0:0:
128,192,142720,1,0,0:0:0:0:
42,192,142720,1,0,0:0:0:0:
469,192,142870,1,0,0:0:0:0:
384,192,143020,1,0,0:0:0:0:
128,192,143170,1,0,0:0:0:0:
42,192,143170,1,0,0:0:0:0:
384,192,143320,1,0,0:0:0:0:
469,192,143320,1,0,0:0:0:0:
42,192,143470,1,0,0:0:0:0:
298,192,143470,1,0,0:0:0:0:
128,192,143620,1,0,0:0:0:0:
384,192,143620,1,0,0:0:0:0:
213,192,143770,128,0,144370:0:0:0:0:
298,192,143770,128,0,144370:0:0:0:0:
469,192,143770,1,0,0:0:0:0:
42,192,143770,1,0,0:0:0:0:
128,192,143920,1,0,0:0:0:0:
384,192,144070,1,0,0:0:0:0:
42,192,144220,1,0,0:0:0:0:
469,192,144220,1,0,0:0:0:0:
128,192,144370,128,0,144970:0:0:0:0:
384,192,144370,128,0,144970:0:0:0:0:
298,192,144520,1,0,0:0:0:0:
42,192,144670,1,0,0:0:0:0:
213,192,144670,1,0,0:0:0:0:
298,192,144820,1,0,0:0:0:0:
42,192,144970,128,0,145570:0:0:0:0:
469,192,144970,128,0,145570:0:0:0:0:
213,192,144970,1,0,0:0:0:0:
384,192,145120,1,0,0:0:0:0:
298,192,145120,1,0,0:0:0:0:
128,192,145270,1,0,0:0:0:0:
384,192,145420,1,0,0:0:0:0:
213,192,145420,1,0,0:0:0:0:
298,192,145570,1,0,0:0:0:0:
128,192,145570,1,0,0:0:0:0:
213,192,145720,1,0,0:0:0:0:
469,192,145720,1,0,0:0:0:0:
298,192,145870,128,0,146470:0:0:0:0:
42,192,145870,128,0,146470:0:0:0:0:
128,192,145870,1,0,0:0:0:0:
469,192,146020,1,0,0:0:0:0:
213,192,146170,1,0,0:0:0:0:
384,192,146170,1,0,0:0:0:0:
469,192,146320,1,0,0:0:0:0:
384,192,146470,128,0,147070:0:0:0:0:
128,192,146470,128,0,147070:0:0:0:0:
213,192,146470,1,0,0:0:0:0:
298,192,146620,1,0,0:0:0:0:
42,192,146770,1,0,0:0:0:0:
469,192,146770,1,0,0:0:0:0:
213,192,146920,1,0,0:0:0:0:
298,192,147070,1,0,0:0:0:0:
469,192,147070,1,0,0:0:0:0:
213,192,147220,1,0,0:0:0:0:
298,192,147370,128,0,147970:0:0:0:0:
469,192,147370,128,0,147970:0:0:0:0:
128,192,147370,1,0,0:0:0:0:
42,192,147370,1,0,0:0:0:0:
213,192,147520,1,0,0:0:0:0:
42,192,147670,1,0,0:0:0:0:
384,192,147670,1,0,0:0:0:0:
128,192,147670,1,0,0:0:0:0:
213,192,147820,1,0,0:0:0:0:
128,192,147970,1,0,0:0:0:0:
42,192,147970,1,0,0:0:0:0:
384,192,147970,1,0,0:0:0:0:
298,192,148120,1,0,0:0:0:0:
213,192,148120,1,0,0:0:0:0:
42,192,148270,1,0,0:0:0:0:
469,192,148270,1,0,0:0:0:0:
128,192,148307,1,0,0:0:0:0:
213,192,148345,1,0,0:0:0:0:
298,192,148382,1,0,0:0:0:0:
384,192,148420,1,0,0:0:0:0:
469,192,148457,1,0,0:0:0:0:
42,192,148495,1,0,0:0:0:0:
128,192,148532,1,0,0:0:0:0:
298,192,148570,128,0,149170:0:0:0:0:
213,192,148570,128,0,149170:0:0:0:0:
384,192,148570,1,0,0:0:0:0:
469,192,148870,1,0,0:0:0:0:
42,192,149020,1,0,0:0:0:0:
128,192,149170,128,0,149770:0:0:0:0:
384,192,149170,128,0,149770:0:0:0:0:
469,192,149170,1,0,0:0:0:0:
42,192,149320,1,0,0:0:0:0:
213,192,149320,1,0,0:0:0:0:
298,192,149470,1,0,0:0:0:0:
213,192,149620,1,0,0:0:0:0:
42,192,149770,128,0,150670:0:0:0:0:
469,192,149770,128,0,150670:0:0:0:0:
298,192,149770,1,0,0:0:0:0:
128,192,149920,1,0,0:0:0:0:
298,192,149920,1,0,0:0:0:0:
384,192,150070,1,0,0:0:0:0:
213,192,150070,1,0,0:0:0:0:
128,192,150220,1,0,0:0:0:0:
384,192,150370,1,0,0:0:0:0:
298,192,150370,1,0,0:0:0:0:
213,192,150520,1,0,0:0:0:0:
128,192,150670,1,0,0:0:0:0:
298,192,150670,1,0,0:0:0:0:
469,192,150820,1,0,0:0:0:0:
298,192,150820,1,0,0:0:0:0:
213,192,150970,1,0,0:0:0:0:
384,192,150970,128,0,151270:0:0:0:0:
42,192,151120,1,0,0:0:0:0:
128,192,151195,1,0,0:0:0:0:
213,192,151270,128,0,151570:0:0:0:0:
469,192,151270,1,0,0:0:0:0:
384,192,151420,1,0,0:0:0:0:
128,192,151570,128,0,151870:0:0:0:0:
298,192,151570,1,0,0:0:0:0:
298,192,151720,1,0,0:0:0:0:
469,192,151720,1,0,0:0:0:0:
213,192,151870,1,0,0:0:0:0:
42,192,151870,1,0,0:0:0:0:
213,192,152020,1,0,0:0:0:0:
384,192,152020,128,0,152470:0:0:0:0:
42,192,152170,1,0,0:0:0:0:
128,192,152320,1,0,0:0:0:0:
298,192,152320,1,0,0:0:0:0:
42,192,152470,128,0,152770:0:0:0:0:
469,192,152470,128,0,152770:0:0:0:0:
213,192,152470,128,0,152770:0:0:0:0:
128,192,152770,128,0,153070:0:0:0:0:
384,192,152770,128,0,153070:0:0:0:0:
298,192,152770,128,0,153070:0:0:0:0:
213,192,153070,128,0,153370:0:0:0:0:
42,192,153070,128,0,153370:0:0:0:0:
469,192,153070,128,0,153370:0:0:0:0:
128,192,153370,128,0,153970:0:0:0:0:
298,192,153370,128,0,153970:0:0:0:0:
384,192,153370,1,0,0:0:0:0:
469,192,153520,1,0,0:0:0:0:
213,192,153670,1,0,0:0:0:0:
469,192,153820,1,0,0:0:0:0:
42,192,153970,1,0,0:0:0:0:
384,192,153970,1,0,0:0:0:0:
469,192,153970,1,0,0:0:0:0:
213,192,154120,1,0,0:0:0:0:
42,192,154270,1,0,0:0:0:0:
298,192,154270,1,0,0:0:0:0:
469,192,154270,1,0,0:0:0:0:
128,192,154420,1,0,0:0:0:0:
469,192,154420,1,0,0:0:0:0:
213,192,154570,128,0,155170:0:0:0:0:
384,192,154570,1,0,0:0:0:0:
42,192,154570,1,0,0:0:0:0:
298,192,154720,1,0,0:0:0:0:
128,192,154870,1,0,0:0:0:0:
298,192,154870,1,0,0:0:0:0:
469,192,155020,1,0,0:0:0:0:
42,192,155170,1,0,0:0:0:0:
384,192,155170,1,0,0:0:0:0:
469,192,155320,1,0,0:0:0:0:
384,192,155320,1,0,0:0:0:0:
42,192,155470,1,0,0:0:0:0:
213,192,155470,1,0,0:0:0:0:
298,192,155620,1,0,0:0:0:0:
384,192,155620,1,0,0:0:0:0:
42,192,155770,128,0,156670:0:0:0:0:
213,192,155770,128,0,156670:0:0:0:0:
469,192,155770,1,0,0:0:0:0:
384,192,155920,1,0,0:0:0:0:
298,192,156070,1,0,0:0:0:0:
469,192,156220,1,0,0:0:0:0:
298,192,156370,1,0,0:0:0:0:
128,192,156370,1,0,0:0:0:0:
384,192,156520,1,0,0:0:0:0:
298,192,156670,1,0,0:0:0:0:
213,192,156820,1,0,0:0:0:0:
42,192,156970,128,0,157120:0:0:0:0:
469,192,156970,128,0,157120:0:0:0:0:
213,192,157120,1,0,0:0:0:0:
298,192,157120,1,0,0:0:0:0:
42,192,157420,128,0,157570:0:0:0:0:
469,192,157420,128,0,157570:0:0:0:0:
213,192,157570,1,0,0:0:0:0:
298,192,157570,1,0,0:0:0:0:
469,192,157720,128,0,157870:0:0:0:0:
42,192,157720,128,0,157870:0:0:0:0:
213,192,157870,128,0,158020:0:0:0:0:
298,192,157870,128,0,158020:0:0:0:0:
128,192,158020,128,0,158170:0:0:0:0:
384,192,158020,128,0,158170:0:0:0:0:
