osu file format v14

[General]
AudioFilename: SEMARGL - Credo Revolution (Zardonic Remix).mp3
AudioLeadIn: 0
PreviewTime: 43915
Countdown: 0
SampleSet: None
StackLeniency: 0.7
Mode: 0
LetterboxInBreaks: 0
WidescreenStoryboard: 1
SamplesMatchPlaybackRate: 1

[Editor]
Bookmarks: 9543
DistanceSpacing: 3
BeatDivisor: 4
GridSize: 4
TimelineZoom: 2.899999

[Metadata]
Title:Credo Revolution (Zardonic Remix)
TitleUnicode:Credo Revolution (Zardonic Remix)
Artist:SEMARGL
ArtistUnicode:SEMARGL
Creator:Barbex
Version:Le sable
Source:Semargl rock drum and bass dnb
Tags:Barbex Akiratsu-kun Azer467 Dylansan Ameyy
BeatmapID:2105734
BeatmapSetID:413987

[Difficulty]
HPDrainRate:5
CircleSize:4
OverallDifficulty:9
ApproachRate:9.2
SliderMultiplier:1.4
SliderTickRate:1

[Events]
//Background and Video events
0,0,"tAG_132700.jpg",0,0
//Break Periods
//Storyboard Layer 0 (Background)
//Storyboard Layer 1 (Fail)
//Storyboard Layer 2 (Pass)
//Storyboard Layer 3 (Foreground)
//Storyboard Sound Samples

[TimingPoints]
11001,342.857142857143,4,1,0,65,1,0
27458,-66.6666666666667,4,1,0,65,0,0
32943,-100,4,1,0,65,0,0
43871,-66.6666666666667,4,1,0,65,0,1
43957,-66.6666666666667,4,1,0,65,0,1
65985,-100,4,1,0,65,0,0
67229,-133.333333333333,4,1,0,65,0,0
68686,-66.6666666666667,4,1,0,65,0,0
70072,-133.333333333333,4,1,0,65,0,0
71128,-66.6666666666667,4,1,0,65,0,0
71471,-133.333333333333,4,1,0,65,0,0
71515,-66.6666666666667,4,1,0,65,0,0
72671,-66.6666666666667,4,1,0,65,0,0
73100,-133.333333333333,4,1,0,65,0,0
74043,-66.6666666666667,4,1,0,65,0,0
74385,-133.333333333333,4,1,0,65,0,0
76785,-66.6666666666667,4,1,0,65,0,0
77001,-100,4,1,0,65,0,0
78201,-133.333333333333,4,1,0,65,0,0
79528,-66.6666666666667,4,1,0,65,0,0
79957,-133.333333333333,4,1,0,65,0,0
83643,-66.6666666666667,4,1,0,65,0,0
83985,-133.333333333333,4,1,0,65,0,0
85014,-66.6666666666667,4,1,0,65,0,0
85957,-133.333333333333,4,1,0,65,0,0
86601,-133.333333333333,4,1,0,65,0,0
87071,-66.6666666666667,4,1,0,65,0,0
87801,-66.6666666666667,4,1,0,65,0,1

[HitObjects]
100,148,11000,6,0,P|134:106|221:78,1,140
312,80,11515,1,0,0:0:0:0:
393,134,11686,1,0,0:0:0:0:
303,174,11858,1,0,0:0:0:0:
382,231,12029,1,0,0:0:0:0:
291,268,12200,1,0,0:0:0:0:
412,148,12372,2,0,P|364:97|298:78,1,140
200,80,12887,1,0,0:0:0:0:
119,134,13058,1,0,0:0:0:0:
209,174,13230,1,0,0:0:0:0:
130,231,13401,1,0,0:0:0:0:
221,268,13572,1,0,0:0:0:0:
151,199,13743,6,0,P|185:157|272:129,1,140
363,131,14258,1,0,0:0:0:0:
444,185,14429,1,0,0:0:0:0:
354,225,14601,1,0,0:0:0:0:
363,131,14772,1,0,0:0:0:0:
444,185,14943,1,0,0:0:0:0:
354,225,15115,6,0,P|320:183|233:155,1,140
142,157,15630,1,0,0:0:0:0:
61,211,15801,1,0,0:0:0:0:
151,251,15973,1,0,0:0:0:0:
142,157,16144,1,0,0:0:0:0:
61,211,16315,1,0,0:0:0:0:
151,251,16486,6,0,P|201:231|254:157,1,140
221,71,17001,1,0,0:0:0:0:
134,115,17172,1,0,0:0:0:0:
191,193,17343,1,0,0:0:0:0:
134,269,17515,1,0,0:0:0:0:
221,313,17686,1,0,0:0:0:0:
281,235,17858,6,0,P|237:202|206:116,1,140
291,71,18373,1,0,0:0:0:0:
366,133,18544,1,0,0:0:0:0:
272,161,18715,1,0,0:0:0:0:
330,81,18887,1,0,0:0:0:0:
356,174,19058,1,0,0:0:0:0:
272,122,19229,2,0,P|212:73|132:56,1,140
74,115,19743,1,0,0:0:0:0:
163,154,19915,1,0,0:0:0:0:
81,208,20086,1,0,0:0:0:0:
169,250,20258,1,0,0:0:0:0:
252,199,20429,1,0,0:0:0:0:
259,297,20601,2,0,P|328:263|378:207,1,140
425,136,21115,1,0,0:0:0:0:
345,79,21286,1,0,0:0:0:0:
329,176,21458,1,0,0:0:0:0:
425,136,21629,1,0,0:0:0:0:
345,78,21801,1,0,0:0:0:0:
253,111,21972,1,0,0:0:0:0:
107,261,22143,1,0,0:0:0:0:
313,304,22315,1,0,0:0:0:0:
222,115,22486,1,0,0:0:0:0:
107,291,22658,1,0,0:0:0:0:
314,265,22829,1,0,0:0:0:0:
183,99,23001,1,0,0:0:0:0:
139,303,23172,1,0,0:0:0:0:
