osu file format v14

[General]
AudioFilename: Reverse world -Extend ver.-.ogg
AudioLeadIn: 0
PreviewTime: 117328
Countdown: 0
SampleSet: Soft
StackLeniency: 0.7
Mode: 3
LetterboxInBreaks: 0
SpecialStyle: 0
WidescreenStoryboard: 1

[Editor]
Bookmarks: 769,25543,53801,74557,96611,117368,138125,158882,179638,201692,222449,243206,265260,288611,309368
DistanceSpacing: 0.7
BeatDivisor: 4
GridSize: 4
TimelineZoom: 1.7

[Metadata]
Title:Reverse World -Extend Ver.-
TitleUnicode:Reverse World -Extend Ver.-
Artist:SELEN
ArtistUnicode:SELEN
Creator:FAMoss
Version:Normal
Source:
Tags:ITSUHA. SELEN&KAREN karen trance core trancecore electronic instrumental extended long version
BeatmapID:3773349
BeatmapSetID:1837663

[Difficulty]
HPDrainRate:7.5
CircleSize:4
OverallDifficulty:7.5
ApproachRate:5
SliderMultiplier:1.4
SliderTickRate:1

[Events]
//Background and Video events
0,0,"lightfarm-studios-final.jpg",0,0
//Break Periods
//Storyboard Layer 0 (Background)
//Storyboard Layer 1 (Fail)
//Storyboard Layer 2 (Pass)
//Storyboard Layer 3 (Foreground)
//Storyboard Layer 4 (Overlay)
//Storyboard Sound Samples

[TimingPoints]
760,387.096774193548,4,2,1,70,1,0
760,-83.7838,4,2,1,70,0,0
53808,324.324324324324,4,2,1,70,1,0
74564,-100,4,2,1,70,0,1
96618,-100,4,2,1,40,0,0
106997,-100,4,2,1,50,0,0
110889,-100,4,2,1,60,0,0
112186,-100,4,2,1,70,0,0
117375,-100,4,2,1,70,0,1
138132,-100,4,2,1,70,0,0
179645,-100,4,2,1,70,0,1
201699,-100,4,2,1,70,0,0
265267,-100,4,2,1,70,0,1
286024,-100,4,2,1,70,0,0
288618,-100,4,2,1,70,0,1
308078,-100,4,2,1,70,0,0

[HitObjects]
320,192,760,128,0,2308:0:0:0:0:
448,192,760,1,0,0:0:0:0:
64,192,2308,128,0,3856:0:0:0:0:
192,192,2308,1,0,0:0:0:0:
320,192,3856,1,0,0:0:0:0:
448,192,3856,128,0,5405:0:0:0:0:
64,192,5405,1,0,0:0:0:0:
192,192,5405,128,0,6179:0:0:0:0:
320,192,6179,128,0,6953:0:0:0:0:
64,192,6953,1,0,0:0:0:0:
192,192,6953,128,0,8501:0:0:0:0:
320,192,8501,1,0,0:0:0:0:
448,192,8501,128,0,10050:0:0:0:0:
64,192,10050,128,0,11598:0:0:0:0:
192,192,10050,1,0,0:0:0:0:
192,192,11598,128,0,13147:0:0:0:0:
448,192,11598,1,0,0:0:0:0:
320,192,13147,128,0,14695:0:0:0:0:
448,192,13147,1,0,0:0:0:0:
64,192,14695,128,0,16243:0:0:0:0:
192,192,14695,1,0,0:0:0:0:
320,192,16243,1,0,0:0:0:0:
448,192,16243,128,0,17792:0:0:0:0:
64,192,17792,1,0,0:0:0:0:
192,192,17792,128,0,18566:0:0:0:0:
320,192,18566,128,0,19340:0:0:0:0:
64,192,19340,1,0,0:0:0:0:
192,192,19340,128,0,20889:0:0:0:0:
320,192,20889,1,0,0:0:0:0:
448,192,20889,128,0,22437:0:0:0:0:
64,192,22437,128,0,23985:0:0:0:0:
192,192,22437,1,0,0:0:0:0:
320,192,23985,128,0,25534:0:0:0:0:
448,192,23985,1,0,0:0:0:0:
64,192,25534,1,4,0:0:0:0:
448,192,25534,1,0,0:0:0:0:
192,192,25630,1,0,0:0:0:0:
320,192,25727,1,0,0:0:0:0:
64,192,25921,1,0,0:0:0:0:
320,192,26018,1,0,0:0:0:0:
448,192,26114,1,0,0:0:0:0:
64,192,26308,1,0,0:0:0:0:
192,192,26405,1,0,0:0:0:0:
320,192,26501,1,0,0:0:0:0:
448,192,26695,1,0,0:0:0:0:
320,192,26792,1,0,0:0:0:0:
192,192,26889,1,0,0:0:0:0:
320,192,27082,1,0,0:0:0:0:
192,192,27179,1,0,0:0:0:0:
64,192,27276,1,0,0:0:0:0:
448,192,27469,1,0,0:0:0:0:
320,192,27566,1,0,0:0:0:0:
192,192,27663,1,0,0:0:0:0:
448,192,27856,1,0,0:0:0:0:
320,192,27953,1,0,0:0:0:0:
192,192,28050,1,0,0:0:0:0:
64,192,28243,1,0,0:0:0:0:
192,192,28340,1,0,0:0:0:0:
320,192,28437,1,0,0:0:0:0:
192,192,28630,1,0,0:0:0:0:
320,192,28727,1,0,0:0:0:0:
448,192,28824,1,0,0:0:0:0:
64,192,29018,1,0,0:0:0:0:
192,192,29114,1,0,0:0:0:0:
448,192,29211,1,0,0:0:0:0:
64,192,29405,1,0,0:0:0:0:
192,192,29501,1,0,0:0:0:0:
320,192,29598,1,0,0:0:0:0:
448,192,29792,1,0,0:0:0:0:
320,192,29889,1,0,0:0:0:0:
64,192,29985,1,0,0:0:0:0:
320,192,30179,1,0,0:0:0:0:
192,192,30276,1,0,0:0:0:0:
64,192,30372,1,0,0:0:0:0:
448,192,30566,1,0,0:0:0:0:
320,192,30663,1,0,0:0:0:0:
64,192,30759,1,0,0:0:0:0:
192,192,30953,1,0,0:0:0:0:
320,192,31050,1,0,0:0:0:0:
448,192,31147,1,0,0:0:0:0:
64,192,31340,1,0,0:0:0:0:
192,192,31437,1,0,0:0:0:0:
448,192,31534,1,0,0:0:0:0:
320,192,31727,1,0,0:0:0:0:
192,192,31824,1,0,0:0:0:0:
64,192,31921,1,0,0:0:0:0:
448,192,32114,1,0,0:0:0:0:
192,192,32211,1,0,0:0:0:0:
64,192,32308,1,0,0:0:0:0:
320,192,32501,1,0,0:0:0:0:
448,192,32598,1,0,0:0:0:0:
192,192,32695,1,0,0:0:0:0:
320,192,32889,1,0,0:0:0:0:
192,192,32985,1,0,0:0:0:0:
64,192,33082,1,0,0:0:0:0:
192,192,33276,1,0,0:0:0:0:
320,192,33372,1,0,0:0:0:0:
448,192,33469,1,0,0:0:0:0:
64,192,33663,1,0,0:0:0:0:
320,192,33759,1,0,0:0:0:0:
448,192,33856,1,0,0:0:0:0:
192,192,34050,1,0,0:0:0:0:
64,192,34147,1,0,0:0:0:0:
320,192,34243,1,0,0:0:0:0:
192,192,34437,1,0,0:0:0:0:
320,192,34534,1,0,0:0:0:0:
448,192,34630,1,0,0:0:0:0:
64,192,34824,1,0,0:0:0:0:
192,192,34921,1,0,0:0:0:0:
320,192,35018,1,0,0:0:0:0:
192,192,35211,1,0,0:0:0:0:
320,192,35308,1,0,0:0:0:0:
448,192,35405,1,0,0:0:0:0:
320,192,35598,1,0,0:0:0:0:
192,192,35695,1,0,0:0:0:0:
64,192,35792,1,0,0:0:0:0:
448,192,35985,1,0,0:0:0:0:
320,192,36082,1,0,0:0:0:0:
192,192,36179,1,0,0:0:0:0:
64,192,36372,1,0,0:0:0:0:
320,192,36501,1,0,0:0:0:0:
192,192,36630,1,0,0:0:0:0:
448,192,36759,1,0,0:0:0:0:
64,192,36889,1,0,0:0:0:0:
320,192,37018,1,0,0:0:0:0:
192,192,37147,1,0,0:0:0:0:
64,192,37243,1,0,0:0:0:0:
320,192,37340,1,0,0:0:0:0:
448,192,37534,1,0,0:0:0:0:
192,192,37630,1,0,0:0:0:0:
64,192,37727,1,0,0:0:0:0:
448,192,37921,1,0,0:0:0:0:
320,192,38018,1,0,0:0:0:0:
192,192,38114,1,0,0:0:0:0:
448,192,38308,1,0,0:0:0:0:
192,192,38405,1,0,0:0:0:0:
64,192,38501,1,0,0:0:0:0:
448,192,38695,1,0,0:0:0:0:
320,192,38792,1,0,0:0:0:0:
192,192,38889,1,0,0:0:0:0:
64,192,39082,1,0,0:0:0:0:
192,192,39179,1,0,0:0:0:0:
320,192,39276,1,0,0:0:0:0:
192,192,39469,1,0,0:0:0:0:
320,192,39566,1,0,0:0:0:0:
448,192,39663,1,0,0:0:0:0:
64,192,39856,1,0,0:0:0:0:
192,192,39953,1,0,0:0:0:0:
320,192,40050,1,0,0:0:0:0:
64,192,40243,1,0,0:0:0:0:
192,192,40340,1,0,0:0:0:0:
320,192,40437,1,0,0:0:0:0:
448,192,40630,1,0,0:0:0:0:
320,192,40727,1,0,0:0:0:0:
192,192,40824,1,0,0:0:0:0:
320,192,41018,1,0,0:0:0:0:
192,192,41114,1,0,0:0:0:0:
64,192,41211,1,0,0:0:0:0:
448,192,41405,1,0,0:0:0:0:
320,192,41501,1,0,0:0:0:0:
64,192,41598,1,0,0:0:0:0:
448,192,41792,1,0,0:0:0:0:
320,192,41889,1,0,0:0:0:0:
192,192,41985,1,0,0:0:0:0:
64,192,42179,1,0,0:0:0:0:
192,192,42276,1,0,0:0:0:0:
448,192,42372,1,0,0:0:0:0:
192,192,42566,1,0,0:0:0:0:
320,192,42663,1,0,0:0:0:0:
448,192,42759,1,0,0:0:0:0:
64,192,42953,1,0,0:0:0:0:
192,192,43050,1,0,0:0:0:0:
448,192,43147,1,0,0:0:0:0:
320,192,43340,1,0,0:0:0:0:
192,192,43437,1,0,0:0:0:0:
64,192,43534,1,0,0:0:0:0:
448,192,43727,1,0,0:0:0:0:
320,192,43824,1,0,0:0:0:0:
64,192,43921,1,0,0:0:0:0:
192,192,44114,1,0,0:0:0:0:
320,192,44211,1,0,0:0:0:0:
448,192,44308,1,0,0:0:0:0:
64,192,44501,1,0,0:0:0:0:
320,192,44598,1,0,0:0:0:0:
448,192,44695,1,0,0:0:0:0:
192,192,44889,1,0,0:0:0:0:
64,192,44985,1,0,0:0:0:0:
320,192,45082,1,0,0:0:0:0:
192,192,45276,1,0,0:0:0:0:
320,192,45372,1,0,0:0:0:0:
448,192,45469,1,0,0:0:0:0:
320,192,45663,1,0,0:0:0:0:
192,192,45759,1,0,0:0:0:0:
64,192,45856,1,0,0:0:0:0:
448,192,46050,1,0,0:0:0:0:
192,192,46147,1,0,0:0:0:0:
64,192,46243,1,0,0:0:0:0:
320,192,46437,1,0,0:0:0:0:
448,192,46534,1,0,0:0:0:0:
192,192,46630,1,0,0:0:0:0:
320,192,46824,1,0,0:0:0:0:
192,192,46921,1,0,0:0:0:0:
64,192,47018,1,0,0:0:0:0:
448,192,47211,1,0,0:0:0:0:
320,192,47308,1,0,0:0:0:0:
192,192,47405,1,0,0:0:0:0:
320,192,47598,1,0,0:0:0:0:
192,192,47695,1,0,0:0:0:0:
64,192,47792,1,0,0:0:0:0:
192,192,47985,1,0,0:0:0:0:
320,192,48082,1,0,0:0:0:0:
448,192,48179,1,0,0:0:0:0:
64,192,48372,1,0,0:0:0:0:
192,192,48469,1,0,0:0:0:0:
320,192,48566,1,0,0:0:0:0:
448,192,48759,1,0,0:0:0:0:
192,192,48889,1,0,0:0:0:0:
320,192,49018,1,0,0:0:0:0:
64,192,49147,1,0,0:0:0:0:
448,192,49276,1,0,0:0:0:0:
192,192,49405,1,0,0:0:0:0:
320,192,49534,1,0,0:0:0:0:
448,192,49630,1,0,0:0:0:0:
192,192,49727,1,0,0:0:0:0:
320,192,49921,1,0,0:0:0:0:
64,192,50018,1,0,0:0:0:0:
192,192,50114,1,0,0:0:0:0:
320,192,50211,128,0,51856:0:0:0:0:
192,192,51856,128,0,53808:0:0:0:0:
64,192,53808,1,4,0:0:0:0:
448,192,53808,1,2,0:0:0:0:
320,192,53889,1,0,0:0:0:0:
192,192,53970,1,0,0:0:0:0:
448,192,54132,1,0,0:0:0:0:
192,192,54213,1,0,0:0:0:0:
64,192,54294,1,0,0:0:0:0:
448,192,54456,1,0,0:0:0:0:
320,192,54537,1,0,0:0:0:0:
192,192,54618,1,0,0:0:0:0:
64,192,54780,1,0,0:0:0:0:
192,192,54862,1,0,0:0:0:0:
320,192,54943,1,0,0:0:0:0:
192,192,55105,1,0,0:0:0:0:
320,192,55186,1,0,0:0:0:0:
448,192,55267,1,0,0:0:0:0:
64,192,55429,1,0,0:0:0:0:
192,192,55510,1,0,0:0:0:0:
320,192,55591,1,0,0:0:0:0:
64,192,55753,1,0,0:0:0:0:
192,192,55835,1,0,0:0:0:0:
448,192,55916,1,0,0:0:0:0:
320,192,56078,1,0,0:0:0:0:
192,192,56159,1,0,0:0:0:0:
64,192,56240,1,0,0:0:0:0:
448,192,56402,1,0,0:0:0:0:
320,192,56483,1,0,0:0:0:0:
64,192,56564,1,0,0:0:0:0:
448,192,56726,1,0,0:0:0:0:
192,192,56808,1,0,0:0:0:0:
64,192,56889,1,0,0:0:0:0:
448,192,57051,1,0,0:0:0:0:
320,192,57132,1,0,0:0:0:0:
192,192,57213,1,0,0:0:0:0:
64,192,57375,1,0,0:0:0:0:
192,192,57456,1,0,0:0:0:0:
448,192,57537,1,0,0:0:0:0:
192,192,57699,1,0,0:0:0:0:
320,192,57780,1,0,0:0:0:0:
448,192,57862,1,0,0:0:0:0:
64,192,58024,1,0,0:0:0:0:
192,192,58105,1,0,0:0:0:0:
448,192,58186,1,0,0:0:0:0:
320,192,58348,1,0,0:0:0:0:
192,192,58429,1,0,0:0:0:0:
64,192,58510,1,0,0:0:0:0:
448,192,58672,1,0,0:0:0:0:
320,192,58753,1,0,0:0:0:0:
64,192,58835,1,0,0:0:0:0:
192,192,58997,1,0,0:0:0:0:
320,192,59078,1,0,0:0:0:0:
448,192,59159,1,0,0:0:0:0:
192,192,59321,1,0,0:0:0:0:
64,192,59402,1,0,0:0:0:0:
320,192,59483,1,0,0:0:0:0:
192,192,59645,1,0,0:0:0:0:
320,192,59726,1,0,0:0:0:0:
448,192,59807,1,0,0:0:0:0:
320,192,59970,1,0,0:0:0:0:
192,192,60051,1,0,0:0:0:0:
64,192,60132,1,0,0:0:0:0:
320,192,60294,1,0,0:0:0:0:
192,192,60375,1,0,0:0:0:0:
64,192,60456,1,0,0:0:0:0:
320,192,60618,1,0,0:0:0:0:
448,192,60699,1,0,0:0:0:0:
192,192,60780,1,0,0:0:0:0:
320,192,60943,1,0,0:0:0:0:
192,192,61024,1,0,0:0:0:0:
64,192,61105,1,0,0:0:0:0:
192,192,61267,1,0,0:0:0:0:
320,192,61348,1,0,0:0:0:0:
448,192,61429,1,0,0:0:0:0:
64,192,61591,1,0,0:0:0:0:
192,192,61672,1,0,0:0:0:0:
448,192,61753,1,0,0:0:0:0:
320,192,61916,1,0,0:0:0:0:
192,192,61997,1,0,0:0:0:0:
64,192,62078,1,0,0:0:0:0:
192,192,62240,1,0,0:0:0:0:
320,192,62321,1,0,0:0:0:0:
448,192,62402,1,0,0:0:0:0:
64,192,62564,1,0,0:0:0:0:
192,192,62645,1,0,0:0:0:0:
320,192,62726,1,0,0:0:0:0:
448,192,62889,1,0,0:0:0:0:
192,192,62997,1,0,0:0:0:0:
320,192,63105,1,0,0:0:0:0:
64,192,63213,1,0,0:0:0:0:
448,192,63321,1,0,0:0:0:0:
192,192,63429,1,0,0:0:0:0:
320,192,63537,1,0,0:0:0:0:
448,192,63618,1,0,0:0:0:0:
64,192,63699,1,0,0:0:0:0:
320,192,63862,1,0,0:0:0:0:
192,192,63943,1,0,0:0:0:0:
448,192,64024,1,0,0:0:0:0:
64,192,64186,1,4,0:0:0:0:
192,192,64267,1,0,0:0:0:0:
320,192,64348,1,0,0:0:0:0:
64,192,64510,1,0,0:0:0:0:
320,192,64591,1,0,0:0:0:0:
448,192,64672,1,0,0:0:0:0:
64,192,64835,1,0,0:0:0:0:
192,192,64916,1,0,0:0:0:0:
320,192,64997,1,0,0:0:0:0:
448,192,65159,1,0,0:0:0:0:
320,192,65240,1,0,0:0:0:0:
192,192,65321,1,0,0:0:0:0:
320,192,65483,1,0,0:0:0:0:
192,192,65564,1,0,0:0:0:0:
64,192,65645,1,0,0:0:0:0:
448,192,65807,1,0,0:0:0:0:
320,192,65889,1,0,0:0:0:0:
192,192,65970,1,0,0:0:0:0:
448,192,66132,1,0,0:0:0:0:
320,192,66213,1,0,0:0:0:0:
64,192,66294,1,0,0:0:0:0:
192,192,66456,1,0,0:0:0:0:
320,192,66537,1,0,0:0:0:0:
448,192,66618,1,0,0:0:0:0:
64,192,66780,1,0,0:0:0:0:
192,192,66862,1,0,0:0:0:0:
448,192,66943,1,0,0:0:0:0:
64,192,67105,1,0,0:0:0:0:
320,192,67186,1,0,0:0:0:0:
448,192,67267,1,0,0:0:0:0:
64,192,67429,1,0,0:0:0:0:
192,192,67510,1,0,0:0:0:0:
320,192,67591,1,0,0:0:0:0:
448,192,67753,1,0,0:0:0:0:
320,192,67835,1,0,0:0:0:0:
64,192,67916,1,0,0:0:0:0:
320,192,68078,1,0,0:0:0:0:
192,192,68159,1,0,0:0:0:0:
64,192,68240,1,0,0:0:0:0:
448,192,68402,1,0,0:0:0:0:
320,192,68483,1,0,0:0:0:0:
64,192,68564,1,0,0:0:0:0:
192,192,68726,1,0,0:0:0:0:
320,192,68807,1,0,0:0:0:0:
448,192,68889,1,0,0:0:0:0:
64,192,69051,1,0,0:0:0:0:
192,192,69132,1,0,0:0:0:0:
448,192,69213,1,0,0:0:0:0:
320,192,69375,1,0,0:0:0:0:
192,192,69456,1,0,0:0:0:0:
64,192,69537,1,0,0:0:0:0:
320,192,69699,1,0,0:0:0:0:
448,192,69780,1,0,0:0:0:0:
192,192,69862,1,0,0:0:0:0:
320,192,70024,1,0,0:0:0:0:
192,192,70105,1,0,0:0:0:0:
64,192,70186,1,0,0:0:0:0:
192,192,70348,1,0,0:0:0:0:
320,192,70429,1,0,0:0:0:0:
448,192,70510,1,0,0:0:0:0:
192,192,70672,1,0,0:0:0:0:
320,192,70753,1,0,0:0:0:0:
448,192,70835,1,0,0:0:0:0:
192,192,70997,1,0,0:0:0:0:
64,192,71078,1,0,0:0:0:0:
320,192,71159,1,0,0:0:0:0:
192,192,71321,1,0,0:0:0:0:
320,192,71402,1,0,0:0:0:0:
448,192,71483,1,0,0:0:0:0:
320,192,71645,1,0,0:0:0:0:
192,192,71726,1,0,0:0:0:0:
64,192,71807,1,0,0:0:0:0:
448,192,71970,1,0,0:0:0:0:
320,192,72051,1,0,0:0:0:0:
64,192,72132,1,0,0:0:0:0:
192,192,72294,1,0,0:0:0:0:
320,192,72375,1,0,0:0:0:0:
448,192,72456,1,0,0:0:0:0:
320,192,72618,1,0,0:0:0:0:
192,192,72699,1,0,0:0:0:0:
64,192,72780,1,0,0:0:0:0:
448,192,72943,1,0,0:0:0:0:
320,192,73024,1,0,0:0:0:0:
192,192,73105,1,0,0:0:0:0:
64,192,73267,1,0,0:0:0:0:
320,192,73375,1,0,0:0:0:0:
192,192,73483,1,0,0:0:0:0:
448,192,73591,1,0,0:0:0:0:
64,192,73699,1,0,0:0:0:0:
320,192,73807,1,0,0:0:0:0:
192,192,73916,1,0,0:0:0:0:
64,192,73997,1,0,0:0:0:0:
448,192,74078,1,0,0:0:0:0:
192,192,74240,1,2,0:0:0:0:
320,192,74402,1,2,0:0:0:0:
192,192,74483,1,2,0:0:0:0:
64,192,74564,1,4,0:0:0:0:
448,192,74564,128,2,74889:0:0:0:0:
64,192,74889,1,2,0:0:0:0:
192,192,74889,1,8,0:0:0:0:
320,192,75051,1,0,0:0:0:0:
192,192,75213,1,2,0:0:0:0:
320,192,75375,1,0,0:0:0:0:
64,192,75537,1,2,0:0:0:0:
448,192,75537,1,8,0:0:0:0:
192,192,75699,1,0,0:0:0:0:
320,192,75862,128,2,76186:0:0:0:0:
64,192,76186,1,8,0:0:0:0:
448,192,76186,1,2,0:0:0:0:
192,192,76348,1,0,0:0:0:0:
320,192,76510,1,2,0:0:0:0:
192,192,76672,1,0,0:0:0:0:
64,192,76835,1,8,0:0:0:0:
448,192,76835,1,2,0:0:0:0:
320,192,76997,1,0,0:0:0:0:
64,192,77159,128,2,77483:0:0:0:0:
320,192,77483,1,2,0:0:0:0:
448,192,77483,1,8,0:0:0:0:
192,192,77645,1,0,0:0:0:0:
64,192,77807,1,2,0:0:0:0:
320,192,77970,1,0,0:0:0:0:
64,192,78132,1,2,0:0:0:0:
448,192,78132,1,8,0:0:0:0:
192,192,78294,1,0,0:0:0:0:
448,192,78456,128,2,78780:0:0:0:0:
64,192,78780,1,8,0:0:0:0:
192,192,78780,1,2,0:0:0:0:
320,192,78943,1,0,0:0:0:0:
192,192,79105,128,2,79429:0:0:0:0:
64,192,79429,1,8,0:0:0:0:
448,192,79429,1,2,0:0:0:0:
320,192,79591,1,0,0:0:0:0:
64,192,79753,128,2,80078:0:0:0:0:
320,192,80078,1,2,0:0:0:0:
448,192,80078,1,8,0:0:0:0:
192,192,80240,1,0,0:0:0:0:
448,192,80402,1,2,0:0:0:0:
320,192,80564,1,0,0:0:0:0:
64,192,80726,1,2,0:0:0:0:
192,192,80726,1,8,0:0:0:0:
448,192,80889,1,0,0:0:0:0:
320,192,81051,128,2,81375:0:0:0:0:
64,192,81375,1,8,0:0:0:0:
192,192,81375,1,2,0:0:0:0:
448,192,81537,1,0,0:0:0:0:
64,192,81699,1,2,0:0:0:0:
192,192,81862,1,0,0:0:0:0:
320,192,82024,1,8,0:0:0:0:
448,192,82024,1,2,0:0:0:0:
64,192,82186,1,0,0:0:0:0:
192,192,82348,128,2,82672:0:0:0:0:
320,192,82672,1,2,0:0:0:0:
448,192,82672,1,8,0:0:0:0:
192,192,82835,1,0,0:0:0:0:
320,192,82997,1,2,0:0:0:0:
64,192,83159,1,0,0:0:0:0:
320,192,83321,1,2,0:0:0:0:
448,192,83321,1,8,0:0:0:0:
192,192,83483,1,0,0:0:0:0:
448,192,83645,128,2,83970:0:0:0:0:
64,192,83970,1,8,0:0:0:0:
192,192,83970,1,2,0:0:0:0:
320,192,84132,1,0,0:0:0:0:
192,192,84294,1,2,0:0:0:0:
320,192,84456,1,0,0:0:0:0:
64,192,84618,1,8,0:0:0:0:
448,192,84618,1,2,0:0:0:0:
64,192,84943,128,4,85267:0:0:0:0:
448,192,84943,1,2,0:0:0:0:
320,192,85267,1,2,0:0:0:0:
448,192,85267,1,8,0:0:0:0:
192,192,85429,1,0,0:0:0:0:
320,192,85591,1,2,0:0:0:0:
192,192,85753,1,0,0:0:0:0:
64,192,85916,1,2,0:0:0:0:
448,192,85916,1,8,0:0:0:0:
320,192,86078,1,0,0:0:0:0:
192,192,86240,128,2,86564:0:0:0:0:
64,192,86564,1,8,0:0:0:0:
448,192,86564,1,2,0:0:0:0:
320,192,86726,1,0,0:0:0:0:
192,192,86889,1,2,0:0:0:0:
320,192,87051,1,0,0:0:0:0:
64,192,87213,1,8,0:0:0:0:
448,192,87213,1,2,0:0:0:0:
192,192,87375,1,0,0:0:0:0:
448,192,87537,128,2,87862:0:0:0:0:
64,192,87862,1,2,0:0:0:0:
192,192,87862,1,8,0:0:0:0:
320,192,88024,1,0,0:0:0:0:
448,192,88186,1,2,0:0:0:0:
192,192,88348,1,0,0:0:0:0:
64,192,88510,1,2,0:0:0:0:
448,192,88510,1,8,0:0:0:0:
320,192,88672,1,0,0:0:0:0:
64,192,88835,128,2,89159:0:0:0:0:
320,192,89159,1,8,0:0:0:0:
448,192,89159,1,2,0:0:0:0:
192,192,89321,1,0,0:0:0:0:
320,192,89483,128,2,89807:0:0:0:0:
64,192,89807,1,8,0:0:0:0:
448,192,89807,1,2,0:0:0:0:
192,192,89970,1,0,0:0:0:0:
320,192,90132,1,2,0:0:0:0:
448,192,90132,1,4,0:0:0:0:
192,192,90294,1,2,0:0:0:0:
448,192,90456,1,10,0:0:0:0:
320,192,90618,1,2,0:0:0:0:
64,192,90780,1,2,0:0:0:0:
192,192,90780,1,0,0:0:0:0:
320,192,90943,1,2,0:0:0:0:
64,192,91105,1,10,0:0:0:0:
192,192,91267,1,2,0:0:0:0:
320,192,91429,1,4,0:0:0:0:
448,192,91429,1,2,0:0:0:0:
192,192,91591,1,2,0:0:0:0:
448,192,91753,1,10,0:0:0:0:
320,192,91916,1,2,0:0:0:0:
64,192,92078,1,2,0:0:0:0:
192,192,92078,1,0,0:0:0:0:
320,192,92240,1,2,0:0:0:0:
64,192,92402,1,10,0:0:0:0:
192,192,92564,1,2,0:0:0:0:
320,192,92726,128,4,92889:0:0:0:0:
448,192,92726,1,2,0:0:0:0:
64,192,92889,128,2,93051:0:0:0:0:
320,192,93051,128,10,93213:0:0:0:0:
448,192,93213,128,2,93375:0:0:0:0:
64,192,93375,1,2,0:0:0:0:
192,192,93375,128,4,93537:0:0:0:0:
448,192,93537,128,2,93699:0:0:0:0:
192,192,93699,128,10,93862:0:0:0:0:
64,192,93862,128,2,94024:0:0:0:0:
320,192,94024,1,2,0:0:0:0:
448,192,94024,1,4,0:0:0:0:
192,192,94186,128,2,94348:0:0:0:0:
320,192,94348,1,4,0:0:0:0:
448,192,94348,1,2,0:0:0:0:
192,192,94510,128,2,94672:0:0:0:0:
320,192,94672,1,4,0:0:0:0:
448,192,94672,1,2,0:0:0:0:
64,192,94835,1,2,0:0:0:0:
320,192,94997,128,10,95159:0:0:0:0:
192,192,95159,128,2,95321:0:0:0:0:
64,192,95321,1,2,0:0:0:0:
448,192,95321,128,4,96132:0:0:0:0:
192,192,96132,1,2,0:0:0:0:
320,192,96213,1,2,0:0:0:0:
64,192,96294,1,0,0:0:0:70:inpactclap.wav
448,192,96294,1,0,0:0:0:0:
64,192,96618,1,2,0:0:0:0:
192,192,96618,1,4,0:0:0:0:
320,192,96780,1,0,0:0:0:0:
448,192,96943,1,0,0:0:0:0:
192,192,97267,1,0,0:0:0:0:
320,192,97429,1,0,0:0:0:0:
64,192,97753,1,0,0:0:0:0:
448,192,98078,1,0,0:0:0:0:
192,192,98402,1,0,0:0:0:0:
320,192,98726,1,0,0:0:0:0:
192,192,98889,1,0,0:0:0:0:
64,192,99051,1,0,0:0:0:0:
448,192,99213,1,0,0:0:0:0:
320,192,99375,1,0,0:0:0:0:
192,192,99537,1,0,0:0:0:0:
448,192,99699,1,0,0:0:0:0:
64,192,100024,1,0,0:0:0:0:
320,192,100348,1,0,0:0:0:0:
192,192,100672,1,0,0:0:0:0:
448,192,100997,1,0,0:0:0:0:
64,192,101321,1,0,0:0:0:0:
320,192,101483,1,0,0:0:0:0:
192,192,101645,1,0,0:0:0:0:
448,192,101807,1,0,0:0:0:0:
320,192,101970,1,0,0:0:0:0:
64,192,102132,1,0,0:0:0:0:
192,192,102294,1,0,0:0:0:0:
448,192,102618,1,0,0:0:0:0:
192,192,102780,1,0,0:0:0:0:
320,192,102943,1,0,0:0:0:0:
64,192,103105,1,0,0:0:0:0:
192,192,103267,1,0,0:0:0:0:
448,192,103429,1,0,0:0:0:0:
320,192,103591,1,0,0:0:0:0:
64,192,103916,1,0,0:0:0:0:
320,192,104078,1,0,0:0:0:0:
192,192,104240,1,0,0:0:0:0:
448,192,104402,1,0,0:0:0:0:
320,192,104564,1,0,0:0:0:0:
64,192,104726,1,0,0:0:0:0:
448,192,104889,1,0,0:0:0:0:
192,192,105213,1,0,0:0:0:0:
320,192,105537,1,0,0:0:0:0:
64,192,105699,1,0,0:0:0:0:
192,192,105862,1,0,0:0:0:0:
448,192,106024,1,0,0:0:0:0:
320,192,106186,1,0,0:0:0:0:
448,192,106510,1,0,0:0:0:0:
192,192,106672,1,0,0:0:0:0:
64,192,106835,1,0,0:0:0:0:
320,192,106997,1,2,0:0:0:0:
448,192,106997,1,4,0:0:0:0:
192,192,107159,1,2,0:0:0:0:
64,192,107321,1,2,0:0:0:0:
320,192,107645,1,2,0:0:0:0:
192,192,107807,1,2,0:0:0:0:
448,192,108132,1,2,0:0:0:0:
320,192,108294,1,2,0:0:0:0:
64,192,108456,1,2,0:0:0:0:
320,192,108780,1,2,0:0:0:0:
192,192,109105,1,2,0:0:0:0:
320,192,109267,1,2,0:0:0:0:
448,192,109429,1,2,0:0:0:0:
64,192,109591,1,2,0:0:0:0:
192,192,109753,1,2,0:0:0:0:
320,192,109916,1,2,0:0:0:0:
64,192,110078,1,2,0:0:0:0:
448,192,110402,1,2,0:0:0:0:
192,192,110726,1,2,0:0:0:0:
64,192,110889,1,2,0:0:0:0:
320,192,111051,1,2,0:0:0:0:
64,192,111375,1,2,0:0:0:0:
448,192,111699,1,2,0:0:0:0:
320,192,111862,1,2,0:0:0:0:
64,192,112186,128,2,112348:0:0:0:0:
448,192,112186,1,4,0:0:0:0:
320,192,112348,128,2,112510:0:0:0:0:
448,192,112510,128,2,112672:0:0:0:0:
192,192,112672,128,2,112835:0:0:0:0:
320,192,112835,128,2,112997:0:0:0:0:
64,192,112997,128,2,113159:0:0:0:0:
320,192,113159,128,2,113321:0:0:0:0:
192,192,113321,128,2,113483:0:0:0:0:
64,192,113483,1,4,0:0:0:0:
448,192,113483,128,2,113645:0:0:0:0:
192,192,113645,128,2,113807:0:0:0:0:
64,192,113807,128,2,113970:0:0:0:0:
320,192,113970,128,2,114132:0:0:0:0:
192,192,114132,128,2,114294:0:0:0:0:
448,192,114294,128,2,114456:0:0:0:0:
192,192,114456,128,2,114618:0:0:0:0:
320,192,114618,128,2,114780:0:0:0:0:
64,192,114780,128,4,114943:0:0:0:0:
448,192,114780,1,2,0:0:0:0:
320,192,114943,128,2,115105:0:0:0:0:
448,192,115105,128,2,115267:0:0:0:0:
192,192,115267,128,2,115429:0:0:0:0:
320,192,115429,128,2,115591:0:0:0:0:
448,192,115429,1,4,0:0:0:0:
64,192,115591,128,2,115753:0:0:0:0:
320,192,115753,128,2,115916:0:0:0:0:
192,192,115916,128,2,116078:0:0:0:0:
64,192,116078,1,4,0:0:0:0:
448,192,116078,1,2,0:0:0:0:
320,192,116240,128,2,116402:0:0:0:0:
64,192,116402,1,4,0:0:0:0:
192,192,116402,1,2,0:0:0:0:
320,192,116564,128,2,116726:0:0:0:0:
64,192,116726,1,4,0:0:0:0:
192,192,116726,1,2,0:0:0:0:
448,192,116889,1,2,0:0:0:0:
64,192,117051,1,4,0:0:0:0:
192,192,117051,128,2,117213:0:0:0:0:
320,192,117213,128,2,117375:0:0:0:0:
64,192,117375,128,4,117699:0:0:0:0:
448,192,117375,1,2,0:0:0:0:
320,192,117699,1,2,0:0:0:0:
448,192,117699,1,8,0:0:0:0:
192,192,117862,1,0,0:0:0:0:
448,192,118024,1,2,0:0:0:0:
320,192,118186,1,0,0:0:0:0:
64,192,118348,1,2,0:0:0:0:
192,192,118348,1,8,0:0:0:0:
320,192,118510,1,0,0:0:0:0:
192,192,118672,128,2,118997:0:0:0:0:
64,192,118997,1,8,0:0:0:0:
448,192,118997,1,2,0:0:0:0:
320,192,119159,1,0,0:0:0:0:
192,192,119321,1,2,0:0:0:0:
448,192,119483,1,0,0:0:0:0:
64,192,119645,1,8,0:0:0:0:
320,192,119645,1,2,0:0:0:0:
192,192,119807,1,0,0:0:0:0:
320,192,119970,128,2,120294:0:0:0:0:
64,192,120294,1,2,0:0:0:0:
192,192,120294,1,8,0:0:0:0:
448,192,120456,1,0,0:0:0:0:
192,192,120618,1,2,0:0:0:0:
448,192,120780,1,0,0:0:0:0:
64,192,120943,1,2,0:0:0:0:
320,192,120943,1,8,0:0:0:0:
192,192,121105,1,0,0:0:0:0:
448,192,121267,128,2,121591:0:0:0:0:
64,192,121591,1,8,0:0:0:0:
192,192,121591,1,2,0:0:0:0:
320,192,121753,1,0,0:0:0:0:
192,192,121916,128,2,122240:0:0:0:0:
64,192,122240,1,8,0:0:0:0:
448,192,122240,1,2,0:0:0:0:
320,192,122402,1,0,0:0:0:0:
64,192,122564,128,2,122889:0:0:0:0:
320,192,122889,1,2,0:0:0:0:
448,192,122889,1,8,0:0:0:0:
192,192,123051,1,0,0:0:0:0:
64,192,123213,128,2,123537:0:0:0:0:
320,192,123537,1,2,0:0:0:0:
448,192,123537,1,8,0:0:0:0:
192,192,123699,1,0,0:0:0:0:
448,192,123862,128,2,124186:0:0:0:0:
64,192,124186,1,8,0:0:0:0:
192,192,124186,1,2,0:0:0:0:
320,192,124348,1,0,0:0:0:0:
448,192,124510,128,2,124835:0:0:0:0:
64,192,124835,1,8,0:0:0:0:
192,192,124835,1,2,0:0:0:0:
320,192,124997,1,0,0:0:0:0:
64,192,125159,128,2,125483:0:0:0:0:
320,192,125483,1,2,0:0:0:0:
448,192,125483,1,8,0:0:0:0:
192,192,125645,1,0,0:0:0:0:
320,192,125807,1,2,0:0:0:0:
64,192,125970,1,0,0:0:0:0:
192,192,126132,1,2,0:0:0:0:
448,192,126132,1,8,0:0:0:0:
320,192,126294,1,0,0:0:0:0:
192,192,126456,128,2,126780:0:0:0:0:
320,192,126780,1,8,0:0:0:0:
448,192,126780,1,2,0:0:0:0:
64,192,126943,1,0,0:0:0:0:
192,192,127105,1,2,0:0:0:0:
448,192,127267,1,0,0:0:0:0:
64,192,127429,128,10,127591:0:0:0:0:
320,192,127591,128,2,127753:0:0:0:0:
192,192,127753,1,4,0:0:0:0:
448,192,127753,128,2,128078:0:0:0:0:
64,192,128078,1,2,0:0:0:0:
192,192,128078,1,8,0:0:0:0:
320,192,128240,1,0,0:0:0:0:
64,192,128402,1,2,0:0:0:0:
192,192,128564,1,0,0:0:0:0:
320,192,128726,1,2,0:0:0:0:
448,192,128726,1,8,0:0:0:0:
192,192,128889,1,0,0:0:0:0:
320,192,129051,128,2,129375:0:0:0:0:
64,192,129375,1,8,0:0:0:0:
448,192,129375,1,2,0:0:0:0:
192,192,129537,1,0,0:0:0:0:
320,192,129699,1,2,0:0:0:0:
64,192,129862,1,0,0:0:0:0:
192,192,130024,1,8,0:0:0:0:
448,192,130024,1,2,0:0:0:0:
320,192,130186,1,0,0:0:0:0:
192,192,130348,128,2,130672:0:0:0:0:
320,192,130672,1,2,0:0:0:0:
448,192,130672,1,8,0:0:0:0:
64,192,130835,1,0,0:0:0:0:
320,192,130997,1,2,0:0:0:0:
64,192,131159,1,0,0:0:0:0:
192,192,131321,1,2,0:0:0:0:
448,192,131321,1,8,0:0:0:0:
320,192,131483,1,0,0:0:0:0:
64,192,131645,128,2,131970:0:0:0:0:
320,192,131970,1,8,0:0:0:0:
448,192,131970,1,2,0:0:0:0:
192,192,132132,1,0,0:0:0:0:
320,192,132294,128,2,132618:0:0:0:0:
64,192,132618,1,8,0:0:0:0:
448,192,132618,1,2,0:0:0:0:
192,192,132780,1,0,0:0:0:0:
320,192,132943,1,2,0:0:0:0:
448,192,132943,1,4,0:0:0:0:
192,192,133105,1,2,0:0:0:0:
448,192,133267,1,10,0:0:0:0:
320,192,133429,1,2,0:0:0:0:
64,192,133591,1,2,0:0:0:0:
192,192,133591,1,0,0:0:0:0:
320,192,133753,1,2,0:0:0:0:
64,192,133916,1,10,0:0:0:0:
192,192,134078,1,2,0:0:0:0:
320,192,134240,1,4,0:0:0:0:
448,192,134240,1,2,0:0:0:0:
192,192,134402,1,2,0:0:0:0:
448,192,134564,1,10,0:0:0:0:
320,192,134726,1,2,0:0:0:0:
64,192,134889,1,2,0:0:0:0:
192,192,134889,1,0,0:0:0:0:
320,192,135051,1,2,0:0:0:0:
64,192,135213,1,10,0:0:0:0:
192,192,135375,1,2,0:0:0:0:
320,192,135537,1,4,0:0:0:0:
448,192,135537,128,2,135699:0:0:0:0:
64,192,135699,128,2,135862:0:0:0:0:
192,192,135862,128,10,136024:0:0:0:0:
448,192,136024,128,2,136186:0:0:0:0:
64,192,136186,128,2,136348:0:0:0:0:
192,192,136186,1,4,0:0:0:0:
448,192,136348,128,2,136510:0:0:0:0:
320,192,136510,128,10,136672:0:0:0:0:
64,192,136672,128,2,136835:0:0:0:0:
320,192,136835,1,2,0:0:0:0:
448,192,136835,1,4,0:0:0:0:
192,192,136997,128,2,137159:0:0:0:0:
64,192,137159,1,4,0:0:0:0:
448,192,137159,1,2,0:0:0:0:
320,192,137321,128,2,137483:0:0:0:0:
192,192,137483,1,2,0:0:0:0:
448,192,137645,128,2,137807:0:0:0:0:
64,192,137807,1,4,0:0:0:0:
320,192,137807,1,2,0:0:0:0:
192,192,137970,128,2,138132:0:0:0:0:
64,192,138132,1,4,0:0:0:0:
448,192,138132,128,2,138456:0:0:0:0:
64,192,138456,1,2,0:0:0:0:
192,192,138456,1,8,0:0:0:0:
320,192,138618,1,0,0:0:0:0:
192,192,138780,1,2,0:0:0:0:
64,192,138943,1,0,0:0:0:0:
320,192,139105,1,2,0:0:0:0:
448,192,139105,1,8,0:0:0:0:
192,192,139267,1,0,0:0:0:0:
64,192,139429,128,2,139753:0:0:0:0:
320,192,139753,1,8,0:0:0:0:
448,192,139753,1,2,0:0:0:0:
192,192,139916,1,0,0:0:0:0:
448,192,140078,1,2,0:0:0:0:
64,192,140240,1,0,0:0:0:0:
320,192,140402,1,8,0:0:0:0:
448,192,140402,1,2,0:0:0:0:
192,192,140564,1,0,0:0:0:0:
320,192,140726,128,2,141051:0:0:0:0:
64,192,141051,1,2,0:0:0:0:
448,192,141051,1,8,0:0:0:0:
192,192,141213,1,0,0:0:0:0:
448,192,141375,1,2,0:0:0:0:
320,192,141537,1,0,0:0:0:0:
64,192,141699,1,2,0:0:0:0:
192,192,141699,1,8,0:0:0:0:
448,192,141862,1,0,0:0:0:0:
192,192,142024,128,2,142348:0:0:0:0:
320,192,142348,1,8,0:0:0:0:
448,192,142348,1,2,0:0:0:0:
64,192,142510,1,0,0:0:0:0:
448,192,142672,128,2,142997:0:0:0:0:
64,192,142997,1,8,0:0:0:0:
192,192,142997,1,2,0:0:0:0:
320,192,143159,1,0,0:0:0:0:
64,192,143321,128,2,143645:0:0:0:0:
192,192,143321,1,4,0:0:0:0:
320,192,143645,1,10,0:0:0:0:
192,192,143807,1,0,0:0:0:0:
64,192,143970,1,2,0:0:0:0:
320,192,144132,1,0,0:0:0:0:
64,192,144294,1,2,0:0:0:0:
448,192,144294,1,8,0:0:0:0:
192,192,144456,1,0,0:0:0:0:
320,192,144618,1,2,0:0:0:0:
448,192,144618,128,4,144943:0:0:0:0:
192,192,144943,1,10,0:0:0:0:
320,192,145105,1,0,0:0:0:0:
448,192,145267,1,2,0:0:0:0:
192,192,145429,1,0,0:0:0:0:
64,192,145591,1,8,0:0:0:0:
448,192,145591,1,2,0:0:0:0:
320,192,145753,1,0,0:0:0:0:
64,192,145916,128,4,146240:0:0:0:0:
192,192,145916,1,2,0:0:0:0:
320,192,146240,1,10,0:0:0:0:
192,192,146402,1,0,0:0:0:0:
320,192,146564,1,2,0:0:0:0:
448,192,146564,128,4,146889:0:0:0:0:
192,192,146889,1,10,0:0:0:0:
320,192,147051,1,0,0:0:0:0:
64,192,147213,128,2,147537:0:0:0:0:
192,192,147213,1,4,0:0:0:0:
320,192,147537,1,10,0:0:0:0:
448,192,147537,128,4,147862:0:0:0:0:
64,192,147862,1,2,0:0:0:0:
192,192,147862,128,4,148186:0:0:0:0:
320,192,148186,128,10,148510:0:0:0:0:
448,192,148186,1,4,0:0:0:0:
64,192,148510,128,4,148835:0:0:0:0:
192,192,148510,1,2,0:0:0:0:
320,192,148835,1,2,0:0:0:0:
448,192,148835,1,8,0:0:0:0:
192,192,148997,1,0,0:0:0:0:
64,192,149159,128,2,149483:0:0:0:0:
320,192,149483,1,2,0:0:0:0:
448,192,149483,1,8,0:0:0:0:
192,192,149645,1,0,0:0:0:0:
320,192,149807,128,2,150132:0:0:0:0:
64,192,150132,1,8,0:0:0:0:
448,192,150132,1,2,0:0:0:0:
192,192,150294,1,0,0:0:0:0:
320,192,150456,128,2,150780:0:0:0:0:
64,192,150780,1,8,0:0:0:0:
192,192,150780,1,2,0:0:0:0:
448,192,150943,1,0,0:0:0:0:
192,192,151105,128,2,151429:0:0:0:0:
64,192,151429,1,2,0:0:0:0:
448,192,151429,1,8,0:0:0:0:
320,192,151591,1,0,0:0:0:0:
192,192,151753,128,2,152078:0:0:0:0:
320,192,152078,1,2,0:0:0:0:
448,192,152078,1,8,0:0:0:0:
64,192,152240,1,0,0:0:0:0:
448,192,152402,128,2,152726:0:0:0:0:
64,192,152726,1,8,0:0:0:0:
192,192,152726,1,2,0:0:0:0:
320,192,152889,1,0,0:0:0:0:
448,192,153051,128,2,153375:0:0:0:0:
64,192,153375,1,8,0:0:0:0:
320,192,153375,1,2,0:0:0:0:
192,192,153537,1,0,0:0:0:0:
64,192,153699,1,2,0:0:0:0:
448,192,153699,1,4,0:0:0:0:
320,192,153862,1,2,0:0:0:0:
64,192,154024,1,10,0:0:0:0:
192,192,154186,1,2,0:0:0:0:
320,192,154348,1,2,0:0:0:0:
448,192,154348,1,0,0:0:0:0:
192,192,154510,1,2,0:0:0:0:
448,192,154672,1,10,0:0:0:0:
320,192,154835,1,2,0:0:0:0:
64,192,154997,1,4,0:0:0:0:
192,192,154997,1,2,0:0:0:0:
320,192,155159,1,2,0:0:0:0:
64,192,155321,1,10,0:0:0:0:
192,192,155483,1,2,0:0:0:0:
320,192,155645,1,2,0:0:0:0:
448,192,155645,1,0,0:0:0:0:
192,192,155807,1,2,0:0:0:0:
448,192,155970,1,10,0:0:0:0:
320,192,156132,1,2,0:0:0:0:
64,192,156294,1,4,0:0:0:0:
192,192,156294,128,2,156456:0:0:0:0:
448,192,156456,128,2,156618:0:0:0:0:
192,192,156618,128,10,156780:0:0:0:0:
64,192,156780,128,2,156943:0:0:0:0:
320,192,156943,128,2,157105:0:0:0:0:
448,192,156943,1,4,0:0:0:0:
64,192,157105,128,2,157267:0:0:0:0:
320,192,157267,128,10,157429:0:0:0:0:
448,192,157429,128,2,157591:0:0:0:0:
64,192,157591,1,2,0:0:0:0:
192,192,157591,1,4,0:0:0:0:
320,192,157753,128,2,157916:0:0:0:0:
64,192,157916,1,4,0:0:0:0:
192,192,157916,1,2,0:0:0:0:
320,192,158078,128,2,158240:0:0:0:0:
64,192,158240,1,2,0:0:0:0:
448,192,158402,1,2,0:0:0:0:
192,192,158564,128,10,158726:0:0:0:0:
320,192,158726,128,2,158889:0:0:0:0:
64,192,158889,1,2,0:0:0:0:
448,192,158889,1,4,0:0:0:0:
192,192,159213,1,0,0:0:0:0:
64,192,159375,1,2,0:0:0:0:
320,192,159375,1,4,0:0:0:0:
448,192,159699,1,0,0:0:0:0:
64,192,159862,1,4,0:0:0:0:
192,192,159862,1,2,0:0:0:0:
192,192,160186,1,0,0:0:0:0:
64,192,160348,1,2,0:0:0:0:
448,192,160348,1,4,0:0:0:0:
320,192,160672,1,0,0:0:0:0:
192,192,160835,1,4,0:0:0:0:
448,192,160835,1,2,0:0:0:0:
64,192,161159,1,0,0:0:0:0:
320,192,161321,1,2,0:0:0:0:
448,192,161321,1,4,0:0:0:0:
320,192,161645,1,0,0:0:0:0:
64,192,161807,1,4,0:0:0:0:
448,192,161807,1,2,0:0:0:0:
192,192,162132,1,0,0:0:0:0:
64,192,162294,1,2,0:0:0:0:
320,192,162294,1,4,0:0:0:0:
448,192,162618,1,0,0:0:0:0:
64,192,162780,1,4,0:0:0:0:
192,192,162780,1,2,0:0:0:0:
192,192,163105,1,0,0:0:0:0:
64,192,163267,1,2,0:0:0:0:
448,192,163267,1,4,0:0:0:0:
320,192,163591,1,0,0:0:0:0:
64,192,163753,1,4,0:0:0:0:
448,192,163753,1,2,0:0:0:0:
192,192,163916,1,0,0:0:0:0:
320,192,164078,128,4,164402:0:0:0:0:
448,192,164078,1,2,0:0:0:0:
64,192,164402,1,2,0:0:0:0:
192,192,164402,1,8,0:0:0:0:
448,192,164564,1,0,0:0:0:0:
192,192,164726,1,2,0:0:0:0:
192,192,164889,1,2,0:0:0:0:
64,192,165051,1,2,0:0:0:0:
448,192,165051,1,8,0:0:0:0:
64,192,165375,1,2,0:0:0:0:
192,192,165375,128,4,165699:0:0:0:0:
320,192,165699,1,8,0:0:0:0:
448,192,165699,1,2,0:0:0:0:
64,192,165862,1,0,0:0:0:0:
320,192,166024,1,2,0:0:0:0:
320,192,166186,1,2,0:0:0:0:
64,192,166348,1,8,0:0:0:0:
448,192,166348,1,2,0:0:0:0:
320,192,166672,1,4,0:0:0:0:
448,192,166672,1,2,0:0:0:0:
192,192,166835,1,2,0:0:0:0:
448,192,166997,1,10,0:0:0:0:
320,192,167159,1,2,0:0:0:0:
64,192,167321,128,2,167483:0:0:0:0:
192,192,167321,1,4,0:0:0:0:
448,192,167483,128,2,167645:0:0:0:0:
192,192,167645,128,10,167807:0:0:0:0:
320,192,167807,128,2,167970:0:0:0:0:
64,192,167970,1,4,0:0:0:0:
448,192,167970,1,2,0:0:0:0:
192,192,168132,128,2,168294:0:0:0:0:
320,192,168294,1,4,0:0:0:0:
448,192,168294,1,2,0:0:0:0:
192,192,168456,128,2,168618:0:0:0:0:
320,192,168618,1,2,0:0:0:0:
64,192,168780,1,2,0:0:0:0:
320,192,168943,128,10,169105:0:0:0:0:
192,192,169105,128,2,169267:0:0:0:0:
64,192,169267,1,2,0:0:0:0:
448,192,169267,1,4,0:0:0:0:
320,192,169591,1,0,0:0:0:0:
192,192,169753,1,2,0:0:0:0:
448,192,169753,1,4,0:0:0:0:
64,192,170078,1,0,0:0:0:0:
320,192,170240,1,4,0:0:0:0:
448,192,170240,1,2,0:0:0:0:
320,192,170564,1,0,0:0:0:0:
64,192,170726,1,2,0:0:0:0:
448,192,170726,1,4,0:0:0:0:
192,192,171051,1,0,0:0:0:0:
64,192,171213,1,4,0:0:0:0:
320,192,171213,1,2,0:0:0:0:
448,192,171537,1,0,0:0:0:0:
64,192,171699,1,2,0:0:0:0:
192,192,171699,1,4,0:0:0:0:
192,192,172024,1,0,0:0:0:0:
64,192,172186,1,4,0:0:0:0:
448,192,172186,1,2,0:0:0:0:
320,192,172510,1,0,0:0:0:0:
192,192,172672,1,2,0:0:0:0:
448,192,172672,1,4,0:0:0:0:
64,192,172997,1,0,0:0:0:0:
320,192,173159,1,4,0:0:0:0:
448,192,173159,1,2,0:0:0:0:
320,192,173483,1,0,0:0:0:0:
64,192,173645,1,2,0:0:0:0:
448,192,173645,1,4,0:0:0:0:
192,192,173970,1,0,0:0:0:0:
64,192,174132,1,4,0:0:0:0:
448,192,174132,1,2,0:0:0:0:
320,192,174294,1,0,0:0:0:0:
64,192,174456,1,2,0:0:0:0:
192,192,174456,1,4,0:0:0:0:
448,192,174618,1,2,0:0:0:0:
192,192,174780,1,10,0:0:0:0:
320,192,174943,1,2,0:0:0:0:
64,192,175105,1,2,0:0:0:0:
192,192,175267,1,2,0:0:0:0:
320,192,175429,1,10,0:0:0:0:
64,192,175591,1,2,0:0:0:0:
320,192,175753,1,4,0:0:0:0:
448,192,175753,1,2,0:0:0:0:
64,192,175916,1,2,0:0:0:0:
320,192,176078,1,10,0:0:0:0:
192,192,176240,1,2,0:0:0:0:
64,192,176402,1,2,0:0:0:0:
320,192,176564,1,2,0:0:0:0:
192,192,176726,1,10,0:0:0:0:
448,192,176889,1,2,0:0:0:0:
64,192,177051,1,4,0:0:0:0:
192,192,177051,128,2,177213:0:0:0:0:
320,192,177213,128,2,177375:0:0:0:0:
64,192,177375,128,10,177537:0:0:0:0:
192,192,177537,128,2,177699:0:0:0:0:
320,192,177699,128,2,177862:0:0:0:0:
448,192,177699,1,4,0:0:0:0:
192,192,177862,128,2,178024:0:0:0:0:
448,192,178024,128,10,178186:0:0:0:0:
320,192,178186,128,2,178348:0:0:0:0:
64,192,178348,1,2,0:0:0:0:
192,192,178348,1,4,0:0:0:0:
320,192,178510,128,2,178672:0:0:0:0:
64,192,178672,1,4,0:0:0:0:
448,192,178672,1,2,0:0:0:0:
192,192,178835,128,2,178997:0:0:0:0:
64,192,178997,1,4,0:0:0:0:
448,192,178997,1,2,0:0:0:0:
320,192,179159,128,2,179321:0:0:0:0:
64,192,179321,1,4,0:0:0:0:
448,192,179321,1,2,0:0:0:0:
192,192,179483,128,0,179645:0:0:0:0:
320,192,179645,1,4,0:0:0:0:
448,192,179645,128,2,179970:0:0:0:0:
64,192,179970,1,2,0:0:0:0:
192,192,179970,1,8,0:0:0:0:
320,192,180132,1,0,0:0:0:0:
64,192,180294,1,2,0:0:0:0:
192,192,180456,1,0,0:0:0:0:
320,192,180618,1,2,0:0:0:0:
448,192,180618,1,8,0:0:0:0:
64,192,180780,128,0,181105:0:0:0:0:
320,192,180943,1,2,0:0:0:0:
448,192,181105,1,0,0:0:0:0:
64,192,181267,1,8,0:0:0:0:
192,192,181267,1,2,0:0:0:0:
320,192,181429,1,0,0:0:0:0:
64,192,181591,1,2,0:0:0:0:
192,192,181753,1,0,0:0:0:0:
448,192,181916,1,10,0:0:0:0:
320,192,181916,1,0,0:0:0:0:
192,192,182078,1,0,0:0:0:0:
64,192,182240,128,2,182564:0:0:0:0:
320,192,182564,1,2,0:0:0:0:
448,192,182564,1,8,0:0:0:0:
192,192,182726,1,0,0:0:0:0:
448,192,182889,1,2,0:0:0:0:
320,192,183051,1,0,0:0:0:0:
64,192,183213,1,2,0:0:0:0:
192,192,183213,1,8,0:0:0:0:
448,192,183375,128,0,183699:0:0:0:0:
192,192,183537,1,2,0:0:0:0:
64,192,183699,1,0,0:0:0:0:
320,192,183862,1,8,0:0:0:0:
448,192,183862,1,2,0:0:0:0:
192,192,184024,1,0,0:0:0:0:
448,192,184186,1,2,0:0:0:0:
320,192,184348,1,0,0:0:0:0:
64,192,184510,1,10,0:0:0:0:
192,192,184510,1,0,0:0:0:0:
448,192,184672,1,0,0:0:0:0:
320,192,184835,128,2,185159:0:0:0:0:
64,192,185159,1,2,0:0:0:0:
192,192,185159,1,8,0:0:0:0:
448,192,185321,1,0,0:0:0:0:
64,192,185483,1,2,0:0:0:0:
192,192,185645,1,0,0:0:0:0:
320,192,185807,1,2,0:0:0:0:
448,192,185807,1,8,0:0:0:0:
64,192,185970,1,0,0:0:0:0:
192,192,186132,128,2,186456:0:0:0:0:
320,192,186456,1,8,0:0:0:0:
448,192,186456,1,2,0:0:0:0:
64,192,186618,1,0,0:0:0:0:
448,192,186780,1,2,0:0:0:0:
320,192,186943,1,0,0:0:0:0:
64,192,187105,1,8,0:0:0:0:
192,192,187105,1,2,0:0:0:0:
320,192,187267,1,0,0:0:0:0:
64,192,187429,1,2,0:0:0:0:
448,192,187429,128,4,187753:0:0:0:0:
192,192,187753,1,10,0:0:0:0:
320,192,187916,1,0,0:0:0:0:
64,192,188078,128,2,188402:0:0:0:0:
448,192,188078,1,4,0:0:0:0:
320,192,188402,1,10,0:0:0:0:
192,192,188564,1,0,0:0:0:0:
320,192,188726,1,2,0:0:0:0:
448,192,188726,128,4,189051:0:0:0:0:
64,192,189051,1,10,0:0:0:0:
192,192,189051,1,4,0:0:0:0:
320,192,189213,1,6,0:0:0:0:
192,192,189294,1,6,0:0:0:0:
64,192,189375,1,4,0:0:0:0:
448,192,189375,1,2,0:0:0:0:
64,192,189618,1,4,0:0:0:0:
192,192,189618,1,2,0:0:0:0:
320,192,189862,1,2,0:0:0:0:
448,192,189862,1,4,0:0:0:0:
192,192,190024,128,0,190348:0:0:0:0:
64,192,190348,1,10,0:0:0:0:
448,192,190348,1,4,0:0:0:0:
192,192,190510,1,0,0:0:0:0:
448,192,190672,1,2,0:0:0:0:
320,192,190835,1,0,0:0:0:0:
64,192,190997,1,2,0:0:0:0:
192,192,190997,1,8,0:0:0:0:
448,192,191159,128,0,191483:0:0:0:0:
192,192,191321,1,2,0:0:0:0:
64,192,191483,1,0,0:0:0:0:
320,192,191645,1,8,0:0:0:0:
448,192,191645,1,2,0:0:0:0:
192,192,191807,1,0,0:0:0:0:
448,192,191970,1,2,0:0:0:0:
320,192,192132,1,0,0:0:0:0:
64,192,192294,1,10,0:0:0:0:
192,192,192294,1,0,0:0:0:0:
320,192,192456,1,0,0:0:0:0:
448,192,192618,128,2,192943:0:0:0:0:
64,192,192943,1,2,0:0:0:0:
192,192,192943,1,8,0:0:0:0:
320,192,193105,1,0,0:0:0:0:
64,192,193267,1,2,0:0:0:0:
192,192,193429,1,0,0:0:0:0:
320,192,193591,1,2,0:0:0:0:
448,192,193591,1,8,0:0:0:0:
64,192,193753,128,0,194078:0:0:0:0:
320,192,193916,1,2,0:0:0:0:
448,192,194078,1,0,0:0:0:0:
64,192,194240,1,8,0:0:0:0:
192,192,194240,1,2,0:0:0:0:
320,192,194402,1,0,0:0:0:0:
448,192,194564,1,2,0:0:0:0:
192,192,194726,1,0,0:0:0:0:
448,192,194889,1,10,0:0:0:0:
64,192,194889,1,0,0:0:0:0:
320,192,195051,1,0,0:0:0:0:
64,192,195213,1,2,0:0:0:0:
192,192,195213,1,4,0:0:0:0:
320,192,195375,1,2,0:0:0:0:
64,192,195537,1,10,0:0:0:0:
192,192,195699,1,2,0:0:0:0:
320,192,195862,1,2,0:0:0:0:
448,192,195862,1,0,0:0:0:0:
192,192,196024,1,2,0:0:0:0:
448,192,196186,1,10,0:0:0:0:
320,192,196348,1,2,0:0:0:0:
64,192,196510,1,4,0:0:0:0:
192,192,196510,1,2,0:0:0:0:
320,192,196672,1,2,0:0:0:0:
64,192,196835,1,10,0:0:0:0:
192,192,196997,1,2,0:0:0:0:
320,192,197159,1,2,0:0:0:0:
448,192,197159,1,0,0:0:0:0:
192,192,197321,1,2,0:0:0:0:
448,192,197483,1,10,0:0:0:0:
320,192,197645,1,2,0:0:0:0:
64,192,197807,1,4,0:0:0:0:
192,192,197807,128,2,197970:0:0:0:0:
448,192,197970,128,2,198132:0:0:0:0:
192,192,198132,128,10,198294:0:0:0:0:
64,192,198294,128,2,198456:0:0:0:0:
320,192,198456,128,2,198618:0:0:0:0:
448,192,198456,1,4,0:0:0:0:
64,192,198618,128,2,198780:0:0:0:0:
320,192,198780,128,10,198943:0:0:0:0:
448,192,198943,128,2,199105:0:0:0:0:
64,192,199105,1,2,0:0:0:0:
192,192,199105,1,4,0:0:0:0:
320,192,199267,128,2,199429:0:0:0:0:
64,192,199429,1,4,0:0:0:0:
192,192,199429,1,2,0:0:0:0:
320,192,199591,128,2,199753:0:0:0:0:
64,192,199753,1,2,0:0:0:0:
192,192,199753,1,4,0:0:0:0:
448,192,199916,1,2,0:0:0:0:
192,192,200078,128,2,200240:0:0:0:0:
320,192,200240,128,2,200402:0:0:0:0:
64,192,200402,128,4,201699:0:0:0:0:
448,192,200402,1,2,0:0:0:0:
192,192,200726,128,0,201699:0:0:0:0:
320,192,201699,1,4,0:0:0:0:
448,192,201699,1,2,0:0:0:0:
192,192,201862,1,0,0:0:0:0:
64,192,202024,1,2,0:0:0:0:
448,192,202024,1,8,0:0:0:0:
320,192,202186,1,0,0:0:0:0:
192,192,202348,1,2,0:0:0:0:
64,192,202510,1,0,0:0:0:0:
320,192,202672,1,2,0:0:0:0:
448,192,202672,1,8,0:0:0:0:
192,192,202835,1,0,0:0:0:0:
64,192,202997,128,2,203321:0:0:0:0:
320,192,203321,1,8,0:0:0:0:
448,192,203321,1,2,0:0:0:0:
192,192,203483,1,0,0:0:0:0:
320,192,203645,1,2,0:0:0:0:
64,192,203807,1,0,0:0:0:0:
320,192,203970,1,8,0:0:0:0:
448,192,203970,1,2,0:0:0:0:
192,192,204132,1,0,0:0:0:0:
448,192,204294,128,2,204618:0:0:0:0:
64,192,204618,1,2,0:0:0:0:
192,192,204618,1,8,0:0:0:0:
320,192,204780,1,0,0:0:0:0:
64,192,204943,1,2,0:0:0:0:
192,192,205105,1,0,0:0:0:0:
320,192,205267,1,2,0:0:0:0:
448,192,205267,1,8,0:0:0:0:
64,192,205429,1,0,0:0:0:0:
320,192,205591,128,2,205916:0:0:0:0:
64,192,205916,1,8,0:0:0:0:
448,192,205916,1,2,0:0:0:0:
192,192,206078,1,0,0:0:0:0:
448,192,206240,1,2,0:0:0:0:
320,192,206402,1,0,0:0:0:0:
64,192,206564,1,8,0:0:0:0:
192,192,206564,1,2,0:0:0:0:
320,192,206726,1,0,0:0:0:0:
64,192,206889,128,2,207213:0:0:0:0:
320,192,207213,1,2,0:0:0:0:
448,192,207213,1,8,0:0:0:0:
192,192,207375,1,0,0:0:0:0:
64,192,207537,1,2,0:0:0:0:
320,192,207699,1,0,0:0:0:0:
64,192,207862,1,2,0:0:0:0:
448,192,207862,1,8,0:0:0:0:
192,192,208024,1,0,0:0:0:0:
320,192,208186,128,2,208510:0:0:0:0:
64,192,208510,1,8,0:0:0:0:
448,192,208510,1,2,0:0:0:0:
192,192,208672,1,0,0:0:0:0:
448,192,208835,1,2,0:0:0:0:
320,192,208997,1,0,0:0:0:0:
64,192,209159,1,8,0:0:0:0:
192,192,209159,1,2,0:0:0:0:
320,192,209321,1,0,0:0:0:0:
448,192,209483,128,2,209807:0:0:0:0:
64,192,209807,1,2,0:0:0:0:
192,192,209807,1,8,0:0:0:0:
320,192,209970,1,0,0:0:0:0:
192,192,210132,1,2,0:0:0:0:
320,192,210294,1,0,0:0:0:0:
64,192,210456,1,2,0:0:0:0:
448,192,210456,1,8,0:0:0:0:
192,192,210618,1,0,0:0:0:0:
320,192,210780,1,2,0:0:0:0:
192,192,210943,1,0,0:0:0:0:
320,192,211105,1,8,0:0:0:0:
448,192,211105,1,2,0:0:0:0:
64,192,211267,1,0,0:0:0:0:
192,192,211429,1,2,0:0:0:0:
320,192,211591,1,0,0:0:0:0:
64,192,211753,1,8,0:0:0:0:
448,192,211753,1,2,0:0:0:0:
192,192,211916,1,0,0:0:0:0:
320,192,212078,1,4,0:0:0:0:
448,192,212078,128,2,212402:0:0:0:0:
64,192,212402,1,2,0:0:0:0:
192,192,212402,1,8,0:0:0:0:
320,192,212564,1,0,0:0:0:0:
448,192,212726,1,2,0:0:0:0:
192,192,212889,1,0,0:0:0:0:
320,192,213051,1,2,0:0:0:0:
448,192,213051,1,8,0:0:0:0:
64,192,213213,1,0,0:0:0:0:
192,192,213375,128,2,213699:0:0:0:0:
320,192,213699,1,8,0:0:0:0:
448,192,213699,1,2,0:0:0:0:
192,192,213862,1,0,0:0:0:0:
448,192,214024,1,2,0:0:0:0:
64,192,214186,1,0,0:0:0:0:
320,192,214348,1,8,0:0:0:0:
448,192,214348,1,2,0:0:0:0:
192,192,214510,1,0,0:0:0:0:
64,192,214672,128,2,214997:0:0:0:0:
320,192,214997,1,2,0:0:0:0:
448,192,214997,1,8,0:0:0:0:
192,192,215159,1,0,0:0:0:0:
64,192,215321,1,2,0:0:0:0:
320,192,215483,1,0,0:0:0:0:
64,192,215645,1,2,0:0:0:0:
192,192,215645,1,8,0:0:0:0:
448,192,215807,1,0,0:0:0:0:
320,192,215970,128,2,216294:0:0:0:0:
64,192,216294,1,8,0:0:0:0:
192,192,216294,1,2,0:0:0:0:
320,192,216456,1,0,0:0:0:0:
64,192,216618,1,2,0:0:0:0:
448,192,216780,1,0,0:0:0:0:
64,192,216943,1,8,0:0:0:0:
192,192,216943,1,2,0:0:0:0:
320,192,217105,1,0,0:0:0:0:
64,192,217267,128,2,217591:0:0:0:0:
448,192,217267,1,4,0:0:0:0:
320,192,217591,1,2,0:0:0:0:
448,192,217591,1,8,0:0:0:0:
192,192,217753,1,0,0:0:0:0:
320,192,217916,1,2,0:0:0:0:
64,192,218078,1,0,0:0:0:0:
192,192,218240,1,2,0:0:0:0:
448,192,218240,1,8,0:0:0:0:
320,192,218402,1,0,0:0:0:0:
64,192,218564,1,4,0:0:0:0:
448,192,218564,128,2,218889:0:0:0:0:
64,192,218889,1,8,0:0:0:0:
192,192,218889,1,2,0:0:0:0:
320,192,219051,1,0,0:0:0:0:
192,192,219213,1,2,0:0:0:0:
448,192,219375,1,0,0:0:0:0:
64,192,219537,1,8,0:0:0:0:
320,192,219537,1,2,0:0:0:0:
192,192,219699,1,0,0:0:0:0:
64,192,219862,128,4,220186:0:0:0:0:
448,192,219862,1,2,0:0:0:0:
320,192,220186,1,10,0:0:0:0:
192,192,220348,1,0,0:0:0:0:
64,192,220510,1,2,0:0:0:0:
448,192,220510,128,4,220835:0:0:0:0:
192,192,220835,1,10,0:0:0:0:
320,192,220997,1,0,0:0:0:0:
64,192,221159,1,2,0:0:0:0:
192,192,221159,128,4,221483:0:0:0:0:
320,192,221483,1,8,0:0:0:0:
448,192,221483,1,2,0:0:0:0:
64,192,221645,1,0,0:0:0:0:
448,192,221807,1,2,0:0:0:0:
320,192,221970,1,0,0:0:0:0:
64,192,222132,1,8,0:0:0:0:
192,192,222132,1,2,0:0:0:0:
320,192,222294,1,0,0:0:0:0:
64,192,222456,128,4,222780:0:0:0:0:
448,192,222456,1,2,0:0:0:0:
320,192,222780,128,2,223105:0:0:0:0:
448,192,222780,1,8,0:0:0:0:
192,192,223105,1,2,0:0:0:0:
64,192,223267,1,0,0:0:0:0:
320,192,223429,1,2,0:0:0:0:
448,192,223429,1,8,0:0:0:0:
64,192,223591,1,0,0:0:0:0:
192,192,223753,128,2,224078:0:0:0:0:
320,192,224078,1,8,0:0:0:0:
448,192,224078,128,2,224402:0:0:0:0:
64,192,224402,1,2,0:0:0:0:
320,192,224564,1,0,0:0:0:0:
64,192,224726,1,8,0:0:0:0:
192,192,224726,1,2,0:0:0:0:
320,192,224889,1,0,0:0:0:0:
448,192,225051,128,2,225375:0:0:0:0:
64,192,225375,1,2,0:0:0:0:
192,192,225375,128,8,225699:0:0:0:0:
320,192,225699,1,2,0:0:0:0:
448,192,225862,1,0,0:0:0:0:
64,192,226024,1,2,0:0:0:0:
192,192,226024,1,8,0:0:0:0:
448,192,226186,1,0,0:0:0:0:
320,192,226348,128,2,226672:0:0:0:0:
64,192,226672,128,8,226997:0:0:0:0:
192,192,226672,1,2,0:0:0:0:
448,192,226997,1,2,0:0:0:0:
320,192,227159,1,0,0:0:0:0:
64,192,227321,1,8,0:0:0:0:
192,192,227321,1,2,0:0:0:0:
320,192,227483,1,0,0:0:0:0:
64,192,227645,128,2,227970:0:0:0:0:
320,192,227970,128,2,228294:0:0:0:0:
448,192,227970,1,8,0:0:0:0:
192,192,228294,1,2,0:0:0:0:
64,192,228456,1,0,0:0:0:0:
320,192,228618,1,2,0:0:0:0:
448,192,228618,1,8,0:0:0:0:
192,192,228780,1,0,0:0:0:0:
448,192,228943,128,2,229267:0:0:0:0:
64,192,229267,1,8,0:0:0:0:
192,192,229267,1,2,0:0:0:0:
320,192,229429,1,0,0:0:0:0:
64,192,229591,1,2,0:0:0:0:
192,192,229753,1,0,0:0:0:0:
320,192,229916,1,8,0:0:0:0:
448,192,229916,1,2,0:0:0:0:
192,192,230078,1,0,0:0:0:0:
64,192,230240,128,2,230564:0:0:0:0:
320,192,230564,1,2,0:0:0:0:
448,192,230564,1,8,0:0:0:0:
192,192,230726,1,0,0:0:0:0:
448,192,230889,1,2,0:0:0:0:
320,192,231051,1,0,0:0:0:0:
64,192,231213,1,2,0:0:0:0:
192,192,231213,1,8,0:0:0:0:
320,192,231375,1,0,0:0:0:0:
192,192,231537,128,2,231862:0:0:0:0:
64,192,231862,1,8,0:0:0:0:
448,192,231862,1,2,0:0:0:0:
320,192,232024,1,0,0:0:0:0:
192,192,232186,1,2,0:0:0:0:
448,192,232348,1,0,0:0:0:0:
64,192,232510,1,2,0:0:0:0:
192,192,232510,1,0,0:0:0:70:inpactclap.wav
320,192,232672,1,10,0:0:0:0:
64,192,232835,128,4,233159:0:0:0:0:
448,192,232835,1,2,0:0:0:0:
320,192,233159,128,2,233483:0:0:0:0:
448,192,233159,1,8,0:0:0:0:
192,192,233483,1,2,0:0:0:0:
64,192,233645,1,0,0:0:0:0:
320,192,233807,1,2,0:0:0:0:
448,192,233807,128,8,234132:0:0:0:0:
64,192,234132,1,2,0:0:0:0:
192,192,234132,128,4,234456:0:0:0:0:
320,192,234456,1,8,0:0:0:0:
448,192,234456,1,2,0:0:0:0:
64,192,234780,128,2,235105:0:0:0:0:
192,192,234780,1,4,0:0:0:0:
320,192,235105,1,4,0:0:0:0:
448,192,235105,128,2,235429:0:0:0:0:
64,192,235429,1,2,0:0:0:0:
192,192,235429,1,4,0:0:0:0:
320,192,235753,1,10,0:0:0:0:
192,192,235916,1,2,0:0:0:0:
64,192,236078,1,2,0:0:0:0:
448,192,236078,1,4,0:0:0:0:
192,192,236402,1,10,0:0:0:0:
320,192,236564,1,2,0:0:0:0:
64,192,236726,1,2,0:0:0:0:
448,192,236726,1,4,0:0:0:0:
320,192,236970,1,4,0:0:0:0:
448,192,236970,1,2,0:0:0:0:
64,192,237213,1,4,0:0:0:0:
192,192,237213,1,2,0:0:0:0:
320,192,237375,1,0,0:0:0:0:
64,192,237537,1,2,0:0:0:0:
192,192,237618,1,2,0:0:0:0:
320,192,237699,1,6,0:0:0:0:
448,192,237699,1,0,0:0:0:70:inpactclap.wav
192,192,237862,1,2,0:0:0:0:
64,192,238024,1,2,0:0:0:0:
448,192,238024,1,4,0:0:0:0:
320,192,238186,1,2,0:0:0:0:
192,192,238348,1,10,0:0:0:0:
64,192,238510,1,2,0:0:0:0:
448,192,238672,1,2,0:0:0:0:
64,192,238835,1,2,0:0:0:0:
192,192,238997,1,10,0:0:0:0:
320,192,239159,1,2,0:0:0:0:
64,192,239321,1,4,0:0:0:0:
448,192,239321,1,2,0:0:0:0:
192,192,239483,1,2,0:0:0:0:
320,192,239645,1,10,0:0:0:0:
448,192,239807,1,2,0:0:0:0:
64,192,239970,1,2,0:0:0:0:
448,192,240132,1,2,0:0:0:0:
320,192,240294,1,10,0:0:0:0:
192,192,240456,1,2,0:0:0:0:
320,192,240618,1,4,0:0:0:0:
448,192,240618,128,2,240780:0:0:0:0:
64,192,240780,128,2,240943:0:0:0:0:
192,192,240943,128,10,241105:0:0:0:0:
448,192,241105,128,2,241267:0:0:0:0:
64,192,241267,128,2,241429:0:0:0:0:
192,192,241267,1,4,0:0:0:0:
448,192,241429,128,2,241591:0:0:0:0:
320,192,241591,128,10,241753:0:0:0:0:
64,192,241753,128,2,241916:0:0:0:0:
320,192,241916,1,2,0:0:0:0:
448,192,241916,1,4,0:0:0:0:
192,192,242240,1,8,0:0:0:0:
320,192,242564,128,2,242726:0:0:0:0:
64,192,242726,128,2,242889:0:0:0:0:
320,192,242889,1,2,0:0:0:0:
448,192,242889,1,0,0:0:0:70:inpactclap.wav
64,192,243213,1,2,0:0:0:0:
448,192,243213,1,4,0:0:0:0:
192,192,243294,1,0,0:0:0:0:
320,192,243375,1,0,0:0:0:0:
64,192,243537,1,0,0:0:0:0:
320,192,243618,1,0,0:0:0:0:
448,192,243699,1,0,0:0:0:0:
64,192,243862,1,0,0:0:0:0:
192,192,243943,1,0,0:0:0:0:
320,192,244024,1,0,0:0:0:0:
448,192,244186,1,0,0:0:0:0:
320,192,244267,1,0,0:0:0:0:
192,192,244348,1,0,0:0:0:0:
320,192,244510,1,0,0:0:0:0:
192,192,244591,1,0,0:0:0:0:
64,192,244672,1,0,0:0:0:0:
448,192,244835,1,0,0:0:0:0:
320,192,244916,1,0,0:0:0:0:
192,192,244997,1,0,0:0:0:0:
448,192,245159,1,0,0:0:0:0:
320,192,245240,1,0,0:0:0:0:
64,192,245321,1,0,0:0:0:0:
192,192,245483,1,0,0:0:0:0:
320,192,245564,1,0,0:0:0:0:
448,192,245645,1,0,0:0:0:0:
64,192,245807,1,0,0:0:0:0:
192,192,245889,1,0,0:0:0:0:
448,192,245970,1,0,0:0:0:0:
64,192,246132,1,0,0:0:0:0:
320,192,246213,1,0,0:0:0:0:
448,192,246294,1,0,0:0:0:0:
64,192,246456,1,0,0:0:0:0:
192,192,246537,1,0,0:0:0:0:
320,192,246618,1,0,0:0:0:0:
448,192,246780,1,0,0:0:0:0:
320,192,246862,1,0,0:0:0:0:
64,192,246943,1,0,0:0:0:0:
320,192,247105,1,0,0:0:0:0:
192,192,247186,1,0,0:0:0:0:
64,192,247267,1,0,0:0:0:0:
448,192,247429,1,0,0:0:0:0:
320,192,247510,1,0,0:0:0:0:
64,192,247591,1,0,0:0:0:0:
192,192,247753,1,0,0:0:0:0:
320,192,247835,1,0,0:0:0:0:
448,192,247916,1,0,0:0:0:0:
64,192,248078,1,0,0:0:0:0:
192,192,248159,1,0,0:0:0:0:
448,192,248240,1,0,0:0:0:0:
320,192,248402,1,0,0:0:0:0:
192,192,248483,1,0,0:0:0:0:
64,192,248564,1,0,0:0:0:0:
320,192,248726,1,0,0:0:0:0:
448,192,248807,1,0,0:0:0:0:
192,192,248889,1,0,0:0:0:0:
320,192,249051,1,0,0:0:0:0:
192,192,249132,1,0,0:0:0:0:
64,192,249213,1,0,0:0:0:0:
192,192,249375,1,0,0:0:0:0:
320,192,249456,1,0,0:0:0:0:
448,192,249537,1,0,0:0:0:0:
192,192,249699,1,0,0:0:0:0:
320,192,249780,1,0,0:0:0:0:
448,192,249862,1,0,0:0:0:0:
192,192,250024,1,0,0:0:0:0:
64,192,250105,1,0,0:0:0:0:
320,192,250186,1,0,0:0:0:0:
192,192,250348,1,0,0:0:0:0:
320,192,250429,1,0,0:0:0:0:
448,192,250510,1,0,0:0:0:0:
320,192,250672,1,0,0:0:0:0:
192,192,250753,1,0,0:0:0:0:
64,192,250835,1,0,0:0:0:0:
448,192,250997,1,0,0:0:0:0:
320,192,251078,1,0,0:0:0:0:
64,192,251159,1,0,0:0:0:0:
192,192,251321,1,0,0:0:0:0:
320,192,251402,1,0,0:0:0:0:
448,192,251483,1,0,0:0:0:0:
320,192,251645,1,0,0:0:0:0:
192,192,251726,1,0,0:0:0:0:
64,192,251807,1,0,0:0:0:0:
448,192,251970,1,0,0:0:0:0:
320,192,252051,1,0,0:0:0:0:
192,192,252132,1,0,0:0:0:0:
64,192,252294,1,0,0:0:0:0:
320,192,252402,1,0,0:0:0:0:
192,192,252510,1,0,0:0:0:0:
448,192,252618,1,0,0:0:0:0:
64,192,252726,1,0,0:0:0:0:
320,192,252835,1,0,0:0:0:0:
192,192,252943,1,0,0:0:0:0:
64,192,253024,1,0,0:0:0:0:
448,192,253105,1,0,0:0:0:0:
192,192,253267,1,0,0:0:0:0:
320,192,253429,1,0,0:0:0:0:
192,192,253510,1,0,0:0:0:0:
64,192,253591,1,2,0:0:0:0:
448,192,253591,1,4,0:0:0:0:
320,192,253916,1,2,0:0:0:0:
448,192,254078,1,0,0:0:0:0:
64,192,254240,1,2,0:0:0:0:
192,192,254240,1,0,0:0:0:0:
320,192,254402,1,0,0:0:0:0:
192,192,254564,1,2,0:0:0:0:
320,192,254726,1,0,0:0:0:0:
64,192,254889,1,2,0:0:0:0:
448,192,254889,1,0,0:0:0:0:
192,192,255213,1,2,0:0:0:0:
64,192,255375,1,0,0:0:0:0:
320,192,255537,1,2,0:0:0:0:
448,192,255537,1,0,0:0:0:0:
192,192,255699,1,0,0:0:0:0:
320,192,255862,1,2,0:0:0:0:
320,192,256024,1,2,0:0:0:0:
64,192,256186,1,2,0:0:0:0:
448,192,256186,1,0,0:0:0:0:
320,192,256510,1,2,0:0:0:0:
448,192,256672,1,0,0:0:0:0:
64,192,256835,1,2,0:0:0:0:
192,192,256835,1,0,0:0:0:0:
320,192,256997,1,0,0:0:0:0:
192,192,257159,128,2,257321:0:0:0:0:
320,192,257321,128,2,257483:0:0:0:0:
64,192,257483,1,2,0:0:0:0:
448,192,257483,1,0,0:0:0:0:
192,192,257807,1,2,0:0:0:0:
64,192,257970,1,0,0:0:0:0:
320,192,258132,1,2,0:0:0:0:
448,192,258132,1,0,0:0:0:0:
192,192,258294,1,0,0:0:0:0:
320,192,258456,1,2,0:0:0:0:
320,192,258618,1,2,0:0:0:0:
64,192,258780,1,2,0:0:0:0:
448,192,258780,1,4,0:0:0:0:
192,192,258943,1,2,0:0:0:0:
448,192,259105,1,2,0:0:0:0:
320,192,259267,1,2,0:0:0:0:
64,192,259429,1,2,0:0:0:0:
192,192,259429,1,0,0:0:0:0:
320,192,259591,1,2,0:0:0:0:
64,192,259753,1,2,0:0:0:0:
192,192,259916,1,2,0:0:0:0:
320,192,260078,1,4,0:0:0:0:
448,192,260078,1,2,0:0:0:0:
192,192,260240,1,2,0:0:0:0:
448,192,260402,1,2,0:0:0:0:
320,192,260564,1,2,0:0:0:0:
64,192,260726,1,2,0:0:0:0:
192,192,260726,1,0,0:0:0:0:
320,192,260889,1,2,0:0:0:0:
64,192,261051,1,2,0:0:0:0:
192,192,261213,1,2,0:0:0:0:
320,192,261375,128,2,261537:0:0:0:0:
448,192,261375,1,4,0:0:0:0:
64,192,261537,128,2,261699:0:0:0:0:
320,192,261699,128,2,261862:0:0:0:0:
448,192,261862,128,2,262024:0:0:0:0:
64,192,262024,1,2,0:0:0:0:
192,192,262024,128,4,262186:0:0:0:0:
448,192,262186,128,2,262348:0:0:0:0:
192,192,262348,128,2,262510:0:0:0:0:
64,192,262510,128,2,262672:0:0:0:0:
320,192,262672,1,2,0:0:0:0:
448,192,262672,1,4,0:0:0:0:
192,192,262835,128,2,262997:0:0:0:0:
320,192,262997,1,2,0:0:0:0:
448,192,262997,1,4,0:0:0:0:
192,192,263159,128,2,263321:0:0:0:0:
320,192,263321,1,2,0:0:0:0:
448,192,263321,1,4,0:0:0:0:
64,192,263483,1,2,0:0:0:0:
320,192,263645,128,6,263807:0:0:0:0:
192,192,263807,128,2,263970:0:0:0:0:
64,192,263970,1,4,0:0:0:0:
448,192,263970,128,2,265267:0:0:0:0:
320,192,264294,128,2,265267:0:0:0:0:
64,192,265267,128,4,265591:0:0:0:0:
192,192,265267,1,2,0:0:0:0:
320,192,265591,1,2,0:0:0:0:
448,192,265591,1,8,0:0:0:0:
192,192,265753,1,0,0:0:0:0:
320,192,265916,1,2,0:0:0:0:
448,192,266078,1,0,0:0:0:0:
64,192,266240,1,2,0:0:0:0:
192,192,266240,1,8,0:0:0:0:
320,192,266402,1,0,0:0:0:0:
448,192,266564,128,2,266889:0:0:0:0:
64,192,266889,1,8,0:0:0:0:
192,192,266889,1,2,0:0:0:0:
320,192,267051,1,0,0:0:0:0:
64,192,267213,1,2,0:0:0:0:
192,192,267375,1,0,0:0:0:0:
320,192,267537,1,8,0:0:0:0:
448,192,267537,1,2,0:0:0:0:
64,192,267699,1,0,0:0:0:0:
192,192,267862,128,2,268186:0:0:0:0:
64,192,268186,1,2,0:0:0:0:
448,192,268186,1,8,0:0:0:0:
320,192,268348,1,0,0:0:0:0:
192,192,268510,1,2,0:0:0:0:
64,192,268672,1,0,0:0:0:0:
320,192,268835,1,2,0:0:0:0:
448,192,268835,1,8,0:0:0:0:
192,192,268997,1,0,0:0:0:0:
320,192,269159,128,2,269483:0:0:0:0:
64,192,269483,1,8,0:0:0:0:
448,192,269483,1,2,0:0:0:0:
192,192,269645,1,0,0:0:0:0:
448,192,269807,1,2,0:0:0:0:
320,192,269970,1,0,0:0:0:0:
64,192,270132,1,8,0:0:0:0:
192,192,270132,1,2,0:0:0:0:
320,192,270294,1,0,0:0:0:0:
64,192,270456,1,2,0:0:0:0:
448,192,270456,128,4,270780:0:0:0:0:
64,192,270780,1,2,0:0:0:0:
192,192,270780,128,8,271105:0:0:0:0:
448,192,271105,1,2,0:0:0:0:
64,192,271267,1,0,0:0:0:0:
192,192,271429,1,2,0:0:0:0:
448,192,271429,1,8,0:0:0:0:
320,192,271591,1,0,0:0:0:0:
64,192,271753,128,2,272078:0:0:0:0:
192,192,271753,1,4,0:0:0:0:
320,192,272078,128,8,272402:0:0:0:0:
448,192,272078,1,2,0:0:0:0:
64,192,272402,1,2,0:0:0:0:
448,192,272564,1,0,0:0:0:0:
64,192,272726,1,8,0:0:0:0:
320,192,272726,1,2,0:0:0:0:
192,192,272889,1,0,0:0:0:0:
320,192,273051,1,2,0:0:0:0:
448,192,273051,128,4,273375:0:0:0:0:
192,192,273375,1,10,0:0:0:0:
320,192,273537,1,0,0:0:0:0:
64,192,273699,128,2,274024:0:0:0:0:
192,192,273699,1,4,0:0:0:0:
320,192,274024,1,10,0:0:0:0:
192,192,274186,1,0,0:0:0:0:
320,192,274348,1,2,0:0:0:0:
448,192,274348,128,4,274672:0:0:0:0:
64,192,274672,1,10,0:0:0:0:
192,192,274672,1,4,0:0:0:0:
320,192,274835,1,6,0:0:0:0:
192,192,274916,1,6,0:0:0:0:
64,192,274997,1,2,0:0:0:0:
448,192,274997,1,4,0:0:0:0:
192,192,275240,1,2,0:0:0:0:
320,192,275240,1,4,0:0:0:0:
64,192,275483,1,2,0:0:0:0:
448,192,275483,1,4,0:0:0:0:
320,192,275645,128,0,275970:0:0:0:0:
64,192,275970,1,10,0:0:0:0:
448,192,275970,1,4,0:0:0:0:
320,192,276132,1,0,0:0:0:0:
192,192,276294,1,2,0:0:0:0:
64,192,276456,1,0,0:0:0:0:
320,192,276618,1,2,0:0:0:0:
448,192,276618,1,8,0:0:0:0:
192,192,276780,1,0,0:0:0:0:
64,192,276943,128,2,277267:0:0:0:0:
320,192,277267,1,8,0:0:0:0:
448,192,277267,1,2,0:0:0:0:
192,192,277429,1,0,0:0:0:0:
448,192,277591,1,2,0:0:0:0:
320,192,277753,1,0,0:0:0:0:
64,192,277916,1,8,0:0:0:0:
192,192,277916,1,2,0:0:0:0:
448,192,278078,1,0,0:0:0:0:
320,192,278240,128,2,278564:0:0:0:0:
64,192,278564,1,2,0:0:0:0:
448,192,278564,1,8,0:0:0:0:
192,192,278726,1,0,0:0:0:0:
320,192,278889,1,2,0:0:0:0:
448,192,279051,1,0,0:0:0:0:
64,192,279213,1,2,0:0:0:0:
192,192,279213,1,8,0:0:0:0:
320,192,279375,1,0,0:0:0:0:
192,192,279537,128,2,279862:0:0:0:0:
64,192,279862,1,8,0:0:0:0:
448,192,279862,1,2,0:0:0:0:
320,192,280024,1,0,0:0:0:0:
64,192,280186,1,2,0:0:0:0:
192,192,280348,1,0,0:0:0:0:
320,192,280510,1,8,0:0:0:0:
448,192,280510,1,2,0:0:0:0:
192,192,280672,1,0,0:0:0:0:
64,192,280835,1,2,0:0:0:0:
448,192,280835,1,4,0:0:0:0:
320,192,280997,1,2,0:0:0:0:
64,192,281159,1,10,0:0:0:0:
192,192,281321,1,2,0:0:0:0:
320,192,281483,1,2,0:0:0:0:
448,192,281483,1,0,0:0:0:0:
192,192,281645,1,2,0:0:0:0:
448,192,281807,1,10,0:0:0:0:
320,192,281970,1,2,0:0:0:0:
64,192,282132,1,4,0:0:0:0:
192,192,282132,1,2,0:0:0:0:
320,192,282294,1,2,0:0:0:0:
64,192,282456,1,10,0:0:0:0:
192,192,282618,1,2,0:0:0:0:
320,192,282780,1,2,0:0:0:0:
448,192,282780,1,0,0:0:0:0:
192,192,282943,1,2,0:0:0:0:
448,192,283105,1,10,0:0:0:0:
320,192,283267,1,2,0:0:0:0:
64,192,283429,128,4,283591:0:0:0:0:
192,192,283429,1,2,0:0:0:0:
448,192,283591,128,2,283753:0:0:0:0:
320,192,283753,128,10,283916:0:0:0:0:
64,192,283916,128,2,284078:0:0:0:0:
320,192,284078,1,2,0:0:0:0:
448,192,284078,128,4,284240:0:0:0:0:
64,192,284240,128,2,284402:0:0:0:0:
192,192,284402,128,10,284564:0:0:0:0:
448,192,284564,128,2,284726:0:0:0:0:
64,192,284726,1,2,0:0:0:0:
192,192,284726,1,4,0:0:0:0:
320,192,284889,128,2,285051:0:0:0:0:
64,192,285051,1,4,0:0:0:0:
448,192,285051,1,2,0:0:0:0:
192,192,285213,128,2,285375:0:0:0:0:
320,192,285375,1,6,0:0:0:0:
64,192,285537,128,2,285699:0:0:0:0:
192,192,285699,1,8,0:0:0:0:
448,192,285699,1,2,0:0:0:0:
320,192,285862,128,2,286024:0:0:0:0:
64,192,286024,128,4,286348:0:0:0:0:
448,192,286024,1,2,0:0:0:0:
320,192,286348,1,2,0:0:0:0:
448,192,286348,128,4,286672:0:0:0:0:
64,192,286672,1,2,0:0:0:0:
192,192,286672,128,4,286997:0:0:0:0:
320,192,286997,128,2,287321:0:0:0:0:
448,192,286997,1,4,0:0:0:0:
64,192,287321,1,0,0:0:0:0:
192,192,288132,1,2,0:0:0:0:
320,192,288213,1,2,0:0:0:0:
64,192,288294,1,0,0:0:0:70:inpactclap.wav
448,192,288294,1,0,0:0:0:0:
64,192,288618,128,4,288943:0:0:0:0:
192,192,288618,1,2,0:0:0:0:
320,192,288943,1,8,0:0:0:0:
448,192,288943,1,2,0:0:0:0:
192,192,289105,1,0,0:0:0:0:
320,192,289267,1,2,0:0:0:0:
448,192,289429,1,0,0:0:0:0:
64,192,289591,1,8,0:0:0:0:
192,192,289591,1,2,0:0:0:0:
320,192,289753,1,0,0:0:0:0:
448,192,289916,128,2,290240:0:0:0:0:
64,192,290240,1,2,0:0:0:0:
192,192,290240,1,8,0:0:0:0:
320,192,290402,1,0,0:0:0:0:
64,192,290564,1,2,0:0:0:0:
192,192,290726,1,0,0:0:0:0:
320,192,290889,1,2,0:0:0:0:
448,192,290889,1,8,0:0:0:0:
64,192,291051,1,0,0:0:0:0:
192,192,291213,128,2,291537:0:0:0:0:
64,192,291537,1,8,0:0:0:0:
448,192,291537,1,2,0:0:0:0:
320,192,291699,1,0,0:0:0:0:
192,192,291862,1,2,0:0:0:0:
64,192,292024,1,0,0:0:0:0:
448,192,292186,128,10,292348:0:0:0:0:
64,192,292348,128,2,292510:0:0:0:0:
320,192,292510,128,6,292835:0:0:0:0:
64,192,292835,1,2,0:0:0:0:
448,192,292835,1,8,0:0:0:0:
192,192,292997,1,0,0:0:0:0:
448,192,293159,1,2,0:0:0:0:
320,192,293321,1,0,0:0:0:0:
192,192,293483,128,10,293645:0:0:0:0:
320,192,293645,128,2,293807:0:0:0:0:
64,192,293807,1,4,0:0:0:0:
448,192,293807,128,2,294132:0:0:0:0:
64,192,294132,1,8,0:0:0:0:
192,192,294132,128,2,294456:0:0:0:0:
448,192,294456,1,2,0:0:0:0:
64,192,294618,1,0,0:0:0:0:
192,192,294780,128,10,294943:0:0:0:0:
320,192,294943,128,2,295105:0:0:0:0:
64,192,295105,128,4,295429:0:0:0:0:
448,192,295105,1,2,0:0:0:0:
320,192,295429,128,10,295591:0:0:0:0:
192,192,295591,128,2,295753:0:0:0:0:
64,192,295753,1,4,0:0:0:0:
448,192,295753,128,2,296078:0:0:0:0:
192,192,296078,128,10,296240:0:0:0:0:
320,192,296240,128,2,296402:0:0:0:0:
64,192,296402,128,4,296726:0:0:0:0:
192,192,296402,1,2,0:0:0:0:
320,192,296726,1,10,0:0:0:0:
448,192,296726,1,4,0:0:0:0:
192,192,296889,1,6,0:0:0:0:
320,192,296970,1,6,0:0:0:0:
64,192,297051,1,2,0:0:0:0:
448,192,297051,1,4,0:0:0:0:
192,192,297294,1,2,0:0:0:0:
320,192,297294,1,4,0:0:0:0:
64,192,297537,1,2,0:0:0:0:
448,192,297537,1,4,0:0:0:0:
192,192,297699,128,0,298024:0:0:0:0:
64,192,298024,1,10,0:0:0:0:
448,192,298024,1,4,0:0:0:0:
192,192,298186,1,0,0:0:0:0:
320,192,298348,1,2,0:0:0:0:
448,192,298510,1,0,0:0:0:0:
64,192,298672,1,2,0:0:0:0:
192,192,298672,1,8,0:0:0:0:
320,192,298835,1,0,0:0:0:0:
448,192,298997,128,2,299321:0:0:0:0:
64,192,299321,1,8,0:0:0:0:
192,192,299321,1,2,0:0:0:0:
320,192,299483,1,0,0:0:0:0:
64,192,299645,1,2,0:0:0:0:
192,192,299807,1,0,0:0:0:0:
320,192,299970,1,8,0:0:0:0:
448,192,299970,1,2,0:0:0:0:
64,192,300132,1,0,0:0:0:0:
192,192,300294,128,2,300618:0:0:0:0:
64,192,300618,1,2,0:0:0:0:
448,192,300618,1,8,0:0:0:0:
320,192,300780,1,0,0:0:0:0:
192,192,300943,1,2,0:0:0:0:
64,192,301105,1,0,0:0:0:0:
320,192,301267,1,2,0:0:0:0:
448,192,301267,1,8,0:0:0:0:
192,192,301429,1,0,0:0:0:0:
320,192,301591,128,2,301916:0:0:0:0:
64,192,301916,1,8,0:0:0:0:
448,192,301916,1,2,0:0:0:0:
192,192,302078,1,0,0:0:0:0:
448,192,302240,1,2,0:0:0:0:
320,192,302402,1,0,0:0:0:0:
64,192,302564,1,8,0:0:0:0:
192,192,302564,1,2,0:0:0:0:
320,192,302726,1,0,0:0:0:0:
64,192,302889,1,2,0:0:0:0:
448,192,302889,1,4,0:0:0:0:
192,192,303051,1,2,0:0:0:0:
448,192,303213,1,10,0:0:0:0:
320,192,303375,1,2,0:0:0:0:
64,192,303537,1,2,0:0:0:0:
192,192,303537,1,0,0:0:0:0:
320,192,303699,1,2,0:0:0:0:
64,192,303862,1,10,0:0:0:0:
192,192,304024,1,2,0:0:0:0:
320,192,304186,1,4,0:0:0:0:
448,192,304186,1,2,0:0:0:0:
192,192,304348,1,2,0:0:0:0:
448,192,304510,1,10,0:0:0:0:
320,192,304672,1,2,0:0:0:0:
64,192,304835,1,2,0:0:0:0:
192,192,304835,1,0,0:0:0:0:
320,192,304997,1,2,0:0:0:0:
64,192,305159,1,10,0:0:0:0:
192,192,305321,1,2,0:0:0:0:
320,192,305483,1,4,0:0:0:0:
448,192,305483,128,2,305645:0:0:0:0:
64,192,305645,128,2,305807:0:0:0:0:
192,192,305807,128,10,305970:0:0:0:0:
448,192,305970,128,2,306132:0:0:0:0:
64,192,306132,128,2,306294:0:0:0:0:
192,192,306132,1,4,0:0:0:0:
448,192,306294,128,2,306456:0:0:0:0:
320,192,306456,128,10,306618:0:0:0:0:
64,192,306618,128,2,306780:0:0:0:0:
320,192,306780,1,2,0:0:0:0:
448,192,306780,1,4,0:0:0:0:
192,192,306943,128,2,307105:0:0:0:0:
64,192,307105,1,4,0:0:0:0:
448,192,307105,1,2,0:0:0:0:
320,192,307267,128,2,307429:0:0:0:0:
192,192,307429,1,6,0:0:0:0:
448,192,307591,128,2,307753:0:0:0:0:
64,192,307753,1,8,0:0:0:0:
320,192,307753,1,2,0:0:0:0:
192,192,307916,128,2,308078:0:0:0:0:
64,192,308078,1,4,0:0:0:0:
448,192,308078,128,2,309051:0:0:0:0:
192,192,309051,128,0,309375:0:0:0:0:
64,192,309375,1,6,0:0:0:0:
448,192,309375,1,0,0:0:0:70:inpactclap.wav
