osu file format v14

[General]
AudioFilename: Reverse world -Extend ver.-.ogg
AudioLeadIn: 0
PreviewTime: 117328
Countdown: 0
SampleSet: Soft
StackLeniency: 0.7
Mode: 3
LetterboxInBreaks: 0
SpecialStyle: 0
WidescreenStoryboard: 1

[Editor]
Bookmarks: 769,25543,53801,74557,96611,117368,138125,158882,179638,201692,222449,243206,265260,288611,309368
DistanceSpacing: 0.7
BeatDivisor: 4
GridSize: 4
TimelineZoom: 0.9999999

[Metadata]
Title:Reverse World -Extend Ver.-
TitleUnicode:Reverse World -Extend Ver.-
Artist:SELEN
ArtistUnicode:SELEN
Creator:FAMoss
Version:Easy
Source:
Tags:ITSUHA. SELEN&KAREN karen trance core trancecore electronic instrumental extended long version
BeatmapID:3773344
BeatmapSetID:1837663

[Difficulty]
HPDrainRate:7
CircleSize:4
OverallDifficulty:7
ApproachRate:5
SliderMultiplier:1.4
SliderTickRate:1

[Events]
//Background and Video events
0,0,"lightfarm-studios-final.jpg",0,0
//Break Periods
//Storyboard Layer 0 (Background)
//Storyboard Layer 1 (Fail)
//Storyboard Layer 2 (Pass)
//Storyboard Layer 3 (Foreground)
//Storyboard Layer 4 (Overlay)
//Storyboard Sound Samples
Sample,232510,0,"inpactclap.wav",70
Sample,237699,0,"inpactclap.wav",70
Sample,242889,0,"inpactclap.wav",70
Sample,264943,0,"inpactclap.wav",70

[TimingPoints]
760,387.096774193548,4,2,1,70,1,0
760,-83.7838,4,2,1,70,0,0
53808,324.324324324324,4,2,1,70,1,0
74564,-100,4,2,1,70,0,1
96618,-100,4,2,1,40,0,0
106997,-100,4,2,1,50,0,0
110889,-100,4,2,1,60,0,0
112186,-100,4,2,1,70,0,0
117375,-100,4,2,1,70,0,1
138132,-100,4,2,1,70,0,0
179645,-100,4,2,1,70,0,1
201699,-100,4,2,1,70,0,0
265267,-100,4,2,1,70,0,1
286024,-100,4,2,1,70,0,0
288618,-100,4,2,1,70,0,1
308078,-100,4,2,1,70,0,0

[HitObjects]
320,192,760,128,0,2308:0:0:0:0:
64,192,2308,128,0,3856:0:0:0:0:
448,192,3856,128,0,5405:0:0:0:0:
64,192,5405,128,0,6179:0:0:0:0:
320,192,6179,128,0,6953:0:0:0:0:
192,192,6953,128,0,8501:0:0:0:0:
448,192,8501,128,0,10050:0:0:0:0:
64,192,10050,128,0,11598:0:0:0:0:
448,192,11598,128,0,13147:0:0:0:0:
320,192,13147,128,0,14695:0:0:0:0:
64,192,14695,128,0,16243:0:0:0:0:
448,192,16243,128,0,17792:0:0:0:0:
64,192,17792,128,0,18566:0:0:0:0:
320,192,18566,128,0,19340:0:0:0:0:
192,192,19340,128,0,20889:0:0:0:0:
448,192,20889,128,0,22437:0:0:0:0:
64,192,22437,128,0,23985:0:0:0:0:
448,192,23985,128,0,25534:0:0:0:0:
64,192,25534,128,4,25921:0:0:0:0:
192,192,25534,1,0,0:0:0:0:
320,192,25921,1,0,0:0:0:0:
448,192,26308,128,0,26695:0:0:0:0:
192,192,26695,1,0,0:0:0:0:
320,192,27082,128,0,27469:0:0:0:0:
64,192,27469,1,0,0:0:0:0:
192,192,27856,128,0,28243:0:0:0:0:
448,192,28243,1,0,0:0:0:0:
64,192,28630,128,0,29018:0:0:0:0:
320,192,29018,1,0,0:0:0:0:
448,192,29405,128,0,29792:0:0:0:0:
192,192,29792,1,0,0:0:0:0:
320,192,30179,128,0,30566:0:0:0:0:
192,192,30566,1,0,0:0:0:0:
64,192,30953,128,0,31340:0:0:0:0:
448,192,31340,1,0,0:0:0:0:
192,192,31727,128,0,32114:0:0:0:0:
448,192,32114,1,0,0:0:0:0:
320,192,32501,128,0,32889:0:0:0:0:
64,192,32889,1,0,0:0:0:0:
192,192,33276,128,0,33663:0:0:0:0:
448,192,33663,1,0,0:0:0:0:
64,192,34050,128,0,34437:0:0:0:0:
320,192,34437,1,0,0:0:0:0:
448,192,34824,128,0,35211:0:0:0:0:
192,192,35211,1,0,0:0:0:0:
64,192,35598,128,0,35985:0:0:0:0:
320,192,35985,1,0,0:0:0:0:
192,192,36372,128,0,36759:0:0:0:0:
448,192,36759,1,0,0:0:0:0:
64,192,37147,128,0,37534:0:0:0:0:
320,192,37534,1,0,0:0:0:0:
448,192,37921,128,0,38308:0:0:0:0:
192,192,38308,1,0,0:0:0:0:
64,192,38695,128,0,39082:0:0:0:0:
320,192,39082,1,0,0:0:0:0:
192,192,39469,128,0,39856:0:0:0:0:
448,192,39856,1,0,0:0:0:0:
320,192,40243,128,0,40630:0:0:0:0:
64,192,40630,1,0,0:0:0:0:
448,192,41018,128,0,41405:0:0:0:0:
192,192,41405,1,0,0:0:0:0:
64,192,41792,128,0,42179:0:0:0:0:
320,192,42179,1,0,0:0:0:0:
192,192,42566,128,0,42953:0:0:0:0:
320,192,42953,1,0,0:0:0:0:
448,192,43340,128,0,43727:0:0:0:0:
64,192,43727,1,0,0:0:0:0:
320,192,44114,128,0,44501:0:0:0:0:
64,192,44501,1,0,0:0:0:0:
192,192,44889,128,0,45276:0:0:0:0:
448,192,45276,1,0,0:0:0:0:
320,192,45663,128,0,46050:0:0:0:0:
64,192,46050,1,0,0:0:0:0:
448,192,46437,128,0,46824:0:0:0:0:
192,192,46824,1,0,0:0:0:0:
64,192,47211,128,0,47598:0:0:0:0:
320,192,47598,1,0,0:0:0:0:
448,192,47985,128,0,48372:0:0:0:0:
192,192,48372,1,0,0:0:0:0:
320,192,48759,128,0,49147:0:0:0:0:
64,192,49147,1,0,0:0:0:0:
448,192,49534,128,0,49921:0:0:0:0:
192,192,49921,1,0,0:0:0:0:
320,192,50211,128,0,51856:0:0:0:0:
192,192,51856,128,0,53808:0:0:0:0:
64,192,53808,128,4,54132:0:0:0:0:
448,192,53808,1,2,0:0:0:0:
320,192,54132,1,0,0:0:0:0:
448,192,54456,128,0,54780:0:0:0:0:
192,192,54780,1,0,0:0:0:0:
320,192,55105,128,0,55429:0:0:0:0:
64,192,55429,1,0,0:0:0:0:
192,192,55753,128,0,56078:0:0:0:0:
448,192,56078,1,0,0:0:0:0:
64,192,56402,128,0,56726:0:0:0:0:
320,192,56726,1,0,0:0:0:0:
448,192,57051,128,0,57375:0:0:0:0:
192,192,57375,1,0,0:0:0:0:
320,192,57699,128,0,58024:0:0:0:0:
192,192,58024,1,0,0:0:0:0:
64,192,58348,128,0,58672:0:0:0:0:
320,192,58672,1,0,0:0:0:0:
192,192,58997,128,0,59321:0:0:0:0:
448,192,59321,1,0,0:0:0:0:
320,192,59645,128,0,59970:0:0:0:0:
64,192,59970,1,0,0:0:0:0:
192,192,60294,128,0,60618:0:0:0:0:
448,192,60618,1,0,0:0:0:0:
64,192,60943,128,0,61267:0:0:0:0:
320,192,61267,1,0,0:0:0:0:
448,192,61591,128,0,61916:0:0:0:0:
192,192,61916,1,0,0:0:0:0:
64,192,62240,128,0,62564:0:0:0:0:
320,192,62564,1,0,0:0:0:0:
192,192,62889,128,0,63213:0:0:0:0:
448,192,63213,1,0,0:0:0:0:
64,192,63537,128,0,63862:0:0:0:0:
320,192,63862,1,0,0:0:0:0:
448,192,64186,128,4,64510:0:0:0:0:
192,192,64510,1,0,0:0:0:0:
64,192,64835,128,0,65159:0:0:0:0:
320,192,65159,1,0,0:0:0:0:
192,192,65483,128,0,65807:0:0:0:0:
448,192,65807,1,0,0:0:0:0:
320,192,66132,128,0,66456:0:0:0:0:
64,192,66456,1,0,0:0:0:0:
448,192,66780,128,0,67105:0:0:0:0:
192,192,67105,1,0,0:0:0:0:
64,192,67429,128,0,67753:0:0:0:0:
320,192,67753,1,0,0:0:0:0:
192,192,68078,128,0,68402:0:0:0:0:
320,192,68402,1,0,0:0:0:0:
448,192,68726,128,0,69051:0:0:0:0:
192,192,69051,1,0,0:0:0:0:
320,192,69375,128,0,69699:0:0:0:0:
64,192,69699,1,0,0:0:0:0:
192,192,70024,128,0,70348:0:0:0:0:
448,192,70348,1,0,0:0:0:0:
320,192,70672,128,0,70997:0:0:0:0:
64,192,70997,1,0,0:0:0:0:
448,192,71321,128,0,71645:0:0:0:0:
192,192,71645,1,0,0:0:0:0:
64,192,71970,128,0,72294:0:0:0:0:
320,192,72294,1,0,0:0:0:0:
448,192,72618,128,0,72943:0:0:0:0:
192,192,72943,1,0,0:0:0:0:
320,192,73267,128,0,73591:0:0:0:0:
64,192,73591,1,0,0:0:0:0:
448,192,73916,128,0,74240:0:0:0:0:
192,192,74240,128,2,74564:0:0:0:0:
64,192,74564,1,4,0:0:0:0:
448,192,74564,1,2,0:0:0:0:
320,192,74889,1,10,0:0:0:0:
192,192,75213,1,2,0:0:0:0:
64,192,75537,1,10,0:0:0:0:
320,192,75862,1,2,0:0:0:0:
448,192,76186,1,10,0:0:0:0:
192,192,76510,1,2,0:0:0:0:
320,192,76835,1,10,0:0:0:0:
64,192,77159,1,2,0:0:0:0:
448,192,77483,1,10,0:0:0:0:
320,192,77807,1,2,0:0:0:0:
192,192,78132,1,10,0:0:0:0:
64,192,78456,1,2,0:0:0:0:
320,192,78780,1,10,0:0:0:0:
64,192,79105,1,2,0:0:0:0:
192,192,79429,1,10,0:0:0:0:
448,192,79753,1,2,0:0:0:0:
320,192,80078,1,10,0:0:0:0:
64,192,80402,1,2,0:0:0:0:
192,192,80726,1,10,0:0:0:0:
448,192,81051,1,2,0:0:0:0:
320,192,81375,1,10,0:0:0:0:
64,192,81699,1,2,0:0:0:0:
192,192,82024,1,10,0:0:0:0:
448,192,82348,1,2,0:0:0:0:
64,192,82672,1,10,0:0:0:0:
320,192,82997,1,2,0:0:0:0:
192,192,83321,1,10,0:0:0:0:
448,192,83645,128,2,83970:0:0:0:0:
64,192,83970,1,10,0:0:0:0:
192,192,84294,128,2,84618:0:0:0:0:
320,192,84618,1,10,0:0:0:0:
64,192,84943,1,4,0:0:0:0:
448,192,84943,1,2,0:0:0:0:
192,192,85267,1,10,0:0:0:0:
320,192,85591,1,2,0:0:0:0:
448,192,85916,1,10,0:0:0:0:
192,192,86240,1,2,0:0:0:0:
64,192,86564,1,10,0:0:0:0:
320,192,86889,1,2,0:0:0:0:
192,192,87213,1,10,0:0:0:0:
448,192,87537,1,2,0:0:0:0:
64,192,87862,1,10,0:0:0:0:
192,192,88186,1,2,0:0:0:0:
320,192,88510,1,10,0:0:0:0:
448,192,88835,1,2,0:0:0:0:
192,192,89159,1,10,0:0:0:0:
448,192,89483,1,2,0:0:0:0:
320,192,89807,1,10,0:0:0:0:
64,192,90132,1,2,0:0:0:0:
192,192,90132,1,4,0:0:0:0:
448,192,90456,1,10,0:0:0:0:
192,192,90780,1,2,0:0:0:0:
320,192,91105,1,10,0:0:0:0:
64,192,91429,1,4,0:0:0:0:
448,192,91429,1,2,0:0:0:0:
192,192,91753,1,10,0:0:0:0:
320,192,92078,1,2,0:0:0:0:
64,192,92402,1,10,0:0:0:0:
320,192,92726,1,4,0:0:0:0:
448,192,92726,128,2,93051:0:0:0:0:
64,192,93051,128,10,93375:0:0:0:0:
320,192,93375,128,6,93699:0:0:0:0:
192,192,93699,128,10,94024:0:0:0:0:
64,192,94024,1,2,0:0:0:0:
448,192,94024,1,4,0:0:0:0:
448,192,94348,1,6,0:0:0:0:
192,192,94672,1,6,0:0:0:0:
64,192,94997,128,10,95321:0:0:0:0:
320,192,95321,1,2,0:0:0:0:
448,192,95321,128,4,96294:0:0:0:0:
192,192,96294,1,0,0:0:0:70:inpactclap.wav
64,192,96618,1,2,0:0:0:0:
448,192,96618,1,4,0:0:0:0:
320,192,96943,1,0,0:0:0:0:
64,192,97267,128,0,97753:0:0:0:0:
448,192,97753,1,0,0:0:0:0:
192,192,98078,1,0,0:0:0:0:
448,192,98402,1,0,0:0:0:0:
320,192,98726,128,0,99213:0:0:0:0:
192,192,99213,128,0,99699:0:0:0:0:
448,192,99699,1,0,0:0:0:0:
320,192,100024,1,0,0:0:0:0:
64,192,100348,1,0,0:0:0:0:
192,192,100672,1,0,0:0:0:0:
448,192,100997,1,0,0:0:0:0:
320,192,101321,128,0,101807:0:0:0:0:
64,192,101807,128,0,102294:0:0:0:0:
448,192,102294,1,0,0:0:0:0:
192,192,102618,128,0,103105:0:0:0:0:
448,192,103105,128,0,103591:0:0:0:0:
64,192,103591,1,0,0:0:0:0:
320,192,103916,128,0,104402:0:0:0:0:
64,192,104402,128,0,104889:0:0:0:0:
448,192,104889,1,0,0:0:0:0:
192,192,105213,1,0,0:0:0:0:
320,192,105537,128,0,106186:0:0:0:0:
64,192,106186,1,0,0:0:0:0:
192,192,106510,128,0,106997:0:0:0:0:
320,192,106997,1,2,0:0:0:0:
448,192,106997,1,4,0:0:0:0:
64,192,107321,1,2,0:0:0:0:
448,192,107645,128,2,108132:0:0:0:0:
64,192,108132,1,2,0:0:0:0:
320,192,108456,1,2,0:0:0:0:
64,192,108780,1,2,0:0:0:0:
192,192,109105,128,2,109591:0:0:0:0:
320,192,109591,128,2,110078:0:0:0:0:
64,192,110078,1,2,0:0:0:0:
192,192,110402,1,2,0:0:0:0:
448,192,110726,1,2,0:0:0:0:
320,192,111051,1,2,0:0:0:0:
64,192,111375,1,2,0:0:0:0:
192,192,111699,128,2,112186:0:0:0:0:
320,192,112186,1,2,0:0:0:0:
448,192,112186,128,4,112510:0:0:0:0:
64,192,112510,128,2,112835:0:0:0:0:
192,192,112835,128,2,113159:0:0:0:0:
448,192,113159,128,2,113483:0:0:0:0:
64,192,113483,128,4,113807:0:0:0:0:
192,192,113483,1,2,0:0:0:0:
448,192,113807,128,2,114132:0:0:0:0:
320,192,114132,128,2,114456:0:0:0:0:
64,192,114456,128,2,114780:0:0:0:0:
320,192,114780,1,4,0:0:0:0:
448,192,114780,128,2,115105:0:0:0:0:
192,192,115105,128,2,115429:0:0:0:0:
64,192,115429,128,6,115753:0:0:0:0:
320,192,115753,128,2,116078:0:0:0:0:
64,192,116078,1,4,0:0:0:0:
448,192,116078,1,2,0:0:0:0:
64,192,116402,1,6,0:0:0:0:
320,192,116726,1,6,0:0:0:0:
320,192,117051,1,6,0:0:0:0:
64,192,117375,1,4,0:0:0:0:
448,192,117375,1,2,0:0:0:0:
192,192,117699,1,10,0:0:0:0:
320,192,118024,128,2,118348:0:0:0:0:
64,192,118348,128,10,118672:0:0:0:0:
448,192,118672,1,2,0:0:0:0:
192,192,118997,1,10,0:0:0:0:
320,192,119321,128,2,119645:0:0:0:0:
192,192,119645,128,10,119970:0:0:0:0:
448,192,119970,1,2,0:0:0:0:
320,192,120294,1,10,0:0:0:0:
64,192,120618,128,2,120943:0:0:0:0:
320,192,120943,128,10,121267:0:0:0:0:
192,192,121267,1,2,0:0:0:0:
64,192,121591,1,10,0:0:0:0:
448,192,121916,128,2,122240:0:0:0:0:
192,192,122240,128,10,122564:0:0:0:0:
320,192,122564,1,2,0:0:0:0:
320,192,122889,1,10,0:0:0:0:
64,192,123213,1,2,0:0:0:0:
64,192,123537,1,10,0:0:0:0:
448,192,123862,1,2,0:0:0:0:
448,192,124186,1,10,0:0:0:0:
192,192,124510,128,2,124835:0:0:0:0:
320,192,124835,128,10,125159:0:0:0:0:
64,192,125159,1,2,0:0:0:0:
192,192,125483,1,10,0:0:0:0:
448,192,125807,128,2,126132:0:0:0:0:
64,192,126132,128,10,126456:0:0:0:0:
320,192,126456,128,2,126780:0:0:0:0:
192,192,126780,1,10,0:0:0:0:
448,192,127105,128,2,127429:0:0:0:0:
192,192,127429,128,10,127753:0:0:0:0:
64,192,127753,1,4,0:0:0:0:
448,192,127753,1,2,0:0:0:0:
320,192,128078,1,10,0:0:0:0:
192,192,128402,128,2,128726:0:0:0:0:
448,192,128726,128,10,129051:0:0:0:0:
64,192,129051,1,2,0:0:0:0:
320,192,129375,1,10,0:0:0:0:
192,192,129699,128,2,130024:0:0:0:0:
320,192,130024,128,10,130348:0:0:0:0:
64,192,130348,1,2,0:0:0:0:
192,192,130672,1,10,0:0:0:0:
448,192,130997,128,2,131321:0:0:0:0:
192,192,131321,128,10,131645:0:0:0:0:
320,192,131645,1,2,0:0:0:0:
448,192,131970,1,10,0:0:0:0:
64,192,132294,128,2,132618:0:0:0:0:
320,192,132618,128,10,132943:0:0:0:0:
64,192,132943,1,2,0:0:0:0:
192,192,132943,1,4,0:0:0:0:
192,192,133267,1,10,0:0:0:0:
448,192,133591,1,2,0:0:0:0:
448,192,133916,1,10,0:0:0:0:
64,192,134240,1,4,0:0:0:0:
192,192,134240,1,2,0:0:0:0:
64,192,134564,1,10,0:0:0:0:
320,192,134889,128,2,135213:0:0:0:0:
192,192,135213,128,10,135537:0:0:0:0:
320,192,135537,1,4,0:0:0:0:
448,192,135537,128,2,135862:0:0:0:0:
64,192,135862,128,10,136186:0:0:0:0:
320,192,136186,128,2,136510:0:0:0:0:
448,192,136186,1,4,0:0:0:0:
192,192,136510,128,10,136835:0:0:0:0:
64,192,136835,1,2,0:0:0:0:
448,192,136835,1,4,0:0:0:0:
448,192,137159,1,6,0:0:0:0:
192,192,137483,1,2,0:0:0:0:
192,192,137807,1,6,0:0:0:0:
64,192,138132,1,4,0:0:0:0:
448,192,138132,1,2,0:0:0:0:
320,192,138456,1,10,0:0:0:0:
192,192,138780,1,2,0:0:0:0:
64,192,139105,1,10,0:0:0:0:
448,192,139429,1,2,0:0:0:0:
320,192,139753,1,10,0:0:0:0:
192,192,140078,1,2,0:0:0:0:
448,192,140402,1,10,0:0:0:0:
64,192,140726,1,2,0:0:0:0:
320,192,141051,1,10,0:0:0:0:
448,192,141375,1,2,0:0:0:0:
192,192,141699,1,10,0:0:0:0:
64,192,142024,1,2,0:0:0:0:
320,192,142348,1,10,0:0:0:0:
192,192,142672,1,2,0:0:0:0:
448,192,142997,1,10,0:0:0:0:
64,192,143321,1,2,0:0:0:0:
192,192,143321,1,4,0:0:0:0:
320,192,143645,1,10,0:0:0:0:
64,192,143970,1,2,0:0:0:0:
192,192,144294,1,10,0:0:0:0:
320,192,144618,1,2,0:0:0:0:
448,192,144618,1,4,0:0:0:0:
192,192,144943,1,10,0:0:0:0:
448,192,145267,1,2,0:0:0:0:
320,192,145591,1,10,0:0:0:0:
64,192,145916,1,4,0:0:0:0:
192,192,145916,1,2,0:0:0:0:
448,192,146240,1,10,0:0:0:0:
64,192,146564,1,6,0:0:0:0:
192,192,146889,1,10,0:0:0:0:
320,192,147213,1,2,0:0:0:0:
448,192,147213,128,4,147537:0:0:0:0:
192,192,147537,128,14,147862:0:0:0:0:
320,192,147862,128,6,148186:0:0:0:0:
64,192,148186,128,14,148510:0:0:0:0:
320,192,148510,1,4,0:0:0:0:
448,192,148510,128,2,148835:0:0:0:0:
192,192,148835,1,10,0:0:0:0:
64,192,149159,128,2,149483:0:0:0:0:
320,192,149483,1,10,0:0:0:0:
192,192,149807,128,2,150132:0:0:0:0:
448,192,150132,1,10,0:0:0:0:
320,192,150456,128,2,150780:0:0:0:0:
64,192,150780,1,10,0:0:0:0:
448,192,151105,128,2,151429:0:0:0:0:
192,192,151429,1,10,0:0:0:0:
320,192,151753,128,2,152078:0:0:0:0:
64,192,152078,1,10,0:0:0:0:
192,192,152402,128,2,152726:0:0:0:0:
448,192,152726,1,10,0:0:0:0:
64,192,153051,128,2,153375:0:0:0:0:
320,192,153375,1,10,0:0:0:0:
64,192,153699,1,2,0:0:0:0:
192,192,153699,1,4,0:0:0:0:
448,192,154024,1,10,0:0:0:0:
192,192,154348,1,2,0:0:0:0:
320,192,154672,1,10,0:0:0:0:
64,192,154997,1,4,0:0:0:0:
448,192,154997,1,2,0:0:0:0:
192,192,155321,1,10,0:0:0:0:
320,192,155645,1,2,0:0:0:0:
64,192,155970,1,10,0:0:0:0:
320,192,156294,1,4,0:0:0:0:
448,192,156294,128,2,156618:0:0:0:0:
64,192,156618,128,10,156943:0:0:0:0:
320,192,156943,128,6,157267:0:0:0:0:
192,192,157267,128,10,157591:0:0:0:0:
64,192,157591,1,2,0:0:0:0:
448,192,157591,1,4,0:0:0:0:
448,192,157916,1,6,0:0:0:0:
192,192,158240,1,2,0:0:0:0:
64,192,158564,128,10,158889:0:0:0:0:
320,192,158889,1,2,0:0:0:0:
448,192,158889,1,4,0:0:0:0:
64,192,159375,1,2,0:0:0:0:
192,192,159375,1,4,0:0:0:0:
320,192,159862,1,4,0:0:0:0:
448,192,159862,1,2,0:0:0:0:
64,192,160348,1,2,0:0:0:0:
192,192,160348,1,4,0:0:0:0:
320,192,160835,1,4,0:0:0:0:
448,192,160835,1,2,0:0:0:0:
64,192,161321,1,2,0:0:0:0:
448,192,161321,1,4,0:0:0:0:
192,192,161807,1,4,0:0:0:0:
320,192,161807,1,2,0:0:0:0:
64,192,162294,1,2,0:0:0:0:
448,192,162294,1,4,0:0:0:0:
64,192,162780,1,4,0:0:0:0:
192,192,162780,1,2,0:0:0:0:
320,192,163267,1,2,0:0:0:0:
448,192,163267,1,4,0:0:0:0:
64,192,163753,1,4,0:0:0:0:
192,192,163753,1,2,0:0:0:0:
320,192,164078,1,4,0:0:0:0:
448,192,164078,1,2,0:0:0:0:
192,192,164402,1,10,0:0:0:0:
320,192,164726,1,2,0:0:0:0:
448,192,165051,1,10,0:0:0:0:
64,192,165375,1,2,0:0:0:0:
192,192,165375,1,4,0:0:0:0:
320,192,165699,1,10,0:0:0:0:
192,192,166024,1,2,0:0:0:0:
64,192,166348,1,10,0:0:0:0:
320,192,166672,1,4,0:0:0:0:
448,192,166672,128,2,166997:0:0:0:0:
64,192,166997,128,10,167321:0:0:0:0:
320,192,167321,128,6,167645:0:0:0:0:
192,192,167645,128,10,167970:0:0:0:0:
64,192,167970,1,4,0:0:0:0:
448,192,167970,1,2,0:0:0:0:
64,192,168294,1,6,0:0:0:0:
320,192,168618,1,2,0:0:0:0:
448,192,168943,128,10,169267:0:0:0:0:
64,192,169267,1,2,0:0:0:0:
192,192,169267,1,4,0:0:0:0:
320,192,169753,1,2,0:0:0:0:
448,192,169753,1,4,0:0:0:0:
64,192,170240,1,4,0:0:0:0:
192,192,170240,1,2,0:0:0:0:
320,192,170726,1,2,0:0:0:0:
448,192,170726,1,4,0:0:0:0:
64,192,171213,1,4,0:0:0:0:
192,192,171213,1,2,0:0:0:0:
64,192,171699,1,2,0:0:0:0:
448,192,171699,1,4,0:0:0:0:
192,192,172186,1,4,0:0:0:0:
320,192,172186,1,2,0:0:0:0:
64,192,172672,1,2,0:0:0:0:
448,192,172672,1,4,0:0:0:0:
320,192,173159,1,4,0:0:0:0:
448,192,173159,1,2,0:0:0:0:
64,192,173645,1,2,0:0:0:0:
192,192,173645,1,4,0:0:0:0:
320,192,174132,1,4,0:0:0:0:
448,192,174132,1,2,0:0:0:0:
64,192,174456,1,2,0:0:0:0:
192,192,174456,1,4,0:0:0:0:
320,192,174780,1,10,0:0:0:0:
192,192,175105,1,2,0:0:0:0:
64,192,175429,1,10,0:0:0:0:
320,192,175753,1,4,0:0:0:0:
448,192,175753,1,2,0:0:0:0:
192,192,176078,1,10,0:0:0:0:
320,192,176402,1,2,0:0:0:0:
448,192,176726,1,10,0:0:0:0:
64,192,177051,128,4,177375:0:0:0:0:
192,192,177051,1,2,0:0:0:0:
448,192,177375,128,10,177699:0:0:0:0:
192,192,177699,128,6,178024:0:0:0:0:
320,192,178024,128,10,178348:0:0:0:0:
64,192,178348,1,2,0:0:0:0:
448,192,178348,1,4,0:0:0:0:
448,192,178672,1,6,0:0:0:0:
192,192,178997,1,6,0:0:0:0:
192,192,179321,1,6,0:0:0:0:
64,192,179645,1,4,0:0:0:0:
448,192,179645,1,2,0:0:0:0:
320,192,179970,1,10,0:0:0:0:
192,192,180294,1,2,0:0:0:0:
64,192,180618,1,10,0:0:0:0:
320,192,180943,1,2,0:0:0:0:
448,192,181267,1,10,0:0:0:0:
192,192,181591,1,2,0:0:0:0:
320,192,181916,1,10,0:0:0:0:
64,192,182240,1,2,0:0:0:0:
192,192,182564,1,10,0:0:0:0:
320,192,182889,1,2,0:0:0:0:
448,192,183213,1,10,0:0:0:0:
192,192,183537,1,2,0:0:0:0:
64,192,183862,1,10,0:0:0:0:
320,192,184186,1,2,0:0:0:0:
192,192,184510,1,10,0:0:0:0:
448,192,184835,1,2,0:0:0:0:
320,192,185159,1,10,0:0:0:0:
64,192,185483,1,2,0:0:0:0:
192,192,185807,1,10,0:0:0:0:
448,192,186132,1,2,0:0:0:0:
320,192,186456,1,10,0:0:0:0:
64,192,186780,1,2,0:0:0:0:
192,192,187105,1,10,0:0:0:0:
320,192,187429,1,2,0:0:0:0:
448,192,187429,1,4,0:0:0:0:
64,192,187753,1,10,0:0:0:0:
320,192,188078,1,6,0:0:0:0:
192,192,188402,1,10,0:0:0:0:
320,192,188726,1,2,0:0:0:0:
448,192,188726,128,4,189051:0:0:0:0:
192,192,189051,128,14,189375:0:0:0:0:
320,192,189375,128,6,189862:0:0:0:0:
64,192,189862,1,6,0:0:0:0:
320,192,190348,1,10,0:0:0:0:
448,192,190348,1,4,0:0:0:0:
192,192,190672,1,2,0:0:0:0:
64,192,190997,1,10,0:0:0:0:
320,192,191321,1,2,0:0:0:0:
448,192,191645,1,10,0:0:0:0:
192,192,191970,1,2,0:0:0:0:
320,192,192294,1,10,0:0:0:0:
64,192,192618,1,2,0:0:0:0:
192,192,192943,1,10,0:0:0:0:
320,192,193267,1,2,0:0:0:0:
448,192,193591,1,10,0:0:0:0:
192,192,193916,1,2,0:0:0:0:
64,192,194240,1,10,0:0:0:0:
320,192,194564,1,2,0:0:0:0:
192,192,194889,1,10,0:0:0:0:
320,192,195213,1,2,0:0:0:0:
448,192,195213,1,4,0:0:0:0:
64,192,195537,1,10,0:0:0:0:
320,192,195862,1,2,0:0:0:0:
192,192,196186,1,10,0:0:0:0:
64,192,196510,1,4,0:0:0:0:
448,192,196510,1,2,0:0:0:0:
320,192,196835,1,10,0:0:0:0:
192,192,197159,1,2,0:0:0:0:
448,192,197483,1,10,0:0:0:0:
64,192,197807,128,4,198132:0:0:0:0:
192,192,197807,1,2,0:0:0:0:
448,192,198132,128,10,198456:0:0:0:0:
192,192,198456,128,6,198780:0:0:0:0:
320,192,198780,128,10,199105:0:0:0:0:
64,192,199105,1,2,0:0:0:0:
448,192,199105,1,4,0:0:0:0:
64,192,199429,1,6,0:0:0:0:
320,192,199753,1,6,0:0:0:0:
448,192,200078,128,2,200402:0:0:0:0:
64,192,200402,128,4,201699:0:0:0:0:
192,192,200402,1,2,0:0:0:0:
320,192,201699,1,4,0:0:0:0:
448,192,201699,1,2,0:0:0:0:
192,192,202024,1,10,0:0:0:0:
320,192,202348,1,2,0:0:0:0:
448,192,202672,1,10,0:0:0:0:
192,192,202997,1,2,0:0:0:0:
64,192,203321,1,10,0:0:0:0:
320,192,203645,1,2,0:0:0:0:
192,192,203970,1,10,0:0:0:0:
448,192,204294,1,2,0:0:0:0:
64,192,204618,1,10,0:0:0:0:
192,192,204943,1,2,0:0:0:0:
448,192,205267,1,10,0:0:0:0:
320,192,205591,1,2,0:0:0:0:
192,192,205916,1,10,0:0:0:0:
64,192,206240,1,2,0:0:0:0:
320,192,206564,1,10,0:0:0:0:
192,192,206889,1,2,0:0:0:0:
448,192,207213,1,10,0:0:0:0:
64,192,207537,1,2,0:0:0:0:
320,192,207862,1,10,0:0:0:0:
192,192,208186,1,2,0:0:0:0:
64,192,208510,1,10,0:0:0:0:
448,192,208835,1,2,0:0:0:0:
320,192,209159,1,10,0:0:0:0:
64,192,209483,1,2,0:0:0:0:
448,192,209807,1,10,0:0:0:0:
192,192,210132,1,2,0:0:0:0:
320,192,210456,1,10,0:0:0:0:
64,192,210780,1,2,0:0:0:0:
448,192,211105,1,10,0:0:0:0:
320,192,211429,1,2,0:0:0:0:
192,192,211753,1,10,0:0:0:0:
64,192,212078,1,4,0:0:0:0:
448,192,212078,1,2,0:0:0:0:
320,192,212402,1,10,0:0:0:0:
192,192,212726,1,2,0:0:0:0:
64,192,213051,1,10,0:0:0:0:
320,192,213375,1,2,0:0:0:0:
448,192,213699,1,10,0:0:0:0:
192,192,214024,1,2,0:0:0:0:
320,192,214348,1,10,0:0:0:0:
64,192,214672,1,2,0:0:0:0:
448,192,214997,1,10,0:0:0:0:
320,192,215321,1,2,0:0:0:0:
64,192,215645,1,10,0:0:0:0:
192,192,215970,1,2,0:0:0:0:
320,192,216294,1,10,0:0:0:0:
448,192,216618,1,2,0:0:0:0:
192,192,216943,1,10,0:0:0:0:
320,192,217267,1,2,0:0:0:0:
448,192,217267,1,4,0:0:0:0:
64,192,217591,1,10,0:0:0:0:
448,192,217916,1,2,0:0:0:0:
320,192,218240,1,10,0:0:0:0:
64,192,218564,1,4,0:0:0:0:
192,192,218564,1,2,0:0:0:0:
448,192,218889,1,10,0:0:0:0:
64,192,219213,1,2,0:0:0:0:
192,192,219537,1,10,0:0:0:0:
320,192,219862,1,4,0:0:0:0:
448,192,219862,1,2,0:0:0:0:
64,192,220186,1,10,0:0:0:0:
320,192,220510,1,6,0:0:0:0:
192,192,220835,1,10,0:0:0:0:
64,192,221159,1,2,0:0:0:0:
448,192,221159,1,4,0:0:0:0:
320,192,221483,1,10,0:0:0:0:
192,192,221807,1,2,0:0:0:0:
320,192,222132,128,10,222456:0:0:0:0:
64,192,222456,128,4,222780:0:0:0:0:
448,192,222456,1,2,0:0:0:0:
320,192,222780,1,10,0:0:0:0:
192,192,223105,1,2,0:0:0:0:
64,192,223429,1,10,0:0:0:0:
448,192,223753,128,2,224078:0:0:0:0:
192,192,224078,1,10,0:0:0:0:
320,192,224402,1,2,0:0:0:0:
448,192,224726,1,10,0:0:0:0:
192,192,225051,128,2,225375:0:0:0:0:
448,192,225375,1,10,0:0:0:0:
64,192,225699,1,2,0:0:0:0:
192,192,226024,1,10,0:0:0:0:
320,192,226348,128,2,226672:0:0:0:0:
64,192,226672,1,10,0:0:0:0:
448,192,226997,1,2,0:0:0:0:
320,192,227321,1,10,0:0:0:0:
64,192,227645,128,2,227970:0:0:0:0:
320,192,227970,1,10,0:0:0:0:
192,192,228294,1,2,0:0:0:0:
64,192,228618,1,10,0:0:0:0:
448,192,228943,128,2,229267:0:0:0:0:
192,192,229267,1,10,0:0:0:0:
320,192,229591,1,2,0:0:0:0:
64,192,229916,1,10,0:0:0:0:
192,192,230240,128,2,230564:0:0:0:0:
448,192,230564,1,10,0:0:0:0:
64,192,230889,1,2,0:0:0:0:
192,192,231213,1,10,0:0:0:0:
320,192,231537,128,2,231862:0:0:0:0:
64,192,231862,1,10,0:0:0:0:
448,192,232186,1,2,0:0:0:0:
320,192,232510,128,2,232835:0:0:0:0:
64,192,232835,128,4,233159:0:0:0:0:
448,192,232835,1,2,0:0:0:0:
320,192,233159,1,10,0:0:0:0:
192,192,233483,1,2,0:0:0:0:
448,192,233807,128,10,234132:0:0:0:0:
64,192,234132,128,2,234456:0:0:0:0:
192,192,234132,1,4,0:0:0:0:
320,192,234456,1,10,0:0:0:0:
448,192,234780,128,6,235105:0:0:0:0:
64,192,235105,128,6,235429:0:0:0:0:
320,192,235429,1,2,0:0:0:0:
448,192,235429,1,4,0:0:0:0:
192,192,235753,128,10,236078:0:0:0:0:
448,192,236078,1,6,0:0:0:0:
320,192,236402,128,10,236726:0:0:0:0:
64,192,236726,128,2,237213:0:0:0:0:
192,192,236726,1,4,0:0:0:0:
320,192,237213,128,4,237699:0:0:0:0:
448,192,237213,1,2,0:0:0:0:
192,192,237699,1,6,0:0:0:0:
64,192,238024,1,2,0:0:0:0:
448,192,238024,1,4,0:0:0:0:
320,192,238348,1,10,0:0:0:0:
192,192,238672,1,2,0:0:0:0:
64,192,238997,1,10,0:0:0:0:
320,192,239321,1,4,0:0:0:0:
448,192,239321,1,2,0:0:0:0:
192,192,239645,1,10,0:0:0:0:
320,192,239970,1,2,0:0:0:0:
192,192,240294,1,10,0:0:0:0:
64,192,240618,1,4,0:0:0:0:
448,192,240618,128,2,240943:0:0:0:0:
192,192,240943,128,10,241267:0:0:0:0:
320,192,241267,128,6,241591:0:0:0:0:
64,192,241591,128,10,241916:0:0:0:0:
320,192,241916,1,2,0:0:0:0:
448,192,241916,1,4,0:0:0:0:
192,192,242240,1,8,0:0:0:0:
320,192,242564,128,2,242889:0:0:0:0:
192,192,242889,1,2,0:0:0:0:
64,192,243213,1,2,0:0:0:0:
448,192,243213,128,4,243537:0:0:0:0:
192,192,243537,1,0,0:0:0:0:
64,192,243862,128,0,244186:0:0:0:0:
320,192,244186,1,0,0:0:0:0:
192,192,244510,128,0,244835:0:0:0:0:
448,192,244835,1,0,0:0:0:0:
320,192,245159,128,0,245483:0:0:0:0:
64,192,245483,1,0,0:0:0:0:
448,192,245807,128,0,246132:0:0:0:0:
192,192,246132,1,0,0:0:0:0:
64,192,246456,128,0,246780:0:0:0:0:
320,192,246780,1,0,0:0:0:0:
192,192,247105,128,0,247429:0:0:0:0:
320,192,247429,1,0,0:0:0:0:
448,192,247753,128,0,248078:0:0:0:0:
192,192,248078,1,0,0:0:0:0:
320,192,248402,128,0,248726:0:0:0:0:
64,192,248726,1,0,0:0:0:0:
192,192,249051,128,0,249375:0:0:0:0:
448,192,249375,1,0,0:0:0:0:
320,192,249699,128,0,250024:0:0:0:0:
64,192,250024,1,0,0:0:0:0:
448,192,250348,128,0,250672:0:0:0:0:
192,192,250672,1,0,0:0:0:0:
64,192,250997,128,0,251321:0:0:0:0:
320,192,251321,1,0,0:0:0:0:
448,192,251645,128,0,251970:0:0:0:0:
192,192,251970,1,0,0:0:0:0:
320,192,252294,128,0,252618:0:0:0:0:
64,192,252618,1,0,0:0:0:0:
448,192,252943,128,0,253267:0:0:0:0:
192,192,253267,128,0,253591:0:0:0:0:
64,192,253591,1,2,0:0:0:0:
448,192,253591,1,4,0:0:0:0:
320,192,253916,1,2,0:0:0:0:
192,192,254240,1,2,0:0:0:0:
64,192,254564,1,2,0:0:0:0:
448,192,254889,1,2,0:0:0:0:
192,192,255213,1,2,0:0:0:0:
320,192,255537,1,2,0:0:0:0:
448,192,255862,128,2,256186:0:0:0:0:
64,192,256186,1,2,0:0:0:0:
320,192,256510,1,2,0:0:0:0:
192,192,256835,1,2,0:0:0:0:
64,192,257159,128,2,257483:0:0:0:0:
448,192,257483,1,2,0:0:0:0:
192,192,257807,1,2,0:0:0:0:
320,192,258132,1,2,0:0:0:0:
192,192,258456,128,2,258780:0:0:0:0:
320,192,258780,1,2,0:0:0:0:
448,192,258780,1,4,0:0:0:0:
64,192,259105,1,2,0:0:0:0:
320,192,259429,1,2,0:0:0:0:
192,192,259753,1,2,0:0:0:0:
64,192,260078,1,4,0:0:0:0:
448,192,260078,1,2,0:0:0:0:
320,192,260402,1,2,0:0:0:0:
192,192,260726,1,2,0:0:0:0:
448,192,261051,1,2,0:0:0:0:
64,192,261375,128,2,261699:0:0:0:0:
192,192,261375,1,4,0:0:0:0:
448,192,261699,128,2,262024:0:0:0:0:
192,192,262024,128,6,262348:0:0:0:0:
320,192,262348,128,2,262672:0:0:0:0:
64,192,262672,1,2,0:0:0:0:
448,192,262672,1,4,0:0:0:0:
64,192,262997,1,6,0:0:0:0:
320,192,263321,1,6,0:0:0:0:
320,192,263645,1,6,0:0:0:0:
64,192,263970,128,4,264943:0:0:0:0:
448,192,263970,1,2,0:0:0:0:
320,192,264943,1,2,0:0:0:0:
64,192,265267,1,4,0:0:0:0:
448,192,265267,1,2,0:0:0:0:
192,192,265591,1,10,0:0:0:0:
320,192,265916,128,2,266240:0:0:0:0:
192,192,266240,128,10,266564:0:0:0:0:
448,192,266564,1,2,0:0:0:0:
64,192,266889,1,10,0:0:0:0:
320,192,267213,128,2,267537:0:0:0:0:
64,192,267537,128,10,267862:0:0:0:0:
448,192,267862,1,2,0:0:0:0:
320,192,268186,1,10,0:0:0:0:
192,192,268510,128,2,268835:0:0:0:0:
448,192,268835,128,10,269159:0:0:0:0:
64,192,269159,1,2,0:0:0:0:
320,192,269483,1,10,0:0:0:0:
192,192,269807,128,2,270132:0:0:0:0:
320,192,270132,128,10,270456:0:0:0:0:
64,192,270456,1,2,0:0:0:0:
448,192,270456,1,4,0:0:0:0:
320,192,270780,1,10,0:0:0:0:
64,192,271105,1,2,0:0:0:0:
448,192,271429,1,10,0:0:0:0:
64,192,271753,1,2,0:0:0:0:
192,192,271753,1,4,0:0:0:0:
320,192,272078,1,10,0:0:0:0:
192,192,272402,1,2,0:0:0:0:
64,192,272726,1,10,0:0:0:0:
320,192,273051,1,2,0:0:0:0:
448,192,273051,1,4,0:0:0:0:
192,192,273375,1,10,0:0:0:0:
320,192,273699,1,6,0:0:0:0:
192,192,274024,1,10,0:0:0:0:
64,192,274348,128,2,274672:0:0:0:0:
448,192,274348,1,4,0:0:0:0:
320,192,274672,128,14,274997:0:0:0:0:
192,192,274997,128,6,275483:0:0:0:0:
320,192,275483,1,6,0:0:0:0:
64,192,275970,1,10,0:0:0:0:
448,192,275970,1,4,0:0:0:0:
192,192,276294,128,2,276618:0:0:0:0:
320,192,276618,128,10,276943:0:0:0:0:
64,192,276943,1,2,0:0:0:0:
448,192,277267,1,10,0:0:0:0:
192,192,277591,128,2,277916:0:0:0:0:
448,192,277916,128,10,278240:0:0:0:0:
64,192,278240,1,2,0:0:0:0:
192,192,278564,1,10,0:0:0:0:
320,192,278889,128,2,279213:0:0:0:0:
64,192,279213,128,10,279537:0:0:0:0:
448,192,279537,1,2,0:0:0:0:
192,192,279862,1,10,0:0:0:0:
320,192,280186,128,2,280510:0:0:0:0:
192,192,280510,128,10,280835:0:0:0:0:
320,192,280835,1,2,0:0:0:0:
448,192,280835,1,4,0:0:0:0:
64,192,281159,1,10,0:0:0:0:
320,192,281483,1,2,0:0:0:0:
192,192,281807,1,10,0:0:0:0:
64,192,282132,1,4,0:0:0:0:
448,192,282132,1,2,0:0:0:0:
320,192,282456,1,10,0:0:0:0:
192,192,282780,1,2,0:0:0:0:
448,192,283105,1,10,0:0:0:0:
64,192,283429,128,4,283753:0:0:0:0:
192,192,283429,1,2,0:0:0:0:
448,192,283753,128,10,284078:0:0:0:0:
192,192,284078,128,6,284402:0:0:0:0:
320,192,284402,128,10,284726:0:0:0:0:
64,192,284726,1,2,0:0:0:0:
448,192,284726,1,4,0:0:0:0:
64,192,285051,1,6,0:0:0:0:
320,192,285375,1,6,0:0:0:0:
448,192,285699,128,10,286024:0:0:0:0:
64,192,286024,1,4,0:0:0:0:
192,192,286024,1,2,0:0:0:0:
320,192,286348,1,6,0:0:0:0:
192,192,286672,1,6,0:0:0:0:
320,192,286997,1,6,0:0:0:0:
64,192,287321,1,0,0:0:0:0:
192,192,288294,1,0,0:0:0:70:inpactclap.wav
320,192,288618,1,4,0:0:0:0:
448,192,288618,1,2,0:0:0:0:
64,192,288943,1,10,0:0:0:0:
320,192,289267,128,2,289591:0:0:0:0:
64,192,289591,128,10,289916:0:0:0:0:
448,192,289916,1,2,0:0:0:0:
320,192,290240,1,10,0:0:0:0:
192,192,290564,128,2,290889:0:0:0:0:
448,192,290889,128,10,291213:0:0:0:0:
64,192,291213,1,2,0:0:0:0:
320,192,291537,1,10,0:0:0:0:
192,192,291862,128,2,292186:0:0:0:0:
320,192,292186,128,10,292510:0:0:0:0:
64,192,292510,1,2,0:0:0:0:
448,192,292510,1,4,0:0:0:0:
320,192,292835,1,10,0:0:0:0:
64,192,293159,128,2,293483:0:0:0:0:
448,192,293483,128,10,293807:0:0:0:0:
64,192,293807,1,4,0:0:0:0:
192,192,293807,1,2,0:0:0:0:
320,192,294132,1,10,0:0:0:0:
192,192,294456,1,2,0:0:0:0:
64,192,294780,128,10,295105:0:0:0:0:
320,192,295105,1,4,0:0:0:0:
448,192,295105,1,2,0:0:0:0:
192,192,295429,128,10,295753:0:0:0:0:
448,192,295753,1,6,0:0:0:0:
320,192,296078,128,10,296402:0:0:0:0:
64,192,296402,128,4,296726:0:0:0:0:
448,192,296402,1,2,0:0:0:0:
320,192,296726,128,14,297051:0:0:0:0:
192,192,297051,128,6,297537:0:0:0:0:
320,192,297537,1,6,0:0:0:0:
64,192,298024,1,10,0:0:0:0:
448,192,298024,1,4,0:0:0:0:
192,192,298348,128,2,298672:0:0:0:0:
320,192,298672,128,10,298997:0:0:0:0:
64,192,298997,1,2,0:0:0:0:
448,192,299321,1,10,0:0:0:0:
192,192,299645,128,2,299970:0:0:0:0:
448,192,299970,128,10,300294:0:0:0:0:
64,192,300294,1,2,0:0:0:0:
192,192,300618,1,10,0:0:0:0:
320,192,300943,128,2,301267:0:0:0:0:
64,192,301267,128,10,301591:0:0:0:0:
448,192,301591,1,2,0:0:0:0:
192,192,301916,1,10,0:0:0:0:
320,192,302240,128,2,302564:0:0:0:0:
192,192,302564,128,10,302889:0:0:0:0:
320,192,302889,1,2,0:0:0:0:
448,192,302889,1,4,0:0:0:0:
64,192,303213,1,10,0:0:0:0:
320,192,303537,1,2,0:0:0:0:
192,192,303862,1,10,0:0:0:0:
64,192,304186,1,4,0:0:0:0:
448,192,304186,1,2,0:0:0:0:
320,192,304510,1,10,0:0:0:0:
192,192,304835,1,2,0:0:0:0:
448,192,305159,1,10,0:0:0:0:
64,192,305483,128,4,305807:0:0:0:0:
192,192,305483,1,2,0:0:0:0:
448,192,305807,128,10,306132:0:0:0:0:
192,192,306132,128,6,306456:0:0:0:0:
320,192,306456,128,10,306780:0:0:0:0:
64,192,306780,1,2,0:0:0:0:
448,192,306780,1,4,0:0:0:0:
64,192,307105,1,6,0:0:0:0:
320,192,307429,1,6,0:0:0:0:
192,192,307753,128,10,308078:0:0:0:0:
64,192,308078,1,4,0:0:0:0:
448,192,308078,128,2,309051:0:0:0:0:
64,192,309051,128,0,309375:0:0:0:0:
320,192,309375,1,6,0:0:0:0:
448,192,309375,1,0,0:0:0:70:inpactclap.wav
