osu file format v14

[General]
AudioFilename: ITSUHA. - SELEN - Reverse World.ogg
AudioLeadIn: 0
PreviewTime: 83163
Countdown: 0
SampleSet: Soft
StackLeniency: 0.7
Mode: 3
LetterboxInBreaks: 0
SpecialStyle: 0
WidescreenStoryboard: 0

[Editor]
DistanceSpacing: 0.7
BeatDivisor: 4
GridSize: 4
TimelineZoom: 1.7

[Metadata]
Title:Reverse World
TitleUnicode:Reverse World
Artist:SELEN
ArtistUnicode:SELEN
Creator:Kyousuke-
Version:Hard
Source:
Tags:ITSUHA. SELEN&KAREN karen trance core trancecore electronic instrumental Starry- Kuo Kyoka Akasha-
BeatmapID:995989
BeatmapSetID:464856

[Difficulty]
HPDrainRate:7.5
CircleSize:4
OverallDifficulty:7.5
ApproachRate:5
SliderMultiplier:1.4
SliderTickRate:1

[Events]
//Background and Video events
0,0,"N2SA.jpg",0,0
//Break Periods
//Storyboard Layer 0 (Background)
//Storyboard Layer 1 (Fail)
//Storyboard Layer 2 (Pass)
//Storyboard Layer 3 (Foreground)
//Storyboard Layer 4 (Overlay)
//Storyboard Sound Samples

[TimingPoints]
136,324.324324324324,4,2,1,30,1,0
10514,-100.0,4,2,1,40,0,0
20892,-100.0,4,2,1,40,0,1
30946,-100.0,4,2,1,40,0,0
31271,-100.0,4,2,1,40,0,1
41649,-100.0,4,2,1,40,0,0
83163,-100.0,4,2,1,40,0,1
93217,-100.0,4,2,1,40,0,0
93541,-100.0,4,2,1,40,0,1
103919,-100.0,4,2,1,40,0,0

[HitObjects]
64,192,136,1,4,0:0:0:0:
448,192,136,1,2,0:0:0:0:
192,192,217,1,0,0:0:0:0:
320,192,298,1,0,0:0:0:0:
448,192,379,1,0,0:0:0:0:
64,192,460,1,0,0:0:0:0:
192,192,541,1,0,0:0:0:0:
320,192,622,1,0,0:0:0:0:
448,192,703,1,0,0:0:0:0:
64,192,784,1,0,0:0:0:0:
192,192,865,1,0,0:0:0:0:
448,192,946,1,0,0:0:0:0:
320,192,1027,1,0,0:0:0:0:
64,192,1108,1,0,0:0:0:0:
448,192,1190,1,0,0:0:0:0:
192,192,1271,1,0,0:0:0:0:
320,192,1352,1,0,0:0:0:0:
64,192,1433,1,0,0:0:0:0:
192,192,1514,1,0,0:0:0:0:
320,192,1595,1,0,0:0:0:0:
448,192,1676,1,0,0:0:0:0:
64,192,1757,1,0,0:0:0:0:
192,192,1838,1,0,0:0:0:0:
320,192,1919,1,0,0:0:0:0:
448,192,2000,1,0,0:0:0:0:
64,192,2081,1,0,0:0:0:0:
320,192,2163,1,0,0:0:0:0:
192,192,2244,1,0,0:0:0:0:
320,192,2325,1,0,0:0:0:0:
448,192,2406,1,0,0:0:0:0:
192,192,2487,1,0,0:0:0:0:
320,192,2568,1,0,0:0:0:0:
192,192,2649,1,0,0:0:0:0:
64,192,2730,1,0,0:0:0:0:
320,192,2811,1,0,0:0:0:0:
448,192,2892,1,0,0:0:0:0:
64,192,2973,1,0,0:0:0:0:
192,192,3054,1,0,0:0:0:0:
448,192,3135,1,0,0:0:0:0:
320,192,3217,1,0,0:0:0:0:
192,192,3298,1,0,0:0:0:0:
448,192,3379,1,0,0:0:0:0:
320,192,3460,1,0,0:0:0:0:
192,192,3541,1,0,0:0:0:0:
64,192,3622,1,0,0:0:0:0:
320,192,3703,1,0,0:0:0:0:
192,192,3784,1,0,0:0:0:0:
448,192,3865,1,0,0:0:0:0:
64,192,3946,1,0,0:0:0:0:
192,192,4027,1,0,0:0:0:0:
320,192,4108,1,0,0:0:0:0:
448,192,4190,1,0,0:0:0:0:
64,192,4271,1,0,0:0:0:0:
192,192,4352,1,0,0:0:0:0:
320,192,4433,1,0,0:0:0:0:
448,192,4514,1,0,0:0:0:0:
64,192,4595,1,0,0:0:0:0:
320,192,4676,1,0,0:0:0:0:
192,192,4757,1,0,0:0:0:0:
64,192,4838,1,0,0:0:0:0:
448,192,4919,1,0,0:0:0:0:
192,192,5000,1,0,0:0:0:0:
320,192,5081,1,0,0:0:0:0:
64,192,5163,1,0,0:0:0:0:
192,192,5244,1,0,0:0:0:0:
320,192,5325,1,0,0:0:0:0:
448,192,5406,1,0,0:0:0:0:
64,192,5487,1,0,0:0:0:0:
320,192,5568,1,0,0:0:0:0:
192,192,5649,1,0,0:0:0:0:
448,192,5730,1,0,0:0:0:0:
320,192,5811,1,0,0:0:0:0:
192,192,5892,1,0,0:0:0:0:
64,192,5973,1,0,0:0:0:0:
448,192,6054,1,0,0:0:0:0:
192,192,6135,1,0,0:0:0:0:
320,192,6217,1,0,0:0:0:0:
64,192,6298,1,0,0:0:0:0:
192,192,6379,1,0,0:0:0:0:
320,192,6460,1,0,0:0:0:0:
448,192,6541,1,0,0:0:0:0:
64,192,6622,1,0,0:0:0:0:
192,192,6703,1,0,0:0:0:0:
320,192,6784,1,0,0:0:0:0:
448,192,6865,1,0,0:0:0:0:
64,192,6946,1,0,0:0:0:0:
192,192,7027,1,0,0:0:0:0:
448,192,7108,1,0,0:0:0:0:
320,192,7190,1,0,0:0:0:0:
192,192,7271,1,0,0:0:0:0:
448,192,7352,1,0,0:0:0:0:
64,192,7433,1,0,0:0:0:0:
192,192,7514,1,0,0:0:0:0:
320,192,7595,1,0,0:0:0:0:
448,192,7676,1,0,0:0:0:0:
192,192,7757,1,0,0:0:0:0:
320,192,7838,1,0,0:0:0:0:
64,192,7919,1,0,0:0:0:0:
320,192,8000,1,0,0:0:0:0:
64,192,8081,1,0,0:0:0:0:
192,192,8163,1,0,0:0:0:0:
448,192,8244,1,0,0:0:0:0:
192,192,8325,1,0,0:0:0:0:
448,192,8406,1,0,0:0:0:0:
320,192,8487,1,0,0:0:0:0:
64,192,8568,1,0,0:0:0:0:
192,192,8649,1,0,0:0:0:0:
320,192,8730,1,0,0:0:0:0:
448,192,8811,1,0,0:0:0:0:
64,192,8892,1,0,0:0:0:0:
320,192,8973,1,0,0:0:0:0:
192,192,9054,1,0,0:0:0:0:
64,192,9135,1,0,0:0:0:0:
448,192,9217,1,0,0:0:0:0:
320,192,9325,1,0,0:0:0:0:
192,192,9433,1,0,0:0:0:0:
64,192,9541,1,0,0:0:0:0:
192,192,9649,1,0,0:0:0:0:
320,192,9757,1,0,0:0:0:0:
448,192,9865,1,0,0:0:0:0:
64,192,9946,1,0,0:0:0:0:
192,192,10027,1,0,0:0:0:0:
320,192,10108,1,0,0:0:0:0:
448,192,10190,1,0,0:0:0:0:
64,192,10271,1,0,0:0:0:0:
192,192,10352,1,2,0:0:0:0:
320,192,10433,1,2,0:0:0:0:
64,192,10514,1,4,0:0:0:0:
448,192,10514,1,2,0:0:0:0:
192,192,10676,1,0,0:0:0:0:
320,192,10838,1,8,0:0:0:0:
448,192,10838,1,0,0:0:0:0:
64,192,10919,1,0,0:0:0:0:
192,192,11000,1,0,0:0:0:0:
448,192,11081,1,0,0:0:0:0:
320,192,11163,1,2,0:0:0:0:
192,192,11244,1,0,0:0:0:0:
64,192,11325,1,0,0:0:0:0:
448,192,11406,1,0,0:0:0:0:
320,192,11487,1,8,0:0:0:0:
64,192,11568,1,0,0:0:0:0:
192,192,11649,1,0,0:0:0:0:
320,192,11730,1,0,0:0:0:0:
64,192,11811,1,2,0:0:0:0:
448,192,11811,1,0,0:0:0:0:
192,192,11973,1,0,0:0:0:0:
320,192,12135,1,8,0:0:0:0:
448,192,12135,1,0,0:0:0:0:
192,192,12217,1,0,0:0:0:0:
64,192,12298,1,0,0:0:0:0:
448,192,12379,1,0,0:0:0:0:
320,192,12460,1,2,0:0:0:0:
192,192,12541,1,0,0:0:0:0:
64,192,12622,1,0,0:0:0:0:
192,192,12703,1,0,0:0:0:0:
320,192,12784,1,8,0:0:0:0:
448,192,12865,1,0,0:0:0:0:
64,192,12946,1,0,0:0:0:0:
192,192,13027,1,0,0:0:0:0:
320,192,13108,1,2,0:0:0:0:
448,192,13108,1,0,0:0:0:0:
192,192,13271,1,0,0:0:0:0:
64,192,13433,1,8,0:0:0:0:
448,192,13433,1,0,0:0:0:0:
320,192,13514,1,0,0:0:0:0:
192,192,13595,1,0,0:0:0:0:
320,192,13676,1,0,0:0:0:0:
448,192,13757,1,2,0:0:0:0:
64,192,13838,1,0,0:0:0:0:
192,192,13919,1,0,0:0:0:0:
320,192,14000,1,0,0:0:0:0:
448,192,14081,1,8,0:0:0:0:
64,192,14163,1,0,0:0:0:0:
192,192,14244,1,0,0:0:0:0:
320,192,14325,1,0,0:0:0:0:
64,192,14406,1,2,0:0:0:0:
448,192,14406,1,0,0:0:0:0:
192,192,14568,1,0,0:0:0:0:
64,192,14730,1,8,0:0:0:0:
320,192,14730,1,0,0:0:0:0:
448,192,14892,1,0,0:0:0:0:
64,192,15054,1,2,0:0:0:0:
192,192,15054,1,0,0:0:0:0:
320,192,15217,1,0,0:0:0:0:
192,192,15379,1,8,0:0:0:0:
448,192,15379,1,0,0:0:0:0:
64,192,15541,1,0,0:0:0:0:
320,192,15703,1,2,0:0:0:0:
448,192,15703,1,0,0:0:0:0:
64,192,15865,1,2,0:0:0:0:
192,192,15865,1,0,0:0:0:0:
320,192,16027,1,8,0:0:0:0:
448,192,16027,1,0,0:0:0:0:
64,192,16190,1,2,0:0:0:0:
192,192,16190,1,0,0:0:0:0:
320,192,16352,1,2,0:0:0:0:
448,192,16352,1,0,0:0:0:0:
64,192,16514,1,2,0:0:0:0:
192,192,16514,1,0,0:0:0:0:
320,192,16676,1,8,0:0:0:0:
448,192,16676,1,0,0:0:0:0:
192,192,16838,1,2,0:0:0:0:
320,192,16838,1,0,0:0:0:0:
64,192,17000,1,2,0:0:0:0:
448,192,17000,1,0,0:0:0:0:
192,192,17163,1,2,0:0:0:0:
320,192,17163,1,0,0:0:0:0:
64,192,17325,1,8,0:0:0:0:
448,192,17325,1,0,0:0:0:0:
192,192,17487,1,2,0:0:0:0:
320,192,17487,1,0,0:0:0:0:
64,192,17649,1,2,0:0:0:0:
448,192,17649,1,0,0:0:0:0:
192,192,17811,1,2,0:0:0:0:
320,192,17811,1,0,0:0:0:0:
64,192,17973,1,8,0:0:0:0:
448,192,17973,1,0,0:0:0:0:
192,192,18135,1,2,0:0:0:0:
320,192,18135,1,0,0:0:0:0:
64,192,18298,1,2,0:0:0:0:
192,192,18298,1,0,0:0:0:0:
320,192,18379,1,2,0:0:0:0:
192,192,18460,1,2,0:0:0:0:
64,192,18541,1,2,0:0:0:0:
320,192,18622,1,2,0:0:0:0:
448,192,18622,1,8,0:0:0:0:
192,192,18703,1,2,0:0:0:0:
320,192,18784,1,2,0:0:0:0:
448,192,18865,1,2,0:0:0:0:
64,192,18946,1,2,0:0:0:0:
192,192,18946,1,0,0:0:0:0:
320,192,19027,1,2,0:0:0:0:
192,192,19108,1,2,0:0:0:0:
448,192,19190,1,2,0:0:0:0:
192,192,19271,1,2,0:0:0:0:
320,192,19271,1,8,0:0:0:0:
64,192,19352,1,2,0:0:0:0:
320,192,19433,1,2,0:0:0:0:
192,192,19514,1,2,0:0:0:0:
320,192,19595,1,2,0:0:0:0:
448,192,19595,1,0,0:0:0:0:
64,192,19676,1,2,0:0:0:0:
448,192,19757,128,0,19919:0:0:0:0:
192,192,19838,1,0,0:0:0:0:
320,192,19919,1,10,0:0:0:0:
64,192,20000,1,2,0:0:0:0:
192,192,20081,128,0,20244:0:0:0:0:
448,192,20163,1,0,0:0:0:0:
320,192,20244,1,2,0:0:0:0:
64,192,20325,1,2,0:0:0:0:
448,192,20406,1,2,0:0:0:0:
192,192,20487,1,2,0:0:0:0:
320,192,20568,1,2,0:0:0:0:
448,192,20568,1,8,0:0:0:0:
64,192,20649,1,2,0:0:0:0:
192,192,20730,1,0,0:0:0:0:
320,192,20811,1,0,0:0:0:0:
64,192,20892,1,2,0:0:0:0:
448,192,20892,1,4,0:0:0:0:
320,192,21054,1,0,0:0:0:0:
192,192,21217,1,8,0:0:0:0:
448,192,21217,1,0,0:0:0:0:
64,192,21379,1,0,0:0:0:0:
320,192,21541,1,2,0:0:0:0:
448,192,21541,1,0,0:0:0:0:
64,192,21622,1,0,0:0:0:0:
192,192,21703,1,0,0:0:0:0:
448,192,21784,1,0,0:0:0:0:
320,192,21865,1,8,0:0:0:0:
64,192,21946,1,0,0:0:0:0:
192,192,22027,1,0,0:0:0:0:
320,192,22108,1,0,0:0:0:0:
64,192,22190,1,2,0:0:0:0:
448,192,22190,1,0,0:0:0:0:
192,192,22271,1,0,0:0:0:0:
320,192,22352,1,0,0:0:0:0:
192,192,22433,1,0,0:0:0:0:
64,192,22514,1,8,0:0:0:0:
320,192,22595,1,0,0:0:0:0:
448,192,22676,1,0,0:0:0:0:
64,192,22757,1,0,0:0:0:0:
192,192,22838,1,2,0:0:0:0:
320,192,22919,1,0,0:0:0:0:
448,192,23000,1,0,0:0:0:0:
192,192,23081,1,0,0:0:0:0:
64,192,23163,1,8,0:0:0:0:
448,192,23244,1,0,0:0:0:0:
320,192,23325,1,0,0:0:0:0:
192,192,23406,1,0,0:0:0:0:
64,192,23487,1,2,0:0:0:0:
448,192,23487,1,0,0:0:0:0:
192,192,23568,1,0,0:0:0:0:
320,192,23649,1,0,0:0:0:0:
64,192,23730,1,0,0:0:0:0:
448,192,23811,1,8,0:0:0:0:
320,192,23892,1,0,0:0:0:0:
192,192,23973,1,0,0:0:0:0:
448,192,24054,1,0,0:0:0:0:
64,192,24135,1,2,0:0:0:0:
192,192,24217,1,0,0:0:0:0:
320,192,24298,1,0,0:0:0:0:
192,192,24379,1,0,0:0:0:0:
448,192,24460,1,8,0:0:0:0:
320,192,24541,1,0,0:0:0:0:
192,192,24622,1,0,0:0:0:0:
320,192,24703,1,0,0:0:0:0:
64,192,24784,1,2,0:0:0:0:
448,192,24784,1,0,0:0:0:0:
192,192,24946,1,0,0:0:0:0:
64,192,25108,1,8,0:0:0:0:
448,192,25108,1,0,0:0:0:0:
320,192,25271,1,0,0:0:0:0:
64,192,25433,1,2,0:0:0:0:
192,192,25433,1,0,0:0:0:0:
320,192,25595,1,0,0:0:0:0:
64,192,25757,1,8,0:0:0:0:
448,192,25757,1,0,0:0:0:0:
192,192,25838,1,0,0:0:0:0:
320,192,25919,1,0,0:0:0:0:
448,192,26000,1,0,0:0:0:0:
64,192,26081,1,2,0:0:0:0:
192,192,26081,1,0,0:0:0:0:
320,192,26244,1,0,0:0:0:0:
64,192,26406,1,8,0:0:0:0:
448,192,26406,1,0,0:0:0:0:
192,192,26568,1,0,0:0:0:0:
320,192,26730,1,2,0:0:0:0:
448,192,26730,1,0,0:0:0:0:
192,192,26892,1,0,0:0:0:0:
64,192,27054,1,8,0:0:0:0:
448,192,27054,1,0,0:0:0:0:
320,192,27217,1,0,0:0:0:0:
64,192,27379,1,2,0:0:0:0:
192,192,27379,1,0,0:0:0:0:
448,192,27541,1,0,0:0:0:0:
64,192,27703,1,8,0:0:0:0:
320,192,27703,1,0,0:0:0:0:
192,192,27865,1,0,0:0:0:0:
320,192,28027,1,2,0:0:0:0:
448,192,28027,1,0,0:0:0:0:
192,192,28190,1,0,0:0:0:0:
64,192,28271,1,0,0:0:0:0:
320,192,28352,1,8,0:0:0:0:
448,192,28352,1,0,0:0:0:0:
192,192,28514,1,0,0:0:0:0:
64,192,28676,1,2,0:0:0:0:
448,192,28676,1,0,0:0:0:0:
320,192,28757,1,0,0:0:0:0:
192,192,28838,1,0,0:0:0:0:
448,192,28919,1,0,0:0:0:0:
64,192,29000,1,8,0:0:0:0:
192,192,29081,1,0,0:0:0:0:
320,192,29163,1,0,0:0:0:0:
448,192,29244,1,0,0:0:0:0:
64,192,29325,1,2,0:0:0:0:
192,192,29406,1,0,0:0:0:0:
320,192,29487,1,0,0:0:0:0:
64,192,29568,1,0,0:0:0:0:
448,192,29649,1,8,0:0:0:0:
320,192,29730,1,0,0:0:0:0:
192,192,29811,1,0,0:0:0:0:
64,192,29892,1,0,0:0:0:0:
320,192,29973,1,2,0:0:0:0:
448,192,29973,1,0,0:0:0:0:
192,192,30054,1,0,0:0:0:0:
192,192,30217,1,0,0:0:0:0:
320,192,30379,1,0,0:0:0:0:
320,192,30541,1,0,0:0:0:0:
64,192,30622,1,2,0:0:0:0:
192,192,30622,1,0,0:0:0:0:
320,192,30784,1,0,0:0:0:0:
64,192,30946,1,8,0:0:0:0:
448,192,30946,1,0,0:0:0:0:
192,192,31027,1,0,0:0:0:0:
320,192,31108,1,0,0:0:0:0:
448,192,31190,1,0,0:0:0:0:
64,192,31271,1,2,0:0:0:0:
192,192,31271,1,4,0:0:0:0:
320,192,31433,1,0,0:0:0:0:
64,192,31595,1,8,0:0:0:0:
448,192,31595,1,0,0:0:0:0:
192,192,31757,1,0,0:0:0:0:
320,192,31919,1,2,0:0:0:0:
448,192,31919,1,0,0:0:0:0:
192,192,32000,1,0,0:0:0:0:
64,192,32081,1,0,0:0:0:0:
192,192,32163,1,0,0:0:0:0:
320,192,32244,1,8,0:0:0:0:
448,192,32325,1,0,0:0:0:0:
192,192,32406,1,0,0:0:0:0:
64,192,32487,1,0,0:0:0:0:
320,192,32568,1,2,0:0:0:0:
448,192,32568,1,0,0:0:0:0:
192,192,32649,1,0,0:0:0:0:
64,192,32730,1,0,0:0:0:0:
192,192,32811,1,0,0:0:0:0:
448,192,32892,1,8,0:0:0:0:
320,192,32973,1,0,0:0:0:0:
64,192,33054,1,0,0:0:0:0:
192,192,33135,1,0,0:0:0:0:
320,192,33217,1,2,0:0:0:0:
448,192,33298,1,0,0:0:0:0:
320,192,33379,1,0,0:0:0:0:
192,192,33460,1,0,0:0:0:0:
64,192,33541,1,8,0:0:0:0:
192,192,33622,1,0,0:0:0:0:
320,192,33703,1,0,0:0:0:0:
448,192,33784,1,0,0:0:0:0:
64,192,33865,1,2,0:0:0:0:
192,192,33865,1,0,0:0:0:0:
320,192,33946,1,0,0:0:0:0:
448,192,34027,1,0,0:0:0:0:
64,192,34108,1,0,0:0:0:0:
320,192,34190,1,8,0:0:0:0:
192,192,34271,1,0,0:0:0:0:
448,192,34352,1,0,0:0:0:0:
320,192,34433,1,0,0:0:0:0:
192,192,34514,1,2,0:0:0:0:
64,192,34595,1,0,0:0:0:0:
448,192,34676,1,0,0:0:0:0:
192,192,34757,1,0,0:0:0:0:
320,192,34838,1,8,0:0:0:0:
64,192,34919,1,0,0:0:0:0:
192,192,35000,1,0,0:0:0:0:
320,192,35081,1,0,0:0:0:0:
64,192,35163,1,2,0:0:0:0:
448,192,35163,1,0,0:0:0:0:
192,192,35325,1,0,0:0:0:0:
320,192,35487,1,8,0:0:0:0:
448,192,35487,1,0,0:0:0:0:
192,192,35649,1,0,0:0:0:0:
64,192,35811,1,2,0:0:0:0:
448,192,35811,1,0,0:0:0:0:
320,192,35973,1,0,0:0:0:0:
64,192,36135,1,8,0:0:0:0:
192,192,36135,1,0,0:0:0:0:
448,192,36217,1,0,0:0:0:0:
320,192,36298,1,0,0:0:0:0:
192,192,36379,1,0,0:0:0:0:
64,192,36460,1,2,0:0:0:0:
448,192,36460,1,4,0:0:0:0:
320,192,36622,1,0,0:0:0:0:
192,192,36784,1,8,0:0:0:0:
448,192,36784,1,0,0:0:0:0:
64,192,36946,1,0,0:0:0:0:
192,192,37108,1,2,0:0:0:0:
320,192,37108,1,0,0:0:0:0:
448,192,37271,1,0,0:0:0:0:
64,192,37433,1,8,0:0:0:0:
320,192,37433,1,0,0:0:0:0:
192,192,37595,1,0,0:0:0:0:
320,192,37757,1,2,0:0:0:0:
448,192,37757,1,4,0:0:0:0:
64,192,37919,1,0,0:0:0:0:
192,192,38081,1,8,0:0:0:0:
320,192,38081,1,0,0:0:0:0:
448,192,38244,1,0,0:0:0:0:
64,192,38406,1,2,0:0:0:0:
192,192,38406,1,0,0:0:0:0:
320,192,38568,1,0,0:0:0:0:
192,192,38649,1,0,0:0:0:0:
320,192,38730,1,8,0:0:0:0:
448,192,38730,1,0,0:0:0:0:
192,192,38892,1,0,0:0:0:0:
320,192,39054,1,2,0:0:0:0:
448,192,39054,1,4,0:0:0:0:
192,192,39135,1,0,0:0:0:0:
64,192,39217,1,0,0:0:0:0:
448,192,39298,1,0,0:0:0:0:
320,192,39379,1,8,0:0:0:0:
192,192,39460,1,0,0:0:0:0:
64,192,39541,1,0,0:0:0:0:
192,192,39622,1,0,0:0:0:0:
320,192,39703,1,2,0:0:0:0:
448,192,39703,1,4,0:0:0:0:
64,192,39784,1,0,0:0:0:0:
192,192,39865,1,0,0:0:0:0:
320,192,39946,1,0,0:0:0:0:
448,192,40027,1,8,0:0:0:0:
64,192,40108,1,0,0:0:0:0:
192,192,40190,1,0,0:0:0:0:
320,192,40271,1,0,0:0:0:0:
64,192,40352,1,2,0:0:0:0:
448,192,40352,1,4,0:0:0:0:
192,192,40433,1,0,0:0:0:0:
192,192,40595,1,0,0:0:0:0:
64,192,40676,1,8,0:0:0:0:
448,192,40676,1,4,0:0:0:0:
320,192,40757,1,0,0:0:0:0:
320,192,40919,1,0,0:0:0:0:
64,192,41000,1,2,0:0:0:0:
192,192,41000,1,0,0:0:0:0:
448,192,41163,1,0,0:0:0:0:
192,192,41325,1,8,0:0:0:0:
320,192,41325,1,4,0:0:0:0:
64,192,41487,1,0,0:0:0:0:
320,192,41649,1,4,0:0:0:0:
448,192,41649,128,2,43595:0:0:0:0:
192,192,41811,1,0,0:0:0:0:
64,192,41973,1,8,0:0:0:0:
320,192,42135,1,0,0:0:0:0:
192,192,42298,1,2,0:0:0:0:
64,192,42460,1,0,0:0:0:0:
192,192,42622,1,8,0:0:0:0:
320,192,42784,1,0,0:0:0:0:
64,192,42946,1,2,0:0:0:0:
192,192,43108,1,0,0:0:0:0:
320,192,43271,1,8,0:0:0:0:
64,192,43433,1,0,0:0:0:0:
192,192,43595,1,2,0:0:0:0:
320,192,43595,128,0,44244:0:0:0:0:
64,192,43757,1,0,0:0:0:0:
448,192,43919,1,8,0:0:0:0:
192,192,44081,1,0,0:0:0:0:
64,192,44244,128,2,45541:0:0:0:0:
448,192,44244,1,0,0:0:0:0:
192,192,44406,1,0,0:0:0:0:
320,192,44568,1,8,0:0:0:0:
448,192,44730,1,0,0:0:0:0:
192,192,44892,1,2,0:0:0:0:
320,192,45054,1,0,0:0:0:0:
448,192,45217,1,8,0:0:0:0:
320,192,45379,1,0,0:0:0:0:
192,192,45541,128,2,46190:0:0:0:0:
448,192,45541,1,0,0:0:0:0:
320,192,45703,1,0,0:0:0:0:
64,192,45865,1,8,0:0:0:0:
320,192,46027,1,0,0:0:0:0:
64,192,46190,1,2,0:0:0:0:
448,192,46190,128,0,46838:0:0:0:0:
192,192,46352,1,0,0:0:0:0:
320,192,46514,1,8,0:0:0:0:
192,192,46676,1,0,0:0:0:0:
64,192,46838,128,2,48135:0:0:0:0:
320,192,46838,1,4,0:0:0:0:
448,192,47000,1,0,0:0:0:0:
192,192,47163,1,8,0:0:0:0:
320,192,47325,1,0,0:0:0:0:
448,192,47487,1,2,0:0:0:0:
192,192,47649,1,0,0:0:0:0:
448,192,47811,1,8,0:0:0:0:
320,192,47973,1,0,0:0:0:0:
192,192,48135,1,2,0:0:0:0:
448,192,48135,128,4,49433:0:0:0:0:
64,192,48298,1,0,0:0:0:0:
320,192,48460,1,8,0:0:0:0:
192,192,48622,1,0,0:0:0:0:
64,192,48784,1,2,0:0:0:0:
320,192,48946,1,0,0:0:0:0:
64,192,49108,1,8,0:0:0:0:
192,192,49271,1,0,0:0:0:0:
64,192,49433,128,2,50730:0:0:0:0:
320,192,49433,1,4,0:0:0:0:
448,192,49595,1,0,0:0:0:0:
320,192,49757,1,8,0:0:0:0:
192,192,49919,1,0,0:0:0:0:
320,192,50081,1,4,0:0:0:0:
448,192,50081,1,2,0:0:0:0:
192,192,50244,1,0,0:0:0:0:
320,192,50406,1,8,0:0:0:0:
448,192,50568,1,0,0:0:0:0:
192,192,50730,1,2,0:0:0:0:
320,192,50730,1,4,0:0:0:0:
448,192,50892,1,0,0:0:0:0:
64,192,51054,1,4,0:0:0:0:
192,192,51054,1,8,0:0:0:0:
448,192,51217,1,0,0:0:0:0:
192,192,51379,1,4,0:0:0:0:
320,192,51379,1,8,0:0:0:0:
64,192,51541,1,0,0:0:0:0:
320,192,51703,1,4,0:0:0:0:
448,192,51703,1,8,0:0:0:0:
64,192,51865,1,0,0:0:0:0:
320,192,52027,1,2,0:0:0:0:
448,192,52027,128,4,53973:0:0:0:0:
192,192,52190,1,0,0:0:0:0:
320,192,52352,1,8,0:0:0:0:
64,192,52514,1,0,0:0:0:0:
192,192,52676,1,2,0:0:0:0:
320,192,52838,1,0,0:0:0:0:
192,192,53000,1,8,0:0:0:0:
64,192,53163,1,0,0:0:0:0:
320,192,53325,1,2,0:0:0:0:
192,192,53487,1,0,0:0:0:0:
320,192,53649,1,8,0:0:0:0:
64,192,53811,1,0,0:0:0:0:
192,192,53973,128,2,54622:0:0:0:0:
320,192,53973,1,0,0:0:0:0:
448,192,54135,1,0,0:0:0:0:
64,192,54298,1,8,0:0:0:0:
320,192,54460,1,0,0:0:0:0:
64,192,54622,128,2,55919:0:0:0:0:
448,192,54622,1,0,0:0:0:0:
320,192,54784,1,0,0:0:0:0:
192,192,54946,1,8,0:0:0:0:
448,192,55108,1,0,0:0:0:0:
320,192,55271,1,2,0:0:0:0:
192,192,55433,1,0,0:0:0:0:
320,192,55595,1,8,0:0:0:0:
448,192,55757,1,0,0:0:0:0:
192,192,55919,1,2,0:0:0:0:
320,192,55919,128,0,56568:0:0:0:0:
64,192,56081,1,0,0:0:0:0:
448,192,56244,1,8,0:0:0:0:
192,192,56406,1,0,0:0:0:0:
64,192,56568,1,2,0:0:0:0:
448,192,56568,128,0,57217:0:0:0:0:
192,192,56730,1,0,0:0:0:0:
320,192,56892,1,8,0:0:0:0:
64,192,57054,1,0,0:0:0:0:
192,192,57217,128,2,58514:0:0:0:0:
320,192,57217,1,4,0:0:0:0:
64,192,57379,1,0,0:0:0:0:
320,192,57541,1,8,0:0:0:0:
448,192,57703,1,0,0:0:0:0:
64,192,57865,1,2,0:0:0:0:
448,192,58027,1,0,0:0:0:0:
320,192,58190,1,8,0:0:0:0:
64,192,58352,1,0,0:0:0:0:
320,192,58514,128,2,59811:0:0:0:0:
448,192,58514,1,4,0:0:0:0:
64,192,58676,1,0,0:0:0:0:
192,192,58838,1,8,0:0:0:0:
448,192,59000,1,0,0:0:0:0:
64,192,59163,1,2,0:0:0:0:
192,192,59325,1,0,0:0:0:0:
64,192,59487,1,8,0:0:0:0:
448,192,59649,1,0,0:0:0:0:
64,192,59811,1,2,0:0:0:0:
192,192,59811,1,4,0:0:0:0:
320,192,59973,1,2,0:0:0:0:
448,192,59973,1,0,0:0:0:0:
64,192,60135,1,8,0:0:0:0:
192,192,60135,1,2,0:0:0:0:
320,192,60298,1,2,0:0:0:0:
448,192,60298,1,0,0:0:0:0:
64,192,60460,1,4,0:0:0:0:
448,192,60460,1,2,0:0:0:0:
192,192,60622,1,2,0:0:0:0:
320,192,60622,1,0,0:0:0:0:
64,192,60784,1,8,0:0:0:0:
448,192,60784,1,2,0:0:0:0:
192,192,60946,1,2,0:0:0:0:
320,192,60946,1,0,0:0:0:0:
64,192,61108,1,2,0:0:0:0:
448,192,61108,1,4,0:0:0:0:
192,192,61271,1,2,0:0:0:0:
320,192,61352,1,2,0:0:0:0:
448,192,61433,1,6,0:0:0:0:
64,192,61514,1,2,0:0:0:0:
448,192,61595,1,2,0:0:0:0:
64,192,61676,1,2,0:0:0:0:
320,192,61757,1,2,0:0:0:0:
192,192,61838,1,2,0:0:0:0:
320,192,61919,1,2,0:0:0:0:
192,192,62000,1,2,0:0:0:0:
448,192,62081,1,12,0:0:0:0:
64,192,62163,1,8,0:0:0:0:
448,192,62244,1,8,0:0:0:0:
64,192,62325,1,8,0:0:0:0:
320,192,62406,1,2,0:0:0:0:
448,192,62406,1,4,0:0:0:0:
64,192,62568,1,0,0:0:0:0:
192,192,62649,1,0,0:0:0:0:
320,192,62730,128,0,62892:0:0:0:0:
64,192,62892,1,2,0:0:0:0:
448,192,62892,1,4,0:0:0:0:
192,192,63054,1,0,0:0:0:0:
320,192,63135,1,0,0:0:0:0:
448,192,63217,128,0,63379:0:0:0:0:
64,192,63379,1,2,0:0:0:0:
192,192,63379,1,4,0:0:0:0:
448,192,63541,1,0,0:0:0:0:
320,192,63622,1,0,0:0:0:0:
192,192,63703,128,0,63865:0:0:0:0:
64,192,63865,1,2,0:0:0:0:
448,192,63865,1,4,0:0:0:0:
320,192,64027,1,0,0:0:0:0:
192,192,64108,1,0,0:0:0:0:
64,192,64190,128,0,64352:0:0:0:0:
320,192,64352,1,2,0:0:0:0:
448,192,64352,1,4,0:0:0:0:
192,192,64514,1,0,0:0:0:0:
320,192,64595,1,0,0:0:0:0:
192,192,64676,128,0,64838:0:0:0:0:
320,192,64838,1,2,0:0:0:0:
448,192,64838,1,4,0:0:0:0:
64,192,65000,1,0,0:0:0:0:
192,192,65081,1,0,0:0:0:0:
64,192,65163,128,0,65325:0:0:0:0:
192,192,65325,1,2,0:0:0:0:
448,192,65325,1,4,0:0:0:0:
320,192,65487,1,0,0:0:0:0:
192,192,65568,1,0,0:0:0:0:
320,192,65649,128,0,65811:0:0:0:0:
64,192,65811,1,4,0:0:0:0:
192,192,65811,1,2,0:0:0:0:
448,192,65973,1,0,0:0:0:0:
320,192,66054,1,0,0:0:0:0:
448,192,66135,128,0,66298:0:0:0:0:
192,192,66298,1,4,0:0:0:0:
320,192,66298,1,2,0:0:0:0:
64,192,66460,1,0,0:0:0:0:
192,192,66541,1,0,0:0:0:0:
320,192,66622,128,0,66784:0:0:0:0:
64,192,66784,1,4,0:0:0:0:
192,192,66784,1,2,0:0:0:0:
448,192,66946,1,0,0:0:0:0:
320,192,67027,1,0,0:0:0:0:
192,192,67108,128,0,67271:0:0:0:0:
64,192,67271,1,4,0:0:0:0:
448,192,67271,1,2,0:0:0:0:
192,192,67433,1,0,0:0:0:0:
320,192,67595,1,2,0:0:0:0:
448,192,67595,1,4,0:0:0:0:
64,192,67757,1,0,0:0:0:0:
192,192,67919,1,8,0:0:0:0:
320,192,67919,1,0,0:0:0:0:
448,192,68000,1,0,0:0:0:0:
64,192,68081,1,0,0:0:0:0:
192,192,68163,1,0,0:0:0:0:
320,192,68244,1,2,0:0:0:0:
448,192,68244,1,0,0:0:0:0:
192,192,68406,1,2,0:0:0:0:
320,192,68406,1,0,0:0:0:0:
64,192,68568,1,8,0:0:0:0:
448,192,68568,1,0,0:0:0:0:
320,192,68730,1,0,0:0:0:0:
64,192,68892,1,2,0:0:0:0:
192,192,68892,1,4,0:0:0:0:
448,192,69054,1,0,0:0:0:0:
192,192,69217,1,8,0:0:0:0:
320,192,69217,1,0,0:0:0:0:
64,192,69298,1,0,0:0:0:0:
448,192,69379,1,0,0:0:0:0:
320,192,69460,1,0,0:0:0:0:
64,192,69541,1,2,0:0:0:0:
192,192,69541,1,0,0:0:0:0:
192,192,69703,1,2,0:0:0:0:
320,192,69703,1,0,0:0:0:0:
64,192,69865,1,8,0:0:0:0:
448,192,69865,1,0,0:0:0:0:
192,192,70027,1,0,0:0:0:0:
320,192,70190,1,2,0:0:0:0:
448,192,70190,1,4,0:0:0:0:
64,192,70352,1,2,0:0:0:0:
192,192,70352,1,0,0:0:0:0:
64,192,70514,1,8,0:0:0:0:
448,192,70514,1,0,0:0:0:0:
192,192,70676,1,2,0:0:0:0:
320,192,70676,1,0,0:0:0:0:
64,192,70838,1,2,0:0:0:0:
448,192,70838,1,4,0:0:0:0:
192,192,70919,1,2,0:0:0:0:
320,192,71000,1,2,0:0:0:0:
448,192,71081,1,2,0:0:0:0:
64,192,71163,1,10,0:0:0:0:
192,192,71244,1,2,0:0:0:0:
320,192,71325,1,2,0:0:0:0:
448,192,71406,1,2,0:0:0:0:
64,192,71487,1,4,0:0:0:0:
192,192,71487,1,2,0:0:0:0:
320,192,71568,1,2,0:0:0:0:
192,192,71649,1,0,0:0:0:0:
64,192,71730,1,0,0:0:0:0:
320,192,71811,1,2,0:0:0:0:
448,192,71811,1,4,0:0:0:0:
192,192,71892,1,2,0:0:0:0:
320,192,71973,1,0,0:0:0:0:
448,192,72054,1,0,0:0:0:0:
64,192,72135,1,2,0:0:0:0:
192,192,72135,1,0,0:0:0:0:
320,192,72217,1,2,0:0:0:0:
448,192,72298,1,0,0:0:0:0:
64,192,72379,1,0,0:0:0:0:
192,192,72460,1,2,0:0:0:0:
320,192,72460,1,4,0:0:0:0:
448,192,72541,1,0,0:0:0:0:
64,192,72622,1,2,0:0:0:0:
320,192,72703,1,2,0:0:0:0:
64,192,72784,1,2,0:0:0:0:
192,192,72784,1,4,0:0:0:0:
448,192,72946,1,0,0:0:0:0:
192,192,73108,1,0,0:0:0:0:
320,192,73271,1,4,0:0:0:0:
448,192,73271,1,2,0:0:0:0:
192,192,73433,1,0,0:0:0:0:
64,192,73595,1,0,0:0:0:0:
320,192,73757,1,2,0:0:0:0:
448,192,73757,1,4,0:0:0:0:
192,192,73919,1,0,0:0:0:0:
320,192,74081,1,0,0:0:0:0:
64,192,74244,1,2,0:0:0:0:
448,192,74244,1,4,0:0:0:0:
192,192,74406,1,0,0:0:0:0:
320,192,74568,1,0,0:0:0:0:
64,192,74730,1,2,0:0:0:0:
448,192,74730,1,4,0:0:0:0:
320,192,74892,1,0,0:0:0:0:
192,192,75054,1,0,0:0:0:0:
64,192,75217,1,2,0:0:0:0:
448,192,75217,1,4,0:0:0:0:
192,192,75379,1,0,0:0:0:0:
320,192,75541,1,0,0:0:0:0:
64,192,75703,1,4,0:0:0:0:
192,192,75703,1,2,0:0:0:0:
448,192,75865,1,0,0:0:0:0:
320,192,76027,1,0,0:0:0:0:
64,192,76190,1,4,0:0:0:0:
192,192,76190,1,2,0:0:0:0:
320,192,76352,1,0,0:0:0:0:
448,192,76514,1,0,0:0:0:0:
64,192,76676,1,4,0:0:0:0:
192,192,76676,1,2,0:0:0:0:
320,192,76838,1,0,0:0:0:0:
192,192,77000,1,0,0:0:0:0:
64,192,77163,1,4,0:0:0:0:
448,192,77163,1,2,0:0:0:0:
192,192,77325,1,0,0:0:0:0:
320,192,77487,1,0,0:0:0:0:
64,192,77649,1,2,0:0:0:0:
448,192,77649,1,4,0:0:0:0:
192,192,77811,1,0,0:0:0:0:
320,192,77973,1,2,0:0:0:0:
448,192,77973,1,4,0:0:0:0:
64,192,78135,1,2,0:0:0:0:
192,192,78135,1,0,0:0:0:0:
320,192,78298,1,8,0:0:0:0:
448,192,78298,1,0,0:0:0:0:
64,192,78460,1,2,0:0:0:0:
192,192,78460,1,0,0:0:0:0:
320,192,78622,1,2,0:0:0:0:
448,192,78622,1,0,0:0:0:0:
64,192,78784,1,2,0:0:0:0:
192,192,78784,1,0,0:0:0:0:
320,192,78946,1,8,0:0:0:0:
448,192,78946,1,0,0:0:0:0:
64,192,79108,1,2,0:0:0:0:
192,192,79108,1,0,0:0:0:0:
64,192,79271,1,2,0:0:0:0:
448,192,79271,1,4,0:0:0:0:
192,192,79433,1,2,0:0:0:0:
320,192,79433,1,0,0:0:0:0:
64,192,79595,1,8,0:0:0:0:
448,192,79595,1,0,0:0:0:0:
192,192,79757,1,2,0:0:0:0:
320,192,79757,1,0,0:0:0:0:
64,192,79919,1,2,0:0:0:0:
448,192,79919,1,0,0:0:0:0:
192,192,80081,1,2,0:0:0:0:
320,192,80081,1,0,0:0:0:0:
64,192,80244,1,8,0:0:0:0:
448,192,80244,1,0,0:0:0:0:
192,192,80406,1,2,0:0:0:0:
320,192,80406,1,0,0:0:0:0:
64,192,80568,1,2,0:0:0:0:
448,192,80568,1,4,0:0:0:0:
192,192,80649,1,2,0:0:0:0:
320,192,80730,1,2,0:0:0:0:
448,192,80811,1,2,0:0:0:0:
64,192,80892,1,10,0:0:0:0:
192,192,80973,1,2,0:0:0:0:
448,192,81054,1,2,0:0:0:0:
320,192,81135,1,2,0:0:0:0:
64,192,81217,1,2,0:0:0:0:
192,192,81217,1,4,0:0:0:0:
448,192,81298,1,2,0:0:0:0:
320,192,81379,1,2,0:0:0:0:
192,192,81460,1,2,0:0:0:0:
64,192,81541,1,10,0:0:0:0:
448,192,81622,1,2,0:0:0:0:
320,192,81703,1,2,0:0:0:0:
192,192,81784,1,2,0:0:0:0:
64,192,81865,1,2,0:0:0:0:
448,192,81865,1,4,0:0:0:0:
192,192,81946,1,2,0:0:0:0:
320,192,82027,1,0,0:0:0:0:
448,192,82108,1,0,0:0:0:0:
64,192,82190,1,2,0:0:0:0:
192,192,82190,1,4,0:0:0:0:
320,192,82271,1,2,0:0:0:0:
448,192,82352,1,0,0:0:0:0:
64,192,82433,1,0,0:0:0:0:
192,192,82514,1,2,0:0:0:0:
448,192,82595,1,2,0:0:0:0:
320,192,82676,1,0,0:0:0:0:
192,192,82757,1,2,0:0:0:0:
64,192,82838,1,8,0:0:0:0:
448,192,82838,1,4,0:0:0:0:
320,192,82919,1,0,0:0:0:0:
192,192,83000,1,2,0:0:0:0:
64,192,83081,1,2,0:0:0:0:
320,192,83163,1,2,0:0:0:0:
448,192,83163,1,4,0:0:0:0:
192,192,83325,1,0,0:0:0:0:
320,192,83406,1,0,0:0:0:0:
64,192,83487,1,8,0:0:0:0:
448,192,83487,1,0,0:0:0:0:
192,192,83568,1,0,0:0:0:0:
320,192,83649,128,0,83811:0:0:0:0:
64,192,83811,1,2,0:0:0:0:
192,192,83811,1,0,0:0:0:0:
448,192,83892,1,0,0:0:0:0:
320,192,83973,1,0,0:0:0:0:
192,192,84054,1,0,0:0:0:0:
64,192,84135,1,8,0:0:0:0:
448,192,84217,1,0,0:0:0:0:
320,192,84298,1,0,0:0:0:0:
192,192,84379,1,0,0:0:0:0:
64,192,84460,1,2,0:0:0:0:
448,192,84460,1,0,0:0:0:0:
192,192,84622,1,0,0:0:0:0:
64,192,84703,1,0,0:0:0:0:
320,192,84784,1,8,0:0:0:0:
448,192,84784,1,0,0:0:0:0:
192,192,84865,1,0,0:0:0:0:
320,192,84946,128,0,85108:0:0:0:0:
64,192,85108,1,2,0:0:0:0:
448,192,85108,1,0,0:0:0:0:
192,192,85190,1,0,0:0:0:0:
320,192,85271,1,0,0:0:0:0:
448,192,85352,1,0,0:0:0:0:
64,192,85433,1,8,0:0:0:0:
192,192,85514,1,0,0:0:0:0:
320,192,85595,1,0,0:0:0:0:
448,192,85676,1,0,0:0:0:0:
64,192,85757,1,2,0:0:0:0:
192,192,85757,1,0,0:0:0:0:
320,192,85919,1,0,0:0:0:0:
448,192,86000,1,0,0:0:0:0:
64,192,86081,1,8,0:0:0:0:
192,192,86081,1,0,0:0:0:0:
320,192,86244,1,0,0:0:0:0:
64,192,86406,1,2,0:0:0:0:
448,192,86406,1,0,0:0:0:0:
192,192,86568,1,0,0:0:0:0:
320,192,86730,1,8,0:0:0:0:
448,192,86730,1,0,0:0:0:0:
192,192,86892,1,0,0:0:0:0:
64,192,87054,1,2,0:0:0:0:
448,192,87054,1,0,0:0:0:0:
320,192,87217,1,0,0:0:0:0:
448,192,87298,1,0,0:0:0:0:
64,192,87379,1,8,0:0:0:0:
192,192,87379,1,0,0:0:0:0:
448,192,87541,1,0,0:0:0:0:
320,192,87622,1,0,0:0:0:0:
64,192,87703,1,2,0:0:0:0:
192,192,87703,1,0,0:0:0:0:
320,192,87865,1,0,0:0:0:0:
64,192,88027,1,8,0:0:0:0:
448,192,88027,1,0,0:0:0:0:
192,192,88108,1,0,0:0:0:0:
320,192,88190,1,0,0:0:0:0:
192,192,88271,1,0,0:0:0:0:
64,192,88352,1,2,0:0:0:0:
448,192,88352,1,0,0:0:0:0:
320,192,88433,1,0,0:0:0:0:
192,192,88514,1,0,0:0:0:0:
64,192,88595,128,0,89000:0:0:0:0:
448,192,88595,1,0,0:0:0:0:
320,192,88676,1,8,0:0:0:0:
448,192,88838,1,0,0:0:0:0:
192,192,89000,1,2,0:0:0:0:
320,192,89000,1,0,0:0:0:0:
448,192,89081,1,0,0:0:0:0:
64,192,89163,1,0,0:0:0:0:
192,192,89244,1,0,0:0:0:0:
320,192,89325,1,8,0:0:0:0:
448,192,89406,1,0,0:0:0:0:
64,192,89487,1,0,0:0:0:0:
192,192,89568,1,0,0:0:0:0:
320,192,89649,1,2,0:0:0:0:
448,192,89649,1,0,0:0:0:0:
192,192,89730,1,0,0:0:0:0:
64,192,89811,1,0,0:0:0:0:
320,192,89892,1,0,0:0:0:0:
448,192,89892,128,0,90298:0:0:0:0:
192,192,89973,1,8,0:0:0:0:
64,192,90135,1,0,0:0:0:0:
192,192,90298,1,2,0:0:0:0:
320,192,90298,1,0,0:0:0:0:
64,192,90379,1,0,0:0:0:0:
192,192,90460,1,0,0:0:0:0:
320,192,90541,1,0,0:0:0:0:
448,192,90622,1,8,0:0:0:0:
64,192,90703,1,0,0:0:0:0:
192,192,90784,1,0,0:0:0:0:
320,192,90865,1,0,0:0:0:0:
64,192,90946,1,2,0:0:0:0:
448,192,90946,1,0,0:0:0:0:
320,192,91108,1,0,0:0:0:0:
192,192,91190,1,0,0:0:0:0:
320,192,91271,1,8,0:0:0:0:
448,192,91271,1,0,0:0:0:0:
64,192,91433,1,0,0:0:0:0:
320,192,91595,1,2,0:0:0:0:
448,192,91595,1,0,0:0:0:0:
192,192,91757,1,0,0:0:0:0:
320,192,91838,1,0,0:0:0:0:
64,192,91919,1,8,0:0:0:0:
192,192,91919,1,0,0:0:0:0:
320,192,92081,1,0,0:0:0:0:
64,192,92244,1,2,0:0:0:0:
448,192,92244,1,0,0:0:0:0:
192,192,92325,1,0,0:0:0:0:
320,192,92406,1,0,0:0:0:0:
448,192,92487,1,0,0:0:0:0:
64,192,92568,1,8,0:0:0:0:
192,192,92649,1,0,0:0:0:0:
448,192,92730,1,0,0:0:0:0:
320,192,92811,1,0,0:0:0:0:
192,192,92892,1,2,0:0:0:0:
64,192,92973,1,0,0:0:0:0:
448,192,93054,1,0,0:0:0:0:
320,192,93135,1,0,0:0:0:0:
64,192,93217,1,8,0:0:0:0:
192,192,93298,1,0,0:0:0:0:
320,192,93379,1,0,0:0:0:0:
448,192,93460,1,0,0:0:0:0:
64,192,93541,1,2,0:0:0:0:
192,192,93541,1,4,0:0:0:0:
320,192,93703,1,0,0:0:0:0:
192,192,93784,1,0,0:0:0:0:
64,192,93865,1,8,0:0:0:0:
448,192,93865,1,0,0:0:0:0:
320,192,93946,1,0,0:0:0:0:
192,192,94027,128,0,94190:0:0:0:0:
320,192,94190,1,2,0:0:0:0:
448,192,94190,1,0,0:0:0:0:
64,192,94271,1,0,0:0:0:0:
320,192,94352,1,0,0:0:0:0:
192,192,94433,1,0,0:0:0:0:
448,192,94514,1,8,0:0:0:0:
320,192,94595,1,0,0:0:0:0:
192,192,94676,1,0,0:0:0:0:
64,192,94757,1,0,0:0:0:0:
320,192,94838,1,2,0:0:0:0:
448,192,94838,1,0,0:0:0:0:
192,192,95000,1,0,0:0:0:0:
64,192,95081,1,0,0:0:0:0:
320,192,95163,1,8,0:0:0:0:
448,192,95163,1,0,0:0:0:0:
192,192,95244,1,0,0:0:0:0:
320,192,95325,128,0,95487:0:0:0:0:
64,192,95487,1,2,0:0:0:0:
448,192,95487,1,0,0:0:0:0:
192,192,95568,1,0,0:0:0:0:
320,192,95649,1,0,0:0:0:0:
448,192,95730,1,0,0:0:0:0:
64,192,95811,1,8,0:0:0:0:
192,192,95892,1,0,0:0:0:0:
448,192,95973,1,0,0:0:0:0:
320,192,96054,1,0,0:0:0:0:
64,192,96135,1,2,0:0:0:0:
192,192,96135,1,0,0:0:0:0:
320,192,96298,1,0,0:0:0:0:
192,192,96379,1,0,0:0:0:0:
64,192,96460,1,8,0:0:0:0:
448,192,96460,1,0,0:0:0:0:
320,192,96622,1,0,0:0:0:0:
64,192,96784,1,2,0:0:0:0:
192,192,96784,1,0,0:0:0:0:
448,192,96946,1,0,0:0:0:0:
192,192,97108,1,8,0:0:0:0:
320,192,97108,1,0,0:0:0:0:
64,192,97271,1,0,0:0:0:0:
320,192,97433,1,2,0:0:0:0:
448,192,97433,1,0,0:0:0:0:
192,192,97595,1,0,0:0:0:0:
320,192,97676,1,0,0:0:0:0:
64,192,97757,1,8,0:0:0:0:
448,192,97757,1,0,0:0:0:0:
320,192,97919,1,0,0:0:0:0:
192,192,98000,1,0,0:0:0:0:
64,192,98081,1,2,0:0:0:0:
448,192,98081,1,0,0:0:0:0:
192,192,98244,1,0,0:0:0:0:
320,192,98406,1,8,0:0:0:0:
448,192,98406,1,0,0:0:0:0:
64,192,98487,1,0,0:0:0:0:
192,192,98568,1,0,0:0:0:0:
320,192,98649,1,0,0:0:0:0:
64,192,98730,1,2,0:0:0:0:
448,192,98730,1,4,0:0:0:0:
192,192,98892,1,2,0:0:0:0:
320,192,98892,1,0,0:0:0:0:
64,192,99054,1,8,0:0:0:0:
448,192,99054,1,0,0:0:0:0:
192,192,99217,1,2,0:0:0:0:
320,192,99217,1,0,0:0:0:0:
320,192,99379,1,2,0:0:0:0:
448,192,99379,1,0,0:0:0:0:
192,192,99460,1,0,0:0:0:0:
64,192,99541,1,2,0:0:0:0:
448,192,99622,1,0,0:0:0:0:
192,192,99703,1,8,0:0:0:0:
320,192,99703,1,0,0:0:0:0:
64,192,99784,1,0,0:0:0:0:
448,192,99865,1,2,0:0:0:0:
320,192,99946,1,2,0:0:0:0:
64,192,100027,1,2,0:0:0:0:
192,192,100027,1,4,0:0:0:0:
320,192,100190,1,2,0:0:0:0:
448,192,100190,1,0,0:0:0:0:
64,192,100352,1,8,0:0:0:0:
192,192,100352,1,0,0:0:0:0:
320,192,100514,1,2,0:0:0:0:
448,192,100514,1,0,0:0:0:0:
64,192,100676,1,2,0:0:0:0:
448,192,100676,1,0,0:0:0:0:
320,192,100757,1,0,0:0:0:0:
192,192,100838,1,2,0:0:0:0:
320,192,100919,1,0,0:0:0:0:
64,192,101000,1,8,0:0:0:0:
448,192,101000,1,0,0:0:0:0:
192,192,101081,1,0,0:0:0:0:
320,192,101163,1,2,0:0:0:0:
192,192,101244,1,2,0:0:0:0:
64,192,101325,1,2,0:0:0:0:
448,192,101325,1,4,0:0:0:0:
320,192,101406,1,2,0:0:0:0:
192,192,101487,1,2,0:0:0:0:
64,192,101568,1,2,0:0:0:0:
320,192,101649,1,2,0:0:0:0:
448,192,101649,1,8,0:0:0:0:
192,192,101730,1,2,0:0:0:0:
64,192,101811,1,2,0:0:0:0:
448,192,101892,1,2,0:0:0:0:
192,192,101973,1,2,0:0:0:0:
320,192,101973,1,4,0:0:0:0:
64,192,102054,1,2,0:0:0:0:
448,192,102135,1,0,0:0:0:0:
192,192,102217,1,0,0:0:0:0:
320,192,102298,1,2,0:0:0:0:
448,192,102298,1,8,0:0:0:0:
64,192,102379,1,2,0:0:0:0:
192,192,102460,1,2,0:0:0:0:
320,192,102541,1,2,0:0:0:0:
64,192,102622,1,2,0:0:0:0:
448,192,102622,1,4,0:0:0:0:
192,192,102784,1,0,0:0:0:0:
64,192,102946,1,2,0:0:0:0:
320,192,102946,1,4,0:0:0:0:
448,192,103108,1,0,0:0:0:0:
192,192,103271,1,2,0:0:0:0:
320,192,103271,1,4,0:0:0:0:
64,192,103433,1,0,0:0:0:0:
320,192,103595,1,2,0:0:0:0:
448,192,103595,1,4,0:0:0:0:
192,192,103676,1,2,0:0:0:0:
320,192,103757,1,2,0:0:0:0:
192,192,103838,1,2,0:0:0:0:
64,192,103919,1,2,0:0:0:0:
448,192,103919,128,4,104892:0:0:0:0:
64,192,104892,1,0,0:0:0:0:
320,192,104973,1,0,0:0:0:0:
64,192,105054,1,0,0:0:0:0:
320,192,105135,1,0,0:0:0:0:
64,192,105217,1,2,0:0:0:0:
192,192,105217,1,0,0:0:0:0:
