osu file format v14

[General]
AudioFilename: audio.mp3
AudioLeadIn: 0
PreviewTime: 68665
Countdown: 0
SampleSet: Normal
StackLeniency: 0.7
Mode: 0
LetterboxInBreaks: 0
WidescreenStoryboard: 1

[Editor]
DistanceSpacing: 1
BeatDivisor: 4
GridSize: 4
TimelineZoom: 2

[Metadata]
Title:RPG
TitleUnicode:RPG
Artist:SEKAI NO OWARI
ArtistUnicode:SEKAI NO OWARI
Creator:gary00737
Version:Normal
Source:
Tags:J-POP TOY'S FACTORY クレヨンしんちゃん バカうまっ!B級グルメサバイバル!!
BeatmapID:1192378
BeatmapSetID:563925

[Difficulty]
HPDrainRate:5
CircleSize:3.5
OverallDifficulty:5
ApproachRate:5
SliderMultiplier:1.4
SliderTickRate:1

[Events]
//Background and Video events
0,0,"1366x768.jpg",0,0
//Break Periods
2,20614,22326
//Storyboard Layer 0 (Background)
//Storyboard Layer 1 (Fail)
//Storyboard Layer 2 (Pass)
//Storyboard Layer 3 (Foreground)
//Storyboard Sound Samples

[TimingPoints]
1082,444.444444444444,4,1,0,40,1,0
70415,-100,4,1,0,40,0,1
98415,-66.6666666666667,4,1,0,40,0,0
98859,-66.6666666666667,4,1,0,5,0,0

[Colours]
Combo1 : 0,0,255
Combo2 : 0,255,255
Combo3 : 0,128,192

[HitObjects]
24,64,1082,6,0,P|104:48|184:48,1,140,4|0,0:0|0:0,0:0:0:0:
216,92,1748,1,0,0:0:0:0:
272,48,1970,2,0,P|280:120|220:164,1,140
168,188,2637,1,0,0:0:0:0:
32,216,3081,5,0,0:0:0:0:
48,144,3304,2,0,L|64:48,2,70
32,216,3970,1,8,0:0:0:0:
60,280,4193,1,8,0:0:0:0:
192,328,4637,2,0,P|260:360|344:360,1,140,4|0,0:0|0:0,0:0:0:0:
392,364,5303,5,0,0:0:0:0:
460,360,5525,2,0,P|456:292|416:216,1,140
360,204,6193,1,0,0:0:0:0:
224,244,6636,5,0,0:0:0:0:
156,224,6859,2,0,L|80:200,2,70
224,244,7525,1,8,0:0:0:0:
260,184,7748,1,8,0:0:0:0:
336,64,8193,5,4,0:0:0:0:
360,204,8637,1,0,0:0:0:0:
412,156,8859,2,0,P|428:184|424:228,1,70
420,348,9526,1,0,0:0:0:0:
484,380,9748,2,0,P|484:320|400:280,1,140
352,288,10415,2,0,P|312:312|288:320,2,70
404,240,11081,5,8,0:0:0:0:
448,184,11304,1,8,0:0:0:0:
304,156,11748,5,4,0:0:0:0:
196,244,12192,1,0,0:0:0:0:
172,308,12414,2,0,P|132:272|136:220,1,70
64,132,13081,1,0,0:0:0:0:
28,72,13303,2,0,P|92:40|212:40,1,140
172,104,13970,2,0,P|224:64|236:28,2,70
120,152,14636,5,8,0:0:0:0:
84,212,14859,1,8,0:0:0:0:
220,176,15304,6,0,B|240:199|240:199|225:262|296:295,1,140,4|0,0:0|0:0,0:0:0:0:
309,220,15970,1,0,0:0:0:0:
321,148,16193,6,0,P|372:191|357:274,1,140,4|0,0:0|0:0,0:0:0:0:
344,324,16859,1,0,0:0:0:0:
208,308,17304,2,0,L|132:276,2,70
272,332,17970,1,0,0:0:0:0:
340,308,18193,2,8,P|300:268|256:264,1,70
160,252,18859,5,0,0:0:0:0:
124,312,19081,2,0,P|84:352|32:352,2,70
160,252,19748,1,0,0:0:0:0:
96,228,19970,2,0,P|120:196|160:184,2,70
464,32,23526,6,8,P|400:32|368:48,2,70
432,96,24193,2,0,P|352:112|272:112,1,140,4|0,0:0|0:0,0:0:0:0:
292,44,24859,2,0,P|248:60|224:96,1,70
144,184,25526,2,0,P|176:232|208:248,1,70
320,284,26193,2,0,P|345:260|361:229,2,70,4|0|0,0:0|0:0|0:0,0:0:0:0:
268,332,26859,1,0,0:0:0:0:
204,356,27081,5,8,0:0:0:0:
136,332,27304,1,8,0:0:0:0:
28,244,27748,6,0,P|71:189|132:157,1,140,4|0,0:0|0:0,0:0:0:0:
196,128,28414,2,0,P|220:103|232:70,1,70
100,20,29081,2,0,P|60:72|56:124,1,70
92,220,29748,6,0,P|44:204|12:172,2,70
160,236,30415,1,0,0:0:0:0:
228,248,30636,5,8,0:0:0:0:
296,232,30859,1,8,0:0:0:0:
424,180,31304,6,0,B|393:174|393:174|364:117|288:137,1,140,4|0,0:0|0:0,0:0:0:0:
327,203,31970,1,0,0:0:0:0:
363,265,32193,2,0,P|295:264|253:191,1,140,4|0,0:0|0:0,0:0:0:0:
216,148,32859,2,0,L|148:176,1,70
112,232,33304,1,0,0:0:0:0:
108,296,33526,2,0,P|148:312|208:312,2,70
44,268,34193,5,8,0:0:0:0:
0,212,34415,1,8,0:0:0:0:
36,76,34859,5,4,0:0:0:0:
96,44,35081,1,0,0:0:0:0:
164,36,35304,1,0,0:0:0:0:
212,84,35526,2,0,B|180:120|104:92|72:140,1,140
36,184,36193,1,0,0:0:0:0:
84,232,36415,1,0,0:0:0:0:
144,356,36859,6,0,B|172:343|172:343|228:374|279:315,1,140,4|0,0:0|0:0,0:0:0:0:
211,282,37525,1,0,0:0:0:0:
156,236,37748,2,8,P|192:216|240:216,1,70
352,160,38415,6,0,B|352:228|352:228|336:264|352:300,1,140,4|0,0:0|0:0,0:0:0:0:
408,264,39081,1,0,0:0:0:0:
468,300,39304,6,0,B|483:266|467:230|467:230|467:162,1,140,4|0,0:0|0:0,0:0:0:0:
512,108,39970,2,0,B|472:80|428:104|428:104|364:104,1,140
308,88,40637,2,0,P|336:48|376:36,2,70
260,140,41304,5,8,0:0:0:0:
204,180,41526,1,8,0:0:0:0:
80,244,41970,6,0,B|128:288|168:224|220:276,1,140,4|0,0:0|0:0,0:0:0:0:
276,300,42636,1,0,0:0:0:0:
308,364,42859,2,0,B|348:336|348:288|348:288|352:228,1,140
284,220,43525,2,0,B|312:172|260:112|288:60,1,140
316,24,44192,2,0,P|352:32|396:52,2,70
244,24,44859,5,8,0:0:0:0:
176,44,45081,1,8,0:0:0:0:
56,116,45526,6,0,B|0:168|76:232|8:300,1,140,4|0,0:0|0:0,0:0:0:0:
4,312,46193,1,0,0:0:0:0:
44,368,46415,1,0,0:0:0:0:
184,352,46859,5,0,0:0:0:0:
248,324,47081,2,0,B|308:300|408:308,1,140
436,356,47748,2,0,P|476:328|496:292,2,70
368,380,48415,1,8,0:0:0:0:
304,356,48637,1,8,0:0:0:0:
172,308,49081,6,0,P|199:243|248:194,1,140,4|0,0:0|0:0,0:0:0:0:
300,244,49748,2,0,B|328:204|312:164|312:164|316:100,1,140
248,96,50415,2,0,B|136:80|136:80|152:128|152:128|124:180,1,210
76,216,51304,6,0,P|112:236|156:236,2,70
20,176,51970,1,8,0:0:0:0:
12,108,52193,1,8,0:0:0:0:
8,256,52637,6,0,P|72:352|248:368,1,280,4|0,0:0|0:0,0:0:0:0:
292,348,53748,1,8,0:0:0:0:
336,292,53970,1,8,0:0:0:0:
204,248,54415,6,0,P|204:184|252:120,1,140
312,152,55081,2,0,P|316:116|292:72,1,70
248,44,55526,1,8,0:0:0:0:
180,36,55748,1,8,0:0:0:0:
80,136,56193,6,0,P|32:216|16:280,1,140,4|0,0:0|0:0,0:0:0:0:
4,328,56859,2,0,B|84:328|148:296|180:232,1,210
168,164,57748,2,0,B|236:168|244:224|244:224|312:204|312:204|320:276|320:276|420:252,1,350
484,232,59081,5,8,0:0:0:0:
460,168,59304,1,8,0:0:0:0:
444,100,59526,2,0,P|420:72|372:56,1,70
340,108,59970,2,0,P|320:52|332:20,2,70
364,172,60637,1,0,0:0:0:0:
344,240,60859,2,8,L|416:272,2,70
272,244,61526,6,0,B|224:140|224:140|248:96|248:96|240:60|244:24,1,210,4|0,0:0|0:0,0:0:0:0:
184,12,62415,1,0,0:0:0:0:
172,80,62637,2,8,L|103:93,1,70
52,44,63081,1,0,0:0:0:0:
40,112,63304,6,0,P|8:144|4:196,2,70
103,92,63970,1,0,0:0:0:0:
236,128,64415,2,0,L|274:209,1,70
308,244,64859,1,0,0:0:0:0:
236,364,65304,6,0,L|140:364,1,70
96,360,65748,1,0,0:0:0:0:
92,220,66193,2,0,L|28:252,2,70
156,192,66859,1,8,0:0:0:0:
288,148,67304,1,8,0:0:0:0:
256,192,67526,12,4,70415,0:0:0:0:
32,336,71304,6,0,P|80:288|176:272,1,140
216,280,71970,1,0,0:0:0:0:
284,292,72193,1,0,0:0:0:0:
352,308,72415,2,0,L|268:168,1,140
288,120,73081,2,8,L|368:132,2,70
224,144,73748,1,0,0:0:0:0:
184,200,73970,6,0,P|136:88|136:56,1,140,4|0,0:0|0:0,0:0:0:0:
184,20,74637,1,0,0:0:0:0:
208,88,74859,2,0,P|288:88|368:104,1,140
320,164,75526,2,0,P|360:168|400:144,1,70
444,112,75970,6,0,P|456:148|444:204,1,70
504,228,76415,2,0,P|468:248|416:240,1,70
372,260,76859,1,8,0:0:0:0:
312,224,77081,1,8,0:0:0:0:
272,164,77304,1,0,0:0:0:0:
236,104,77526,6,0,P|168:91|96:104,1,140,4|0,0:0|0:0,0:0:0:0:
44,148,78193,1,0,0:0:0:0:
108,176,78415,2,0,P|139:189|164:214,1,70
204,272,78859,1,0,0:0:0:0:
224,340,79081,2,0,P|164:344|64:336,1,140
36,288,79748,1,0,0:0:0:0:
104,272,79971,2,0,P|124:232|104:180,1,70
88,148,80415,5,8,0:0:0:0:
144,108,80637,1,8,0:0:0:0:
192,160,80859,2,0,P|268:192|340:216,1,140
264,84,81748,2,0,L|188:88,1,70
192,160,82193,2,0,L|108:168,2,70
296,60,83081,6,0,L|360:12,2,70
264,124,83748,1,0,0:0:0:0:
332,132,83970,2,8,L|392:88,1,70
504,160,84637,6,0,B|504:232|436:308,1,140,4|0,0:0|0:0,0:0:0:0:
404,236,85304,1,0,0:0:0:0:
416,168,85526,2,0,B|334:122|251:170,1,140
304,224,86193,1,0,0:0:0:0:
324,292,86415,6,0,P|244:292|168:244,1,140
152,208,87081,1,0,0:0:0:0:
100,160,87304,1,0,0:0:0:0:
84,228,87526,2,8,P|100:276|124:312,1,70
220,348,88193,6,0,P|312:372|360:372,1,140,4|0,0:0|0:0,0:0:0:0:
424,360,88859,1,0,0:0:0:0:
380,304,89081,2,0,B|380:224|380:224|428:224|444:176,1,140
496,172,89748,1,0,0:0:0:0:
444,128,89970,5,0,0:0:0:0:
380,152,90193,2,0,B|380:88|380:88|316:88|284:72,1,140
240,104,90859,1,0,0:0:0:0:
228,36,91081,2,8,L|132:20,1,70
128,88,91526,1,0,0:0:0:0:
84,32,91748,6,0,P|56:84|104:156,1,140,4|0,0:0|0:0,0:0:0:0:
160,164,92415,1,0,0:0:0:0:
116,220,92637,2,0,P|75:225|24:220,2,70
184,232,93304,6,0,P|204:292|260:356,1,140
324,356,93970,1,0,0:0:0:0:
376,308,94193,1,0,0:0:0:0:
336,252,94415,2,8,P|320:220|288:180,1,70
300,120,94859,1,0,0:0:0:0:
232,112,95081,2,0,P|276:56|344:68,1,140
440,160,95970,5,0,0:0:0:0:
368,164,96193,2,0,P|384:204|420:228,1,70
472,224,96637,2,0,P|460:264|420:288,1,70
384,324,97081,1,0,0:0:0:0:
324,360,97304,6,0,P|316:316|328:280,1,70
368,240,97748,2,0,P|328:224|276:240,1,70
232,236,98193,1,8,0:0:0:0:
128,216,98415,1,8,0:0:0:0:
