osu file format v14

[General]
AudioFilename: audio.mp3
AudioLeadIn: 0
PreviewTime: 68665
Countdown: 0
SampleSet: Normal
StackLeniency: 0.7
Mode: 0
LetterboxInBreaks: 0
WidescreenStoryboard: 0

[Editor]
DistanceSpacing: 1.6
BeatDivisor: 4
GridSize: 4
TimelineZoom: 2

[Metadata]
Title:RPG
TitleUnicode:RPG
Artist:SEKAI NO OWARI
ArtistUnicode:SEKAI NO OWARI
Creator:gary00737
Version:Hard
Source:
Tags:J-POP TOY'S FACTORY クレヨンしんちゃん バカうまっ!B級グルメサバイバル!!
BeatmapID:1192377
BeatmapSetID:563925

[Difficulty]
HPDrainRate:6
CircleSize:4
OverallDifficulty:6
ApproachRate:7.6
SliderMultiplier:1.4
SliderTickRate:1

[Events]
//Background and Video events
0,0,"1366x768.jpg",0,0
//Break Periods
2,20615,22354
//Storyboard Layer 0 (Background)
//Storyboard Layer 1 (Fail)
//Storyboard Layer 2 (Pass)
//Storyboard Layer 3 (Foreground)
//Storyboard Sound Samples

[TimingPoints]
1082,444.444444444444,4,1,0,40,1,0
67748,-66.6666666666667,4,1,0,40,0,0
68637,-100,4,1,0,40,0,0
70415,-100,4,1,0,40,0,1
98415,-66.6666666666667,4,1,0,40,0,0
98859,-66.6666666666667,4,1,0,5,0,0

[Colours]
Combo1 : 0,0,255
Combo2 : 0,255,255
Combo3 : 0,128,192

[HitObjects]
33,59,1082,6,0,P|88:19|167:32,1,140,4|0,0:0|0:0,0:0:0:0:
224,72,1748,1,0,0:0:0:0:
184,144,1970,1,0,0:0:0:0:
184,144,2415,5,4,0:0:0:0:
224,72,2637,2,0,P|277:48|356:61,1,140
384,136,3304,2,0,P|352:136|288:120,2,70
448,80,3970,5,8,0:0:0:0:
384,24,4193,1,8,0:0:0:0:
334,219,4637,2,0,P|402:236|472:232,1,140,4|0,0:0|0:0,0:0:0:0:
314,129,5303,1,0,0:0:0:0:
256,192,5525,1,0,0:0:0:0:
256,192,5970,5,4,0:0:0:0:
176,200,6192,2,0,P|192:152|192:40,1,140
96,40,6859,2,0,P|56:40|8:64,2,70
196,63,7525,5,8,0:0:0:0:
320,144,7748,1,8,0:0:0:0:
176,208,7970,1,0,0:0:0:0:
232,144,8193,1,4,0:0:0:0:
112,352,8637,6,0,P|80:368|32:352,2,70
256,240,9526,1,4,0:0:0:0:
312,184,9748,2,0,P|337:237|332:268,2,70
240,151,10415,2,0,P|255:120|280:96,2,70
304,222,11081,5,8,0:0:0:0:
376,264,11304,1,8,0:0:0:0:
376,264,11748,5,4,0:0:0:0:
448,112,12192,2,0,P|448:80|464:32,2,70
448,184,12859,1,0,0:0:0:0:
368,152,13081,1,4,0:0:0:0:
376,264,13304,1,0,0:0:0:0:
376,264,13748,5,0,0:0:0:0:
435,363,13970,2,0,P|470:361|504:352,2,70
456,280,14636,5,8,0:0:0:0:
376,264,14859,1,8,0:0:0:0:
376,264,15303,5,4,0:0:0:0:
448,112,15748,1,0,0:0:0:0:
392,176,15970,1,0,0:0:0:0:
376,264,16193,1,0,0:0:0:0:
320,336,16415,1,0,0:0:0:0:
232,352,16637,2,0,P|184:352|136:336,1,70,4|0,0:0|0:0,0:0:0:0:
60,172,17304,5,0,0:0:0:0:
144,128,17526,1,0,0:0:0:0:
96,272,17748,1,0,0:0:0:0:
64,176,17970,5,4,0:0:0:0:
64,80,18193,1,8,0:0:0:0:
160,168,18415,1,8,0:0:0:0:
96,272,18637,1,0,0:0:0:0:
32,368,18859,5,4,0:0:0:0:
96,272,19081,1,0,0:0:0:0:
176,208,19304,1,0,0:0:0:0:
272,176,19526,1,0,0:0:0:0:
280,280,19748,5,0,0:0:0:0:
376,328,19970,1,0,0:0:0:0:
376,224,20193,1,0,0:0:0:0:
272,176,20415,1,4,0:0:0:0:
160,48,23526,5,8,0:0:0:0:
64,72,23748,1,8,0:0:0:0:
136,144,23970,1,0,0:0:0:0:
160,48,24193,2,0,P|232:47|304:80,1,140,4|0,0:0|0:0,0:0:0:0:
408,144,24859,5,0,0:0:0:0:
408,40,25081,2,0,L|472:0,2,70
344,192,25748,2,0,L|264:224,2,70
504,120,26415,1,0,0:0:0:0:
360,96,26637,1,0,0:0:0:0:
424,256,26859,1,0,0:0:0:0:
420,168,27081,5,8,0:0:0:0:
304,200,27304,1,8,0:0:0:0:
244,96,27526,1,0,0:0:0:0:
128,96,27748,1,4,0:0:0:0:
128,96,28193,6,0,P|160:160|160:184,1,70
72,224,28637,1,0,0:0:0:0:
72,224,29081,5,0,0:0:0:0:
224,328,29304,1,0,0:0:0:0:
224,328,29748,5,0,0:0:0:0:
208,232,29970,1,0,0:0:0:0:
344,168,30193,1,0,0:0:0:0:
296,256,30415,1,0,0:0:0:0:
248,168,30637,1,8,0:0:0:0:
392,248,30859,2,0,L|472:296,2,70
160,160,31748,6,0,P|189:171|240:176,1,70
344,168,32193,1,0,0:0:0:0:
344,168,32637,5,0,0:0:0:0:
246,173,32859,1,0,0:0:0:0:
176,240,33081,1,0,0:0:0:0:
248,304,33304,5,0,0:0:0:0:
264,312,33415,1,0,0:0:0:0:
280,320,33526,1,0,0:0:0:0:
416,184,33748,1,0,0:0:0:0:
296,224,33970,1,0,0:0:0:0:
440,280,34193,1,8,0:0:0:0:
352,120,34415,1,8,0:0:0:0:
360,272,34637,1,0,0:0:0:0:
488,216,34859,5,0,0:0:0:0:
416,184,35081,1,0,0:0:0:0:
360,272,35304,1,0,0:0:0:0:
240,320,35526,2,0,P|224:304|192:256,1,70
136,176,35970,1,0,0:0:0:0:
192,120,36193,2,0,P|216:160|216:200,1,70
88,312,36859,6,0,P|72:280|40:232,1,70
148,249,37304,2,0,P|164:281|208:312,1,70
224,216,37748,1,8,0:0:0:0:
192,120,37970,2,0,L|256:56,2,70
56,240,38859,1,0,0:0:0:0:
112,136,39081,2,0,P|114:101|130:70,1,70
304,264,39748,2,0,P|320:232|320:184,1,70
186,61,40415,6,0,P|154:85|130:133,1,70
72,176,40859,2,0,P|136:192|152:192,1,70
232,168,41304,1,8,0:0:0:0:
272,88,41526,2,0,P|312:88|352:96,2,70
88,80,42415,1,0,0:0:0:0:
176,48,42637,2,0,P|176:96|160:128,1,70
40,280,43304,2,0,P|40:232|56:200,1,70
200,88,43970,6,0,P|248:104|280:136,1,70
176,160,44415,2,0,P|128:144|112:128,1,70
200,88,44859,1,8,0:0:0:0:
272,144,45081,2,0,B|280:192|296:216,2,70
416,24,45970,2,0,P|448:32|488:72,2,70
296,216,46859,1,0,0:0:0:0:
352,136,47081,1,0,0:0:0:0:
160,144,47526,5,0,0:0:0:0:
240,200,47748,1,0,0:0:0:0:
192,56,47970,1,0,0:0:0:0:
160,224,48193,1,0,0:0:0:0:
256,112,48415,1,8,0:0:0:0:
91,159,48637,2,0,L|163:143,1,70
352,96,49081,6,0,P|384:128|400:176,1,70,4|0,0:0|0:0,0:0:0:0:
400,304,49526,1,0,0:0:0:0:
352,216,49748,1,0,0:0:0:0:
448,240,49970,1,0,0:0:0:0:
280,280,50193,5,0,0:0:0:0:
352,216,50415,1,0,0:0:0:0:
328,344,50637,1,0,0:0:0:0:
160,192,51081,6,0,P|128:184|64:184,1,70
232,136,51526,1,8,0:0:0:0:
240,224,51748,2,0,L|240:304,1,70
232,136,52193,1,8,0:0:0:0:
112,328,52637,5,4,0:0:0:0:
128,72,53081,1,0,0:0:0:0:
64,192,53304,1,0,0:0:0:0:
200,128,53526,1,0,0:0:0:0:
48,104,53748,1,8,0:0:0:0:
154,181,53970,2,0,L|202:125,2,70
64,272,54637,5,0,0:0:0:0:
240,344,54859,1,0,0:0:0:0:
209,220,55081,2,0,P|173:188|121:176,1,70
184,304,55526,2,0,P|220:336|272:348,1,70
153,180,55970,1,0,0:0:0:0:
296,232,56193,5,0,0:0:0:0:
288,128,56415,1,0,0:0:0:0:
384,168,56637,1,0,0:0:0:0:
384,64,56859,1,0,0:0:0:0:
408,304,57304,2,8,P|440:272|456:240,1,70
464,152,57748,1,12,0:0:0:0:
464,152,58193,5,4,0:0:0:0:
424,64,58415,1,0,0:0:0:0:
296,144,58637,1,0,0:0:0:0:
376,136,58859,1,0,0:0:0:0:
224,72,59081,1,8,0:0:0:0:
352,208,59304,2,0,L|424:240,2,70
208,152,59970,1,0,0:0:0:0:
64,216,60193,5,0,0:0:0:0:
216,232,60415,1,0,0:0:0:0:
128,144,60637,1,0,0:0:0:0:
120,344,60859,1,8,0:0:0:0:
144,240,61081,1,8,0:0:0:0:
144,240,61526,5,4,0:0:0:0:
288,200,61748,1,0,0:0:0:0:
200,144,61970,1,0,0:0:0:0:
256,288,62193,1,0,0:0:0:0:
280,120,62415,1,8,0:0:0:0:
152,80,62637,1,8,0:0:0:0:
216,216,62859,1,0,0:0:0:0:
240,24,63081,1,0,0:0:0:0:
159,148,63304,2,0,P|151:114|152:80,1,70
216,216,63748,2,0,P|209:250|188:278,1,70
336,280,64415,6,0,P|357:252|364:218,1,70
304,144,64859,1,0,0:0:0:0:
304,144,65304,5,0,0:0:0:0:
156,261,65526,1,0,0:0:0:0:
194,145,65748,1,0,0:0:0:0:
400,296,66193,5,0,0:0:0:0:
352,208,66415,1,0,0:0:0:0:
328,352,66637,1,0,0:0:0:0:
472,312,66859,1,0,0:0:0:0:
288,272,67081,1,0,0:0:0:0:
416,368,67304,1,0,0:0:0:0:
480,256,67748,2,4,B|457:261|457:261|461:225|461:225|430:244|430:244|434:208|434:208|403:227|403:227|407:191|407:191|376:210|376:210|379:174|379:174|349:193|349:193|352:157|352:157|322:176|322:176|325:140|325:140|303:145,1,420.000016021729
320,128,68859,5,0,0:0:0:0:
160,72,69081,1,0,0:0:0:0:
280,56,69304,1,0,0:0:0:0:
176,176,69526,1,0,0:0:0:0:
104,336,69748,1,8,0:0:0:0:
96,320,69859,1,8,0:0:0:0:
88,304,69970,2,0,P|104:240|120:224,1,70,12|0,0:0|0:0,0:0:0:0:
272,160,70415,1,4,0:0:0:0:
272,160,70859,5,0,0:0:0:0:
80,144,71081,1,0,0:0:0:0:
192,112,71304,1,0,0:0:0:0:
192,112,71748,5,0,0:0:0:0:
336,184,71970,1,0,0:0:0:0:
288,48,72193,2,2,L|264:120,1,70
208,264,72637,1,0,0:0:0:0:
320,224,72859,1,0,0:0:0:0:
172,148,73081,5,8,0:0:0:0:
248,184,73304,1,0,0:0:0:0:
240,104,73526,1,4,0:0:0:0:
176,152,73748,1,8,0:0:0:0:
312,136,73970,1,0,0:0:0:0:
512,160,74415,5,0,0:0:0:0:
360,144,74637,1,0,0:0:0:0:
480,224,74859,1,0,0:0:0:0:
416,72,75081,1,0,0:0:0:0:
400,216,75304,1,0,0:0:0:0:
336,72,75526,2,0,P|288:56|256:56,1,70
272,136,75970,6,0,P|288:184|288:216,1,70
272,320,76415,1,0,0:0:0:0:
216,184,76637,1,0,0:0:0:0:
336,272,76859,1,8,0:0:0:0:
200,264,77081,1,8,0:0:0:0:
400,216,77304,1,0,0:0:0:0:
352,80,77526,1,4,0:0:0:0:
352,80,77970,5,0,0:0:0:0:
240,40,78193,1,0,0:0:0:0:
304,144,78415,2,0,L|234:144,2,70
424,160,79081,2,2,B|408:96|376:80,1,70
240,40,79526,1,0,0:0:0:0:
336,208,79748,1,8,0:0:0:0:
320,64,79970,1,0,0:0:0:0:
234,144,80193,1,0,0:0:0:0:
395,96,80415,1,8,0:0:0:0:
336,208,80637,5,0,0:0:0:0:
256,216,80859,2,2,L|284:279,1,70
320,360,81304,2,2,P|352:336|360:296,1,70
234,144,81748,5,0,0:0:0:0:
128,288,81970,1,0,0:0:0:0:
256,216,82193,1,0,0:0:0:0:
208,288,82415,2,2,P|192:336|160:360,1,70
40,336,82859,1,0,0:0:0:0:
112,240,83081,1,0,0:0:0:0:
112,360,83304,1,0,0:0:0:0:
32,252,83526,1,0,0:0:0:0:
188,280,83748,1,0,0:0:0:0:
112,360,83970,5,8,0:0:0:0:
324,296,84193,1,8,0:0:0:0:
324,296,84637,5,4,0:0:0:0:
224,88,85081,1,0,0:0:0:0:
128,16,85304,1,0,0:0:0:0:
160,128,85526,1,0,0:0:0:0:
160,128,85970,5,0,0:0:0:0:
200,16,86193,1,0,0:0:0:0:
38,40,86415,2,2,L|80:96,1,70
240,128,86859,1,0,0:0:0:0:
128,40,87081,1,0,0:0:0:0:
96,168,87304,1,0,0:0:0:0:
200,16,87526,1,8,0:0:0:0:
240,128,87748,2,0,L|168:168,2,70
456,24,88637,5,0,0:0:0:0:
448,144,88859,1,0,0:0:0:0:
368,56,89081,2,0,P|344:24|312:16,2,70
400,168,89748,6,2,L|416:240,1,70
440,352,90193,1,0,0:0:0:0:
328,304,90415,1,0,0:0:0:0:
512,328,90637,1,0,0:0:0:0:
336,224,90859,1,0,0:0:0:0:
368,376,91081,1,8,0:0:0:0:
415,236,91304,2,0,L|503:212,2,70
184,304,92193,5,0,0:0:0:0:
88,232,92415,1,0,0:0:0:0:
208,224,92637,2,0,P|248:232|280:232,2,70
144,108,93304,2,2,P|176:76|220:72,1,70
360,104,93748,5,0,0:0:0:0:
208,140,93970,1,0,0:0:0:0:
304,16,94193,1,0,0:0:0:0:
328,172,94415,1,0,0:0:0:0:
280,92,94637,1,8,0:0:0:0:
256,208,94859,1,0,0:0:0:0:
364,47,95081,2,2,P|300:15|284:15,1,70
400,120,95526,2,2,P|464:152|480:152,1,70
304,136,95970,5,0,0:0:0:0:
200,224,96193,1,0,0:0:0:0:
324,256,96415,1,0,0:0:0:0:
212,152,96637,1,0,0:0:0:0:
100,152,96859,1,0,0:0:0:0:
139,274,97081,1,0,0:0:0:0:
268,200,97304,5,0,0:0:0:0:
156,204,97526,1,0,0:0:0:0:
224,304,97748,1,0,0:0:0:0:
200,120,97970,1,8,0:0:0:0:
212,240,98193,1,0,0:0:0:0:
200,120,98415,2,4,P|260:71|231:143,1,210.000008010865
