osu file format v14

[General]
AudioFilename: audio.mp3
AudioLeadIn: 0
PreviewTime: 68665
Countdown: 0
SampleSet: Normal
StackLeniency: 0.7
Mode: 0
LetterboxInBreaks: 0
WidescreenStoryboard: 1

[Editor]
DistanceSpacing: 0.8
BeatDivisor: 4
GridSize: 4
TimelineZoom: 2

[Metadata]
Title:RPG
TitleUnicode:RPG
Artist:SEKAI NO OWARI
ArtistUnicode:SEKAI NO OWARI
Creator:gary00737
Version:Easy
Source:
Tags:J-POP TOY'S FACTORY クレヨンしんちゃん バカうまっ!B級グルメサバイバル!!
BeatmapID:1192746
BeatmapSetID:563925

[Difficulty]
HPDrainRate:4
CircleSize:3
OverallDifficulty:4
ApproachRate:4
SliderMultiplier:0.999999999999999
SliderTickRate:1

[Events]
//Background and Video events
0,0,"1366x768.jpg",0,0
//Break Periods
2,20392,22873
//Storyboard Layer 0 (Background)
//Storyboard Layer 1 (Fail)
//Storyboard Layer 2 (Pass)
//Storyboard Layer 3 (Foreground)
//Storyboard Sound Samples

[TimingPoints]
1082,444.444444444444,4,1,0,40,1,0
70415,-100,4,1,0,40,0,1
98415,-100,4,1,0,40,0,0
98859,-100,4,1,0,5,0,0

[Colours]
Combo1 : 0,0,255
Combo2 : 0,255,255
Combo3 : 0,128,192

[HitObjects]
96,80,1082,6,0,P|160:16|176:16,2,99.9999999999999,4|0|0,0:0|0:0|0:0,0:0:0:0:
176,96,2415,1,0,0:0:0:0:
192,176,2859,2,0,P|256:128|252:68,2,99.9999999999999
32,212,4637,6,0,P|32:276|88:308,1,99.9999999999999,4|0,0:0|0:0,0:0:0:0:
128,336,5526,1,0,0:0:0:0:
208,352,5970,1,0,0:0:0:0:
288,364,6415,5,0,0:0:0:0:
268,288,6859,1,0,0:0:0:0:
188,276,7304,2,0,B|188:212|220:180|220:180,1,99.9999999999999,0|8,0:0|0:0,0:0:0:0:
304,160,8193,6,0,P|272:96|208:48,1,99.9999999999999,4|0,0:0|0:0,0:0:0:0:
176,48,9081,1,0,0:0:0:0:
144,128,9526,2,0,P|176:192|224:224,1,99.9999999999999
264,164,10415,1,0,0:0:0:0:
268,244,10859,2,0,P|348:280|356:312,1,99.9999999999999,0|8,0:0|0:0,0:0:0:0:
300,348,11748,6,0,P|384:360|412:336,1,99.9999999999999,4|0,0:0|0:0,0:0:0:0:
424,280,12637,2,0,P|472:240|480:192,1,99.9999999999999
399,202,13526,2,0,P|415:156|456:128,1,99.9999999999999
472,48,14415,2,0,P|392:16|360:16,1,99.9999999999999,0|8,0:0|0:0,0:0:0:0:
300,44,15304,6,0,P|292:100|268:156,1,99.9999999999999
208,96,16193,1,0,0:0:0:0:
128,100,16637,1,0,0:0:0:0:
108,24,17081,6,0,P|60:56|48:104,1,99.9999999999999
20,168,17970,2,0,P|116:216|132:216,1,99.9999999999999,0|8,0:0|0:0,0:0:0:0:
160,156,18859,2,0,P|240:172|256:192,1,99.9999999999999,4|0,0:0|0:0,0:0:0:0:
188,232,19748,2,0,L|132:320,1,99.9999999999999
400,352,24193,6,0,P|460:304|464:240,1,99.9999999999999
384,268,25081,2,0,P|400:204|448:172,1,99.9999999999999
492,144,25970,2,0,L|460:48,1,99.9999999999999
384,16,26859,1,0,0:0:0:0:
336,80,27304,1,8,0:0:0:0:
272,32,27748,6,0,P|208:16|160:76,1,99.9999999999999,4|0,0:0|0:0,0:0:0:0:
100,32,28637,2,0,P|132:96|180:112,1,99.9999999999999
236,108,29526,1,0,0:0:0:0:
300,156,29970,1,0,0:0:0:0:
376,128,30415,2,0,P|372:188|332:232,1,99.9999999999999,0|8,0:0|0:0,0:0:0:0:
272,244,31304,6,0,P|192:244|144:228,1,99.9999999999999,4|0,0:0|0:0,0:0:0:0:
108,192,32193,1,0,0:0:0:0:
36,160,32637,1,0,0:0:0:0:
16,240,33081,2,0,L|16:352,1,99.9999999999999
96,368,33970,2,0,P|176:384|224:384,1,99.9999999999999,0|8,0:0|0:0,0:0:0:0:
192,304,34859,5,4,0:0:0:0:
272,272,35304,1,0,0:0:0:0:
304,352,35748,2,0,P|368:368|432:368,1,99.9999999999999
464,316,36637,5,0,0:0:0:0:
480,236,37081,1,0,0:0:0:0:
464,156,37526,1,0,0:0:0:0:
432,80,37970,1,8,0:0:0:0:
368,32,38415,6,0,P|300:4|244:16,1,99.9999999999999,4|0,0:0|0:0,0:0:0:0:
300,84,39304,2,0,P|220:68|188:36,1,99.9999999999999
132,28,40193,1,0,0:0:0:0:
56,56,40637,1,0,0:0:0:0:
36,132,41081,2,0,P|36:212|68:244,1,99.9999999999999,0|8,0:0|0:0,0:0:0:0:
108,172,41970,6,0,L|236:172,1,99.9999999999999,4|0,0:0|0:0,0:0:0:0:
208,92,42859,2,0,P|288:156|288:188,1,99.9999999999999
300,224,43748,2,0,P|252:276|188:272,1,99.9999999999999
220,200,44637,2,0,P|156:232|124:280,1,99.9999999999999,0|8,0:0|0:0,0:0:0:0:
96,320,45526,1,4,0:0:0:0:
176,352,45970,1,0,0:0:0:0:
256,368,46415,6,0,P|336:384|384:384,1,99.9999999999999
432,368,47304,2,0,P|480:336|496:288,1,99.9999999999999
464,224,48193,1,0,0:0:0:0:
396,272,48637,1,8,0:0:0:0:
320,304,49081,2,0,P|272:240|272:192,1,99.9999999999999,4|0,0:0|0:0,0:0:0:0:
336,176,49970,2,0,P|352:112|320:64,1,99.9999999999999
272,128,50859,6,0,L|128:128,1,99.9999999999999
112,64,51748,1,0,0:0:0:0:
32,32,52193,1,8,0:0:0:0:
16,112,52637,2,0,P|0:256|32:320,1,200,4|0,0:0|0:0,0:0:0:0:
80,352,53970,1,8,0:0:0:0:
160,368,54415,5,4,0:0:0:0:
240,368,54859,2,0,P|368:384|448:368,1,200,0|8,0:0|0:0,0:0:0:0:
480,272,56193,2,0,P|416:256|368:272,1,99.9999999999999,4|0,0:0|0:0,0:0:0:0:
304,256,57081,2,0,P|272:208|272:160,1,99.9999999999999,0|8,0:0|0:0,0:0:0:0:
348,188,57970,2,0,P|412:188|492:60,1,200,4|0,0:0|0:0,0:0:0:0:
424,48,59304,1,8,0:0:0:0:
348,24,59748,5,4,0:0:0:0:
272,44,60193,1,0,0:0:0:0:
216,100,60637,1,0,0:0:0:0:
176,32,61081,2,0,P|48:48|0:128,1,200,8|4,0:0|0:0,0:0:0:0:
84,128,62415,1,0,0:0:0:0:
68,208,62859,1,8,0:0:0:0:
40,284,63304,6,0,P|136:252|152:220,1,99.9999999999999,4|0,0:0|0:0,0:0:0:0:
164,184,64193,1,0,0:0:0:0:
160,96,64637,2,0,P|240:144|248:176,1,99.9999999999999,4|0,0:0|0:0,0:0:0:0:
240,224,65526,1,0,0:0:0:0:
164,248,65970,2,0,P|188:288|264:296,1,99.9999999999999,4|0,0:0|0:0,0:0:0:0:
320,320,66859,1,0,0:0:0:0:
256,192,67304,12,4,69526,0:0:0:0:
60,172,70415,5,0,0:0:0:0:
52,92,70859,1,0,0:0:0:0:
128,60,71304,2,0,L|240:28,1,99.9999999999999,4|0,0:0|0:0,0:0:0:0:
256,108,72193,2,0,L|144:140,1,99.9999999999999,4|0,0:0|0:0,0:0:0:0:
128,204,73081,2,0,L|128:316,1,99.9999999999999,0|8,0:0|0:0,0:0:0:0:
208,300,73970,6,0,L|208:188,1,99.9999999999999,4|0,0:0|0:0,0:0:0:0:
252,132,74859,2,0,P|328:88|344:40,1,99.9999999999999,4|0,0:0|0:0,0:0:0:0:
337,0,75748,2,0,P|290:12|256:48,1,99.9999999999999,4|0,0:0|0:0,0:0:0:0:
336,84,76637,2,0,L|448:52,1,99.9999999999999,0|8,0:0|0:0,0:0:0:0:
496,112,77526,2,0,P|516:176|512:224,1,99.9999999999999,4|0,0:0|0:0,0:0:0:0:
432,180,78415,2,0,P|384:244|384:276,1,99.9999999999999,0|8,0:0|0:0,0:0:0:0:
464,260,79304,1,4,0:0:0:0:
420,332,79748,1,0,0:0:0:0:
340,352,80193,6,0,P|196:368|100:320,1,200,4|0,0:0|0:0,0:0:0:0:
80,304,81526,1,0,0:0:0:0:
160,272,81970,2,0,P|272:288|384:240,1,200,4|0,0:0|0:0,0:0:0:0:
416,208,83304,1,0,0:0:0:0:
480,160,83748,1,0,0:0:0:0:
416,112,84193,1,8,0:0:0:0:
336,144,84637,6,0,P|256:176|208:176,1,99.9999999999999,4|0,0:0|0:0,0:0:0:0:
160,192,85526,2,0,P|80:160|64:128,1,99.9999999999999,4|0,0:0|0:0,0:0:0:0:
32,80,86415,2,0,P|112:48|160:48,1,99.9999999999999,4|0,0:0|0:0,0:0:0:0:
176,112,87304,2,0,P|256:112|304:80,1,99.9999999999999,0|8,0:0|0:0,0:0:0:0:
304,32,88193,2,0,P|368:32|432:64,1,99.9999999999999,4|0,0:0|0:0,0:0:0:0:
464,96,89081,1,4,0:0:0:0:
480,176,89526,1,0,0:0:0:0:
464,256,89970,6,4,B|464:328|404:352,1,99.9999999999999
384,272,90859,1,4,0:0:0:0:
308,300,91304,1,0,0:0:0:0:
256,240,91748,2,0,P|192:256|168:288,1,99.9999999999999,4|0,0:0|0:0,0:0:0:0:
240,324,92637,2,0,P|176:364|100:348,1,99.9999999999999,4|0,0:0|0:0,0:0:0:0:
108,300,93526,6,0,P|60:252|60:188,1,99.9999999999999,4|0,0:0|0:0,0:0:0:0:
136,224,94415,2,0,B|112:96|128:80|128:80|208:60,1,200,4|0,0:0|0:0,0:0:0:0:
260,56,95748,1,0,0:0:0:0:
336,80,96193,2,0,B|416:112|416:112|432:224,1,200,4|0,0:0|0:0,0:0:0:0:
352,224,97526,1,0,0:0:0:0:
280,260,97970,1,0,0:0:0:0:
236,324,98415,1,8,0:0:0:0:
