osu file format v14

[General]
AudioFilename: audio.mp3
AudioLeadIn: 0
PreviewTime: 21825
Countdown: 0
SampleSet: Soft
StackLeniency: 0.7
Mode: 3
LetterboxInBreaks: 0
SpecialStyle: 0
WidescreenStoryboard: 0

[Editor]
DistanceSpacing: 0.8
BeatDivisor: 8
GridSize: 16
TimelineZoom: 2.1

[Metadata]
Title:Jingle Bells!! feat - Takenobu Mitsuyoshi
TitleUnicode:Jingle Bells!! feat - Takenobu Mitsuyoshi
Artist:SEGA Sound Unit
ArtistUnicode:SEGA Sound Unit
Creator:BossMadWolf
Version:JINGLE ALL THE SV
Source:Maimai Orange
Tags:Jinglebell SV maimai
BeatmapID:1691026
BeatmapSetID:698506

[Difficulty]
HPDrainRate:7.5
CircleSize:4
OverallDifficulty:7
ApproachRate:5
SliderMultiplier:1.4
SliderTickRate:1

[Events]
//Background and Video events
0,0,"jinglebell.png",0,0
//Break Periods
//Storyboard Layer 0 (Background)
//Storyboard Layer 1 (Fail)
//Storyboard Layer 2 (Pass)
//Storyboard Layer 3 (Foreground)
//Storyboard Sound Samples

[TimingPoints]
0,600,4,2,1,100,1,0
225,99999999,4,2,1,100,1,0
300,0.01,4,2,1,100,1,0
450,600,4,2,1,100,1,0
450,-10000,4,2,1,100,0,0
675,99999999,4,2,1,100,1,0
750,0.01,4,2,1,100,1,0
900,600,4,2,1,100,1,0
900,-10000,4,2,1,100,0,0
1125,99999999,4,2,1,100,1,0
1200,0.01,4,2,1,100,1,0
1350,600,4,2,1,100,1,0
1650,99999999,4,2,1,100,1,0
1687,400,4,2,1,100,1,0
1725,99999999,4,2,1,100,1,0
1762,400,4,2,1,100,1,0
1800,99999999,4,2,1,100,1,0
1837,400,4,2,1,100,1,0
1875,99999999,4,2,1,100,1,0
1912,400,4,2,1,100,1,0
1950,99999999,4,2,1,100,1,0
1987,400,4,2,1,100,1,0
2025,1200,4,2,1,100,1,0
2100,600,4,2,1,100,1,0
2175,400,4,2,1,100,1,0
2250,240,4,2,1,100,1,0
2325,171.428571428571,4,2,1,100,1,0
2400,120,4,2,1,100,1,0
2475,92.3076923076923,4,2,1,100,1,0
2550,75,4,2,1,100,1,0
2625,600,4,2,1,100,1,0
3825,-80,4,2,1,100,0,0
5025,-100,4,2,1,100,0,0
6225,-80,4,2,1,100,0,0
7425,-100,4,2,1,100,0,0
8625,-80,4,2,1,100,0,0
9825,-71.4285714285714,4,2,1,100,0,0
10875,60000,4,2,1,100,1,0
12075,240,4,2,1,100,1,0
12225,600,4,2,1,100,1,0
13425,-80,4,2,1,100,0,0
14625,-100,4,2,1,100,0,0
15825,-83.3333333333333,4,2,1,100,0,0
17025,-76.9230769230769,4,2,1,100,0,0
18225,-71.4285714285714,4,2,1,100,0,0
19425,-76.9230769230769,4,2,1,100,0,0
19875,-83.3333333333333,4,2,1,100,0,0
20325,-100,4,2,1,100,0,0
20475,-1000,4,2,1,100,0,0
20775,-40,4,2,1,100,0,0
21225,-100,4,2,1,100,0,0
21825,99999999,4,2,1,100,1,1
21975,300,4,2,1,100,1,1
22125,99999999,4,2,1,100,1,1
22275,300,4,2,1,100,1,1
22425,99999999,4,2,1,100,1,1
22875,300,4,2,1,100,1,1
23025,99999999,4,2,1,100,1,1
23175,300,4,2,1,100,1,1
23325,99999999,4,2,1,100,1,1
23475,300,4,2,1,100,1,1
23625,99999999,4,2,1,100,1,1
24075,300,4,2,1,100,1,1
24225,99999999,4,2,1,100,1,1
24375,300,4,2,1,100,1,1
24525,99999999,4,2,1,100,1,1
24675,300,4,2,1,100,1,1
24825,99999999,4,2,1,100,1,1
25125,300,4,2,1,100,1,1
25275,99999999,4,2,1,100,1,1
25350,171.428571428571,4,2,1,100,1,1
25425,99999999,4,2,1,100,1,1
25675,600,4,2,1,100,1,1
25725,600,4,2,1,100,1,1
25800,0.01,4,2,1,100,1,1
26550,600,4,2,1,100,1,1
26625,600,4,2,1,100,1,0
26775,-125,4,2,1,100,0,0
27150,-71.4285714285714,4,2,1,100,0,0
27225,-100,4,2,1,100,0,0
27375,-125,4,2,1,100,0,0
27750,-71.4285714285714,4,2,1,100,0,0
27825,-100,4,2,1,100,0,0
27975,-125,4,2,1,100,0,0
28350,-71.4285714285714,4,2,1,100,0,0
28425,-100,4,2,1,100,0,0
28575,-125,4,2,1,100,0,0
28950,-71.4285714285714,4,2,1,100,0,0
29025,-90.9090909090909,4,2,1,100,0,0
29625,-125,4,2,1,100,0,0
30225,-100,4,2,1,100,0,0
30450,-1000,4,2,1,100,0,0
30525,-40,4,2,1,100,0,0
31000,-100,4,2,1,100,0,0
31425,99999999,4,2,1,100,1,1
31575,300,4,2,1,100,1,1
31725,99999999,4,2,1,100,1,1
31875,300,4,2,1,100,1,1
32025,99999999,4,2,1,100,1,1
32525,200,4,2,1,100,1,1
32625,99999999,4,2,1,100,1,1
32725,200,4,2,1,100,1,1
32825,99999999,4,2,1,100,1,1
32925,200,4,2,1,100,1,1
33025,99999999,4,2,1,100,1,1
33675,300,4,2,1,100,1,1
33825,99999999,4,2,1,100,1,1
33975,300,4,2,1,100,1,1
34125,99999999,4,2,1,100,1,1
34275,300,4,2,1,100,1,1
34425,99999999,4,2,1,100,1,1
34725,300,4,2,1,100,1,1
34875,99999999,4,2,1,100,1,1
34950,171.428571428571,4,2,1,100,1,1
35025,99999999,4,2,1,100,1,1
35175,600,4,2,1,100,1,1
35400,0.01,4,2,1,100,1,1
36150,600,4,2,1,100,1,1
36225,600,4,2,1,100,1,0
36375,-125,4,2,1,100,0,0
36750,-71.4285714285714,4,2,1,100,0,0
36825,-100,4,2,1,100,0,0
36975,-125,4,2,1,100,0,0
37350,-71.4285714285714,4,2,1,100,0,0
37425,-100,4,2,1,100,0,0
37575,-125,4,2,1,100,0,0
37950,-71.4285714285714,4,2,1,100,0,0
38025,-100,4,2,1,100,0,0
38175,-125,4,2,1,100,0,0
38550,-71.4285714285714,4,2,1,100,0,0
38625,-100,4,2,1,100,0,0
38775,-100,4,2,1,100,0,0
39900,-100,4,2,1,100,0,0
40050,-10000,4,2,1,100,0,0
40125,-50,4,2,1,100,0,0
40350,80,4,2,1,100,1,0
41025,600,4,2,1,100,1,0
42525,0.01,4,2,1,100,1,0
42825,600,4,2,1,100,1,0
43425,600,4,2,1,100,1,0
43500,1500,4,2,1,100,1,0
43575,600,4,2,1,100,1,0
43650,375,4,2,1,100,1,0
43725,600,4,2,1,100,1,0
43800,1500,4,2,1,100,1,0
43875,600,4,2,1,100,1,0
43950,375,4,2,1,100,1,0
44025,600,4,2,1,100,1,0
44100,1500,4,2,1,100,1,0
44175,600,4,2,1,100,1,0
44250,375,4,2,1,100,1,0
44325,600,4,2,1,100,1,0
44400,1500,4,2,1,100,1,0
44475,600,4,2,1,100,1,0
44550,375,4,2,1,100,1,0
44625,600,4,2,1,100,1,0
44700,1500,4,2,1,100,1,0
44775,600,4,2,1,100,1,0
44850,375,4,2,1,100,1,0
44925,600,4,2,1,100,1,0
45000,1500,4,2,1,100,1,0
45075,600,4,2,1,100,1,0
45150,375,4,2,1,100,1,0
45225,600,4,2,1,100,1,0
45300,1500,4,2,1,100,1,0
45375,600,4,2,1,100,1,0
45450,375,4,2,1,100,1,0
45525,600,4,2,1,100,1,0
45600,1500,4,2,1,100,1,0
45675,600,4,2,1,100,1,0
45750,375,4,2,1,100,1,0
45825,600,4,2,1,100,1,0
45900,1500,4,2,1,100,1,0
45975,600,4,2,1,100,1,0
46050,375,4,2,1,100,1,0
46125,600,4,2,1,100,1,0
46200,1500,4,2,1,100,1,0
46275,600,4,2,1,100,1,0
46350,375,4,2,1,100,1,0
46425,600,4,2,1,100,1,0
46500,1500,4,2,1,100,1,0
46575,600,4,2,1,100,1,0
46650,375,4,2,1,100,1,0
46725,600,4,2,1,100,1,0
46800,1500,4,2,1,100,1,0
46875,600,4,2,1,100,1,0
46950,375,4,2,1,100,1,0
47025,600,4,2,1,100,1,0
47100,1500,4,2,1,100,1,0
47175,600,4,2,1,100,1,0
47250,375,4,2,1,100,1,0
47325,600,4,2,1,100,1,0
47400,1500,4,2,1,100,1,0
47475,600,4,2,1,100,1,0
47550,375,4,2,1,100,1,0
47625,600,4,2,1,100,1,0
47700,1500,4,2,1,100,1,0
47775,600,4,2,1,100,1,0
47850,375,4,2,1,100,1,0
47925,600,4,2,1,100,1,0
48000,1500,4,2,1,100,1,0
48075,600,4,2,1,100,1,0
48150,375,4,2,1,100,1,0
48225,600,4,2,1,100,1,0
48300,1500,4,2,1,100,1,0
48375,600,4,2,1,100,1,0
48450,375,4,2,1,100,1,0
48525,600,4,2,1,100,1,0
48600,1500,4,2,1,100,1,0
48675,600,4,2,1,100,1,0
48750,375,4,2,1,100,1,0
48825,600,4,2,1,100,1,0
48900,1500,4,2,1,100,1,0
48975,600,4,2,1,100,1,0
49050,375,4,2,1,100,1,0
49125,600,4,2,1,100,1,0
49200,1500,4,2,1,100,1,0
49275,600,4,2,1,100,1,0
49350,375,4,2,1,100,1,0
49425,600,4,2,1,100,1,0
49500,1500,4,2,1,100,1,0
49575,600,4,2,1,100,1,0
49650,375,4,2,1,100,1,0
49725,600,4,2,1,100,1,0
49800,1500,4,2,1,100,1,0
49875,600,4,2,1,100,1,0
49950,375,4,2,1,100,1,0
50025,600,4,2,1,100,1,0
50100,1500,4,2,1,100,1,0
50175,600,4,2,1,100,1,0
50250,375,4,2,1,100,1,0
50325,600,4,2,1,100,1,0
50400,1500,4,2,1,100,1,0
50475,600,4,2,1,100,1,0
50550,375,4,2,1,100,1,0
50625,600,4,2,1,100,1,0
50775,300,4,2,1,100,1,0
50925,150,4,2,1,100,1,0
51075,75,4,2,1,100,1,0
51225,37.5,4,2,1,100,1,0
51375,18.75,4,2,1,100,1,0
51525,9.375,4,2,1,100,1,0
51675,4.6875,4,2,1,100,1,0
51825,2.34375,4,2,1,100,1,0
52125,1.171875,4,2,1,100,1,0
52425,600,4,2,1,100,1,0
53025,600,4,2,1,100,1,0
53100,1500,4,2,1,100,1,0
53175,600,4,2,1,100,1,0
53250,375,4,2,1,100,1,0
53325,600,4,2,1,100,1,0
53400,1500,4,2,1,100,1,0
53475,600,4,2,1,100,1,0
53550,375,4,2,1,100,1,0
53625,600,4,2,1,100,1,0
53700,1500,4,2,1,100,1,0
53775,600,4,2,1,100,1,0
53850,375,4,2,1,100,1,0
53925,600,4,2,1,100,1,0
54000,1500,4,2,1,100,1,0
54075,600,4,2,1,100,1,0
54150,375,4,2,1,100,1,0
54225,600,4,2,1,100,1,0
54300,1500,4,2,1,100,1,0
54375,600,4,2,1,100,1,0
54450,375,4,2,1,100,1,0
54525,600,4,2,1,100,1,0
54600,1500,4,2,1,100,1,0
54675,600,4,2,1,100,1,0
54750,375,4,2,1,100,1,0
54825,600,4,2,1,100,1,0
54900,1500,4,2,1,100,1,0
54975,600,4,2,1,100,1,0
55050,375,4,2,1,100,1,0
55125,600,4,2,1,100,1,0
55200,1500,4,2,1,100,1,0
55275,600,4,2,1,100,1,0
55350,375,4,2,1,100,1,0
55425,600,4,2,1,100,1,0
55500,1500,4,2,1,100,1,0
55575,600,4,2,1,100,1,0
55650,375,4,2,1,100,1,0
55725,600,4,2,1,100,1,0
55800,1500,4,2,1,100,1,0
55875,600,4,2,1,100,1,0
55950,375,4,2,1,100,1,0
56025,600,4,2,1,100,1,0
56100,1500,4,2,1,100,1,0
56175,600,4,2,1,100,1,0
56250,375,4,2,1,100,1,0
56325,600,4,2,1,100,1,0
56400,1500,4,2,1,100,1,0
56475,600,4,2,1,100,1,0
56550,375,4,2,1,100,1,0
56625,600,4,2,1,100,1,0
56700,1500,4,2,1,100,1,0
56775,600,4,2,1,100,1,0
56850,375,4,2,1,100,1,0
56925,600,4,2,1,100,1,0
57000,1500,4,2,1,100,1,0
57075,600,4,2,1,100,1,0
57150,375,4,2,1,100,1,0
57225,600,4,2,1,100,1,0
57300,1500,4,2,1,100,1,0
57375,600,4,2,1,100,1,0
57450,375,4,2,1,100,1,0
57525,600,4,2,1,100,1,0
57600,1500,4,2,1,100,1,0
57675,600,4,2,1,100,1,0
57750,375,4,2,1,100,1,0
57825,600,4,2,1,100,1,0
57900,1500,4,2,1,100,1,0
57975,600,4,2,1,100,1,0
58050,375,4,2,1,100,1,0
58125,600,4,2,1,100,1,0
58200,1500,4,2,1,100,1,0
58275,600,4,2,1,100,1,0
58350,375,4,2,1,100,1,0
58425,600,4,2,1,100,1,0
58500,1500,4,2,1,100,1,0
58575,600,4,2,1,100,1,0
58650,375,4,2,1,100,1,0
58725,600,4,2,1,100,1,0
58800,1500,4,2,1,100,1,0
58875,600,4,2,1,100,1,0
58950,375,4,2,1,100,1,0
59025,600,4,2,1,100,1,0
59100,1500,4,2,1,100,1,0
59175,600,4,2,1,100,1,0
59250,375,4,2,1,100,1,0
59325,600,4,2,1,100,1,0
59400,1500,4,2,1,100,1,0
59475,600,4,2,1,100,1,0
59550,375,4,2,1,100,1,0
59625,600,4,2,1,100,1,0
59700,1500,4,2,1,100,1,0
59775,600,4,2,1,100,1,0
59850,375,4,2,1,100,1,0
59925,600,4,2,1,100,1,0
60000,1500,4,2,1,100,1,0
60075,600,4,2,1,100,1,0
60150,375,4,2,1,100,1,0
60225,600,4,2,1,100,1,0
60375,300,4,2,1,100,1,0
60525,150,4,2,1,100,1,0
60675,75,4,2,1,100,1,0
60825,37.5,4,2,1,100,1,0
60975,18.75,4,2,1,100,1,0
61125,9.375,4,2,1,100,1,0
61275,4.6875,4,2,1,100,1,0
61425,60000,4,2,1,100,1,0
61736,0.01,4,2,1,100,1,0
62036,600,4,2,1,100,1,0
62336,60,4,2,1,100,1,0
62636,99999999,4,2,1,100,1,0
62861,450,4,2,1,100,1,0
63086,99999999,4,2,1,100,1,0
63311,450,4,2,1,100,1,0
63536,99999999,4,2,1,100,1,0
63686,300,4,2,1,100,1,0
63836,600,4,2,1,100,1,0
63986,60,4,2,1,100,1,0
64286,600,4,2,1,100,1,0
64436,600,4,2,1,100,1,0
64586,60,4,2,1,100,1,0
64886,600,4,2,1,100,1,0
65025,1000,4,2,1,100,1,0
65125,600,4,2,1,100,1,0
65325,1000,4,2,1,100,1,0
65425,600,4,2,1,100,1,0
65625,1000,4,2,1,100,1,0
65725,600,4,2,1,100,1,0
65875,99999999,4,2,1,100,1,0
65925,600,4,2,1,100,1,0
65975,99999999,4,2,1,100,1,0
66025,600,4,2,1,100,1,0
66075,99999999,4,2,1,100,1,0
66125,600,4,2,1,100,1,0
66175,99999999,4,2,1,100,1,0
66225,2000,4,2,1,100,1,0
66325,600,4,2,1,100,1,0
66525,2000,4,2,1,100,1,0
66625,600,4,2,1,100,1,0
66825,2000,4,2,1,100,1,0
66925,600,4,2,1,100,1,0
67075,99999999,4,2,1,100,1,0
67125,600,4,2,1,100,1,0
67175,99999999,4,2,1,100,1,0
67225,600,4,2,1,100,1,0
67275,99999999,4,2,1,100,1,0
67325,600,4,2,1,100,1,0
67375,99999999,4,2,1,100,1,0
67425,2000,4,2,1,100,1,0
67525,600,4,2,1,100,1,0
67725,2000,4,2,1,100,1,0
67825,600,4,2,1,100,1,0
68025,2000,4,2,1,100,1,0
68125,600,4,2,1,100,1,0
68325,2000,4,2,1,100,1,0
68425,600,4,2,1,100,1,0
68575,99999999,4,2,1,100,1,0
68625,600,4,2,1,100,1,0
68675,99999999,4,2,1,100,1,0
68725,600,4,2,1,100,1,0
68775,99999999,4,2,1,100,1,0
68825,600,4,2,1,100,1,0
68875,99999999,4,2,1,100,1,0
68925,600,4,2,1,100,1,0
68975,99999999,4,2,1,100,1,0
69025,600,4,2,1,100,1,0
69075,99999999,4,2,1,100,1,0
69125,600,4,2,1,100,1,0
69175,99999999,4,2,1,100,1,0
69225,600,4,2,1,100,1,0
69275,99999999,4,2,1,100,1,0
69325,600,4,2,1,100,1,0
69375,99999999,4,2,1,100,1,0
69425,600,4,2,1,100,1,0
69475,99999999,4,2,1,100,1,0
69525,600,4,2,1,100,1,0
69575,99999999,4,2,1,100,1,0
69625,600,4,2,1,100,1,0
69825,2000,4,2,1,100,1,0
69925,600,4,2,1,100,1,0
70125,2000,4,2,1,100,1,0
70225,600,4,2,1,100,1,0
70425,2000,4,2,1,100,1,0
70525,600,4,2,1,100,1,0
70675,99999999,4,2,1,100,1,0
70725,600,4,2,1,100,1,0
70775,99999999,4,2,1,100,1,0
70825,600,4,2,1,100,1,0
70875,99999999,4,2,1,100,1,0
70925,600,4,2,1,100,1,0
70975,99999999,4,2,1,100,1,0
71025,2000,4,2,1,100,1,0
71125,600,4,2,1,100,1,0
71325,2000,4,2,1,100,1,0
71425,600,4,2,1,100,1,0
71625,2000,4,2,1,100,1,0
71725,600,4,2,1,100,1,0
71875,99999999,4,2,1,100,1,0
71925,600,4,2,1,100,1,0
71975,99999999,4,2,1,100,1,0
72025,600,4,2,1,100,1,0
72075,99999999,4,2,1,100,1,0
72125,600,4,2,1,100,1,0
72175,99999999,4,2,1,100,1,0
72225,2000,4,2,1,100,1,0
72325,600,4,2,1,100,1,0
72525,2000,4,2,1,100,1,0
72625,600,4,2,1,100,1,0
72825,2000,4,2,1,100,1,0
72925,600,4,2,1,100,1,0
73125,2000,4,2,1,100,1,0
73225,600,4,2,1,100,1,0
73425,60000,4,2,1,100,1,0
73875,600,4,2,1,100,1,0
74025,-40,4,2,1,100,0,0
74325,-100,4,2,1,100,0,0
74475,600,4,2,1,100,1,0
74625,2000,4,2,1,100,1,0
74725,600,4,2,1,100,1,0
74925,2000,4,2,1,100,1,0
75025,600,4,2,1,100,1,0
75225,2000,4,2,1,100,1,0
75325,600,4,2,1,100,1,0
75475,99999999,4,2,1,100,1,0
75525,600,4,2,1,100,1,0
75575,99999999,4,2,1,100,1,0
75625,600,4,2,1,100,1,0
75675,99999999,4,2,1,100,1,0
75725,600,4,2,1,100,1,0
75775,99999999,4,2,1,100,1,0
75825,2000,4,2,1,100,1,0
75925,600,4,2,1,100,1,0
76125,2000,4,2,1,100,1,0
76225,600,4,2,1,100,1,0
76425,2000,4,2,1,100,1,0
76525,600,4,2,1,100,1,0
76675,99999999,4,2,1,100,1,0
76725,600,4,2,1,100,1,0
76775,99999999,4,2,1,100,1,0
76825,600,4,2,1,100,1,0
76875,99999999,4,2,1,100,1,0
76925,600,4,2,1,100,1,0
76975,99999999,4,2,1,100,1,0
77025,2000,4,2,1,100,1,0
77125,600,4,2,1,100,1,0
77325,2000,4,2,1,100,1,0
77425,600,4,2,1,100,1,0
77625,2000,4,2,1,100,1,0
77725,600,4,2,1,100,1,0
77925,2000,4,2,1,100,1,0
78025,600,4,2,1,100,1,0
78175,99999999,4,2,1,100,1,0
78225,600,4,2,1,100,1,0
78275,99999999,4,2,1,100,1,0
78325,600,4,2,1,100,1,0
78375,99999999,4,2,1,100,1,0
78425,600,4,2,1,100,1,0
78475,99999999,4,2,1,100,1,0
78525,600,4,2,1,100,1,0
78575,99999999,4,2,1,100,1,0
78625,600,4,2,1,100,1,0
78675,99999999,4,2,1,100,1,0
78725,600,4,2,1,100,1,0
78775,99999999,4,2,1,100,1,0
78825,600,4,2,1,100,1,0
78875,99999999,4,2,1,100,1,0
78925,600,4,2,1,100,1,0
78975,99999999,4,2,1,100,1,0
79025,600,4,2,1,100,1,0
79075,99999999,4,2,1,100,1,0
79125,600,4,2,1,100,1,0
79175,99999999,4,2,1,100,1,0
79225,600,4,2,1,100,1,0
79425,2000,4,2,1,100,1,0
79525,600,4,2,1,100,1,0
79725,2000,4,2,1,100,1,0
79825,600,4,2,1,100,1,0
80025,2000,4,2,1,100,1,0
80125,600,4,2,1,100,1,0
80275,99999999,4,2,1,100,1,0
80325,600,4,2,1,100,1,0
80375,99999999,4,2,1,100,1,0
80425,600,4,2,1,100,1,0
80475,99999999,4,2,1,100,1,0
80525,600,4,2,1,100,1,0
80575,99999999,4,2,1,100,1,0
80625,2000,4,2,1,100,1,0
80725,600,4,2,1,100,1,0
80925,2000,4,2,1,100,1,0
81025,600,4,2,1,100,1,0
81225,2000,4,2,1,100,1,0
81325,600,4,2,1,100,1,0
81475,99999999,4,2,1,100,1,0
81525,600,4,2,1,100,1,0
81575,99999999,4,2,1,100,1,0
81625,600,4,2,1,100,1,0
81675,99999999,4,2,1,100,1,0
81725,600,4,2,1,100,1,0
81775,99999999,4,2,1,100,1,0
81825,600,4,2,1,100,1,0
81875,2000,4,2,1,100,1,0
81925,500,4,2,1,100,1,0
81975,2000,4,2,1,100,1,0
82025,428.571428571429,4,2,1,100,1,0
82075,2000,4,2,1,100,1,0
82125,600,4,2,1,100,1,0
82175,2000,4,2,1,100,1,0
82225,500,4,2,1,100,1,0
82275,2000,4,2,1,100,1,0
82325,428.571428571429,4,2,1,100,1,0
82375,2000,4,2,1,100,1,0
82425,600,4,2,1,100,1,0
82475,2000,4,2,1,100,1,0
82525,500,4,2,1,100,1,0
82575,2000,4,2,1,100,1,0
82625,428.571428571429,4,2,1,100,1,0
82675,2000,4,2,1,100,1,0
82725,600,4,2,1,100,1,0
82775,2000,4,2,1,100,1,0
82825,500,4,2,1,100,1,0
82875,2000,4,2,1,100,1,0
82925,428.571428571429,4,2,1,100,1,0
82975,2000,4,2,1,100,1,0
83025,600,4,2,1,100,1,0
83075,2000,4,2,1,100,1,0
83125,500,4,2,1,100,1,0
83175,2000,4,2,1,100,1,0
83225,428.571428571429,4,2,1,100,1,0
83275,2000,4,2,1,100,1,0
83325,600,4,2,1,100,1,0
83375,2000,4,2,1,100,1,0
83425,500,4,2,1,100,1,0
83475,2000,4,2,1,100,1,0
83525,428.571428571429,4,2,1,100,1,0
83575,2000,4,2,1,100,1,0
83625,600,4,2,1,100,1,0
83675,2000,4,2,1,100,1,0
83725,500,4,2,1,100,1,0
83775,2000,4,2,1,100,1,0
83825,428.571428571429,4,2,1,100,1,0
83875,2000,4,2,1,100,1,0
83925,600,4,2,1,100,1,0
83975,2000,4,2,1,100,1,0
84025,500,4,2,1,100,1,0
84075,2000,4,2,1,100,1,0
84125,428.571428571429,4,2,1,100,1,0
84175,2000,4,2,1,100,1,0
84225,600,4,2,1,100,1,0
84275,2000,4,2,1,100,1,0
84325,500,4,2,1,100,1,0
84375,2000,4,2,1,100,1,0
84425,428.571428571429,4,2,1,100,1,0
84475,2000,4,2,1,100,1,0
84525,600,4,2,1,100,1,0
84575,2000,4,2,1,100,1,0
84625,500,4,2,1,100,1,0
84675,2000,4,2,1,100,1,0
84725,428.571428571429,4,2,1,100,1,0
84775,2000,4,2,1,100,1,0
84825,600,4,2,1,100,1,0
84875,2000,4,2,1,100,1,0
84925,500,4,2,1,100,1,0
84975,2000,4,2,1,100,1,0
85025,428.571428571429,4,2,1,100,1,0
85075,2000,4,2,1,100,1,0
85125,600,4,2,1,100,1,0
85175,2000,4,2,1,100,1,0
85225,500,4,2,1,100,1,0
85275,2000,4,2,1,100,1,0
85325,428.571428571429,4,2,1,100,1,0
85375,2000,4,2,1,100,1,0
85425,600,4,2,1,100,1,0
85475,2000,4,2,1,100,1,0
85525,500,4,2,1,100,1,0
85575,2000,4,2,1,100,1,0
85625,428.571428571429,4,2,1,100,1,0
85675,2000,4,2,1,100,1,0
85725,600,4,2,1,100,1,0
85775,2000,4,2,1,100,1,0
85825,500,4,2,1,100,1,0
85875,2000,4,2,1,100,1,0
85925,428.571428571429,4,2,1,100,1,0
85975,2000,4,2,1,100,1,0
86025,600,4,2,1,100,1,0
86075,2000,4,2,1,100,1,0
86125,500,4,2,1,100,1,0
86175,2000,4,2,1,100,1,0
86225,428.571428571429,4,2,1,100,1,0
86275,2000,4,2,1,100,1,0
86325,600,4,2,1,100,1,0
86375,2000,4,2,1,100,1,0
86425,500,4,2,1,100,1,0
86475,2000,4,2,1,100,1,0
86525,428.571428571429,4,2,1,100,1,0
86575,2000,4,2,1,100,1,0
86625,60,4,2,1,100,1,0
86700,99999999,4,2,1,100,1,0
86775,60,4,2,1,100,1,0
86850,99999999,4,2,1,100,1,0
86925,60,4,2,1,100,1,0
87075,0.01,4,2,1,100,1,0
88875,600,4,2,1,100,1,0
89275,2000,4,2,1,100,1,0
89325,600,4,2,1,100,1,0
89575,2000,4,2,1,100,1,0
89625,600,4,2,1,100,1,0
89875,2000,4,2,1,100,1,0
89925,600,4,2,1,100,1,0
90225,99999999,4,2,1,100,1,0
90300,450,4,2,1,100,1,0
90375,99999999,4,2,1,100,1,0
90450,450,4,2,1,100,1,0
90525,99999999,4,2,1,100,1,0
90600,450,4,2,1,100,1,0
90675,99999999,4,2,1,100,1,0
90836,1,4,2,1,100,1,0
91800,600,4,2,1,100,1,0

[HitObjects]
64,192,225,5,0,0:0:0:0:
320,192,225,1,0,0:0:0:0:
64,192,375,1,0,0:0:0:0:
320,192,375,1,0,0:0:0:0:
192,192,675,1,0,0:0:0:0:
448,192,675,1,0,0:0:0:0:
448,192,825,1,0,0:0:0:0:
192,192,825,1,0,0:0:0:0:
64,192,1125,1,0,0:0:0:0:
320,192,1125,1,0,0:0:0:0:
320,192,1275,1,0,0:0:0:0:
64,192,1275,1,0,0:0:0:0:
64,192,1725,1,0,0:0:0:0:
192,192,1800,1,0,0:0:0:0:
320,192,1875,1,0,0:0:0:0:
448,192,1950,1,0,0:0:0:0:
64,192,2025,128,0,2625:0:0:0:0:
320,192,2025,128,0,2625:0:0:0:0:
448,192,2625,1,0,0:0:0:0:
192,192,2925,1,0,0:0:0:0:
64,192,3225,1,0,0:0:0:0:
320,192,3525,1,0,0:0:0:0:
448,192,3825,1,0,0:0:0:0:
320,192,3975,1,0,0:0:0:0:
192,192,4125,1,0,0:0:0:0:
64,192,4275,1,0,0:0:0:0:
64,192,4425,1,0,0:0:0:0:
192,192,4575,1,0,0:0:0:0:
320,192,4725,1,0,0:0:0:0:
448,192,4875,1,0,0:0:0:0:
64,192,5025,1,0,0:0:0:0:
320,192,5325,1,0,0:0:0:0:
192,192,5625,1,0,0:0:0:0:
448,192,5925,1,0,0:0:0:0:
64,192,6225,1,0,0:0:0:0:
192,192,6375,1,0,0:0:0:0:
64,192,6525,1,0,0:0:0:0:
320,192,6675,1,0,0:0:0:0:
192,192,6825,1,0,0:0:0:0:
448,192,6975,1,0,0:0:0:0:
320,192,7125,1,0,0:0:0:0:
448,192,7275,1,0,0:0:0:0:
64,192,7425,1,0,0:0:0:0:
192,192,7725,1,0,0:0:0:0:
448,192,8025,1,0,0:0:0:0:
192,192,8325,1,0,0:0:0:0:
64,192,8625,1,0,0:0:0:0:
320,192,8775,1,0,0:0:0:0:
192,192,8925,1,0,0:0:0:0:
448,192,9075,1,0,0:0:0:0:
448,192,9225,1,0,0:0:0:0:
192,192,9375,1,0,0:0:0:0:
320,192,9525,1,0,0:0:0:0:
64,192,9675,1,0,0:0:0:0:
64,192,9825,1,0,0:0:0:0:
64,192,9975,1,0,0:0:0:0:
192,192,10125,1,0,0:0:0:0:
192,192,10275,1,0,0:0:0:0:
320,192,10425,1,0,0:0:0:0:
320,192,10575,1,0,0:0:0:0:
448,192,10725,1,0,0:0:0:0:
448,192,10875,128,0,12225:0:0:0:0:
64,192,12225,1,0,0:0:0:0:
192,192,12525,1,0,0:0:0:0:
64,192,12825,1,0,0:0:0:0:
192,192,13125,1,0,0:0:0:0:
448,192,13425,1,0,0:0:0:0:
320,192,13575,1,0,0:0:0:0:
64,192,13725,1,0,0:0:0:0:
320,192,13875,1,0,0:0:0:0:
192,192,14025,1,0,0:0:0:0:
320,192,14175,1,0,0:0:0:0:
448,192,14325,1,0,0:0:0:0:
320,192,14475,1,0,0:0:0:0:
64,192,14625,1,0,0:0:0:0:
320,192,14925,1,0,0:0:0:0:
192,192,15225,1,0,0:0:0:0:
64,192,15525,1,0,0:0:0:0:
448,192,15825,1,0,0:0:0:0:
320,192,15975,1,0,0:0:0:0:
192,192,16125,1,0,0:0:0:0:
320,192,16275,1,0,0:0:0:0:
192,192,16425,1,0,0:0:0:0:
320,192,16575,1,0,0:0:0:0:
192,192,16725,1,0,0:0:0:0:
64,192,16875,1,0,0:0:0:0:
448,192,17025,1,0,0:0:0:0:
448,192,17175,1,0,0:0:0:0:
320,192,17325,1,0,0:0:0:0:
320,192,17475,1,0,0:0:0:0:
192,192,17625,1,0,0:0:0:0:
192,192,17775,1,0,0:0:0:0:
64,192,17925,1,0,0:0:0:0:
64,192,18075,1,0,0:0:0:0:
448,192,18225,1,0,0:0:0:0:
320,192,18225,1,0,0:0:0:0:
320,192,18375,1,0,0:0:0:0:
448,192,18375,1,0,0:0:0:0:
448,192,18525,1,0,0:0:0:0:
192,192,18525,1,0,0:0:0:0:
192,192,18675,1,0,0:0:0:0:
448,192,18675,1,0,0:0:0:0:
448,192,18825,1,0,0:0:0:0:
64,192,18825,1,0,0:0:0:0:
64,192,18975,1,0,0:0:0:0:
448,192,18975,1,0,0:0:0:0:
448,192,19125,1,0,0:0:0:0:
192,192,19125,1,0,0:0:0:0:
192,192,19275,1,0,0:0:0:0:
448,192,19275,1,0,0:0:0:0:
64,192,19425,1,0,0:0:0:0:
192,192,19425,1,0,0:0:0:0:
320,192,19425,1,0,0:0:0:0:
64,192,19575,1,0,0:0:0:0:
192,192,19575,1,0,0:0:0:0:
448,192,19575,1,0,0:0:0:0:
64,192,19725,1,0,0:0:0:0:
448,192,19725,1,0,0:0:0:0:
320,192,19725,1,0,0:0:0:0:
448,192,19875,1,0,0:0:0:0:
320,192,19875,1,0,0:0:0:0:
192,192,19875,1,0,0:0:0:0:
64,192,20025,1,0,0:0:0:0:
448,192,20025,1,0,0:0:0:0:
320,192,20025,1,0,0:0:0:0:
64,192,20175,1,0,0:0:0:0:
448,192,20175,1,0,0:0:0:0:
192,192,20175,1,0,0:0:0:0:
192,192,20325,1,0,0:0:0:0:
320,192,20325,1,0,0:0:0:0:
64,192,20325,1,0,0:0:0:0:
64,192,20475,1,0,0:0:0:0:
448,192,20475,1,0,0:0:0:0:
320,192,20475,1,0,0:0:0:0:
192,192,20475,1,0,0:0:0:0:
64,192,20775,1,0,0:0:0:0:
192,192,20812,1,0,0:0:0:0:
320,192,20850,1,0,0:0:0:0:
448,192,20887,1,0,0:0:0:0:
64,192,20925,1,0,0:0:0:0:
192,192,20962,1,0,0:0:0:0:
320,192,21000,1,0,0:0:0:0:
448,192,21037,1,0,0:0:0:0:
64,192,21075,1,0,0:0:0:0:
192,192,21075,1,0,0:0:0:0:
192,192,21825,1,0,0:0:0:0:
64,192,21825,1,0,0:0:0:0:
192,192,22125,1,0,0:0:0:0:
320,192,22125,1,0,0:0:0:0:
320,192,22425,1,0,0:0:0:0:
448,192,22425,1,0,0:0:0:0:
64,192,23025,1,0,0:0:0:0:
192,192,23025,1,0,0:0:0:0:
192,192,23325,1,0,0:0:0:0:
320,192,23325,1,0,0:0:0:0:
320,192,23625,1,0,0:0:0:0:
448,192,23625,1,0,0:0:0:0:
64,192,24225,1,0,0:0:0:0:
192,192,24225,1,0,0:0:0:0:
192,192,24525,1,0,0:0:0:0:
320,192,24525,1,0,0:0:0:0:
320,192,24825,1,0,0:0:0:0:
448,192,24825,1,0,0:0:0:0:
64,192,25275,1,0,0:0:0:0:
192,192,25275,1,0,0:0:0:0:
320,192,25425,1,0,0:0:0:0:
448,192,25425,1,0,0:0:0:0:
448,192,25725,1,0,0:0:0:0:
320,192,25725,1,0,0:0:0:0:
192,192,25725,1,0,0:0:0:0:
64,192,25725,1,0,0:0:0:0:
64,192,25875,1,0,0:0:0:0:
192,192,25875,1,0,0:0:0:0:
320,192,25875,1,0,0:0:0:0:
448,192,25875,1,0,0:0:0:0:
448,192,26025,1,0,0:0:0:0:
320,192,26025,1,0,0:0:0:0:
192,192,26025,1,0,0:0:0:0:
64,192,26025,1,0,0:0:0:0:
64,192,26175,1,0,0:0:0:0:
192,192,26175,1,0,0:0:0:0:
320,192,26175,1,0,0:0:0:0:
448,192,26175,1,0,0:0:0:0:
448,192,26325,1,0,0:0:0:0:
320,192,26325,1,0,0:0:0:0:
192,192,26325,1,0,0:0:0:0:
64,192,26325,1,0,0:0:0:0:
448,192,26475,1,0,0:0:0:0:
192,192,26475,1,0,0:0:0:0:
64,192,26475,1,0,0:0:0:0:
320,192,26475,1,0,0:0:0:0:
64,192,26625,1,0,0:0:0:0:
192,192,26625,1,0,0:0:0:0:
320,192,26625,1,0,0:0:0:0:
448,192,26625,1,0,0:0:0:0:
64,192,26775,1,0,0:0:0:0:
320,192,26925,1,0,0:0:0:0:
448,192,26925,1,0,0:0:0:0:
192,192,27075,1,0,0:0:0:0:
192,192,27225,1,0,0:0:0:0:
64,192,27225,1,0,0:0:0:0:
320,192,27225,1,0,0:0:0:0:
448,192,27225,1,0,0:0:0:0:
448,192,27375,1,0,0:0:0:0:
320,192,27525,1,0,0:0:0:0:
64,192,27525,1,0,0:0:0:0:
192,192,27675,1,0,0:0:0:0:
64,192,27825,1,0,0:0:0:0:
192,192,27825,1,0,0:0:0:0:
320,192,27825,1,0,0:0:0:0:
448,192,27825,1,0,0:0:0:0:
64,192,27975,1,0,0:0:0:0:
192,192,28125,1,0,0:0:0:0:
320,192,28125,1,0,0:0:0:0:
448,192,28275,1,0,0:0:0:0:
64,192,28425,1,0,0:0:0:0:
192,192,28425,1,0,0:0:0:0:
320,192,28425,1,0,0:0:0:0:
448,192,28425,1,0,0:0:0:0:
192,192,28575,1,0,0:0:0:0:
64,192,28725,1,0,0:0:0:0:
320,192,28725,1,0,0:0:0:0:
192,192,28875,1,0,0:0:0:0:
448,192,29025,1,0,0:0:0:0:
320,192,29025,1,0,0:0:0:0:
192,192,29025,1,0,0:0:0:0:
64,192,29025,1,0,0:0:0:0:
192,192,29175,1,0,0:0:0:0:
64,192,29175,1,0,0:0:0:0:
192,192,29325,1,0,0:0:0:0:
64,192,29325,1,0,0:0:0:0:
64,192,29475,1,0,0:0:0:0:
192,192,29475,1,0,0:0:0:0:
64,192,29625,1,0,0:0:0:0:
192,192,29625,1,0,0:0:0:0:
320,192,29625,1,0,0:0:0:0:
448,192,29625,1,0,0:0:0:0:
448,192,29775,1,0,0:0:0:0:
320,192,29775,1,0,0:0:0:0:
448,192,29925,1,0,0:0:0:0:
320,192,29925,1,0,0:0:0:0:
448,192,30075,1,0,0:0:0:0:
320,192,30075,1,0,0:0:0:0:
448,192,30225,1,0,0:0:0:0:
320,192,30225,1,0,0:0:0:0:
192,192,30225,1,0,0:0:0:0:
64,192,30225,1,0,0:0:0:0:
448,192,30525,1,0,0:0:0:0:
320,192,30562,1,0,0:0:0:0:
192,192,30600,1,0,0:0:0:0:
64,192,30637,1,0,0:0:0:0:
448,192,30675,1,0,0:0:0:0:
320,192,30712,1,0,0:0:0:0:
192,192,30750,1,0,0:0:0:0:
64,192,30787,1,0,0:0:0:0:
448,192,30825,1,0,0:0:0:0:
320,192,30825,1,0,0:0:0:0:
448,192,31425,1,0,0:0:0:0:
320,192,31425,1,0,0:0:0:0:
320,192,31725,1,0,0:0:0:0:
192,192,31725,1,0,0:0:0:0:
192,192,32025,1,0,0:0:0:0:
64,192,32025,1,0,0:0:0:0:
448,192,32625,1,0,0:0:0:0:
320,192,32625,1,0,0:0:0:0:
320,192,32825,1,0,0:0:0:0:
192,192,32825,1,0,0:0:0:0:
192,192,33025,1,0,0:0:0:0:
64,192,33025,1,0,0:0:0:0:
448,192,33825,1,0,0:0:0:0:
320,192,33825,1,0,0:0:0:0:
320,192,34125,1,0,0:0:0:0:
192,192,34125,1,0,0:0:0:0:
192,192,34425,1,0,0:0:0:0:
64,192,34425,1,0,0:0:0:0:
448,192,34875,1,0,0:0:0:0:
320,192,34875,1,0,0:0:0:0:
192,192,35025,1,0,0:0:0:0:
64,192,35025,1,0,0:0:0:0:
64,192,35325,1,0,0:0:0:0:
192,192,35325,1,0,0:0:0:0:
320,192,35325,1,0,0:0:0:0:
448,192,35325,1,0,0:0:0:0:
448,192,35475,1,0,0:0:0:0:
320,192,35475,1,0,0:0:0:0:
192,192,35475,1,0,0:0:0:0:
64,192,35475,1,0,0:0:0:0:
64,192,35625,1,0,0:0:0:0:
192,192,35625,1,0,0:0:0:0:
320,192,35625,1,0,0:0:0:0:
448,192,35625,1,0,0:0:0:0:
448,192,35775,1,0,0:0:0:0:
320,192,35775,1,0,0:0:0:0:
192,192,35775,1,0,0:0:0:0:
64,192,35775,1,0,0:0:0:0:
64,192,35925,1,0,0:0:0:0:
192,192,35925,1,0,0:0:0:0:
320,192,35925,1,0,0:0:0:0:
448,192,35925,1,0,0:0:0:0:
448,192,36075,1,0,0:0:0:0:
192,192,36075,1,0,0:0:0:0:
64,192,36075,1,0,0:0:0:0:
320,192,36075,1,0,0:0:0:0:
64,192,36225,1,0,0:0:0:0:
192,192,36225,1,0,0:0:0:0:
320,192,36225,1,0,0:0:0:0:
448,192,36225,1,0,0:0:0:0:
192,192,36375,1,0,0:0:0:0:
448,192,36525,1,0,0:0:0:0:
64,192,36525,1,0,0:0:0:0:
320,192,36675,1,0,0:0:0:0:
64,192,36825,1,0,0:0:0:0:
192,192,36825,1,0,0:0:0:0:
320,192,36825,1,0,0:0:0:0:
448,192,36825,1,0,0:0:0:0:
192,192,36975,1,0,0:0:0:0:
64,192,37125,1,0,0:0:0:0:
448,192,37125,1,0,0:0:0:0:
320,192,37275,1,0,0:0:0:0:
192,192,37425,1,0,0:0:0:0:
64,192,37425,1,0,0:0:0:0:
320,192,37425,1,0,0:0:0:0:
448,192,37425,1,0,0:0:0:0:
448,192,37575,1,0,0:0:0:0:
320,192,37725,1,0,0:0:0:0:
192,192,37725,1,0,0:0:0:0:
64,192,37875,1,0,0:0:0:0:
64,192,38025,1,0,0:0:0:0:
192,192,38025,1,0,0:0:0:0:
320,192,38025,1,0,0:0:0:0:
448,192,38025,1,0,0:0:0:0:
64,192,38175,1,0,0:0:0:0:
192,192,38325,1,0,0:0:0:0:
320,192,38325,1,0,0:0:0:0:
448,192,38475,1,0,0:0:0:0:
448,192,38625,1,0,0:0:0:0:
320,192,38625,1,0,0:0:0:0:
192,192,38625,1,0,0:0:0:0:
64,192,38625,1,0,0:0:0:0:
64,192,38775,1,0,0:0:0:0:
448,192,38850,1,0,0:0:0:0:
192,192,38925,1,0,0:0:0:0:
320,192,39000,1,0,0:0:0:0:
64,192,39075,1,0,0:0:0:0:
448,192,39150,1,0,0:0:0:0:
192,192,39225,1,0,0:0:0:0:
64,192,39300,1,0,0:0:0:0:
448,192,39375,1,0,0:0:0:0:
320,192,39375,1,0,0:0:0:0:
64,192,39450,1,0,0:0:0:0:
192,192,39525,1,0,0:0:0:0:
448,192,39600,1,0,0:0:0:0:
64,192,39675,1,0,0:0:0:0:
192,192,39675,1,0,0:0:0:0:
320,192,39750,1,0,0:0:0:0:
448,192,39825,1,0,0:0:0:0:
64,192,39900,1,0,0:0:0:0:
64,192,40125,1,0,0:0:0:0:
192,192,40125,1,0,0:0:0:0:
320,192,40200,1,0,0:0:0:0:
448,192,40200,1,0,0:0:0:0:
192,192,40275,1,0,0:0:0:0:
64,192,40275,1,0,0:0:0:0:
320,192,40350,128,0,41025:0:0:0:0:
448,192,40350,128,0,41025:0:0:0:0:
64,192,42825,1,0,0:0:0:0:
192,192,42825,1,0,0:0:0:0:
448,192,42825,1,0,0:0:0:0:
320,192,42825,1,0,0:0:0:0:
64,192,43425,128,0,43725:0:0:0:0:
192,192,43425,1,0,0:0:0:0:
448,192,43575,1,0,0:0:0:0:
448,192,43725,128,0,44025:0:0:0:0:
320,192,43725,1,0,0:0:0:0:
192,192,43875,1,0,0:0:0:0:
192,192,44025,128,0,44325:0:0:0:0:
64,192,44025,1,0,0:0:0:0:
448,192,44175,1,0,0:0:0:0:
320,192,44325,128,0,44625:0:0:0:0:
64,192,44325,1,0,0:0:0:0:
192,192,44475,1,0,0:0:0:0:
64,192,44625,128,0,45825:0:0:0:0:
448,192,44625,1,0,0:0:0:0:
448,192,44775,1,0,0:0:0:0:
192,192,44925,1,0,0:0:0:0:
192,192,45075,1,0,0:0:0:0:
448,192,45225,1,0,0:0:0:0:
448,192,45375,1,0,0:0:0:0:
192,192,45525,1,0,0:0:0:0:
192,192,45675,1,0,0:0:0:0:
448,192,45825,1,0,0:0:0:0:
320,192,45825,128,0,46125:0:0:0:0:
192,192,45975,1,0,0:0:0:0:
448,192,46125,128,0,46425:0:0:0:0:
64,192,46125,1,0,0:0:0:0:
320,192,46275,1,0,0:0:0:0:
320,192,46425,128,0,46725:0:0:0:0:
192,192,46425,1,0,0:0:0:0:
64,192,46575,1,0,0:0:0:0:
192,192,46725,128,0,47025:0:0:0:0:
448,192,46725,1,0,0:0:0:0:
320,192,46875,1,0,0:0:0:0:
64,192,47025,1,0,0:0:0:0:
448,192,47025,128,0,48225:0:0:0:0:
64,192,47175,1,0,0:0:0:0:
320,192,47325,1,0,0:0:0:0:
320,192,47475,1,0,0:0:0:0:
64,192,47625,1,0,0:0:0:0:
64,192,47775,1,0,0:0:0:0:
320,192,47925,1,0,0:0:0:0:
320,192,48075,1,0,0:0:0:0:
192,192,48225,128,0,48525:0:0:0:0:
64,192,48225,1,0,0:0:0:0:
448,192,48375,1,0,0:0:0:0:
448,192,48525,128,0,48825:0:0:0:0:
320,192,48525,1,0,0:0:0:0:
192,192,48675,1,0,0:0:0:0:
320,192,48825,128,0,49125:0:0:0:0:
64,192,48825,1,0,0:0:0:0:
448,192,48975,1,0,0:0:0:0:
64,192,49125,128,0,49425:0:0:0:0:
192,192,49125,1,0,0:0:0:0:
320,192,49275,1,0,0:0:0:0:
192,192,49425,1,0,0:0:0:0:
448,192,49425,128,0,50625:0:0:0:0:
320,192,49575,1,0,0:0:0:0:
64,192,49725,1,0,0:0:0:0:
192,192,49875,1,0,0:0:0:0:
64,192,50025,1,0,0:0:0:0:
320,192,50175,1,0,0:0:0:0:
192,192,50325,1,0,0:0:0:0:
320,192,50475,1,0,0:0:0:0:
192,192,50625,1,0,0:0:0:0:
64,192,50625,1,0,0:0:0:0:
64,192,50775,1,0,0:0:0:0:
192,192,50775,1,0,0:0:0:0:
192,192,50925,1,0,0:0:0:0:
64,192,50925,1,0,0:0:0:0:
64,192,51075,1,0,0:0:0:0:
192,192,51075,1,0,0:0:0:0:
192,192,51225,1,0,0:0:0:0:
64,192,51225,1,0,0:0:0:0:
64,192,51375,1,0,0:0:0:0:
192,192,51375,1,0,0:0:0:0:
64,192,51525,1,0,0:0:0:0:
192,192,51525,1,0,0:0:0:0:
192,192,51675,1,0,0:0:0:0:
64,192,51675,1,0,0:0:0:0:
64,192,51825,1,0,0:0:0:0:
192,192,51825,1,0,0:0:0:0:
64,192,52425,1,0,0:0:0:0:
192,192,52425,1,0,0:0:0:0:
320,192,52425,1,0,0:0:0:0:
448,192,52425,1,0,0:0:0:0:
64,192,53025,128,0,53325:0:0:0:0:
448,192,53025,1,0,0:0:0:0:
320,192,53175,1,0,0:0:0:0:
448,192,53325,128,0,53625:0:0:0:0:
192,192,53325,1,0,0:0:0:0:
64,192,53475,1,0,0:0:0:0:
320,192,53625,128,0,53925:0:0:0:0:
192,192,53625,1,0,0:0:0:0:
448,192,53775,1,0,0:0:0:0:
192,192,53925,128,0,54225:0:0:0:0:
64,192,53925,1,0,0:0:0:0:
448,192,54075,1,0,0:0:0:0:
320,192,54225,1,0,0:0:0:0:
64,192,54225,128,0,55425:0:0:0:0:
320,192,54375,1,0,0:0:0:0:
192,192,54525,1,0,0:0:0:0:
192,192,54675,1,0,0:0:0:0:
448,192,54825,1,0,0:0:0:0:
448,192,54975,1,0,0:0:0:0:
320,192,55125,1,0,0:0:0:0:
320,192,55275,1,0,0:0:0:0:
192,192,55425,128,0,55725:0:0:0:0:
448,192,55425,1,0,0:0:0:0:
320,192,55575,1,0,0:0:0:0:
448,192,55725,128,0,56025:0:0:0:0:
64,192,55725,1,0,0:0:0:0:
64,192,55875,1,0,0:0:0:0:
320,192,56025,128,0,56325:0:0:0:0:
192,192,56025,1,0,0:0:0:0:
448,192,56175,1,0,0:0:0:0:
192,192,56325,128,0,56625:0:0:0:0:
64,192,56325,1,0,0:0:0:0:
320,192,56475,1,0,0:0:0:0:
448,192,56625,128,0,57825:0:0:0:0:
64,192,56625,1,0,0:0:0:0:
320,192,56775,1,0,0:0:0:0:
192,192,56925,1,0,0:0:0:0:
64,192,57075,1,0,0:0:0:0:
192,192,57225,1,0,0:0:0:0:
320,192,57375,1,0,0:0:0:0:
192,192,57525,1,0,0:0:0:0:
64,192,57675,1,0,0:0:0:0:
64,192,57825,128,0,58125:0:0:0:0:
192,192,57825,1,0,0:0:0:0:
448,192,57975,1,0,0:0:0:0:
448,192,58125,128,0,58425:0:0:0:0:
320,192,58125,1,0,0:0:0:0:
192,192,58275,1,0,0:0:0:0:
320,192,58425,128,0,58725:0:0:0:0:
64,192,58425,1,0,0:0:0:0:
192,192,58575,1,0,0:0:0:0:
192,192,58725,128,0,59025:0:0:0:0:
64,192,58725,1,0,0:0:0:0:
448,192,58875,1,0,0:0:0:0:
64,192,59025,1,0,0:0:0:0:
448,192,59025,128,0,60225:0:0:0:0:
64,192,59175,1,0,0:0:0:0:
192,192,59325,1,0,0:0:0:0:
192,192,59475,1,0,0:0:0:0:
64,192,59625,1,0,0:0:0:0:
64,192,59775,1,0,0:0:0:0:
192,192,59925,1,0,0:0:0:0:
192,192,60075,1,0,0:0:0:0:
192,192,60225,1,0,0:0:0:0:
64,192,60225,1,0,0:0:0:0:
320,192,60375,1,0,0:0:0:0:
448,192,60375,1,0,0:0:0:0:
192,192,60525,1,0,0:0:0:0:
64,192,60525,1,0,0:0:0:0:
320,192,60675,1,0,0:0:0:0:
448,192,60675,1,0,0:0:0:0:
192,192,60825,1,0,0:0:0:0:
64,192,60825,1,0,0:0:0:0:
320,192,60975,1,0,0:0:0:0:
448,192,60975,1,0,0:0:0:0:
192,192,61125,1,0,0:0:0:0:
64,192,61125,1,0,0:0:0:0:
448,192,61275,1,0,0:0:0:0:
320,192,61275,1,0,0:0:0:0:
192,192,61425,1,0,0:0:0:0:
64,192,61425,128,0,62025:0:0:0:0:
192,192,62025,1,0,0:0:0:0:
320,192,62025,1,0,0:0:0:0:
448,192,62025,1,0,0:0:0:0:
64,192,62625,128,0,63075:0:0:0:0:
192,192,62625,128,0,63075:0:0:0:0:
320,192,63075,128,0,63525:0:0:0:0:
448,192,63075,128,0,63525:0:0:0:0:
192,192,63525,128,0,63825:0:0:0:0:
64,192,63525,128,0,63825:0:0:0:0:
320,192,63825,1,0,0:0:0:0:
448,192,63825,1,0,0:0:0:0:
320,192,63975,128,0,64275:0:0:0:0:
448,192,63975,128,0,64275:0:0:0:0:
320,192,64425,1,0,0:0:0:0:
192,192,64425,1,0,0:0:0:0:
320,192,64575,128,0,64875:0:0:0:0:
192,192,64575,128,0,64875:0:0:0:0:
64,192,65025,1,0,0:0:0:0:
448,192,65025,1,0,0:0:0:0:
192,192,65225,1,0,0:0:0:0:
448,192,65325,1,0,0:0:0:0:
320,192,65525,1,0,0:0:0:0:
192,192,65625,1,0,0:0:0:0:
64,192,65825,1,0,0:0:0:0:
448,192,65925,1,0,0:0:0:0:
64,192,66025,1,0,0:0:0:0:
320,192,66125,1,0,0:0:0:0:
448,192,66225,1,0,0:0:0:0:
320,192,66425,1,0,0:0:0:0:
64,192,66525,1,0,0:0:0:0:
192,192,66725,1,0,0:0:0:0:
448,192,66825,1,0,0:0:0:0:
320,192,67025,1,0,0:0:0:0:
64,192,67125,1,0,0:0:0:0:
192,192,67225,1,0,0:0:0:0:
448,192,67325,1,0,0:0:0:0:
320,192,67425,1,0,0:0:0:0:
64,192,67625,1,0,0:0:0:0:
192,192,67725,1,0,0:0:0:0:
192,192,67925,1,0,0:0:0:0:
448,192,68025,1,0,0:0:0:0:
448,192,68225,1,0,0:0:0:0:
192,192,68325,1,0,0:0:0:0:
64,192,68525,1,0,0:0:0:0:
192,192,68625,1,0,0:0:0:0:
64,192,68725,1,0,0:0:0:0:
448,192,68825,1,0,0:0:0:0:
192,192,68925,1,0,0:0:0:0:
448,192,69025,1,0,0:0:0:0:
64,192,69125,1,0,0:0:0:0:
320,192,69225,1,0,0:0:0:0:
64,192,69325,1,0,0:0:0:0:
448,192,69425,1,0,0:0:0:0:
192,192,69525,1,0,0:0:0:0:
448,192,69625,1,0,0:0:0:0:
64,192,69825,1,0,0:0:0:0:
448,192,69825,1,0,0:0:0:0:
64,192,70025,1,0,0:0:0:0:
192,192,70025,1,0,0:0:0:0:
320,192,70125,1,0,0:0:0:0:
448,192,70325,1,0,0:0:0:0:
320,192,70325,1,0,0:0:0:0:
64,192,70425,1,0,0:0:0:0:
192,192,70625,1,0,0:0:0:0:
64,192,70625,1,0,0:0:0:0:
320,192,70725,1,0,0:0:0:0:
192,192,70825,1,0,0:0:0:0:
448,192,70925,1,0,0:0:0:0:
320,192,71025,1,0,0:0:0:0:
192,192,71025,1,0,0:0:0:0:
64,192,71225,1,0,0:0:0:0:
192,192,71225,1,0,0:0:0:0:
320,192,71325,1,0,0:0:0:0:
448,192,71525,1,0,0:0:0:0:
192,192,71525,1,0,0:0:0:0:
320,192,71625,1,0,0:0:0:0:
192,192,71825,1,0,0:0:0:0:
448,192,71825,1,0,0:0:0:0:
320,192,71925,1,0,0:0:0:0:
64,192,72025,1,0,0:0:0:0:
192,192,72125,1,0,0:0:0:0:
448,192,72225,1,0,0:0:0:0:
320,192,72225,1,0,0:0:0:0:
64,192,72425,1,0,0:0:0:0:
192,192,72525,1,0,0:0:0:0:
320,192,72725,1,0,0:0:0:0:
448,192,72825,1,0,0:0:0:0:
192,192,73025,1,0,0:0:0:0:
64,192,73125,1,0,0:0:0:0:
320,192,73325,1,0,0:0:0:0:
448,192,73425,128,0,74137:0:0:0:0:
320,192,74025,1,0,0:0:0:0:
192,192,74062,1,0,0:0:0:0:
64,192,74100,1,0,0:0:0:0:
320,192,74175,1,0,0:0:0:0:
192,192,74212,1,0,0:0:0:0:
64,192,74250,1,0,0:0:0:0:
64,192,74625,1,0,0:0:0:0:
448,192,74625,1,0,0:0:0:0:
64,192,74825,1,0,0:0:0:0:
320,192,74825,1,0,0:0:0:0:
192,192,74925,1,0,0:0:0:0:
448,192,75125,1,0,0:0:0:0:
192,192,75125,1,0,0:0:0:0:
320,192,75225,1,0,0:0:0:0:
64,192,75425,1,0,0:0:0:0:
448,192,75425,1,0,0:0:0:0:
320,192,75525,1,0,0:0:0:0:
192,192,75625,1,0,0:0:0:0:
64,192,75725,1,0,0:0:0:0:
192,192,75825,1,0,0:0:0:0:
320,192,75825,1,0,0:0:0:0:
320,192,76025,1,0,0:0:0:0:
448,192,76025,1,0,0:0:0:0:
64,192,76125,1,0,0:0:0:0:
192,192,76325,1,0,0:0:0:0:
320,192,76325,1,0,0:0:0:0:
448,192,76425,1,0,0:0:0:0:
64,192,76625,1,0,0:0:0:0:
448,192,76625,1,0,0:0:0:0:
192,192,76725,1,0,0:0:0:0:
64,192,76825,1,0,0:0:0:0:
192,192,76925,1,0,0:0:0:0:
320,192,77025,1,0,0:0:0:0:
448,192,77025,1,0,0:0:0:0:
64,192,77225,1,0,0:0:0:0:
192,192,77225,1,0,0:0:0:0:
192,192,77325,1,0,0:0:0:0:
448,192,77525,1,0,0:0:0:0:
320,192,77525,1,0,0:0:0:0:
320,192,77625,1,0,0:0:0:0:
192,192,77825,1,0,0:0:0:0:
64,192,77825,1,0,0:0:0:0:
64,192,77925,1,0,0:0:0:0:
448,192,78125,1,0,0:0:0:0:
192,192,78125,1,0,0:0:0:0:
320,192,78225,1,0,0:0:0:0:
64,192,78325,1,0,0:0:0:0:
448,192,78425,1,0,0:0:0:0:
192,192,78425,1,0,0:0:0:0:
320,192,78525,1,0,0:0:0:0:
192,192,78625,1,0,0:0:0:0:
64,192,78725,1,0,0:0:0:0:
448,192,78725,1,0,0:0:0:0:
192,192,78825,1,0,0:0:0:0:
448,192,78925,1,0,0:0:0:0:
64,192,79025,1,0,0:0:0:0:
320,192,79025,1,0,0:0:0:0:
192,192,79125,1,0,0:0:0:0:
320,192,79225,1,0,0:0:0:0:
448,192,79425,1,0,0:0:0:0:
64,192,79425,1,0,0:0:0:0:
192,192,79625,1,0,0:0:0:0:
64,192,79625,1,0,0:0:0:0:
448,192,79725,1,0,0:0:0:0:
448,192,79925,1,0,0:0:0:0:
320,192,79925,1,0,0:0:0:0:
64,192,80025,1,0,0:0:0:0:
192,192,80225,1,0,0:0:0:0:
320,192,80225,1,0,0:0:0:0:
64,192,80325,1,0,0:0:0:0:
192,192,80425,1,0,0:0:0:0:
448,192,80525,1,0,0:0:0:0:
320,192,80625,1,0,0:0:0:0:
192,192,80625,1,0,0:0:0:0:
64,192,80825,1,0,0:0:0:0:
192,192,80825,1,0,0:0:0:0:
64,192,80925,1,0,0:0:0:0:
320,192,81125,1,0,0:0:0:0:
448,192,81125,1,0,0:0:0:0:
448,192,81225,1,0,0:0:0:0:
192,192,81425,1,0,0:0:0:0:
64,192,81425,1,0,0:0:0:0:
320,192,81525,1,0,0:0:0:0:
64,192,81625,1,0,0:0:0:0:
448,192,81725,1,0,0:0:0:0:
192,192,81825,1,0,0:0:0:0:
64,192,81825,1,0,0:0:0:0:
448,192,81825,1,0,0:0:0:0:
320,192,81925,1,0,0:0:0:0:
192,192,82025,1,0,0:0:0:0:
448,192,82125,1,0,0:0:0:0:
320,192,82125,1,0,0:0:0:0:
64,192,82225,1,0,0:0:0:0:
192,192,82325,1,0,0:0:0:0:
448,192,82425,1,0,0:0:0:0:
320,192,82425,1,0,0:0:0:0:
64,192,82425,1,0,0:0:0:0:
64,192,82525,1,0,0:0:0:0:
320,192,82625,1,0,0:0:0:0:
192,192,82725,1,0,0:0:0:0:
448,192,82725,1,0,0:0:0:0:
320,192,82825,1,0,0:0:0:0:
64,192,82925,1,0,0:0:0:0:
192,192,83025,1,0,0:0:0:0:
448,192,83025,1,0,0:0:0:0:
64,192,83025,1,0,0:0:0:0:
320,192,83125,1,0,0:0:0:0:
448,192,83225,1,0,0:0:0:0:
320,192,83325,1,0,0:0:0:0:
192,192,83325,1,0,0:0:0:0:
64,192,83425,1,0,0:0:0:0:
192,192,83525,1,0,0:0:0:0:
64,192,83625,1,0,0:0:0:0:
320,192,83625,1,0,0:0:0:0:
448,192,83625,1,0,0:0:0:0:
192,192,83725,1,0,0:0:0:0:
448,192,83825,1,0,0:0:0:0:
320,192,83925,1,0,0:0:0:0:
192,192,83925,1,0,0:0:0:0:
64,192,84025,1,0,0:0:0:0:
448,192,84125,1,0,0:0:0:0:
320,192,84225,1,0,0:0:0:0:
192,192,84225,1,0,0:0:0:0:
64,192,84225,1,0,0:0:0:0:
64,192,84325,1,0,0:0:0:0:
448,192,84425,1,0,0:0:0:0:
64,192,84525,1,0,0:0:0:0:
192,192,84525,1,0,0:0:0:0:
448,192,84625,1,0,0:0:0:0:
192,192,84725,1,0,0:0:0:0:
320,192,84825,1,0,0:0:0:0:
448,192,84825,1,0,0:0:0:0:
192,192,84825,1,0,0:0:0:0:
64,192,84925,1,0,0:0:0:0:
448,192,85025,1,0,0:0:0:0:
320,192,85125,1,0,0:0:0:0:
192,192,85125,1,0,0:0:0:0:
64,192,85225,1,0,0:0:0:0:
448,192,85325,1,0,0:0:0:0:
320,192,85425,1,0,0:0:0:0:
192,192,85425,1,0,0:0:0:0:
448,192,85425,1,0,0:0:0:0:
64,192,85525,1,0,0:0:0:0:
448,192,85625,1,0,0:0:0:0:
64,192,85725,1,0,0:0:0:0:
192,192,85725,1,0,0:0:0:0:
320,192,85825,1,0,0:0:0:0:
64,192,85925,1,0,0:0:0:0:
192,192,86025,1,0,0:0:0:0:
320,192,86025,1,0,0:0:0:0:
448,192,86025,1,0,0:0:0:0:
320,192,86125,1,0,0:0:0:0:
64,192,86225,1,0,0:0:0:0:
448,192,86325,1,0,0:0:0:0:
192,192,86325,1,0,0:0:0:0:
448,192,86425,1,0,0:0:0:0:
320,192,86525,1,0,0:0:0:0:
64,192,86625,1,0,0:0:0:0:
192,192,86625,1,0,0:0:0:0:
192,192,86775,1,0,0:0:0:0:
64,192,86775,1,0,0:0:0:0:
192,192,86925,1,0,0:0:0:0:
64,192,86925,1,0,0:0:0:0:
320,192,87225,1,0,0:0:0:0:
448,192,87225,1,0,0:0:0:0:
64,192,87225,1,0,0:0:0:0:
192,192,87225,1,0,0:0:0:0:
448,192,87525,1,0,0:0:0:0:
320,192,87525,1,0,0:0:0:0:
192,192,87525,1,0,0:0:0:0:
64,192,87525,1,0,0:0:0:0:
192,192,87825,1,0,0:0:0:0:
64,192,87825,1,0,0:0:0:0:
320,192,87825,1,0,0:0:0:0:
448,192,87825,1,0,0:0:0:0:
64,192,88125,1,0,0:0:0:0:
192,192,88125,1,0,0:0:0:0:
448,192,88125,1,0,0:0:0:0:
320,192,88125,1,0,0:0:0:0:
320,192,88425,1,0,0:0:0:0:
448,192,88425,1,0,0:0:0:0:
192,192,88425,1,0,0:0:0:0:
64,192,88425,1,0,0:0:0:0:
448,192,88875,1,0,0:0:0:0:
320,192,88875,1,0,0:0:0:0:
192,192,88875,1,0,0:0:0:0:
64,192,88875,1,0,0:0:0:0:
64,192,89225,1,0,0:0:0:0:
192,192,89325,1,0,0:0:0:0:
448,192,89525,1,0,0:0:0:0:
320,192,89625,1,0,0:0:0:0:
64,192,89825,1,0,0:0:0:0:
192,192,89925,1,0,0:0:0:0:
448,192,90225,1,0,0:0:0:0:
320,192,90225,1,0,0:0:0:0:
320,192,90375,1,0,0:0:0:0:
192,192,90375,1,0,0:0:0:0:
192,192,90525,1,0,0:0:0:0:
64,192,90525,1,0,0:0:0:0:
64,192,90675,1,0,0:0:0:0:
448,192,90675,1,0,0:0:0:0:
64,192,91125,128,0,91725:0:0:0:0:
192,192,91125,128,0,91725:0:0:0:0:
320,192,91125,128,0,91725:0:0:0:0:
448,192,91125,128,0,91725:0:0:0:0:
