osu file format v14

[General]
AudioFilename: audio.mp3
AudioLeadIn: 0
PreviewTime: 34564
Countdown: 1
SampleSet: Soft
StackLeniency: 0.7
Mode: 0
LetterboxInBreaks: 0
WidescreenStoryboard: 1

[Editor]
DistanceSpacing: 0.8
BeatDivisor: 4
GridSize: 16
TimelineZoom: 2.2

[Metadata]
Title:Can You Feel The Sunshine?
TitleUnicode:Can You Feel The Sunshine?
Artist:SEGA / Richard Jacques
ArtistUnicode:SEGA / Richard Jacques
Creator:jack5osu
Version:Way Too Fast
Source:Sonic R
Tags:sonic the hedgehog r can you feel the sunshine sega richard jacques saturn gospel gems collection
BeatmapID:1184616
BeatmapSetID:463862

[Difficulty]
HPDrainRate:7
CircleSize:5
OverallDifficulty:7
ApproachRate:7
SliderMultiplier:2.2
SliderTickRate:2

[Events]
//Background and Video events
0,0,"srwp004_1024x768.jpg",0,0
Video,13678,"sky.mp4"
//Break Periods
//Storyboard Layer 0 (Background)
//Storyboard Layer 1 (Fail)
//Storyboard Layer 2 (Pass)
//Storyboard Layer 3 (Foreground)
//Storyboard Sound Samples

[TimingPoints]
8,379.746835443038,4,2,0,100,1,0
39501,-100,4,2,0,100,0,1
63805,-100,4,2,0,100,0,0

[Colours]
Combo1 : 255,0,45
Combo2 : 66,66,255
Combo3 : 255,144,184
Combo4 : 255,155,0

[HitObjects]
256,192,9,5,4,0:0:0:0:
336,240,198,1,0,0:0:0:0:
256,288,388,1,8,0:0:0:0:
176,240,578,1,0,0:0:0:0:
256,192,768,1,0,0:0:0:0:
304,208,862,1,0,0:0:0:0:
336,240,957,1,0,0:0:0:0:
304,272,1052,1,0,0:0:0:0:
256,288,1147,1,8,0:0:0:0:
208,272,1242,1,0,0:0:0:0:
176,240,1337,1,0,0:0:0:0:
208,208,1431,1,0,0:0:0:0:
256,192,1526,5,0,0:0:0:0:
336,144,1715,1,0,0:0:0:0:
256,96,1905,1,8,0:0:0:0:
176,144,2095,1,0,0:0:0:0:
256,192,2285,1,0,0:0:0:0:
304,176,2379,1,0,0:0:0:0:
336,144,2474,1,0,0:0:0:0:
304,112,2569,1,0,0:0:0:0:
256,96,2664,1,8,0:0:0:0:
208,112,2759,1,0,0:0:0:0:
176,144,2854,1,0,0:0:0:0:
208,176,2948,1,0,0:0:0:0:
256,192,3045,5,0,0:0:0:0:
336,240,3234,1,0,0:0:0:0:
416,192,3424,1,8,0:0:0:0:
336,144,3614,1,0,0:0:0:0:
256,192,3804,1,0,0:0:0:0:
288,224,3898,1,0,0:0:0:0:
336,240,3993,1,0,0:0:0:0:
384,224,4088,1,0,0:0:0:0:
416,192,4183,1,8,0:0:0:0:
384,160,4278,1,0,0:0:0:0:
336,144,4373,1,0,0:0:0:0:
288,160,4467,1,0,0:0:0:0:
256,192,4564,5,0,0:0:0:0:
176,240,4753,1,0,0:0:0:0:
96,192,4943,1,8,0:0:0:0:
176,144,5133,1,0,0:0:0:0:
256,192,5323,1,0,0:0:0:0:
224,224,5417,1,0,0:0:0:0:
176,240,5512,1,0,0:0:0:0:
128,224,5607,1,0,0:0:0:0:
96,192,5702,1,8,0:0:0:0:
128,160,5797,1,0,0:0:0:0:
176,144,5892,1,0,0:0:0:0:
224,160,5986,1,0,0:0:0:0:
256,192,6083,5,4,0:0:0:0:
304,176,6178,1,0,0:0:0:0:
304,128,6273,2,0,L|224:80,1,55,2|0,0:0|0:0,0:0:0:0:
208,96,6463,1,8,0:0:0:0:
160,112,6558,1,0,0:0:0:0:
160,160,6653,2,0,L|240:208,1,55,2|0,0:0|0:0,0:0:0:0:
256,192,6843,1,0,0:0:0:0:
304,176,6938,1,0,0:0:0:0:
304,128,7033,2,0,L|224:80,1,55,2|0,0:0|0:0,0:0:0:0:
208,96,7223,1,8,0:0:0:0:
160,112,7318,1,0,0:0:0:0:
160,160,7413,2,0,L|240:208,1,55,2|0,0:0|0:0,0:0:0:0:
256,192,7602,5,0,0:0:0:0:
304,208,7697,1,0,0:0:0:0:
304,256,7792,2,0,L|224:304,1,55,2|0,0:0|0:0,0:0:0:0:
208,288,7982,1,8,0:0:0:0:
160,272,8077,1,0,0:0:0:0:
160,224,8172,2,0,L|240:176,1,55,2|0,0:0|0:0,0:0:0:0:
256,192,8362,1,0,0:0:0:0:
304,208,8457,1,0,0:0:0:0:
304,256,8552,2,0,L|224:304,1,55,2|0,0:0|0:0,0:0:0:0:
208,288,8742,1,8,0:0:0:0:
160,272,8837,1,0,0:0:0:0:
160,224,8932,2,0,L|240:176,1,55,2|0,0:0|0:0,0:0:0:0:
256,192,9121,5,0,0:0:0:0:
304,192,9216,1,0,0:0:0:0:
352,192,9311,2,2,L|352:128,1,55,2|0,0:0|0:0,0:0:0:0:
304,128,9501,1,8,0:0:0:0:
256,128,9596,1,0,0:0:0:0:
208,128,9691,2,2,L|208:64,1,55,2|0,0:0|0:0,0:0:0:0:
256,64,9881,1,0,0:0:0:0:
304,64,9976,1,0,0:0:0:0:
352,64,10071,2,2,L|352:0,1,55,2|0,0:0|0:0,0:0:0:0:
304,0,10261,1,8,0:0:0:0:
256,0,10356,1,0,0:0:0:0:
208,0,10451,2,0,L|80:128,1,165,2|0,0:0|0:0,0:0:0:0:
112,160,10830,2,0,L|160:208,1,55,2|0,0:0|0:0,0:0:0:0:
192,208,11020,2,0,L|416:208,1,220,12|0,0:0|0:0,0:0:0:0:
256,192,11590,12,0,13299,0:0:0:0:
480,32,13678,6,0,L|480:144,2,110,12|2|8,0:0|0:0|0:0,0:0:0:0:
432,48,14153,1,0,0:0:0:0:
384,64,14248,1,2,0:0:0:0:
336,80,14343,2,0,L|336:144,2,55,0|8|0,0:0|0:0|0:0,0:0:0:0:
288,96,14628,2,0,L|288:208,1,110,2|8,0:0|0:0,0:0:0:0:
288,256,14913,1,0,0:0:0:0:
240,256,15008,2,0,L|176:256,1,55,2|0,0:0|0:0,0:0:0:0:
144,256,15197,6,0,L|64:160,2,110,8|2|8,0:0|0:0|0:0,0:0:0:0:
176,224,15672,1,0,0:0:0:0:
192,176,15767,2,0,P|206:138|288:128,1,110,2|8,0:0|0:0,0:0:0:0:
272,80,16052,1,0,0:0:0:0:
256,32,16147,2,0,L|192:32,1,55,2|0,0:0|0:0,0:0:0:0:
160,32,16337,2,0,P|48:64|48:32,1,165,8|0,0:0|0:0,0:0:0:0:
32,32,16716,6,0,L|32:144,2,110,8|2|8,0:0|0:0|0:0,0:0:0:0:
80,48,17191,1,0,0:0:0:0:
128,64,17286,1,2,0:0:0:0:
176,80,17381,2,0,L|176:144,2,55,0|8|0,0:0|0:0|0:0,0:0:0:0:
224,96,17666,2,0,L|224:208,1,110,2|8,0:0|0:0,0:0:0:0:
224,256,17951,1,0,0:0:0:0:
272,256,18046,2,0,L|336:256,1,55,2|0,0:0|0:0,0:0:0:0:
368,256,18235,6,0,L|448:160,2,110,8|2|8,0:0|0:0|0:0,0:0:0:0:
336,224,18710,1,0,0:0:0:0:
320,176,18805,2,0,P|306:138|224:128,1,110,2|8,0:0|0:0,0:0:0:0:
240,80,19090,1,0,0:0:0:0:
256,32,19185,2,0,L|320:32,1,55,2|0,0:0|0:0,0:0:0:0:
352,32,19375,2,0,P|464:64|464:32,1,165,8|0,0:0|0:0,0:0:0:0:
480,32,19754,5,12,0:0:0:0:
432,32,19849,1,0,0:0:0:0:
400,64,19944,1,2,0:0:0:0:
352,64,20039,1,0,0:0:0:0:
320,96,20134,1,8,0:0:0:0:
272,96,20229,1,0,0:0:0:0:
240,128,20324,1,2,0:0:0:0:
192,128,20419,1,0,0:0:0:0:
160,160,20514,2,0,L|160:272,2,110,8|2|8,0:0|0:0|0:0,0:0:0:0:
192,128,20989,1,0,0:0:0:0:
240,128,21083,1,2,0:0:0:0:
288,144,21178,1,0,0:0:0:0:
320,176,21273,5,8,0:0:0:0:
288,208,21368,1,0,0:0:0:0:
240,224,21463,1,2,0:0:0:0:
192,208,21558,1,0,0:0:0:0:
160,176,21653,1,8,0:0:0:0:
128,160,21748,1,0,0:0:0:0:
80,144,21843,2,0,L|80:32,1,110,2|8,0:0|0:0,0:0:0:0:
128,32,22128,2,0,B|192:32|192:32|160:144,1,165,0|8,0:0|0:0,0:0:0:0:
128,112,22508,1,0,0:0:0:0:
96,80,22602,1,2,0:0:0:0:
64,48,22697,1,0,0:0:0:0:
32,32,22792,6,0,L|32:144,2,110,8|2|8,0:0|0:0|0:0,0:0:0:0:
80,48,23267,1,0,0:0:0:0:
128,64,23362,2,0,B|144:112|144:112|192:64,1,110,2|8,0:0|0:0,0:0:0:0:
224,80,23647,2,0,L|224:144,1,55,0|2,0:0|0:0,0:0:0:0:
208,176,23837,1,0,0:0:0:0:
208,224,23932,1,8,0:0:0:0:
224,256,24027,1,0,0:0:0:0:
272,256,24122,2,0,L|336:256,1,55,2|0,0:0|0:0,0:0:0:0:
368,256,24311,6,0,L|448:160,2,110,8|2|8,0:0|0:0|0:0,0:0:0:0:
336,224,24786,1,0,0:0:0:0:
320,176,24881,2,0,P|306:138|224:128,1,110,2|8,0:0|0:0,0:0:0:0:
240,80,25166,1,0,0:0:0:0:
256,32,25261,2,0,L|288:96,1,55,2|0,0:0|0:0,0:0:0:0:
256,128,25451,1,8,0:0:0:0:
224,144,25545,1,0,0:0:0:0:
192,176,25640,1,2,0:0:0:0:
224,208,25735,1,0,0:0:0:0:
256,192,25830,6,0,L|400:16,1,220,12|8,0:0|0:0,0:0:0:0:
432,48,26305,1,0,0:0:0:0:
464,80,26400,1,2,0:0:0:0:
480,128,26495,2,0,L|480:192,1,55,0|8,0:0|0:0,0:0:0:0:
480,224,26685,1,0,0:0:0:0:
480,272,26780,2,0,P|384:304|352:272,1,110,2|8,0:0|0:0,0:0:0:0:
336,304,27064,1,0,0:0:0:0:
288,304,27159,2,0,L|224:304,1,55,2|0,0:0|0:0,0:0:0:0:
192,304,27349,6,0,L|80:304,2,110,8|2|8,0:0|0:0|0:0,0:0:0:0:
240,304,27824,1,0,0:0:0:0:
288,304,27919,2,0,L|416:304,2,110,2|8|2,0:0|0:0|0:0,0:0:0:0:
256,272,28394,1,0,0:0:0:0:
256,224,28489,1,8,0:0:0:0:
256,176,28583,1,0,0:0:0:0:
256,128,28678,2,8,L|256:16,1,110,2|8,0:0|0:0,0:0:0:0:
304,16,28963,5,0,0:0:0:0:
352,16,29058,2,0,L|496:16,1,110,2|8,0:0|0:0,0:0:0:0:
464,64,29343,1,0,0:0:0:0:
416,64,29438,2,0,L|272:64,1,110,2|8,0:0|0:0,0:0:0:0:
304,112,29723,1,0,0:0:0:0:
352,112,29818,2,0,L|480:112,1,110,2|8,0:0|0:0,0:0:0:0:
448,160,30102,1,0,0:0:0:0:
432,208,30197,2,0,L|384:256,1,55,2|0,0:0|0:0,0:0:0:0:
368,288,30387,6,0,P|304:352|288:336,1,110,12|2,0:0|0:0,0:0:0:0:
272,336,30672,1,0,0:0:0:0:
240,320,30767,1,8,0:0:0:0:
208,304,30862,1,0,0:0:0:0:
160,304,30957,2,8,P|96:240|112:224,1,110,6|10,0:0|0:0,0:0:0:0:
112,208,31242,1,0,0:0:0:0:
128,176,31337,1,2,0:0:0:0:
144,144,31432,1,0,0:0:0:0:
160,112,31526,2,0,P|240:96|288:192,1,165,12|0,0:0|0:0,0:0:0:0:
256,192,31906,6,0,L|176:272,1,110,12|2,0:0|0:0,0:0:0:0:
128,272,32191,1,0,0:0:0:0:
80,272,32286,2,0,L|0:192,1,110,8|2,0:0|0:0,0:0:0:0:
0,144,32571,1,0,0:0:0:0:
0,96,32666,2,0,L|96:0,1,110,8|2,0:0|0:0,0:0:0:0:
128,16,32951,1,0,0:0:0:0:
176,16,33046,2,0,L|256:96,1,110,8|2,0:0|0:0,0:0:0:0:
256,144,33330,1,0,0:0:0:0:
256,192,33425,6,0,L|336:272,1,110,8|2,0:0|0:0,0:0:0:0:
384,272,33710,1,0,0:0:0:0:
432,272,33805,2,0,L|512:192,1,110,8|2,0:0|0:0,0:0:0:0:
512,144,34090,1,0,0:0:0:0:
512,96,34185,2,0,L|416:0,1,110,8|2,0:0|0:0,0:0:0:0:
384,16,34470,1,0,0:0:0:0:
336,16,34565,2,0,L|256:96,1,110,8|2,0:0|0:0,0:0:0:0:
256,144,34849,1,0,0:0:0:0:
224,176,34944,5,8,0:0:0:0:
192,208,35039,1,0,0:0:0:0:
224,240,35134,1,2,0:0:0:0:
256,208,35229,1,0,0:0:0:0:
288,176,35324,2,0,L|384:80,1,110,8|2,0:0|0:0,0:0:0:0:
400,64,35609,1,0,0:0:0:0:
432,96,35704,1,8,0:0:0:0:
400,128,35799,1,0,0:0:0:0:
368,160,35894,2,0,L|272:256,1,110,2|8,0:0|0:0,0:0:0:0:
256,272,36178,1,0,0:0:0:0:
224,304,36273,6,0,P|144:224|144:208,3,110,2|8|2|8,0:0|0:0|0:0|0:0,0:0:0:0:
144,192,36938,1,0,0:0:0:0:
144,144,37033,2,0,P|192:96|240:96,1,110,2|8,0:0|0:0,0:0:0:0:
272,96,37318,1,0,0:0:0:0:
320,112,37413,1,2,0:0:0:0:
352,144,37508,1,0,0:0:0:0:
368,192,37602,1,8,0:0:0:0:
368,240,37697,1,0,0:0:0:0:
352,288,37792,1,2,0:0:0:0:
320,320,37887,1,0,0:0:0:0:
272,336,37982,1,12,0:0:0:0:
256,192,38172,12,0,39311,0:0:0:0:
32,96,39501,6,0,P|96:160|128:144,1,110,12|2,0:0|0:0,0:0:0:0:
144,144,39786,1,0,0:0:0:0:
192,128,39881,2,0,P|272:128|304:176,1,110,8|2,0:0|0:0,0:0:0:0:
320,176,40166,1,0,0:0:0:0:
352,208,40261,2,0,P|384:272|352:320,1,110,8|2,0:0|0:0,0:0:0:0:
352,336,40545,2,0,L|288:336,2,55,0|8|0,0:0|0:0|0:0,0:0:0:0:
384,304,40830,2,0,L|400:240,2,55,8|0|8,0:0|0:0|0:0,0:0:0:0:
352,304,41115,5,0,0:0:0:0:
320,272,41210,2,0,L|256:176,1,110,2|8,0:0|0:0,0:0:0:0:
208,176,41495,1,0,0:0:0:0:
208,128,41590,1,2,0:0:0:0:
256,128,41685,1,0,0:0:0:0:
304,128,41780,1,8,0:0:0:0:
304,176,41875,1,0,0:0:0:0:
304,224,41970,1,2,0:0:0:0:
256,224,42064,1,0,0:0:0:0:
208,224,42159,2,0,L|208:112,1,110,8|8,0:0|0:0,0:0:0:0:
256,112,42444,2,0,L|304:160,1,55,0|8,0:0|0:0,0:0:0:0:
336,144,42634,5,0,0:0:0:0:
384,128,42729,1,2,0:0:0:0:
416,112,42824,1,0,0:0:0:0:
464,96,42919,2,0,L|464:224,2,110,8|2|8,0:0|0:0|0:0,0:0:0:0:
416,80,43394,1,0,0:0:0:0:
368,64,43489,2,0,L|256:112,1,110,2|8,0:0|0:0,0:0:0:0:
224,112,43773,1,0,0:0:0:0:
176,96,43868,1,8,0:0:0:0:
208,64,43963,1,0,0:0:0:0:
256,48,44058,5,8,0:0:0:0:
288,64,44153,1,0,0:0:0:0:
256,80,44248,1,2,0:0:0:0:
288,96,44343,1,0,0:0:0:0:
256,112,44438,1,8,0:0:0:0:
288,128,44533,1,0,0:0:0:0:
256,144,44628,1,2,0:0:0:0:
288,160,44723,1,0,0:0:0:0:
256,176,44818,1,8,0:0:0:0:
288,192,44913,1,0,0:0:0:0:
320,208,45008,1,2,0:0:0:0:
352,224,45102,1,0,0:0:0:0:
352,256,45197,1,8,0:0:0:0:
352,288,45292,1,0,0:0:0:0:
384,320,45387,1,8,0:0:0:0:
416,320,45482,1,0,0:0:0:0:
448,304,45577,6,0,P|400:224|384:224,1,110,12|2,0:0|0:0,0:0:0:0:
352,240,45862,1,0,0:0:0:0:
336,272,45957,2,0,P|256:272|224:224,1,110,8|2,0:0|0:0,0:0:0:0:
208,224,46242,1,0,0:0:0:0:
176,192,46337,2,0,P|144:128|176:80,1,110,8|2,0:0|0:0,0:0:0:0:
176,64,46621,2,0,L|240:64,2,55,0|8|0,0:0|0:0|0:0,0:0:0:0:
144,96,46906,2,0,L|128:160,2,55,8|0|8,0:0|0:0|0:0,0:0:0:0:
176,80,47191,5,0,0:0:0:0:
208,112,47286,2,0,L|272:208,1,110,2|8,0:0|0:0,0:0:0:0:
320,208,47571,1,0,0:0:0:0:
320,256,47666,1,2,0:0:0:0:
272,256,47761,1,0,0:0:0:0:
224,256,47856,1,8,0:0:0:0:
224,208,47951,1,0,0:0:0:0:
224,160,48045,2,0,L|224:80,1,55,2|0,0:0|0:0,0:0:0:0:
224,64,48235,2,0,L|336:64,1,110,8|8,0:0|0:0,0:0:0:0:
384,80,48520,1,0,0:0:0:0:
432,112,48615,6,0,L|432:224,2,110,8|2|8,0:0|0:0|0:0,0:0:0:0:
400,96,49090,1,0,0:0:0:0:
368,128,49185,2,0,L|320:240,1,110,2|8,0:0|0:0,0:0:0:0:
288,272,49470,1,0,0:0:0:0:
240,288,49564,2,0,L|112:288,1,110,2|8,0:0|0:0,0:0:0:0:
128,336,49849,1,0,0:0:0:0:
176,336,49944,1,8,0:0:0:0:
224,336,50039,1,0,0:0:0:0:
272,336,50134,5,8,0:0:0:0:
240,320,50229,1,0,0:0:0:0:
272,304,50324,1,2,0:0:0:0:
240,288,50419,1,0,0:0:0:0:
272,272,50514,1,8,0:0:0:0:
240,256,50609,1,0,0:0:0:0:
272,240,50704,1,2,0:0:0:0:
240,224,50799,1,0,0:0:0:0:
272,208,50894,1,8,0:0:0:0:
240,192,50989,1,0,0:0:0:0:
272,176,51084,1,2,0:0:0:0:
240,160,51178,1,0,0:0:0:0:
272,144,51273,2,0,L|400:144,2,110,8|8|12,0:0|0:0|0:0,0:0:0:0:
224,144,51748,5,0,0:0:0:0:
176,144,51843,2,0,L|112:144,1,55,2|0,0:0|0:0,0:0:0:0:
80,144,52033,2,0,B|80:256|80:256|192:256,1,220,8|8,0:0|0:0,0:0:0:0:
224,224,52508,1,0,0:0:0:0:
256,192,52602,1,2,0:0:0:0:
288,160,52697,1,0,0:0:0:0:
320,128,52792,2,0,L|432:128,2,110,8|8|8,0:0|0:0|0:0,0:0:0:0:
288,96,53267,5,0,0:0:0:0:
256,64,53362,1,2,0:0:0:0:
224,32,53457,1,0,0:0:0:0:
192,0,53552,2,0,B|80:0|80:0|80:112,1,220,8|8,0:0|0:0,0:0:0:0:
112,144,54026,1,0,0:0:0:0:
144,176,54120,1,2,0:0:0:0:
176,208,54215,1,0,0:0:0:0:
208,240,54310,2,0,L|208:352,2,110,8|8|8,0:0|0:0|0:0,0:0:0:0:
240,208,54786,5,0,0:0:0:0:
272,176,54881,2,0,L|384:128,1,110,2|8,0:0|0:0,0:0:0:0:
336,96,55166,1,0,0:0:0:0:
288,80,55261,2,0,L|176:48,1,110,2|8,0:0|0:0,0:0:0:0:
144,48,55545,1,0,0:0:0:0:
96,48,55640,1,2,0:0:0:0:
64,16,55735,1,0,0:0:0:0:
96,0,55830,2,0,L|208:0,1,110,8|8,0:0|0:0,0:0:0:0:
256,0,56115,1,0,0:0:0:0:
304,16,56210,5,8,0:0:0:0:
336,32,56305,1,0,0:0:0:0:
304,48,56400,1,2,0:0:0:0:
336,64,56495,1,0,0:0:0:0:
304,80,56590,1,8,0:0:0:0:
336,96,56685,1,0,0:0:0:0:
304,112,56780,1,2,0:0:0:0:
336,128,56875,1,0,0:0:0:0:
304,144,56970,1,8,0:0:0:0:
336,160,57065,1,0,0:0:0:0:
304,176,57160,1,2,0:0:0:0:
336,192,57254,1,0,0:0:0:0:
304,208,57349,1,8,0:0:0:0:
336,224,57444,1,0,0:0:0:0:
304,240,57539,1,8,0:0:0:0:
336,256,57634,1,0,0:0:0:0:
304,272,57729,6,8,B|192:272|192:272|192:160,2,220,12|8|8,0:0|0:0|0:0,0:0:0:0:
336,240,58584,1,0,0:0:0:0:
368,208,58678,2,0,L|368:96,1,110,2|8,0:0|0:0,0:0:0:0:
352,64,58963,1,0,0:0:0:0:
304,48,59058,1,8,0:0:0:0:
256,64,59153,1,0,0:0:0:0:
224,96,59248,6,8,B|112:96|112:96|112:208,2,220
256,128,60103,1,0,0:0:0:0:
288,160,60197,2,0,L|288:272,1,110,2|8,0:0|0:0,0:0:0:0:
272,304,60482,1,0,0:0:0:0:
224,320,60577,1,8,0:0:0:0:
176,304,60672,1,0,0:0:0:0:
144,272,60767,6,0,B|144:216|144:216|200:216|200:216|200:160|200:160|256:160,1,220,12|12,0:0|0:0,0:0:0:0:
304,160,61242,1,0,0:0:0:0:
352,160,61337,2,0,L|416:160,1,55,2|0,0:0|0:0,0:0:0:0:
448,160,61526,2,0,L|448:96,1,55,12|0,0:0|0:0,0:0:0:0:
448,64,61716,2,0,L|384:64,1,55,2|0,0:0|0:0,0:0:0:0:
352,64,61906,2,0,L|352:128,1,55,12|0,0:0|0:0,0:0:0:0:
352,160,62096,2,0,L|288:160,1,55,2|0,0:0|0:0,0:0:0:0:
256,160,62286,5,12,0:0:0:0:
224,128,62381,1,0,0:0:0:0:
192,96,62476,1,8,0:0:0:0:
224,64,62571,1,0,0:0:0:0:
256,32,62666,1,12,0:0:0:0:
288,64,62761,1,0,0:0:0:0:
320,96,62856,1,8,0:0:0:0:
288,128,62951,1,0,0:0:0:0:
256,160,63045,1,12,0:0:0:0:
240,160,63140,1,8,0:0:0:0:
224,160,63235,1,8,0:0:0:0:
208,160,63330,1,8,0:0:0:0:
192,160,63425,5,12,0:0:0:0:
176,160,63473,1,8,0:0:0:0:
160,160,63520,1,8,0:0:0:0:
144,160,63568,1,8,0:0:0:0:
128,160,63615,1,8,0:0:0:0:
112,160,63663,1,8,0:0:0:0:
96,160,63710,1,8,0:0:0:0:
80,160,63758,1,8,0:0:0:0:
64,160,63805,1,12,0:0:0:0:
256,192,63995,12,0,68932,0:0:0:0:
256,144,69121,5,2,0:0:0:0:
208,192,69501,1,2,0:0:0:0:
304,192,69691,1,2,0:0:0:0:
256,240,70261,1,2,0:0:0:0:
