osu file format v14

[General]
AudioFilename: audio.mp3
AudioLeadIn: 0
PreviewTime: 34564
Countdown: 1
SampleSet: Normal
StackLeniency: 0.7
Mode: 1
LetterboxInBreaks: 0
WidescreenStoryboard: 1

[Editor]
DistanceSpacing: 0.8
BeatDivisor: 1
GridSize: 32
TimelineZoom: 1

[Metadata]
Title:Can You Feel The Sunshine?
TitleUnicode:Can You Feel The Sunshine?
Artist:SEGA / Richard Jacques
ArtistUnicode:SEGA / Richard Jacques
Creator:jack5osu
Version:Muzukashii
Source:Sonic R
Tags:sonic the hedgehog r can you feel the sunshine sega richard jacques saturn gospel gems collection
BeatmapID:1183125
BeatmapSetID:463862

[Difficulty]
HPDrainRate:4
CircleSize:4
OverallDifficulty:4
ApproachRate:5
SliderMultiplier:1.4
SliderTickRate:2

[Events]
//Background and Video events
0,0,"srwp004_1024x768.jpg",0,0
Video,13678,"sky.mp4"
//Break Periods
2,64005,71719
//Storyboard Layer 0 (Background)
//Storyboard Layer 1 (Fail)
//Storyboard Layer 2 (Pass)
//Storyboard Layer 3 (Foreground)
//Storyboard Sound Samples

[TimingPoints]
8,379.746835443038,4,1,0,100,1,0
39501,-100,4,1,0,100,0,1
63805,-100,4,1,0,100,0,0
101780,-100,4,1,0,100,0,1
126083,-100,4,1,0,100,0,0

[Colours]
Combo1 : 255,0,45
Combo2 : 66,66,255
Combo3 : 255,144,184
Combo4 : 255,155,0

[HitObjects]
256,192,6273,5,8,0:0:0:0:
256,192,6653,1,8,0:0:0:0:
256,192,7033,1,8,0:0:0:0:
256,192,7413,1,8,0:0:0:0:
256,192,7792,1,8,0:0:0:0:
256,192,8172,1,8,0:0:0:0:
256,192,8552,1,8,0:0:0:0:
256,192,8932,1,8,0:0:0:0:
256,192,9311,5,8,0:0:0:0:
256,192,9691,1,8,0:0:0:0:
256,192,10071,1,8,0:0:0:0:
256,192,10451,1,8,0:0:0:0:
256,192,10830,1,0,0:0:0:0:
256,192,11020,1,8,0:0:0:0:
256,192,11210,1,8,0:0:0:0:
256,192,11590,1,8,0:0:0:0:
256,192,11780,1,8,0:0:0:0:
256,192,11875,1,0,0:0:0:0:
256,192,11970,1,0,0:0:0:0:
256,192,12159,1,12,0:0:0:0:
256,192,13109,5,0,0:0:0:0:
256,192,13299,1,8,0:0:0:0:
256,192,13678,1,4,0:0:0:0:
256,192,14058,1,8,0:0:0:0:
256,192,14343,1,0,0:0:0:0:
256,192,14438,1,0,0:0:0:0:
256,192,14628,1,0,0:0:0:0:
256,192,14818,1,8,0:0:0:0:
256,192,15008,1,0,0:0:0:0:
256,192,15197,1,0,0:0:0:0:
256,192,15577,1,8,0:0:0:0:
256,192,15767,1,0,0:0:0:0:
256,192,16147,1,0,0:0:0:0:
256,192,16337,1,8,0:0:0:0:
256,192,16621,1,0,0:0:0:0:
256,192,16716,1,4,0:0:0:0:
256,192,17096,5,8,0:0:0:0:
256,192,17476,1,0,0:0:0:0:
256,192,17666,1,0,0:0:0:0:
256,192,18045,1,8,0:0:0:0:
256,192,18140,1,0,0:0:0:0:
256,192,18235,1,0,0:0:0:0:
256,192,18615,1,8,0:0:0:0:
256,192,18995,1,0,0:0:0:0:
256,192,19185,1,0,0:0:0:0:
256,192,19375,1,8,0:0:0:0:
256,192,19564,1,0,0:0:0:0:
256,192,19754,1,4,0:0:0:0:
256,192,20134,5,8,0:0:0:0:
256,192,20514,1,0,0:0:0:0:
256,192,20704,1,0,0:0:0:0:
256,192,20894,1,8,0:0:0:0:
64,288,21083,2,0,L|448:96,1,420
256,192,22413,1,8,0:0:0:0:
256,192,22697,1,0,0:0:0:0:
256,192,22792,1,4,0:0:0:0:
256,192,23172,5,8,0:0:0:0:
256,192,23362,1,0,0:0:0:0:
256,192,23552,1,0,0:0:0:0:
256,192,23742,1,0,0:0:0:0:
256,192,23932,1,8,0:0:0:0:
256,192,24121,1,0,0:0:0:0:
256,192,24501,1,0,0:0:0:0:
256,192,24691,1,8,0:0:0:0:
256,192,25071,1,0,0:0:0:0:
256,192,25261,1,0,0:0:0:0:
256,192,25451,1,8,0:0:0:0:
256,192,25640,1,0,0:0:0:0:
256,192,25735,1,8,0:0:0:0:
256,192,25830,1,4,0:0:0:0:
256,192,26210,5,8,0:0:0:0:
256,192,26590,1,0,0:0:0:0:
256,192,26780,1,0,0:0:0:0:
256,192,26970,1,8,0:0:0:0:
256,192,27159,1,0,0:0:0:0:
256,192,27254,1,0,0:0:0:0:
256,192,27349,1,0,0:0:0:0:
256,192,27729,1,8,0:0:0:0:
256,192,27919,1,0,0:0:0:0:
256,192,28109,1,0,0:0:0:0:
256,192,28299,1,0,0:0:0:0:
256,192,28489,1,8,0:0:0:0:
256,192,28773,1,0,0:0:0:0:
256,192,28868,1,4,0:0:0:0:
256,192,29248,5,8,0:0:0:0:
256,192,29628,1,0,0:0:0:0:
256,192,29818,1,0,0:0:0:0:
256,192,30008,1,8,0:0:0:0:
256,192,30197,1,0,0:0:0:0:
256,192,30387,1,12,0:0:0:0:
256,192,30767,1,0,0:0:0:0:
256,192,30957,1,12,0:0:0:0:
256,192,31337,1,0,0:0:0:0:
256,192,31526,1,12,0:0:0:0:
256,192,31906,5,4,0:0:0:0:
256,192,32286,1,8,0:0:0:0:
256,192,32666,1,0,0:0:0:0:
256,192,32856,1,0,0:0:0:0:
256,192,33045,1,8,0:0:0:0:
256,192,33235,1,0,0:0:0:0:
256,192,33615,1,0,0:0:0:0:
256,192,33805,1,8,0:0:0:0:
256,192,34185,1,0,0:0:0:0:
256,192,34375,1,8,0:0:0:0:
256,192,34564,1,8,0:0:0:0:
256,192,34754,1,0,0:0:0:0:
256,192,34944,1,4,0:0:0:0:
256,192,35324,5,8,0:0:0:0:
256,192,35514,1,0,0:0:0:0:
256,192,35894,1,0,0:0:0:0:
256,192,36273,1,0,0:0:0:0:
256,192,36653,1,0,0:0:0:0:
256,192,37033,1,0,0:0:0:0:
256,192,37602,1,4,0:0:0:0:
256,192,37982,1,12,0:0:0:0:
256,192,38362,12,12,39406,0:0:0:0:
256,192,39501,5,4,0:0:0:0:
256,192,39881,1,8,0:0:0:0:
256,192,40261,1,0,0:0:0:0:
256,192,40640,1,8,0:0:0:0:
256,192,40830,1,0,0:0:0:0:
256,192,41210,1,0,0:0:0:0:
256,192,41400,1,8,0:0:0:0:
256,192,41780,1,0,0:0:0:0:
256,192,41875,1,0,0:0:0:0:
256,192,41970,1,0,0:0:0:0:
256,192,42064,1,0,0:0:0:0:
256,192,42159,1,8,0:0:0:0:
256,192,42349,1,0,0:0:0:0:
256,192,42539,1,4,0:0:0:0:
256,192,42919,5,8,0:0:0:0:
256,192,43299,1,0,0:0:0:0:
256,192,43678,1,8,0:0:0:0:
64,288,43868,2,8,L|384:128,1,350
256,192,45008,1,0,0:0:0:0:
256,192,45197,1,8,0:0:0:0:
256,192,45387,1,0,0:0:0:0:
256,192,45482,1,8,0:0:0:0:
256,192,45577,1,4,0:0:0:0:
256,192,45957,5,8,0:0:0:0:
256,192,46337,1,0,0:0:0:0:
256,192,46526,1,0,0:0:0:0:
256,192,46716,1,8,0:0:0:0:
256,192,46906,1,0,0:0:0:0:
256,192,47286,1,0,0:0:0:0:
256,192,47476,1,8,0:0:0:0:
256,192,47856,1,0,0:0:0:0:
256,192,48045,1,0,0:0:0:0:
256,192,48235,1,8,0:0:0:0:
256,192,48615,5,4,0:0:0:0:
256,192,48995,1,12,0:0:0:0:
256,192,49375,1,4,0:0:0:0:
256,192,49754,1,12,0:0:0:0:
256,192,50134,1,4,0:0:0:0:
256,192,50514,1,8,0:0:0:0:
256,192,50704,1,0,0:0:0:0:
256,192,50799,1,8,0:0:0:0:
256,192,51083,1,8,0:0:0:0:
256,192,51273,1,8,0:0:0:0:
256,192,51368,1,8,0:0:0:0:
256,192,51463,1,8,0:0:0:0:
256,192,51558,1,8,0:0:0:0:
256,192,51653,1,4,0:0:0:0:
256,192,52033,5,8,0:0:0:0:
256,192,52413,1,0,0:0:0:0:
256,192,52792,1,8,0:0:0:0:
256,192,52982,1,0,0:0:0:0:
256,192,53172,1,0,0:0:0:0:
256,192,53552,1,8,0:0:0:0:
256,192,53932,1,0,0:0:0:0:
256,192,54216,1,0,0:0:0:0:
256,192,54311,1,8,0:0:0:0:
256,192,54596,1,8,0:0:0:0:
256,192,54691,1,4,0:0:0:0:
256,192,55071,5,8,0:0:0:0:
256,192,55261,1,0,0:0:0:0:
256,192,55451,1,0,0:0:0:0:
256,192,55830,1,8,0:0:0:0:
256,192,56020,1,0,0:0:0:0:
256,192,56400,1,8,0:0:0:0:
256,192,56590,1,8,0:0:0:0:
256,192,56780,1,0,0:0:0:0:
256,192,56970,1,0,0:0:0:0:
256,192,57159,1,8,0:0:0:0:
256,192,57349,1,8,0:0:0:0:
256,192,57729,5,4,0:0:0:0:
256,192,58109,1,8,0:0:0:0:
256,192,58489,1,0,0:0:0:0:
256,192,58868,1,8,0:0:0:0:
256,192,59058,1,0,0:0:0:0:
256,192,59438,1,0,0:0:0:0:
256,192,59628,1,8,0:0:0:0:
256,192,60008,1,0,0:0:0:0:
256,192,60197,1,0,0:0:0:0:
256,192,60387,1,8,0:0:0:0:
192,224,60767,2,8,L|320:160,1,140
192,224,61526,2,0,L|352:160,1,140
256,192,62286,12,0,63805,0:0:0:0:
256,192,72919,12,0,75197,0:0:0:0:
256,192,75387,5,0,0:0:0:0:
256,192,75577,1,8,0:0:0:0:
256,192,75956,1,4,0:0:0:0:
256,192,76336,1,8,0:0:0:0:
256,192,76621,1,0,0:0:0:0:
256,192,76716,1,0,0:0:0:0:
256,192,76906,1,0,0:0:0:0:
256,192,77096,1,8,0:0:0:0:
256,192,77286,1,0,0:0:0:0:
256,192,77475,1,0,0:0:0:0:
256,192,77666,1,8,0:0:0:0:
256,192,77855,1,8,0:0:0:0:
256,192,78045,1,0,0:0:0:0:
256,192,78425,1,0,0:0:0:0:
256,192,78615,1,8,0:0:0:0:
256,192,78994,5,4,0:0:0:0:
256,192,79374,1,8,0:0:0:0:
256,192,79754,1,0,0:0:0:0:
256,192,79944,1,0,0:0:0:0:
256,192,80134,1,8,0:0:0:0:
160,256,80324,2,0,L|352:160,1,210
256,192,81083,1,8,0:0:0:0:
256,192,81463,1,0,0:0:0:0:
256,192,81653,1,8,0:0:0:0:
256,192,81842,1,0,0:0:0:0:
256,192,82032,1,4,0:0:0:0:
256,192,82412,5,8,0:0:0:0:
256,192,82602,1,0,0:0:0:0:
256,192,82792,1,0,0:0:0:0:
256,192,83172,1,8,0:0:0:0:
64,288,83361,2,0,L|512:32,1,490
256,192,84881,1,8,0:0:0:0:
256,192,85070,1,4,0:0:0:0:
256,192,85450,5,8,0:0:0:0:
256,192,85640,1,0,0:0:0:0:
256,192,86020,1,8,0:0:0:0:
256,192,86399,1,8,0:0:0:0:
256,192,86779,1,8,0:0:0:0:
256,192,87159,1,0,0:0:0:0:
256,192,87349,1,0,0:0:0:0:
256,192,87539,1,8,0:0:0:0:
256,192,87729,1,8,0:0:0:0:
256,192,87918,1,0,0:0:0:0:
256,192,88013,1,8,0:0:0:0:
256,192,88108,1,4,0:0:0:0:
256,192,88488,5,8,0:0:0:0:
256,192,88773,1,0,0:0:0:0:
256,192,88868,1,0,0:0:0:0:
256,192,89058,1,0,0:0:0:0:
256,192,89248,1,8,0:0:0:0:
256,192,89437,1,0,0:0:0:0:
256,192,89627,1,0,0:0:0:0:
256,192,89818,1,0,0:0:0:0:
256,192,90007,1,8,0:0:0:0:
256,192,90197,1,0,0:0:0:0:
256,192,90577,1,0,0:0:0:0:
256,192,90767,1,8,0:0:0:0:
256,192,91051,1,0,0:0:0:0:
256,192,91146,1,4,0:0:0:0:
256,192,91526,5,8,0:0:0:0:
256,192,91906,1,0,0:0:0:0:
256,192,92096,1,0,0:0:0:0:
256,192,92286,1,8,0:0:0:0:
256,192,92475,1,0,0:0:0:0:
256,192,92665,1,12,0:0:0:0:
256,192,93045,1,0,0:0:0:0:
256,192,93235,1,12,0:0:0:0:
256,192,93615,1,0,0:0:0:0:
256,192,93804,1,12,0:0:0:0:
256,192,94184,5,4,0:0:0:0:
256,192,94564,1,8,0:0:0:0:
256,192,94944,1,0,0:0:0:0:
256,192,95134,1,0,0:0:0:0:
256,192,95323,1,8,0:0:0:0:
256,192,95513,1,0,0:0:0:0:
256,192,95893,1,0,0:0:0:0:
256,192,96083,1,8,0:0:0:0:
256,192,96463,1,0,0:0:0:0:
256,192,96653,1,8,0:0:0:0:
256,192,96842,1,8,0:0:0:0:
256,192,97032,1,0,0:0:0:0:
256,192,97222,1,4,0:0:0:0:
256,192,97602,5,8,0:0:0:0:
256,192,97792,1,0,0:0:0:0:
256,192,97982,1,8,0:0:0:0:
256,192,98172,1,0,0:0:0:0:
256,192,98362,1,8,0:0:0:0:
256,192,98551,1,0,0:0:0:0:
256,192,98742,1,8,0:0:0:0:
256,192,98931,1,0,0:0:0:0:
256,192,99121,1,8,0:0:0:0:
256,192,99311,1,0,0:0:0:0:
256,192,99501,1,8,0:0:0:0:
256,192,99880,1,4,0:0:0:0:
256,192,100261,12,12,101305,0:0:0:0:
256,192,101400,5,8,0:0:0:0:
256,192,101495,1,8,0:0:0:0:
256,192,101590,1,8,0:0:0:0:
256,192,101685,1,8,0:0:0:0:
256,192,101780,1,4,0:0:0:0:
256,192,102159,1,8,0:0:0:0:
256,192,102539,1,0,0:0:0:0:
256,192,102918,1,8,0:0:0:0:
256,192,103108,1,0,0:0:0:0:
256,192,103488,1,0,0:0:0:0:
256,192,103678,1,8,0:0:0:0:
256,192,104058,1,0,0:0:0:0:
256,192,104153,1,0,0:0:0:0:
256,192,104248,1,0,0:0:0:0:
256,192,104342,1,0,0:0:0:0:
256,192,104437,1,8,0:0:0:0:
256,192,104627,1,0,0:0:0:0:
256,192,104817,1,4,0:0:0:0:
256,192,105197,1,8,0:0:0:0:
256,192,105577,1,0,0:0:0:0:
256,192,105956,1,8,0:0:0:0:
256,192,106147,1,0,0:0:0:0:
256,192,106337,12,0,107381,0:0:0:0:
256,192,107475,5,8,0:0:0:0:
256,192,107665,1,0,0:0:0:0:
256,192,107760,1,8,0:0:0:0:
256,192,107855,1,4,0:0:0:0:
256,192,108235,1,8,0:0:0:0:
256,192,108615,1,0,0:0:0:0:
256,192,108804,1,0,0:0:0:0:
256,192,108994,1,8,0:0:0:0:
256,192,109184,1,0,0:0:0:0:
256,192,109564,1,0,0:0:0:0:
256,192,109754,1,8,0:0:0:0:
256,192,110134,1,0,0:0:0:0:
256,192,110323,1,0,0:0:0:0:
256,192,110513,1,8,0:0:0:0:
256,192,110894,5,4,0:0:0:0:
256,192,111273,1,12,0:0:0:0:
256,192,111653,1,4,0:0:0:0:
256,192,112032,1,12,0:0:0:0:
256,192,112412,1,4,0:0:0:0:
256,192,112792,1,8,0:0:0:0:
256,192,112982,1,0,0:0:0:0:
256,192,113077,1,8,0:0:0:0:
256,192,113361,1,8,0:0:0:0:
256,192,113551,1,8,0:0:0:0:
256,192,113646,1,0,0:0:0:0:
256,192,113741,1,8,0:0:0:0:
256,192,113836,1,0,0:0:0:0:
256,192,113931,1,4,0:0:0:0:
256,192,114311,5,8,0:0:0:0:
256,192,114691,1,0,0:0:0:0:
256,192,115070,1,8,0:0:0:0:
256,192,115260,1,0,0:0:0:0:
256,192,115640,1,0,0:0:0:0:
256,192,115830,1,8,0:0:0:0:
256,192,116210,1,0,0:0:0:0:
256,192,116494,1,0,0:0:0:0:
256,192,116589,1,8,0:0:0:0:
256,192,116874,1,8,0:0:0:0:
256,192,116969,1,4,0:0:0:0:
256,192,117349,5,8,0:0:0:0:
256,192,117539,1,0,0:0:0:0:
256,192,117729,1,0,0:0:0:0:
256,192,118108,1,8,0:0:0:0:
256,192,118298,1,0,0:0:0:0:
256,192,118678,1,8,0:0:0:0:
256,192,118868,1,8,0:0:0:0:
256,192,119058,1,0,0:0:0:0:
128,256,119248,2,0,L|384:128,1,280
256,192,120387,5,8,0:0:0:0:
256,192,120767,1,0,0:0:0:0:
256,192,121146,1,8,0:0:0:0:
256,192,121336,1,0,0:0:0:0:
256,192,121716,1,0,0:0:0:0:
256,192,121906,1,8,0:0:0:0:
256,192,122286,1,0,0:0:0:0:
256,192,122475,1,0,0:0:0:0:
256,192,122665,1,8,0:0:0:0:
192,224,123045,6,8,L|320:160,1,140
192,224,123804,2,0,L|352:160,1,140
256,192,124564,1,12,0:0:0:0:
256,192,124754,1,0,0:0:0:0:
256,192,124944,1,12,0:0:0:0:
256,192,125134,1,0,0:0:0:0:
288,192,125324,1,8,0:0:0:0:
256,192,125419,1,8,0:0:0:0:
256,192,125514,1,8,0:0:0:0:
256,192,125609,1,8,0:0:0:0:
256,192,125704,1,8,0:0:0:0:
256,192,125799,1,8,0:0:0:0:
256,192,125894,1,8,0:0:0:0:
256,192,125989,1,8,0:0:0:0:
256,192,126083,1,4,0:0:0:0:
