osu file format v14

[General]
AudioFilename: audio.mp3
AudioLeadIn: 0
PreviewTime: 34564
Countdown: 1
SampleSet: Normal
StackLeniency: 0.7
Mode: 1
LetterboxInBreaks: 0
WidescreenStoryboard: 1

[Editor]
DistanceSpacing: 0.8
BeatDivisor: 2
GridSize: 32
TimelineZoom: 1.4

[Metadata]
Title:Can You Feel The Sunshine?
TitleUnicode:Can You Feel The Sunshine?
Artist:SEGA / Richard Jacques
ArtistUnicode:SEGA / Richard Jacques
Creator:jack5osu
Version:Futsuu
Source:Sonic R
Tags:sonic the hedgehog r can you feel the sunshine sega richard jacques saturn gospel gems collection
BeatmapID:1190713
BeatmapSetID:463862

[Difficulty]
HPDrainRate:4
CircleSize:4
OverallDifficulty:3
ApproachRate:4
SliderMultiplier:1.4
SliderTickRate:1

[Events]
//Background and Video events
0,0,"srwp004_1024x768.jpg",0,0
Video,13678,"sky.mp4"
//Break Periods
2,64005,71599
//Storyboard Layer 0 (Background)
//Storyboard Layer 1 (Fail)
//Storyboard Layer 2 (Pass)
//Storyboard Layer 3 (Foreground)
//Storyboard Sound Samples

[TimingPoints]
8,379.746835443038,4,1,0,100,1,0
39501,-100,4,1,0,100,0,1
63805,-100,4,1,0,100,0,0
101780,-100,4,1,0,100,0,1
126083,-100,4,1,0,100,0,0

[Colours]
Combo1 : 255,0,45
Combo2 : 66,66,255
Combo3 : 255,144,184
Combo4 : 255,155,0

[HitObjects]
256,192,6083,5,8,0:0:0:0:
256,192,6463,1,8,0:0:0:0:
256,192,6843,1,8,0:0:0:0:
256,192,7223,1,8,0:0:0:0:
256,192,7602,1,8,0:0:0:0:
256,192,7982,1,8,0:0:0:0:
256,192,8362,1,8,0:0:0:0:
256,192,9121,5,8,0:0:0:0:
256,192,9501,1,8,0:0:0:0:
256,192,9881,1,8,0:0:0:0:
256,192,10261,1,8,0:0:0:0:
256,192,10640,1,8,0:0:0:0:
256,192,11020,1,8,0:0:0:0:
256,192,11400,1,8,0:0:0:0:
256,192,11970,1,0,0:0:0:0:
256,192,12159,1,12,0:0:0:0:
256,192,13678,5,4,0:0:0:0:
256,192,14058,1,8,0:0:0:0:
256,192,14438,1,0,0:0:0:0:
256,192,14818,1,8,0:0:0:0:
256,192,15008,1,0,0:0:0:0:
256,192,15197,1,0,0:0:0:0:
256,192,15577,1,8,0:0:0:0:
256,192,15957,1,0,0:0:0:0:
256,192,16147,1,0,0:0:0:0:
256,192,16337,1,8,0:0:0:0:
256,192,16716,5,4,0:0:0:0:
256,192,17096,1,8,0:0:0:0:
256,192,17476,1,0,0:0:0:0:
256,192,17856,1,8,0:0:0:0:
256,192,18045,1,0,0:0:0:0:
256,192,18235,1,0,0:0:0:0:
256,192,18615,1,8,0:0:0:0:
256,192,18995,1,0,0:0:0:0:
256,192,19185,1,0,0:0:0:0:
256,192,19375,1,8,0:0:0:0:
256,192,19754,5,4,0:0:0:0:
256,192,20134,1,8,0:0:0:0:
256,192,20514,1,0,0:0:0:0:
256,192,20894,1,8,0:0:0:0:
64,288,21273,2,0,L|352:128,1,280
256,192,22792,5,4,0:0:0:0:
256,192,23172,1,8,0:0:0:0:
256,192,23552,1,0,0:0:0:0:
256,192,23932,1,8,0:0:0:0:
256,192,24121,1,0,0:0:0:0:
256,192,24311,1,0,0:0:0:0:
256,192,24691,1,8,0:0:0:0:
256,192,25071,1,0,0:0:0:0:
256,192,25261,1,8,0:0:0:0:
256,192,25451,1,8,0:0:0:0:
256,192,25830,1,4,0:0:0:0:
256,192,26210,5,8,0:0:0:0:
256,192,26590,1,0,0:0:0:0:
256,192,26970,1,8,0:0:0:0:
256,192,27159,1,0,0:0:0:0:
256,192,27349,1,0,0:0:0:0:
256,192,27729,1,8,0:0:0:0:
256,192,28109,1,0,0:0:0:0:
256,192,28299,1,0,0:0:0:0:
256,192,28489,1,8,0:0:0:0:
256,192,28868,1,4,0:0:0:0:
256,192,29248,5,8,0:0:0:0:
256,192,29628,1,0,0:0:0:0:
256,192,30008,1,8,0:0:0:0:
256,192,30387,1,12,0:0:0:0:
256,192,30957,1,12,0:0:0:0:
256,192,31526,1,12,0:0:0:0:
256,192,31906,5,4,0:0:0:0:
256,192,32286,1,8,0:0:0:0:
256,192,32666,1,0,0:0:0:0:
256,192,33045,1,8,0:0:0:0:
256,192,33235,1,0,0:0:0:0:
256,192,33425,1,0,0:0:0:0:
256,192,33805,1,8,0:0:0:0:
256,192,34185,1,0,0:0:0:0:
256,192,34375,1,0,0:0:0:0:
256,192,34564,1,8,0:0:0:0:
256,192,34944,5,4,0:0:0:0:
256,192,35324,1,8,0:0:0:0:
256,192,35704,1,0,0:0:0:0:
256,192,36083,1,8,0:0:0:0:
256,192,36463,1,4,0:0:0:0:
256,192,36843,1,4,0:0:0:0:
256,192,37223,1,4,0:0:0:0:
128,192,37982,2,0,L|416:192,1,280
256,192,39501,5,4,0:0:0:0:
256,192,39881,1,8,0:0:0:0:
256,192,40261,1,0,0:0:0:0:
256,192,40640,1,8,0:0:0:0:
256,192,40830,1,0,0:0:0:0:
256,192,41210,1,8,0:0:0:0:
256,192,41780,1,0,0:0:0:0:
256,192,42159,1,8,0:0:0:0:
256,192,42539,1,4,0:0:0:0:
256,192,42919,1,8,0:0:0:0:
256,192,43299,1,0,0:0:0:0:
64,288,43868,2,8,L|384:128,1,350
256,192,45387,1,0,0:0:0:0:
256,192,45577,5,4,0:0:0:0:
256,192,45957,1,8,0:0:0:0:
256,192,46337,1,0,0:0:0:0:
256,192,46716,1,8,0:0:0:0:
256,192,46906,1,0,0:0:0:0:
256,192,47286,1,8,0:0:0:0:
256,192,47856,1,0,0:0:0:0:
256,192,48235,1,8,0:0:0:0:
256,192,48615,5,4,0:0:0:0:
256,192,48995,1,12,0:0:0:0:
256,192,49375,1,4,0:0:0:0:
256,192,49754,1,12,0:0:0:0:
256,192,50134,1,4,0:0:0:0:
256,192,50514,1,8,0:0:0:0:
256,192,50894,1,8,0:0:0:0:
256,192,51083,1,8,0:0:0:0:
256,192,51273,1,8,0:0:0:0:
256,192,51653,5,4,0:0:0:0:
256,192,52033,1,8,0:0:0:0:
256,192,52413,1,0,0:0:0:0:
256,192,52792,1,8,0:0:0:0:
256,192,52982,1,0,0:0:0:0:
256,192,53362,1,8,0:0:0:0:
256,192,53932,1,0,0:0:0:0:
256,192,54311,1,8,0:0:0:0:
256,192,54691,1,4,0:0:0:0:
256,192,55071,1,8,0:0:0:0:
256,192,55451,1,0,0:0:0:0:
64,288,56020,2,8,L|384:128,1,350
256,192,57539,5,0,0:0:0:0:
256,192,57729,1,4,0:0:0:0:
256,192,58109,1,8,0:0:0:0:
256,192,58489,1,0,0:0:0:0:
256,192,58868,1,8,0:0:0:0:
256,192,59058,1,0,0:0:0:0:
256,192,59438,1,8,0:0:0:0:
256,192,60008,1,0,0:0:0:0:
256,192,60387,1,8,0:0:0:0:
256,192,60767,1,12,0:0:0:0:
256,192,61147,1,12,0:0:0:0:
256,192,61526,1,4,0:0:0:0:
256,192,61906,1,4,0:0:0:0:
256,192,62286,12,0,63805,0:0:0:0:
256,192,72919,12,0,75197,0:0:0:0:
256,192,75957,5,4,0:0:0:0:
256,192,76337,1,8,0:0:0:0:
256,192,76717,1,0,0:0:0:0:
256,192,77097,1,8,0:0:0:0:
256,192,77287,1,0,0:0:0:0:
256,192,77476,1,0,0:0:0:0:
256,192,77856,1,8,0:0:0:0:
256,192,78236,1,0,0:0:0:0:
256,192,78426,1,0,0:0:0:0:
256,192,78616,1,8,0:0:0:0:
256,192,78995,5,4,0:0:0:0:
256,192,79375,1,8,0:0:0:0:
256,192,79755,1,0,0:0:0:0:
256,192,80135,1,8,0:0:0:0:
256,192,80324,1,0,0:0:0:0:
256,192,80514,1,0,0:0:0:0:
256,192,80894,1,8,0:0:0:0:
256,192,81274,1,0,0:0:0:0:
256,192,81464,1,0,0:0:0:0:
256,192,81654,1,8,0:0:0:0:
256,192,82033,5,4,0:0:0:0:
256,192,82413,1,8,0:0:0:0:
256,192,82793,1,8,0:0:0:0:
64,288,83172,2,0,L|448:96,1,420
256,192,85071,5,4,0:0:0:0:
256,192,85451,1,8,0:0:0:0:
256,192,85831,1,0,0:0:0:0:
256,192,86211,1,8,0:0:0:0:
256,192,86400,1,0,0:0:0:0:
256,192,86590,1,0,0:0:0:0:
256,192,86970,1,8,0:0:0:0:
256,192,87350,1,0,0:0:0:0:
256,192,87540,1,8,0:0:0:0:
256,192,87730,1,0,0:0:0:0:
256,192,87919,1,8,0:0:0:0:
256,192,88109,1,4,0:0:0:0:
256,192,88489,5,8,0:0:0:0:
256,192,88869,1,0,0:0:0:0:
256,192,89249,1,8,0:0:0:0:
256,192,89438,1,0,0:0:0:0:
256,192,89628,1,0,0:0:0:0:
256,192,90008,1,8,0:0:0:0:
256,192,90388,1,0,0:0:0:0:
256,192,90578,1,0,0:0:0:0:
256,192,90768,1,8,0:0:0:0:
256,192,91147,1,4,0:0:0:0:
256,192,91527,5,8,0:0:0:0:
256,192,91907,1,0,0:0:0:0:
256,192,92287,1,8,0:0:0:0:
256,192,92666,1,12,0:0:0:0:
256,192,93045,1,0,0:0:0:0:
256,192,93236,1,12,0:0:0:0:
256,192,93805,1,12,0:0:0:0:
256,192,94185,5,4,0:0:0:0:
256,192,94565,1,8,0:0:0:0:
256,192,94945,1,0,0:0:0:0:
256,192,95324,1,8,0:0:0:0:
256,192,95514,1,0,0:0:0:0:
256,192,95704,1,0,0:0:0:0:
256,192,96084,1,8,0:0:0:0:
256,192,96464,1,0,0:0:0:0:
256,192,96654,1,0,0:0:0:0:
256,192,96843,1,8,0:0:0:0:
256,192,97223,5,4,0:0:0:0:
256,192,97603,1,8,0:0:0:0:
256,192,97983,1,0,0:0:0:0:
256,192,98362,1,8,0:0:0:0:
256,192,98742,1,8,0:0:0:0:
256,192,98932,1,0,0:0:0:0:
256,192,99122,1,8,0:0:0:0:
256,192,99311,1,0,0:0:0:0:
256,192,99502,1,8,0:0:0:0:
128,192,100261,2,0,L|416:192,1,280
256,192,101780,5,4,0:0:0:0:
256,192,102160,1,8,0:0:0:0:
256,192,102540,1,0,0:0:0:0:
256,192,102919,1,8,0:0:0:0:
256,192,103109,1,0,0:0:0:0:
256,192,103489,1,8,0:0:0:0:
256,192,104059,1,0,0:0:0:0:
256,192,104438,1,8,0:0:0:0:
256,192,104818,1,4,0:0:0:0:
256,192,105198,1,8,0:0:0:0:
256,192,105578,1,0,0:0:0:0:
256,192,105767,1,0,0:0:0:0:
256,192,105957,1,8,0:0:0:0:
64,288,106337,2,8,L|352:160,1,280
256,192,107666,1,0,0:0:0:0:
256,192,107856,5,4,0:0:0:0:
256,192,108236,1,8,0:0:0:0:
256,192,108616,1,0,0:0:0:0:
256,192,108995,1,8,0:0:0:0:
256,192,109185,1,0,0:0:0:0:
256,192,109565,1,8,0:0:0:0:
256,192,110135,1,0,0:0:0:0:
256,192,110514,1,8,0:0:0:0:
256,192,110894,5,4,0:0:0:0:
256,192,111274,1,12,0:0:0:0:
256,192,111654,1,4,0:0:0:0:
256,192,112033,1,12,0:0:0:0:
256,192,112413,1,4,0:0:0:0:
256,192,112793,1,8,0:0:0:0:
256,192,112982,1,8,0:0:0:0:
256,192,113172,1,0,0:0:0:0:
256,192,113362,1,0,0:0:0:0:
256,192,113552,1,0,0:0:0:0:
256,192,113932,5,4,0:0:0:0:
256,192,114312,1,8,0:0:0:0:
256,192,114692,1,0,0:0:0:0:
256,192,115071,1,8,0:0:0:0:
256,192,115261,1,0,0:0:0:0:
256,192,115641,1,8,0:0:0:0:
256,192,116211,1,0,0:0:0:0:
256,192,116590,1,8,0:0:0:0:
256,192,116970,1,4,0:0:0:0:
256,192,117350,1,8,0:0:0:0:
256,192,117730,1,0,0:0:0:0:
256,192,117919,1,8,0:0:0:0:
256,192,118109,1,8,0:0:0:0:
64,288,118489,2,8,L|352:160,1,280
256,192,119818,5,0,0:0:0:0:
256,192,120008,1,4,0:0:0:0:
256,192,120388,1,8,0:0:0:0:
256,192,120768,1,0,0:0:0:0:
256,192,121147,1,8,0:0:0:0:
256,192,121337,1,0,0:0:0:0:
256,192,121717,1,8,0:0:0:0:
256,192,122287,1,0,0:0:0:0:
256,192,122666,1,8,0:0:0:0:
256,192,123046,1,12,0:0:0:0:
256,192,123235,1,0,0:0:0:0:
256,192,123426,1,12,0:0:0:0:
256,192,123615,1,0,0:0:0:0:
256,192,123805,1,12,0:0:0:0:
256,192,123995,1,0,0:0:0:0:
256,192,124185,1,12,0:0:0:0:
256,192,124565,12,0,126084,0:0:0:0:
