osu file format v14

[General]
AudioFilename: audio.mp3
AudioLeadIn: 0
PreviewTime: 103509
Countdown: 0
SampleSet: Normal
StackLeniency: 0.7
Mode: 1
LetterboxInBreaks: 0
WidescreenStoryboard: 0

[Editor]
DistanceSpacing: 0.8
BeatDivisor: 4
GridSize: 32
TimelineZoom: 2.2

[Metadata]
Title:Shizuka na Yoru ni
TitleUnicode:静かな夜に
Artist:SECONDWALL
ArtistUnicode:SECONDWALL
Creator:Yasuho
Version:Stargazing
Source:
Tags:realy0_ vulkin nao tomori nao_tomori naotoshi fa featured artist rock japanese jrock j-rock beautiful lie On a silent night
BeatmapID:3534465
BeatmapSetID:1729416

[Difficulty]
HPDrainRate:6
CircleSize:1
OverallDifficulty:6
ApproachRate:10
SliderMultiplier:1.4
SliderTickRate:1

[Events]
//Background and Video events
0,0,"81880838_p0.jpg",0,-69
//Break Periods
2,179459,180142
//Storyboard Layer 0 (Background)
//Storyboard Layer 1 (Fail)
//Storyboard Layer 2 (Pass)
//Storyboard Layer 3 (Foreground)
//Storyboard Layer 4 (Overlay)
//Storyboard Sound Samples

[TimingPoints]
593,333.333333333333,4,1,0,90,1,0
16759,-100,4,1,0,70,0,0
27259,-100,4,1,0,70,0,0
38092,-100,4,1,0,60,0,0
45759,-100,4,1,0,70,0,0
46092,-100,4,1,0,50,0,0
46259,-100,4,1,0,54,0,0
46426,-100,4,1,0,58,0,0
46592,-100,4,1,0,62,0,0
46759,-100,4,1,0,66,0,0
46926,-100,4,1,0,70,0,0
47092,-100,4,1,0,74,0,0
48592,-100,4,1,0,100,0,1
75259,-100,4,1,0,90,0,0
75592,-100,4,1,0,100,0,1
80592,-100,4,1,0,90,0,0
83426,-100,4,1,0,70,0,0
94092,-100,4,1,0,70,0,0
104592,-100,4,1,0,100,0,1
131259,-100,4,1,0,90,0,0
131592,-100,4,1,0,100,0,1
136592,-100,4,1,0,90,0,0
136759,-100,4,1,0,60,0,0
177926,-100,4,1,0,65,0,0
178092,-100,4,1,0,70,0,0
178259,-100,4,1,0,75,0,0
178426,-100,4,1,0,70,0,0
178592,-100,4,1,0,85,0,0
178759,-100,4,1,0,90,0,0
179259,-100,4,1,0,70,0,0
181926,-100,4,1,0,100,0,1
208592,-100,4,1,0,90,0,0
208926,-100,4,1,0,100,0,1
213926,-100,4,1,0,90,0,0
214092,-100,4,1,0,90,0,0

[HitObjects]
256,192,593,5,8,0:0:0:0:
256,192,759,1,0,0:0:0:0:
256,192,926,1,8,0:0:0:0:
256,192,1092,1,0,0:0:0:0:
256,192,1259,1,0,0:0:0:0:
256,192,1426,1,8,0:0:0:0:
256,192,1509,1,8,0:0:0:0:
256,192,1592,1,8,0:0:0:0:
256,192,1676,1,8,0:0:0:0:
256,192,1759,1,0,0:0:0:0:
256,192,1926,1,8,0:0:0:0:
256,192,2092,1,0,0:0:0:0:
256,192,2259,1,8,0:0:0:0:
256,192,2426,1,0,0:0:0:0:
256,192,2592,1,8,0:0:0:0:
256,192,2676,1,8,0:0:0:0:
256,192,2759,1,8,0:0:0:0:
256,192,2842,1,8,0:0:0:0:
256,192,2926,1,0,0:0:0:0:
256,192,3009,1,0,0:0:0:0:
256,192,3092,1,0,0:0:0:0:
256,192,3176,1,0,0:0:0:0:
256,192,3259,1,12,0:0:0:0:
256,192,3509,1,0,0:0:0:0:
256,192,3592,1,8,0:0:0:0:
256,192,3759,1,0,0:0:0:0:
256,192,3926,1,8,0:0:0:0:
256,192,4009,1,8,0:0:0:0:
256,192,4092,1,0,0:0:0:0:
256,192,4259,1,0,0:0:0:0:
256,192,4426,1,8,0:0:0:0:
256,192,4509,1,8,0:0:0:0:
256,192,4592,1,0,0:0:0:0:
256,192,4676,1,0,0:0:0:0:
256,192,4759,1,8,0:0:0:0:
256,192,4926,1,8,0:0:0:0:
256,192,5092,1,0,0:0:0:0:
256,192,5259,1,0,0:0:0:0:
256,192,5342,1,8,0:0:0:0:
256,192,5426,1,8,0:0:0:0:
256,192,5509,1,8,0:0:0:0:
256,192,5592,1,0,0:0:0:0:
256,192,5676,1,0,0:0:0:0:
256,192,5759,1,0,0:0:0:0:
256,192,5842,1,0,0:0:0:0:
256,192,5926,1,12,0:0:0:0:
256,192,6176,1,0,0:0:0:0:
256,192,6259,1,8,0:0:0:0:
256,192,6426,1,8,0:0:0:0:
256,192,6592,1,8,0:0:0:0:
256,192,6759,1,0,0:0:0:0:
256,192,6842,1,0,0:0:0:0:
256,192,6926,1,8,0:0:0:0:
256,192,7092,1,8,0:0:0:0:
256,192,7259,1,8,0:0:0:0:
256,192,7426,1,0,0:0:0:0:
256,192,7592,1,8,0:0:0:0:
256,192,7759,1,0,0:0:0:0:
256,192,7926,1,8,0:0:0:0:
256,192,8009,1,8,0:0:0:0:
256,192,8092,1,0,0:0:0:0:
256,192,8259,1,8,0:0:0:0:
256,192,8426,1,8,0:0:0:0:
256,192,8509,1,8,0:0:0:0:
256,192,8592,1,0,0:0:0:0:
256,192,8759,1,0,0:0:0:0:
256,192,8926,1,8,0:0:0:0:
256,192,9092,1,0,0:0:0:0:
256,192,9259,1,8,0:0:0:0:
256,192,9426,1,0,0:0:0:0:
256,192,9509,1,0,0:0:0:0:
256,192,9592,1,8,0:0:0:0:
256,192,9759,1,8,0:0:0:0:
256,192,9926,1,0,0:0:0:0:
256,192,10092,1,0,0:0:0:0:
256,192,10259,1,8,0:0:0:0:
256,192,10426,1,0,0:0:0:0:
256,192,10592,1,0,0:0:0:0:
256,192,10759,1,8,0:0:0:0:
256,192,10926,1,0,0:0:0:0:
256,192,11092,1,8,0:0:0:0:
256,192,11176,1,8,0:0:0:0:
256,192,11259,1,0,0:0:0:0:
256,192,11592,1,8,0:0:0:0:
256,192,11676,1,8,0:0:0:0:
256,192,11759,1,8,0:0:0:0:
256,192,11842,1,8,0:0:0:0:
256,192,11926,1,0,0:0:0:0:
256,192,12009,1,0,0:0:0:0:
256,192,12092,1,0,0:0:0:0:
256,192,12259,1,8,0:0:0:0:
256,192,12426,1,0,0:0:0:0:
256,192,12592,1,8,0:0:0:0:
256,192,12759,1,0,0:0:0:0:
256,192,12926,1,8,0:0:0:0:
256,192,13092,1,8,0:0:0:0:
256,192,13259,1,8,0:0:0:0:
256,192,13426,1,0,0:0:0:0:
256,192,13509,1,0,0:0:0:0:
256,192,13592,1,8,0:0:0:0:
256,192,13759,1,0,0:0:0:0:
256,192,13926,1,8,0:0:0:0:
256,192,14009,1,8,0:0:0:0:
256,192,14092,1,0,0:0:0:0:
256,192,14259,1,0,0:0:0:0:
256,192,14426,1,8,0:0:0:0:
256,192,14592,1,0,0:0:0:0:
256,192,14759,1,0,0:0:0:0:
256,192,14926,1,8,0:0:0:0:
256,192,15092,1,0,0:0:0:0:
256,192,15259,1,0,0:0:0:0:
256,192,15426,1,8,0:0:0:0:
256,192,15509,1,8,0:0:0:0:
256,192,15592,1,0,0:0:0:0:
256,192,15676,1,0,0:0:0:0:
256,192,15759,1,8,0:0:0:0:
256,192,15842,1,8,0:0:0:0:
256,192,15926,1,0,0:0:0:0:
256,192,16009,1,8,0:0:0:0:
256,192,16092,1,0,0:0:0:0:
256,192,16176,1,8,0:0:0:0:
256,192,16259,1,0,0:0:0:0:
256,192,16426,1,8,0:0:0:0:
256,192,16592,1,4,0:0:0:0:
256,192,16926,1,0,0:0:0:0:
256,192,17092,1,8,0:0:0:0:
256,192,17426,1,0,0:0:0:0:
256,192,17759,1,0,0:0:0:0:
256,192,17926,1,8,0:0:0:0:
256,192,18259,1,8,0:0:0:0:
256,192,18426,1,0,0:0:0:0:
256,192,18592,1,0,0:0:0:0:
256,192,19092,1,8,0:0:0:0:
256,192,19259,1,0,0:0:0:0:
256,192,19426,1,0,0:0:0:0:
256,192,19592,1,8,0:0:0:0:
256,192,19759,1,0,0:0:0:0:
256,192,19926,1,0,0:0:0:0:
256,192,20092,1,0,0:0:0:0:
256,192,20259,1,8,0:0:0:0:
256,192,20426,1,0,0:0:0:0:
256,192,20592,1,8,0:0:0:0:
256,192,20926,1,0,0:0:0:0:
256,192,21092,1,8,0:0:0:0:
256,192,21426,1,8,0:0:0:0:
256,192,21592,1,0,0:0:0:0:
256,192,21759,1,8,0:0:0:0:
256,192,21926,1,0,0:0:0:0:
256,192,22259,1,8,0:0:0:0:
256,192,22592,1,0,0:0:0:0:
256,192,22926,1,0,0:0:0:0:
256,192,23092,1,0,0:0:0:0:
256,192,23259,1,8,0:0:0:0:
256,192,23426,1,8,0:0:0:0:
256,192,23592,1,0,0:0:0:0:
256,192,23759,1,8,0:0:0:0:
256,192,23926,1,0,0:0:0:0:
256,192,24426,1,12,0:0:0:0:
256,192,24592,1,0,0:0:0:0:
256,192,24926,1,8,0:0:0:0:
256,192,25259,1,0,0:0:0:0:
256,192,25592,1,0,0:0:0:0:
256,192,25759,1,8,0:0:0:0:
256,192,25926,1,0,0:0:0:0:
256,192,26092,1,0,0:0:0:0:
256,192,26259,1,0,0:0:0:0:
256,192,26426,1,8,0:0:0:0:
256,192,26592,1,8,0:0:0:0:
256,192,26759,1,8,0:0:0:0:
256,192,26926,1,0,0:0:0:0:
256,192,27092,1,0,0:0:0:0:
256,192,27176,1,0,0:0:0:0:
256,192,27259,1,12,0:0:0:0:
256,192,27592,1,8,0:0:0:0:
256,192,27759,1,0,0:0:0:0:
256,192,27926,1,8,0:0:0:0:
256,192,28009,1,8,0:0:0:0:
256,192,28092,1,8,0:0:0:0:
256,192,28259,1,0,0:0:0:0:
256,192,28426,1,0,0:0:0:0:
256,192,28592,1,8,0:0:0:0:
256,192,28926,1,8,0:0:0:0:
256,192,29092,1,0,0:0:0:0:
256,192,29259,1,8,0:0:0:0:
256,192,29426,1,8,0:0:0:0:
256,192,29592,1,0,0:0:0:0:
256,192,29759,1,0,0:0:0:0:
256,192,29842,1,0,0:0:0:0:
256,192,29926,1,8,0:0:0:0:
256,192,30092,1,8,0:0:0:0:
256,192,30259,1,0,0:0:0:0:
256,192,30426,1,0,0:0:0:0:
256,192,30592,1,8,0:0:0:0:
256,192,30926,1,8,0:0:0:0:
256,192,31092,1,0,0:0:0:0:
256,192,31259,1,8,0:0:0:0:
256,192,31426,1,8,0:0:0:0:
256,192,31592,1,0,0:0:0:0:
256,192,31759,1,0,0:0:0:0:
256,192,31842,1,0,0:0:0:0:
256,192,31926,1,8,0:0:0:0:
256,192,32092,1,8,0:0:0:0:
256,192,32259,1,0,0:0:0:0:
256,192,32426,1,8,0:0:0:0:
256,192,32592,1,4,0:0:0:0:
256,192,32926,1,0,0:0:0:0:
256,192,33259,1,8,0:0:0:0:
256,192,33592,1,0,0:0:0:0:
256,192,33926,1,0,0:0:0:0:
256,192,34092,1,8,0:0:0:0:
256,192,34259,1,8,0:0:0:0:
256,192,34426,1,0,0:0:0:0:
256,192,34592,1,8,0:0:0:0:
256,192,34926,1,0,0:0:0:0:
256,192,35092,1,0,0:0:0:0:
256,192,35259,1,8,0:0:0:0:
256,192,35592,1,0,0:0:0:0:
256,192,35759,1,8,0:0:0:0:
256,192,35926,1,8,0:0:0:0:
256,192,36092,1,0,0:0:0:0:
256,192,36259,1,8,0:0:0:0:
256,192,36592,1,0,0:0:0:0:
256,192,36759,1,8,0:0:0:0:
256,192,36926,1,0,0:0:0:0:
256,192,37259,1,8,0:0:0:0:
256,192,37301,1,8,0:0:0:0:
256,192,37426,1,0,0:0:0:0:
256,192,37592,1,0,0:0:0:0:
256,192,37926,1,12,0:0:0:0:
256,192,39092,1,0,0:0:0:0:
256,192,39592,1,0,0:0:0:0:
256,192,40592,1,0,0:0:0:0:
256,192,41759,1,0,0:0:0:0:
256,192,42259,1,0,0:0:0:0:
256,192,43259,1,12,0:0:0:0:
256,192,44426,1,0,0:0:0:0:
256,192,44926,1,0,0:0:0:0:
256,192,45259,1,8,0:0:0:0:
256,192,45426,1,0,0:0:0:0:
256,192,45592,1,0,0:0:0:0:
256,192,45759,1,12,0:0:0:0:
256,192,46092,1,0,0:0:0:0:
256,192,46259,1,0,0:0:0:0:
256,192,46426,1,0,0:0:0:0:
256,192,46592,1,8,0:0:0:0:
256,192,46759,1,0,0:0:0:0:
256,192,46926,1,0,0:0:0:0:
256,192,47092,1,12,0:0:0:0:
256,192,48092,1,0,0:0:0:0:
256,192,48259,1,8,0:0:0:0:
256,192,48592,1,4,0:0:0:0:
256,192,48759,1,0,0:0:0:0:
256,192,48926,1,8,0:0:0:0:
256,192,49092,1,0,0:0:0:0:
256,192,49176,1,0,0:0:0:0:
256,192,49259,1,8,0:0:0:0:
256,192,49426,1,0,0:0:0:0:
256,192,49592,1,8,0:0:0:0:
256,192,49759,1,8,0:0:0:0:
256,192,49926,1,8,0:0:0:0:
256,192,50009,1,8,0:0:0:0:
256,192,50092,1,0,0:0:0:0:
256,192,50259,1,8,0:0:0:0:
256,192,50509,1,0,0:0:0:0:
256,192,50592,1,8,0:0:0:0:
256,192,50759,1,0,0:0:0:0:
256,192,50926,1,8,0:0:0:0:
123,158,51009,1,8,0:0:0:0:
123,158,51092,1,0,0:0:0:0:
123,158,51176,1,8,0:0:0:0:
256,192,51259,1,4,0:0:0:0:
208,166,51426,1,0,0:0:0:0:
256,192,51509,1,0,0:0:0:0:
256,192,51592,1,8,0:0:0:0:
256,192,51759,1,8,0:0:0:0:
256,192,51842,1,8,0:0:0:0:
256,192,51926,1,0,0:0:0:0:
256,192,52092,1,0,0:0:0:0:
256,192,52259,1,8,0:0:0:0:
256,192,52592,1,8,0:0:0:0:
256,192,52759,1,0,0:0:0:0:
256,192,52842,1,0,0:0:0:0:
256,192,52926,1,8,0:0:0:0:
207,165,53092,1,0,0:0:0:0:
256,192,53259,1,0,0:0:0:0:
256,192,53342,1,8,0:0:0:0:
256,192,53426,1,8,0:0:0:0:
256,192,53509,1,8,0:0:0:0:
256,192,53592,1,0,0:0:0:0:
256,192,53676,1,8,0:0:0:0:
256,192,53759,1,8,0:0:0:0:
256,192,53842,1,8,0:0:0:0:
256,192,53926,1,4,0:0:0:0:
256,192,54259,1,8,0:0:0:0:
256,192,54426,1,8,0:0:0:0:
256,192,54592,1,0,0:0:0:0:
256,192,54676,1,8,0:0:0:0:
256,192,54759,1,0,0:0:0:0:
256,192,54926,1,8,0:0:0:0:
256,192,55009,1,8,0:0:0:0:
256,192,55092,1,0,0:0:0:0:
256,192,55176,1,0,0:0:0:0:
256,192,55259,1,8,0:0:0:0:
256,192,55426,1,0,0:0:0:0:
256,192,55592,1,8,0:0:0:0:
256,192,55842,1,0,0:0:0:0:
256,192,55926,1,8,0:0:0:0:
256,192,56092,1,0,0:0:0:0:
256,192,56259,1,8,0:0:0:0:
94,183,56342,1,0,0:0:0:0:
256,192,56426,1,8,0:0:0:0:
256,192,56509,1,8,0:0:0:0:
256,192,56592,1,4,0:0:0:0:
187,224,56759,1,0,0:0:0:0:
256,192,56842,5,0,0:0:0:0:
256,192,56926,1,8,0:0:0:0:
256,192,57092,1,8,0:0:0:0:
256,192,57176,1,8,0:0:0:0:
256,192,57259,1,0,0:0:0:0:
256,192,57426,1,0,0:0:0:0:
256,192,57592,1,8,0:0:0:0:
256,192,57926,1,0,0:0:0:0:
256,192,58092,1,0,0:0:0:0:
256,192,58259,1,8,0:0:0:0:
171,107,58342,1,8,0:0:0:0:
256,192,58426,1,8,0:0:0:0:
206,122,58509,1,8,0:0:0:0:
256,192,58592,1,0,0:0:0:0:
256,192,58759,1,8,0:0:0:0:
256,192,58842,1,8,0:0:0:0:
256,192,58926,1,0,0:0:0:0:
256,192,59009,1,8,0:0:0:0:
256,192,59092,1,0,0:0:0:0:
256,192,59176,1,0,0:0:0:0:
256,192,59259,1,12,0:0:0:0:
94,183,59426,1,0,0:0:0:0:
256,192,59509,1,0,0:0:0:0:
256,192,59592,1,8,0:0:0:0:
256,192,59759,1,0,0:0:0:0:
256,192,59926,1,8,0:0:0:0:
256,192,60092,1,0,0:0:0:0:
256,192,60176,1,0,0:0:0:0:
256,192,60259,1,8,0:0:0:0:
256,192,60592,1,8,0:0:0:0:
256,192,60759,1,0,0:0:0:0:
256,192,60926,1,8,0:0:0:0:
256,192,61009,1,0,0:0:0:0:
256,192,61092,1,8,0:0:0:0:
256,192,61259,1,0,0:0:0:0:
94,183,61342,1,8,0:0:0:0:
256,192,61426,1,0,0:0:0:0:
256,192,61509,1,0,0:0:0:0:
256,192,61592,1,8,0:0:0:0:
256,192,61759,1,8,0:0:0:0:
256,192,61926,1,4,0:0:0:0:
94,183,62092,1,0,0:0:0:0:
256,192,62176,1,0,0:0:0:0:
256,192,62259,1,8,0:0:0:0:
256,192,62426,1,0,0:0:0:0:
256,192,62592,1,8,0:0:0:0:
256,192,62759,1,0,0:0:0:0:
256,192,62926,1,8,0:0:0:0:
256,192,63009,1,8,0:0:0:0:
256,192,63092,1,0,0:0:0:0:
256,192,63176,1,0,0:0:0:0:
256,192,63259,1,8,0:0:0:0:
256,192,63426,1,0,0:0:0:0:
256,192,63592,1,8,0:0:0:0:
256,192,63759,1,8,0:0:0:0:
256,192,63842,1,0,0:0:0:0:
256,192,63926,1,8,0:0:0:0:
256,192,64092,1,0,0:0:0:0:
94,183,64176,1,0,0:0:0:0:
256,192,64259,1,8,0:0:0:0:
256,192,64342,1,8,0:0:0:0:
256,192,64426,1,0,0:0:0:0:
256,192,64509,1,0,0:0:0:0:
256,192,64592,1,12,0:0:0:0:
256,192,64842,1,0,0:0:0:0:
256,192,64926,1,8,0:0:0:0:
256,192,65092,1,8,0:0:0:0:
256,192,65176,1,8,0:0:0:0:
256,192,65259,1,0,0:0:0:0:
256,192,65426,1,0,0:0:0:0:
256,192,65592,1,8,0:0:0:0:
256,192,65926,1,8,0:0:0:0:
256,192,66092,1,0,0:0:0:0:
256,192,66259,1,8,0:0:0:0:
256,192,66342,1,8,0:0:0:0:
256,192,66426,1,0,0:0:0:0:
256,192,66509,1,0,0:0:0:0:
256,192,66592,1,8,0:0:0:0:
256,192,66759,1,0,0:0:0:0:
256,192,66926,1,8,0:0:0:0:
256,192,67009,1,8,0:0:0:0:
256,192,67092,1,8,0:0:0:0:
256,192,67176,1,8,0:0:0:0:
256,192,67259,1,4,0:0:0:0:
168,95,67426,1,0,0:0:0:0:
256,192,67509,1,0,0:0:0:0:
256,192,67592,1,8,0:0:0:0:
256,192,67759,1,0,0:0:0:0:
256,192,67842,5,0,0:0:0:0:
256,192,67926,1,8,0:0:0:0:
256,192,68092,1,0,0:0:0:0:
256,192,68259,1,8,0:0:0:0:
112,147,68342,1,8,0:0:0:0:
207,143,68426,1,0,0:0:0:0:
95,147,68509,1,8,0:0:0:0:
256,192,68592,1,0,0:0:0:0:
256,192,68759,1,0,0:0:0:0:
256,192,68926,1,8,0:0:0:0:
256,192,69092,1,0,0:0:0:0:
256,192,69176,1,0,0:0:0:0:
256,192,69259,1,8,0:0:0:0:
256,192,69426,1,0,0:0:0:0:
256,192,69509,1,0,0:0:0:0:
256,192,69592,1,8,0:0:0:0:
256,192,69676,1,0,0:0:0:0:
256,192,69759,1,0,0:0:0:0:
256,192,69926,1,12,0:0:0:0:
256,192,70092,1,0,0:0:0:0:
256,192,70259,1,0,0:0:0:0:
256,192,70426,1,8,0:0:0:0:
256,192,70592,1,0,0:0:0:0:
256,192,70759,1,0,0:0:0:0:
256,192,70926,1,8,0:0:0:0:
256,192,71092,1,0,0:0:0:0:
256,192,71259,1,0,0:0:0:0:
256,192,71426,1,8,0:0:0:0:
256,192,71592,1,0,0:0:0:0:
256,192,71759,1,0,0:0:0:0:
256,192,71842,1,0,0:0:0:0:
256,192,71926,1,8,0:0:0:0:
256,192,72092,1,0,0:0:0:0:
256,192,72259,1,8,0:0:0:0:
256,192,72342,1,8,0:0:0:0:
256,192,72426,1,0,0:0:0:0:
256,192,72509,1,0,0:0:0:0:
256,192,72592,1,12,0:0:0:0:
256,192,72842,5,8,0:0:0:0:
256,192,72926,1,0,0:0:0:0:
256,192,73092,1,8,0:0:0:0:
256,192,73176,1,8,0:0:0:0:
256,192,73259,1,0,0:0:0:0:
256,192,73426,1,0,0:0:0:0:
256,192,73592,1,8,0:0:0:0:
256,192,73676,1,8,0:0:0:0:
256,192,73759,1,0,0:0:0:0:
256,192,73926,1,8,0:0:0:0:
256,192,74037,1,8,0:0:0:0:
256,192,74148,1,0,0:0:0:0:
256,192,74259,1,8,0:0:0:0:
256,192,74370,1,8,0:0:0:0:
256,192,74481,1,8,0:0:0:0:
256,192,74592,1,0,0:0:0:0:
256,192,74704,1,8,0:0:0:0:
256,192,74815,1,0,0:0:0:0:
256,192,74926,1,0,0:0:0:0:
256,192,75037,1,8,0:0:0:0:
256,192,75148,1,8,0:0:0:0:
256,192,75259,1,4,0:0:0:0:
256,192,75592,1,12,0:0:0:0:
256,192,75842,1,8,0:0:0:0:
256,192,75926,1,0,0:0:0:0:
256,192,76092,1,0,0:0:0:0:
256,192,76176,1,0,0:0:0:0:
256,192,76259,1,8,0:0:0:0:
256,192,76342,1,8,0:0:0:0:
256,192,76426,1,0,0:0:0:0:
256,192,76592,1,0,0:0:0:0:
256,192,76759,1,0,0:0:0:0:
256,192,76926,1,8,0:0:0:0:
256,192,77092,1,8,0:0:0:0:
256,192,77176,1,8,0:0:0:0:
256,192,77259,1,0,0:0:0:0:
256,192,77426,1,0,0:0:0:0:
256,192,77592,1,8,0:0:0:0:
256,192,77759,1,0,0:0:0:0:
256,192,77926,1,12,0:0:0:0:
256,192,78092,1,0,0:0:0:0:
256,192,78176,1,8,0:0:0:0:
256,192,78259,1,0,0:0:0:0:
256,192,78426,1,8,0:0:0:0:
256,192,78509,1,8,0:0:0:0:
256,192,78592,1,0,0:0:0:0:
256,192,78759,1,0,0:0:0:0:
256,192,78926,1,8,0:0:0:0:
256,192,79092,1,0,0:0:0:0:
256,192,79176,1,8,0:0:0:0:
256,192,79259,1,0,0:0:0:0:
256,192,79426,1,0,0:0:0:0:
256,192,79592,1,8,0:0:0:0:
256,192,79759,1,8,0:0:0:0:
256,192,79842,1,8,0:0:0:0:
256,192,79926,1,8,0:0:0:0:
256,192,80092,1,8,0:0:0:0:
256,192,80259,1,0,0:0:0:0:
256,192,80426,1,0,0:0:0:0:
256,192,80509,1,0,0:0:0:0:
256,192,80592,1,12,0:0:0:0:
256,192,80759,1,4,0:0:0:0:
256,192,81592,1,4,0:0:0:0:
256,192,81759,1,4,0:0:0:0:
256,192,82592,1,12,0:0:0:0:
256,192,82759,1,12,0:0:0:0:
256,192,82926,1,0,0:0:0:0:
256,192,83259,1,12,0:0:0:0:
256,192,83592,1,0,0:0:0:0:
256,192,83759,1,8,0:0:0:0:
256,192,84092,1,0,0:0:0:0:
256,192,84426,1,0,0:0:0:0:
256,192,84592,1,8,0:0:0:0:
256,192,84926,1,0,0:0:0:0:
256,192,85092,1,8,0:0:0:0:
256,192,85259,1,8,0:0:0:0:
256,192,85592,1,0,0:0:0:0:
256,192,85759,1,0,0:0:0:0:
256,192,85926,1,8,0:0:0:0:
256,192,86092,1,8,0:0:0:0:
256,192,86259,1,0,0:0:0:0:
256,192,86426,1,0,0:0:0:0:
256,192,86592,1,8,0:0:0:0:
256,192,86926,1,0,0:0:0:0:
256,192,87092,1,8,0:0:0:0:
256,192,87259,1,0,0:0:0:0:
256,192,87426,1,8,0:0:0:0:
256,192,87592,1,8,0:0:0:0:
256,192,87759,1,0,0:0:0:0:
256,192,87926,1,8,0:0:0:0:
256,192,88092,1,8,0:0:0:0:
256,192,88259,1,0,0:0:0:0:
256,192,88592,1,4,0:0:0:0:
256,192,88926,1,8,0:0:0:0:
256,192,89092,1,0,0:0:0:0:
256,192,89176,1,0,0:0:0:0:
256,192,89259,1,8,0:0:0:0:
256,192,89426,1,0,0:0:0:0:
256,192,89592,1,8,0:0:0:0:
256,192,89759,1,0,0:0:0:0:
256,192,90092,1,8,0:0:0:0:
256,192,90259,1,0,0:0:0:0:
256,192,90426,1,0,0:0:0:0:
256,192,90592,1,8,0:0:0:0:
256,192,90926,1,0,0:0:0:0:
256,192,91259,1,12,0:0:0:0:
256,192,91592,1,0,0:0:0:0:
256,192,91926,1,8,0:0:0:0:
256,192,92259,1,0,0:0:0:0:
256,192,92426,1,8,0:0:0:0:
256,192,92592,1,0,0:0:0:0:
256,192,92759,1,8,0:0:0:0:
256,192,92926,1,0,0:0:0:0:
256,192,93092,1,0,0:0:0:0:
256,192,93259,1,8,0:0:0:0:
256,192,93426,1,8,0:0:0:0:
256,192,93592,1,0,0:0:0:0:
256,192,93759,1,8,0:0:0:0:
256,192,93842,1,8,0:0:0:0:
256,192,93926,1,0,0:0:0:0:
256,192,94259,1,8,0:0:0:0:
256,192,94426,1,8,0:0:0:0:
256,192,94592,1,0,0:0:0:0:
256,192,94926,1,8,0:0:0:0:
256,192,95092,1,0,0:0:0:0:
256,192,95259,1,8,0:0:0:0:
256,192,95592,1,8,0:0:0:0:
256,192,95759,1,0,0:0:0:0:
256,192,95926,1,0,0:0:0:0:
256,192,96092,1,8,0:0:0:0:
256,192,96259,1,8,0:0:0:0:
256,192,96426,1,0,0:0:0:0:
256,192,96509,1,0,0:0:0:0:
256,192,96592,1,8,0:0:0:0:
256,192,96759,1,8,0:0:0:0:
256,192,96926,1,0,0:0:0:0:
256,192,97092,1,0,0:0:0:0:
256,192,97259,1,8,0:0:0:0:
256,192,97426,1,0,0:0:0:0:
256,192,97592,1,8,0:0:0:0:
256,192,97759,1,8,0:0:0:0:
256,192,97926,1,0,0:0:0:0:
256,192,98259,1,8,0:0:0:0:
256,192,98426,1,0,0:0:0:0:
256,192,98759,1,8,0:0:0:0:
256,192,98926,1,8,0:0:0:0:
256,192,99092,1,8,0:0:0:0:
256,192,99259,1,0,0:0:0:0:
256,192,99592,1,8,0:0:0:0:
256,192,99759,1,0,0:0:0:0:
256,192,99926,1,8,0:0:0:0:
256,192,100259,1,8,0:0:0:0:
256,192,100592,1,0,0:0:0:0:
256,192,100759,1,0,0:0:0:0:
256,192,100842,1,0,0:0:0:0:
256,192,100926,1,8,0:0:0:0:
256,192,101092,1,8,0:0:0:0:
256,192,101259,1,0,0:0:0:0:
256,192,101426,1,0,0:0:0:0:
256,192,101592,1,8,0:0:0:0:
256,192,101926,1,0,0:0:0:0:
256,192,102259,1,0,0:0:0:0:
256,192,102426,1,8,0:0:0:0:
256,192,102592,1,8,0:0:0:0:
256,192,102759,1,0,0:0:0:0:
256,192,102926,1,8,0:0:0:0:
256,192,103592,1,8,0:0:0:0:
256,192,103926,1,8,0:0:0:0:
256,192,104092,1,0,0:0:0:0:
256,192,104259,1,8,0:0:0:0:
256,192,104592,1,4,0:0:0:0:
256,192,104759,1,0,0:0:0:0:
256,192,104926,1,8,0:0:0:0:
256,192,105092,1,8,0:0:0:0:
256,192,105176,1,8,0:0:0:0:
256,192,105259,1,0,0:0:0:0:
256,192,105426,1,0,0:0:0:0:
256,192,105592,1,8,0:0:0:0:
256,192,105759,1,8,0:0:0:0:
256,192,105926,1,0,0:0:0:0:
256,192,106092,1,0,0:0:0:0:
256,192,106176,1,0,0:0:0:0:
256,192,106259,1,8,0:0:0:0:
256,192,106426,1,8,0:0:0:0:
256,192,106592,1,0,0:0:0:0:
256,192,106759,1,0,0:0:0:0:
256,192,106926,1,8,0:0:0:0:
175,176,107009,1,0,0:0:0:0:
256,192,107092,1,8,0:0:0:0:
256,192,107176,1,8,0:0:0:0:
256,192,107259,1,4,0:0:0:0:
175,176,107426,1,0,0:0:0:0:
256,192,107509,1,0,0:0:0:0:
256,192,107592,1,8,0:0:0:0:
256,192,107759,1,8,0:0:0:0:
256,192,107926,1,0,0:0:0:0:
256,192,108092,1,0,0:0:0:0:
256,192,108176,1,0,0:0:0:0:
256,192,108259,1,8,0:0:0:0:
256,192,108592,1,8,0:0:0:0:
256,192,108759,1,0,0:0:0:0:
256,192,108926,1,8,0:0:0:0:
256,192,109092,1,0,0:0:0:0:
256,192,109259,1,8,0:0:0:0:
256,192,109342,1,8,0:0:0:0:
256,192,109426,1,0,0:0:0:0:
256,192,109509,1,0,0:0:0:0:
256,192,109592,1,8,0:0:0:0:
256,192,109676,1,8,0:0:0:0:
256,192,109759,1,0,0:0:0:0:
256,192,109842,1,0,0:0:0:0:
256,192,109926,1,8,0:0:0:0:
256,192,110092,1,0,0:0:0:0:
256,192,110176,1,0,0:0:0:0:
256,192,110259,1,12,0:0:0:0:
256,192,110592,1,0,0:0:0:0:
256,192,110759,1,0,0:0:0:0:
256,192,110926,1,8,0:0:0:0:
256,192,111092,1,8,0:0:0:0:
176,152,111176,1,8,0:0:0:0:
256,192,111259,1,0,0:0:0:0:
256,192,111426,1,0,0:0:0:0:
256,192,111509,1,0,0:0:0:0:
256,192,111592,1,8,0:0:0:0:
256,192,111759,1,8,0:0:0:0:
256,192,111842,1,0,0:0:0:0:
256,192,111926,1,8,0:0:0:0:
256,192,112092,1,0,0:0:0:0:
256,192,112259,1,8,0:0:0:0:
256,192,112342,1,8,0:0:0:0:
256,192,112426,1,8,0:0:0:0:
256,192,112509,1,8,0:0:0:0:
256,192,112592,1,4,0:0:0:0:
167,145,112759,1,0,0:0:0:0:
256,192,112842,5,0,0:0:0:0:
256,192,112926,1,8,0:0:0:0:
256,192,113092,1,8,0:0:0:0:
256,192,113176,1,8,0:0:0:0:
256,192,113259,1,0,0:0:0:0:
256,192,113426,1,0,0:0:0:0:
256,192,113592,1,8,0:0:0:0:
256,192,113676,1,8,0:0:0:0:
256,192,113759,1,8,0:0:0:0:
256,192,113842,1,8,0:0:0:0:
256,192,113926,1,0,0:0:0:0:
256,192,114092,1,0,0:0:0:0:
256,192,114259,1,8,0:0:0:0:
248,156,114342,1,8,0:0:0:0:
256,192,114426,1,8,0:0:0:0:
256,192,114592,1,8,0:0:0:0:
256,192,114676,1,8,0:0:0:0:
256,192,114759,1,0,0:0:0:0:
256,192,114842,1,0,0:0:0:0:
256,192,114926,1,8,0:0:0:0:
167,145,115009,1,8,0:0:0:0:
256,192,115092,1,0,0:0:0:0:
256,192,115176,1,0,0:0:0:0:
256,192,115259,1,12,0:0:0:0:
256,192,115592,1,8,0:0:0:0:
256,192,115759,1,8,0:0:0:0:
256,192,115842,1,8,0:0:0:0:
256,192,115926,1,0,0:0:0:0:
256,192,116092,1,0,0:0:0:0:
256,192,116259,1,8,0:0:0:0:
256,192,116426,1,8,0:0:0:0:
256,192,116509,1,8,0:0:0:0:
256,192,116592,1,8,0:0:0:0:
256,192,116759,1,0,0:0:0:0:
256,192,116926,1,8,0:0:0:0:
256,192,117009,1,8,0:0:0:0:
256,192,117092,1,0,0:0:0:0:
256,192,117176,1,0,0:0:0:0:
256,192,117259,1,8,0:0:0:0:
256,192,117426,1,0,0:0:0:0:
256,192,117592,1,8,0:0:0:0:
256,192,117676,1,8,0:0:0:0:
256,192,117759,1,8,0:0:0:0:
256,192,117842,1,8,0:0:0:0:
256,192,117926,1,4,0:0:0:0:
166,145,118092,1,0,0:0:0:0:
256,192,118176,1,0,0:0:0:0:
256,192,118259,1,8,0:0:0:0:
256,192,118426,1,8,0:0:0:0:
256,192,118509,1,8,0:0:0:0:
256,192,118592,1,0,0:0:0:0:
256,192,118759,1,0,0:0:0:0:
256,192,118926,1,8,0:0:0:0:
256,192,119009,1,8,0:0:0:0:
256,192,119092,1,0,0:0:0:0:
256,192,119176,1,0,0:0:0:0:
256,192,119259,1,8,0:0:0:0:
256,192,119426,1,0,0:0:0:0:
256,192,119592,1,8,0:0:0:0:
256,192,119759,1,8,0:0:0:0:
256,192,119842,1,8,0:0:0:0:
256,192,119926,1,8,0:0:0:0:
256,192,120092,1,0,0:0:0:0:
256,192,120259,1,8,0:0:0:0:
256,192,120342,1,8,0:0:0:0:
256,192,120426,1,8,0:0:0:0:
256,192,120509,1,8,0:0:0:0:
256,192,120592,1,4,0:0:0:0:
166,145,120759,1,0,0:0:0:0:
256,192,120842,1,0,0:0:0:0:
256,192,120926,1,8,0:0:0:0:
256,192,121092,1,8,0:0:0:0:
256,192,121176,1,8,0:0:0:0:
256,192,121259,1,0,0:0:0:0:
256,192,121426,1,0,0:0:0:0:
256,192,121592,1,8,0:0:0:0:
256,192,121759,1,0,0:0:0:0:
256,192,121842,1,0,0:0:0:0:
256,192,121926,1,8,0:0:0:0:
256,192,122092,1,0,0:0:0:0:
256,192,122259,1,8,0:0:0:0:
256,192,122426,1,8,0:0:0:0:
256,192,122509,1,8,0:0:0:0:
256,192,122592,1,8,0:0:0:0:
256,192,122759,1,0,0:0:0:0:
256,192,122926,1,8,0:0:0:0:
190,127,123009,1,8,0:0:0:0:
256,192,123092,1,0,0:0:0:0:
256,192,123176,1,0,0:0:0:0:
256,192,123259,1,12,0:0:0:0:
166,145,123426,1,0,0:0:0:0:
131,146,123509,1,0,0:0:0:0:
256,192,123592,1,8,0:0:0:0:
256,192,123759,1,8,0:0:0:0:
215,211,123926,1,8,0:0:0:0:
171,115,124009,1,0,0:0:0:0:
256,192,124092,1,0,0:0:0:0:
256,192,124259,1,8,0:0:0:0:
151,92,124342,1,0,0:0:0:0:
151,92,124426,1,8,0:0:0:0:
256,192,124592,1,8,0:0:0:0:
256,192,124759,1,0,0:0:0:0:
256,192,124926,1,8,0:0:0:0:
256,192,125092,1,0,0:0:0:0:
256,192,125176,1,0,0:0:0:0:
256,192,125259,1,8,0:0:0:0:
256,192,125426,1,0,0:0:0:0:
256,192,125509,1,0,0:0:0:0:
256,192,125592,1,8,0:0:0:0:
135,74,125676,1,8,0:0:0:0:
256,192,125759,1,0,0:0:0:0:
256,192,125926,1,12,0:0:0:0:
256,192,126092,1,0,0:0:0:0:
256,192,126259,1,0,0:0:0:0:
256,192,126426,1,8,0:0:0:0:
256,192,126592,1,0,0:0:0:0:
256,192,126759,1,0,0:0:0:0:
256,192,126926,1,8,0:0:0:0:
256,192,127092,1,0,0:0:0:0:
256,192,127259,1,0,0:0:0:0:
256,192,127426,1,8,0:0:0:0:
256,192,127592,1,0,0:0:0:0:
256,192,127759,1,0,0:0:0:0:
256,192,127926,1,8,0:0:0:0:
256,192,128092,1,0,0:0:0:0:
256,192,128259,1,8,0:0:0:0:
256,192,128426,1,0,0:0:0:0:
256,192,128509,1,0,0:0:0:0:
256,192,128592,1,12,0:0:0:0:
256,192,128842,1,8,0:0:0:0:
256,192,128926,1,0,0:0:0:0:
256,192,129092,1,8,0:0:0:0:
256,192,129259,1,0,0:0:0:0:
256,192,129426,1,0,0:0:0:0:
256,192,129592,1,0,0:0:0:0:
256,192,129676,1,0,0:0:0:0:
256,192,129759,1,8,0:0:0:0:
256,192,129926,1,8,0:0:0:0:
256,192,130037,1,8,0:0:0:0:
256,192,130148,1,0,0:0:0:0:
256,192,130259,1,8,0:0:0:0:
256,192,130370,1,8,0:0:0:0:
256,192,130481,1,8,0:0:0:0:
256,192,130592,1,0,0:0:0:0:
256,192,130704,1,8,0:0:0:0:
256,192,130815,1,0,0:0:0:0:
256,192,130926,1,0,0:0:0:0:
256,192,131037,1,8,0:0:0:0:
256,192,131148,1,8,0:0:0:0:
256,192,131259,1,4,0:0:0:0:
256,192,131592,1,12,0:0:0:0:
256,192,131842,1,8,0:0:0:0:
256,192,131926,1,0,0:0:0:0:
256,192,132092,1,0,0:0:0:0:
256,192,132259,1,8,0:0:0:0:
256,192,132426,1,8,0:0:0:0:
256,192,132592,1,0,0:0:0:0:
256,192,132759,1,0,0:0:0:0:
256,192,132842,1,0,0:0:0:0:
256,192,132926,1,8,0:0:0:0:
256,192,133092,1,8,0:0:0:0:
256,192,133259,1,0,0:0:0:0:
256,192,133426,1,0,0:0:0:0:
256,192,133592,1,8,0:0:0:0:
256,192,133759,1,0,0:0:0:0:
256,192,133842,1,0,0:0:0:0:
256,192,133926,1,8,0:0:0:0:
256,192,134092,1,0,0:0:0:0:
256,192,134259,1,0,0:0:0:0:
256,192,134426,1,8,0:0:0:0:
256,192,134592,1,0,0:0:0:0:
256,192,134759,1,0,0:0:0:0:
256,192,134926,1,8,0:0:0:0:
256,192,135009,1,8,0:0:0:0:
256,192,135092,1,0,0:0:0:0:
256,192,135176,1,0,0:0:0:0:
256,192,135259,1,12,0:0:0:0:
256,192,135509,1,0,0:0:0:0:
256,192,135592,1,8,0:0:0:0:
256,192,135759,1,8,0:0:0:0:
256,192,135842,1,8,0:0:0:0:
256,192,135926,1,8,0:0:0:0:
256,192,136092,1,8,0:0:0:0:
256,192,136259,1,0,0:0:0:0:
256,192,136342,1,0,0:0:0:0:
256,192,136426,1,0,0:0:0:0:
256,192,136509,1,0,0:0:0:0:
256,192,136592,1,12,0:0:0:0:
256,192,136926,1,0,0:0:0:0:
256,192,137259,1,0,0:0:0:0:
256,192,137592,1,0,0:0:0:0:
256,192,137926,1,0,0:0:0:0:
256,192,138259,1,0,0:0:0:0:
256,192,138592,1,0,0:0:0:0:
256,192,138926,1,0,0:0:0:0:
256,192,139259,1,0,0:0:0:0:
256,192,139592,1,0,0:0:0:0:
256,192,139926,1,0,0:0:0:0:
256,192,140259,1,0,0:0:0:0:
256,192,140592,1,0,0:0:0:0:
256,192,140926,1,0,0:0:0:0:
256,192,141259,1,0,0:0:0:0:
256,192,141592,1,0,0:0:0:0:
256,192,141759,1,8,0:0:0:0:
256,192,141842,1,8,0:0:0:0:
256,192,141926,1,0,0:0:0:0:
256,192,142259,1,0,0:0:0:0:
256,192,142592,1,0,0:0:0:0:
256,192,142926,1,0,0:0:0:0:
256,192,143259,1,0,0:0:0:0:
256,192,143592,1,0,0:0:0:0:
256,192,143926,1,0,0:0:0:0:
256,192,144259,1,0,0:0:0:0:
256,192,144592,1,8,0:0:0:0:
256,192,144842,1,8,0:0:0:0:
256,192,144926,1,0,0:0:0:0:
256,192,145092,1,8,0:0:0:0:
256,192,145259,1,0,0:0:0:0:
256,192,145426,1,0,0:0:0:0:
256,192,145592,1,0,0:0:0:0:
256,192,145926,1,8,0:0:0:0:
256,192,146176,1,8,0:0:0:0:
256,192,146259,1,0,0:0:0:0:
256,192,146426,1,8,0:0:0:0:
256,192,146592,1,0,0:0:0:0:
256,192,146926,1,8,0:0:0:0:
256,192,147259,1,4,0:0:0:0:
256,192,147592,1,8,0:0:0:0:
256,192,147926,1,8,0:0:0:0:
256,192,148259,1,8,0:0:0:0:
256,192,148592,1,0,0:0:0:0:
256,192,148759,1,8,0:0:0:0:
256,192,148926,1,0,0:0:0:0:
256,192,149259,1,0,0:0:0:0:
256,192,149592,1,0,0:0:0:0:
256,192,149926,1,8,0:0:0:0:
256,192,150259,1,0,0:0:0:0:
256,192,150592,1,0,0:0:0:0:
256,192,150926,1,0,0:0:0:0:
256,192,151259,1,8,0:0:0:0:
256,192,151426,1,8,0:0:0:0:
256,192,151592,1,0,0:0:0:0:
256,192,151926,1,0,0:0:0:0:
256,192,152092,1,8,0:0:0:0:
256,192,152259,1,0,0:0:0:0:
256,192,152592,1,12,0:0:0:0:
256,192,152926,1,0,0:0:0:0:
256,192,153259,1,0,0:0:0:0:
256,192,153592,1,0,0:0:0:0:
256,192,153926,1,0,0:0:0:0:
256,192,154092,1,8,0:0:0:0:
256,192,154259,1,0,0:0:0:0:
256,192,154592,1,0,0:0:0:0:
256,192,154926,1,0,0:0:0:0:
256,192,155259,1,8,0:0:0:0:
256,192,155592,1,0,0:0:0:0:
256,192,155926,1,0,0:0:0:0:
256,192,156259,1,0,0:0:0:0:
256,192,156592,1,8,0:0:0:0:
256,192,156842,1,8,0:0:0:0:
256,192,156926,1,0,0:0:0:0:
256,192,157092,1,8,0:0:0:0:
256,192,157259,1,0,0:0:0:0:
256,192,157592,1,8,0:0:0:0:
256,192,157926,1,4,0:0:0:0:
256,192,158259,1,0,0:0:0:0:
256,192,158592,1,8,0:0:0:0:
256,192,158926,1,0,0:0:0:0:
256,192,159259,1,8,0:0:0:0:
256,192,159592,1,0,0:0:0:0:
256,192,159926,1,8,0:0:0:0:
256,192,160259,1,0,0:0:0:0:
256,192,160592,1,0,0:0:0:0:
256,192,160926,1,0,0:0:0:0:
256,192,161259,1,8,0:0:0:0:
256,192,161592,1,0,0:0:0:0:
256,192,161926,1,8,0:0:0:0:
256,192,162092,1,8,0:0:0:0:
256,192,162259,1,0,0:0:0:0:
256,192,162592,1,8,0:0:0:0:
256,192,162926,1,0,0:0:0:0:
256,192,163259,1,4,0:0:0:0:
256,192,163592,1,0,0:0:0:0:
256,192,163926,1,8,0:0:0:0:
256,192,164259,1,0,0:0:0:0:
256,192,164592,1,8,0:0:0:0:
256,192,164926,1,8,0:0:0:0:
256,192,165259,1,0,0:0:0:0:
256,192,165592,1,0,0:0:0:0:
256,192,165926,1,0,0:0:0:0:
256,192,166259,1,0,0:0:0:0:
256,192,166592,1,8,0:0:0:0:
256,192,166926,1,0,0:0:0:0:
256,192,167259,1,0,0:0:0:0:
256,192,167426,1,8,0:0:0:0:
256,192,167592,1,0,0:0:0:0:
256,192,167926,1,8,0:0:0:0:
256,192,168259,1,8,0:0:0:0:
256,192,168426,1,8,0:0:0:0:
256,192,168592,1,4,0:0:0:0:
256,192,168926,1,0,0:0:0:0:
256,192,169259,1,8,0:0:0:0:
256,192,169592,1,0,0:0:0:0:
256,192,169759,1,0,0:0:0:0:
256,192,169926,1,8,0:0:0:0:
256,192,170092,1,8,0:0:0:0:
256,192,170259,1,0,0:0:0:0:
256,192,170592,1,8,0:0:0:0:
256,192,170926,1,8,0:0:0:0:
256,192,171092,1,0,0:0:0:0:
256,192,171259,1,8,0:0:0:0:
256,192,171592,1,0,0:0:0:0:
256,192,171926,1,8,0:0:0:0:
256,192,172259,1,0,0:0:0:0:
256,192,172426,1,0,0:0:0:0:
256,192,172592,1,8,0:0:0:0:
256,192,172926,1,8,0:0:0:0:
256,192,173259,1,0,0:0:0:0:
256,192,173426,1,8,0:0:0:0:
256,192,173592,1,8,0:0:0:0:
256,192,173759,1,8,0:0:0:0:
256,192,173926,1,4,0:0:0:0:
256,192,174259,1,0,0:0:0:0:
256,192,174592,1,8,0:0:0:0:
256,192,174926,1,0,0:0:0:0:
256,192,175259,1,0,0:0:0:0:
256,192,175426,1,8,0:0:0:0:
256,192,175592,1,0,0:0:0:0:
256,192,175926,1,0,0:0:0:0:
256,192,176092,1,8,0:0:0:0:
256,192,176259,1,0,0:0:0:0:
256,192,176426,1,0,0:0:0:0:
256,192,176592,1,12,0:0:0:0:
256,192,176926,1,0,0:0:0:0:
256,192,177092,1,8,0:0:0:0:
256,192,177176,1,8,0:0:0:0:
256,192,177259,1,0,0:0:0:0:
256,192,177426,1,0,0:0:0:0:
256,192,177509,1,0,0:0:0:0:
256,192,177592,1,8,0:0:0:0:
256,192,177759,1,0,0:0:0:0:
256,192,177926,1,12,0:0:0:0:
256,192,178092,1,12,0:0:0:0:
256,192,178259,1,12,0:0:0:0:
256,192,178426,1,12,0:0:0:0:
256,192,178592,1,12,0:0:0:0:
256,192,178759,1,12,0:0:0:0:
256,192,178926,1,12,0:0:0:0:
256,192,179092,1,12,0:0:0:0:
256,192,179259,1,4,0:0:0:0:
256,192,180592,5,12,0:0:0:0:
256,192,180759,1,0,0:0:0:0:
256,192,180842,1,0,0:0:0:0:
256,192,180926,1,0,0:0:0:0:
256,192,181092,1,0,0:0:0:0:
256,192,181176,1,0,0:0:0:0:
256,192,181259,1,8,0:0:0:0:
256,192,181426,1,0,0:0:0:0:
256,192,181592,1,8,0:0:0:0:
256,192,181926,1,12,0:0:0:0:
256,192,182092,1,0,0:0:0:0:
256,192,182259,1,8,0:0:0:0:
256,192,182426,1,0,0:0:0:0:
256,192,182509,1,0,0:0:0:0:
256,192,182592,1,8,0:0:0:0:
256,192,182759,1,0,0:0:0:0:
256,192,182926,1,8,0:0:0:0:
256,192,183009,1,8,0:0:0:0:
256,192,183092,1,0,0:0:0:0:
256,192,183176,1,0,0:0:0:0:
256,192,183259,1,8,0:0:0:0:
256,192,183426,1,0,0:0:0:0:
256,192,183592,1,8,0:0:0:0:
256,192,183759,1,8,0:0:0:0:
256,192,183842,1,8,0:0:0:0:
256,192,183926,1,0,0:0:0:0:
256,192,184092,1,0,0:0:0:0:
256,192,184259,1,8,0:0:0:0:
256,192,184342,1,8,0:0:0:0:
256,192,184426,1,8,0:0:0:0:
256,192,184509,1,8,0:0:0:0:
256,192,184592,1,4,0:0:0:0:
181,106,184759,1,0,0:0:0:0:
256,192,184842,5,0,0:0:0:0:
256,192,184926,1,8,0:0:0:0:
256,192,185092,1,8,0:0:0:0:
256,192,185176,1,8,0:0:0:0:
256,192,185259,1,0,0:0:0:0:
256,192,185426,1,0,0:0:0:0:
256,192,185592,1,8,0:0:0:0:
256,192,185926,1,8,0:0:0:0:
256,192,186092,1,0,0:0:0:0:
256,192,186259,1,8,0:0:0:0:
256,192,186426,1,8,0:0:0:0:
256,192,186592,1,0,0:0:0:0:
256,192,186676,1,8,0:0:0:0:
256,192,186759,1,8,0:0:0:0:
256,192,186842,1,8,0:0:0:0:
256,192,186926,1,0,0:0:0:0:
256,192,187009,1,8,0:0:0:0:
256,192,187092,1,8,0:0:0:0:
256,192,187176,1,8,0:0:0:0:
256,192,187259,1,4,0:0:0:0:
256,192,187592,1,8,0:0:0:0:
256,192,187759,1,8,0:0:0:0:
256,192,187842,1,8,0:0:0:0:
256,192,187926,1,0,0:0:0:0:
256,192,188092,1,0,0:0:0:0:
256,192,188259,1,8,0:0:0:0:
256,192,188426,1,8,0:0:0:0:
256,192,188509,1,0,0:0:0:0:
256,192,188592,1,8,0:0:0:0:
256,192,188759,1,0,0:0:0:0:
256,192,188926,1,8,0:0:0:0:
256,192,189009,1,8,0:0:0:0:
256,192,189092,1,0,0:0:0:0:
256,192,189176,1,0,0:0:0:0:
256,192,189259,1,8,0:0:0:0:
256,192,189426,1,0,0:0:0:0:
256,192,189509,1,0,0:0:0:0:
256,192,189592,1,8,0:0:0:0:
256,192,189759,1,8,0:0:0:0:
256,192,189926,1,4,0:0:0:0:
179,105,190092,1,0,0:0:0:0:
256,192,190176,1,0,0:0:0:0:
256,192,190259,1,8,0:0:0:0:
256,192,190426,1,8,0:0:0:0:
256,192,190509,1,8,0:0:0:0:
256,192,190592,1,0,0:0:0:0:
256,192,190759,1,0,0:0:0:0:
256,192,190926,1,8,0:0:0:0:
256,192,191009,1,8,0:0:0:0:
256,192,191092,1,8,0:0:0:0:
256,192,191176,1,8,0:0:0:0:
256,192,191259,1,0,0:0:0:0:
256,192,191426,1,0,0:0:0:0:
256,192,191592,1,8,0:0:0:0:
256,192,191926,1,8,0:0:0:0:
256,192,192009,1,8,0:0:0:0:
256,192,192092,1,0,0:0:0:0:
256,192,192176,1,0,0:0:0:0:
256,192,192259,1,8,0:0:0:0:
256,192,192342,1,8,0:0:0:0:
256,192,192426,1,8,0:0:0:0:
256,192,192509,1,8,0:0:0:0:
256,192,192592,1,4,0:0:0:0:
169,104,192759,1,0,0:0:0:0:
256,192,192842,1,0,0:0:0:0:
256,192,192926,1,8,0:0:0:0:
256,192,193092,1,8,0:0:0:0:
256,192,193176,1,8,0:0:0:0:
256,192,193259,1,0,0:0:0:0:
256,192,193426,1,0,0:0:0:0:
256,192,193592,1,8,0:0:0:0:
256,192,193926,1,8,0:0:0:0:
256,192,194092,1,0,0:0:0:0:
256,192,194259,1,8,0:0:0:0:
169,104,194342,1,8,0:0:0:0:
256,192,194426,1,0,0:0:0:0:
256,192,194509,1,0,0:0:0:0:
256,192,194592,1,8,0:0:0:0:
256,192,194759,1,0,0:0:0:0:
256,192,194926,1,8,0:0:0:0:
256,192,195009,1,8,0:0:0:0:
256,192,195092,1,8,0:0:0:0:
256,192,195176,1,8,0:0:0:0:
256,192,195259,1,4,0:0:0:0:
165,92,195426,1,0,0:0:0:0:
256,192,195509,1,0,0:0:0:0:
256,192,195592,1,8,0:0:0:0:
256,192,195759,1,8,0:0:0:0:
145,93,195842,1,8,0:0:0:0:
256,192,195926,1,8,0:0:0:0:
256,192,196092,1,0,0:0:0:0:
256,192,196259,1,8,0:0:0:0:
256,192,196342,1,8,0:0:0:0:
256,192,196426,1,8,0:0:0:0:
256,192,196509,1,8,0:0:0:0:
256,192,196592,1,0,0:0:0:0:
256,192,196759,1,0,0:0:0:0:
256,192,196926,1,8,0:0:0:0:
256,192,197259,1,8,0:0:0:0:
256,192,197426,1,0,0:0:0:0:
256,192,197592,1,8,0:0:0:0:
256,192,197676,1,8,0:0:0:0:
256,192,197759,1,8,0:0:0:0:
256,192,197842,1,8,0:0:0:0:
256,192,197926,1,4,0:0:0:0:
159,91,198092,1,0,0:0:0:0:
256,192,198176,1,0,0:0:0:0:
256,192,198259,1,8,0:0:0:0:
256,192,198426,1,8,0:0:0:0:
256,192,198509,1,8,0:0:0:0:
256,192,198592,1,8,0:0:0:0:
256,192,198759,1,0,0:0:0:0:
256,192,198926,1,8,0:0:0:0:
256,192,199259,1,0,0:0:0:0:
256,192,199426,1,0,0:0:0:0:
256,192,199592,1,8,0:0:0:0:
256,192,199759,1,8,0:0:0:0:
256,192,199842,1,0,0:0:0:0:
256,192,199926,1,8,0:0:0:0:
256,192,200092,1,0,0:0:0:0:
256,192,200259,1,8,0:0:0:0:
256,192,200592,1,12,0:0:0:0:
176,116,200759,1,0,0:0:0:0:
256,192,200842,1,0,0:0:0:0:
256,192,200926,1,8,0:0:0:0:
256,192,201092,1,8,0:0:0:0:
256,192,201259,1,0,0:0:0:0:
256,192,201426,1,0,0:0:0:0:
256,192,201509,1,0,0:0:0:0:
256,192,201592,1,8,0:0:0:0:
176,116,201676,1,8,0:0:0:0:
256,192,201759,1,0,0:0:0:0:
256,192,201926,1,8,0:0:0:0:
256,192,202092,1,0,0:0:0:0:
256,192,202259,1,8,0:0:0:0:
176,116,202342,1,8,0:0:0:0:
256,192,202426,1,0,0:0:0:0:
256,192,202509,1,8,0:0:0:0:
256,192,202592,1,0,0:0:0:0:
256,192,202759,1,0,0:0:0:0:
256,192,202842,1,0,0:0:0:0:
256,192,202926,1,8,0:0:0:0:
256,192,203092,1,0,0:0:0:0:
256,192,203259,1,12,0:0:0:0:
256,192,203426,1,0,0:0:0:0:
256,192,203592,1,0,0:0:0:0:
256,192,203759,1,8,0:0:0:0:
256,192,203926,1,0,0:0:0:0:
256,192,204092,1,0,0:0:0:0:
256,192,204259,1,8,0:0:0:0:
256,192,204426,1,0,0:0:0:0:
256,192,204592,1,0,0:0:0:0:
256,192,204759,1,8,0:0:0:0:
256,192,204926,1,0,0:0:0:0:
256,192,205092,1,0,0:0:0:0:
256,192,205259,1,8,0:0:0:0:
256,192,205426,1,0,0:0:0:0:
256,192,205592,1,8,0:0:0:0:
256,192,205759,1,0,0:0:0:0:
256,192,205926,1,12,0:0:0:0:
256,192,206092,1,0,0:0:0:0:
256,192,206259,1,0,0:0:0:0:
256,192,206426,1,8,0:0:0:0:
256,192,206592,1,0,0:0:0:0:
256,192,206759,1,0,0:0:0:0:
256,192,206926,1,8,0:0:0:0:
256,192,207092,1,8,0:0:0:0:
256,192,207259,1,8,0:0:0:0:
256,192,207370,1,8,0:0:0:0:
256,192,207481,1,0,0:0:0:0:
256,192,207592,1,8,0:0:0:0:
256,192,207704,1,8,0:0:0:0:
256,192,207815,1,8,0:0:0:0:
256,192,207926,1,0,0:0:0:0:
256,192,208037,1,8,0:0:0:0:
256,192,208148,1,0,0:0:0:0:
256,192,208259,1,0,0:0:0:0:
256,192,208370,1,8,0:0:0:0:
256,192,208481,1,8,0:0:0:0:
256,192,208592,1,4,0:0:0:0:
256,192,208926,1,12,0:0:0:0:
256,192,209176,1,8,0:0:0:0:
256,192,209259,1,0,0:0:0:0:
256,192,209426,1,0,0:0:0:0:
256,192,209592,1,8,0:0:0:0:
256,192,209759,1,8,0:0:0:0:
256,192,209926,1,0,0:0:0:0:
256,192,210092,1,0,0:0:0:0:
256,192,210176,1,0,0:0:0:0:
256,192,210259,1,8,0:0:0:0:
256,192,210426,1,8,0:0:0:0:
256,192,210592,1,0,0:0:0:0:
256,192,210759,1,0,0:0:0:0:
256,192,210926,1,8,0:0:0:0:
256,192,211092,1,0,0:0:0:0:
256,192,211176,1,0,0:0:0:0:
256,192,211259,1,8,0:0:0:0:
256,192,211426,1,0,0:0:0:0:
256,192,211592,1,0,0:0:0:0:
256,192,211759,1,8,0:0:0:0:
256,192,211926,1,0,0:0:0:0:
256,192,212092,1,0,0:0:0:0:
256,192,212259,1,8,0:0:0:0:
256,192,212342,1,8,0:0:0:0:
256,192,212426,1,0,0:0:0:0:
256,192,212509,1,0,0:0:0:0:
256,192,212592,1,12,0:0:0:0:
256,192,212842,1,0,0:0:0:0:
256,192,212926,1,8,0:0:0:0:
256,192,213092,1,8,0:0:0:0:
256,192,213259,1,0,0:0:0:0:
256,192,213342,1,0,0:0:0:0:
256,192,213426,1,8,0:0:0:0:
256,192,213509,1,0,0:0:0:0:
256,192,213592,1,8,0:0:0:0:
256,192,213676,1,8,0:0:0:0:
256,192,213759,1,8,0:0:0:0:
256,192,213842,1,8,0:0:0:0:
256,192,213926,1,4,0:0:0:0:
256,192,214259,1,8,0:0:0:0:
256,192,214426,1,0,0:0:0:0:
256,192,214592,1,8,0:0:0:0:
256,192,214676,1,8,0:0:0:0:
256,192,214759,1,8,0:0:0:0:
256,192,214842,1,8,0:0:0:0:
256,192,214926,1,8,0:0:0:0:
256,192,215009,1,8,0:0:0:0:
256,192,215092,1,4,0:0:0:0:
256,192,215426,1,8,0:0:0:0:
256,192,215592,1,8,0:0:0:0:
256,192,215759,1,0,0:0:0:0:
256,192,215926,1,8,0:0:0:0:
256,192,216009,1,8,0:0:0:0:
256,192,216092,1,8,0:0:0:0:
256,192,216176,1,8,0:0:0:0:
256,192,216259,1,0,0:0:0:0:
256,192,216342,1,0,0:0:0:0:
256,192,216426,1,0,0:0:0:0:
256,192,216592,1,12,0:0:0:0:
256,192,216842,1,0,0:0:0:0:
256,192,216926,1,8,0:0:0:0:
256,192,217092,1,0,0:0:0:0:
256,192,217259,1,8,0:0:0:0:
256,192,217426,1,0,0:0:0:0:
256,192,217592,1,0,0:0:0:0:
256,192,217759,1,8,0:0:0:0:
256,192,217842,1,8,0:0:0:0:
256,192,217926,1,0,0:0:0:0:
256,192,218092,1,8,0:0:0:0:
256,192,218259,1,8,0:0:0:0:
256,192,218426,1,0,0:0:0:0:
256,192,218592,1,8,0:0:0:0:
256,192,218676,1,8,0:0:0:0:
256,192,218759,1,8,0:0:0:0:
256,192,218842,1,8,0:0:0:0:
256,192,218926,1,0,0:0:0:0:
256,192,219009,1,0,0:0:0:0:
256,192,219092,1,0,0:0:0:0:
256,192,219176,1,0,0:0:0:0:
256,192,219259,1,12,0:0:0:0:
256,192,219509,1,0,0:0:0:0:
256,192,219592,1,8,0:0:0:0:
256,192,219759,1,8,0:0:0:0:
256,192,219926,1,0,0:0:0:0:
256,192,220092,1,0,0:0:0:0:
256,192,220259,1,8,0:0:0:0:
256,192,220426,1,8,0:0:0:0:
256,192,220509,1,8,0:0:0:0:
256,192,220592,1,0,0:0:0:0:
256,192,220759,1,0,0:0:0:0:
256,192,220926,1,8,0:0:0:0:
256,192,221092,1,0,0:0:0:0:
256,192,221259,1,8,0:0:0:0:
256,192,221426,1,0,0:0:0:0:
256,192,221509,1,0,0:0:0:0:
256,192,221592,1,8,0:0:0:0:
256,192,221759,1,8,0:0:0:0:
256,192,221842,1,0,0:0:0:0:
256,192,221926,1,8,0:0:0:0:
256,192,222092,1,0,0:0:0:0:
256,192,222259,1,8,0:0:0:0:
256,192,222426,1,8,0:0:0:0:
256,192,222509,1,8,0:0:0:0:
256,192,222592,1,0,0:0:0:0:
256,192,222759,1,0,0:0:0:0:
256,192,222926,1,8,0:0:0:0:
256,192,223092,1,8,0:0:0:0:
256,192,223176,1,8,0:0:0:0:
256,192,223259,1,0,0:0:0:0:
256,192,223426,1,0,0:0:0:0:
256,192,223592,1,8,0:0:0:0:
256,192,223759,1,0,0:0:0:0:
256,192,223926,1,0,0:0:0:0:
256,192,224092,1,8,0:0:0:0:
256,192,224259,1,0,0:0:0:0:
256,192,224426,1,8,0:0:0:0:
256,192,224592,1,0,0:0:0:0:
256,192,224759,1,0,0:0:0:0:
256,192,224926,1,8,0:0:0:0:
256,192,225092,1,8,0:0:0:0:
256,192,225176,1,8,0:0:0:0:
256,192,225259,1,8,0:0:0:0:
256,192,225426,1,0,0:0:0:0:
256,192,225592,1,8,0:0:0:0:
256,192,225759,1,8,0:0:0:0:
256,192,225842,1,8,0:0:0:0:
256,192,225926,1,8,0:0:0:0:
256,192,226092,1,0,0:0:0:0:
256,192,226259,1,8,0:0:0:0:
256,192,226426,1,8,0:0:0:0:
256,192,226509,1,8,0:0:0:0:
256,192,226592,1,8,0:0:0:0:
256,192,226759,1,0,0:0:0:0:
256,192,226926,1,8,0:0:0:0:
256,192,227092,1,0,0:0:0:0:
256,192,227259,1,8,0:0:0:0:
256,192,227426,1,0,0:0:0:0:
256,192,227592,1,0,0:0:0:0:
256,192,227759,1,8,0:0:0:0:
256,192,227926,1,0,0:0:0:0:
256,192,228092,1,0,0:0:0:0:
256,192,228259,1,8,0:0:0:0:
256,192,228426,1,0,0:0:0:0:
256,192,228592,1,0,0:0:0:0:
256,192,228759,1,8,0:0:0:0:
256,192,228926,1,8,0:0:0:0:
256,192,229092,1,0,0:0:0:0:
256,192,229259,1,12,0:0:0:0:
256,192,229426,1,12,0:0:0:0:
256,192,229592,1,4,0:0:0:0:
256,192,229759,1,4,0:0:0:0:
