osu file format v14

[General]
AudioFilename: audio.mp3
AudioLeadIn: 0
PreviewTime: 103509
Countdown: 0
SampleSet: Normal
StackLeniency: 0.7
Mode: 1
LetterboxInBreaks: 0
WidescreenStoryboard: 1

[Editor]
DistanceSpacing: 0.8
BeatDivisor: 6
GridSize: 32
TimelineZoom: 2.2

[Metadata]
Title:Shizuka na Yoru ni
TitleUnicode:静かな夜に
Artist:SECONDWALL
ArtistUnicode:SECONDWALL
Creator:Yasuho
Version:Nao's Futsuu
Source:
Tags:realy0_ vulkin nao tomori nao_tomori naotoshi fa featured artist rock japanese jrock j-rock beautiful lie On a silent night
BeatmapID:3534464
BeatmapSetID:1729416

[Difficulty]
HPDrainRate:7
CircleSize:4
OverallDifficulty:3.5
ApproachRate:5
SliderMultiplier:1.4
SliderTickRate:3

[Events]
//Background and Video events
0,0,"81880838_p0.jpg",0,-69
//Break Periods
2,38126,44059
2,80792,82059
2,136792,146059
//Storyboard Layer 0 (Background)
//Storyboard Layer 1 (Fail)
//Storyboard Layer 2 (Pass)
//Storyboard Layer 3 (Foreground)
//Storyboard Layer 4 (Overlay)
//Storyboard Sound Samples

[TimingPoints]
593,333.333333333333,4,1,0,90,1,0
16759,-100,4,1,0,70,0,0
27259,-100,4,1,0,70,0,0
38092,-100,4,1,0,60,0,0
45759,-100,4,1,0,70,0,0
46092,-100,4,1,0,50,0,0
46259,-100,4,1,0,54,0,0
46426,-100,4,1,0,58,0,0
46592,-100,4,1,0,62,0,0
46759,-100,4,1,0,66,0,0
46926,-100,4,1,0,70,0,0
47092,-100,4,1,0,74,0,0
48592,-100,4,1,0,100,0,1
75259,-100,4,1,0,90,0,0
75592,-100,4,1,0,100,0,1
80592,-100,4,1,0,90,0,0
83426,-100,4,1,0,70,0,0
94092,-100,4,1,0,70,0,0
104592,-100,4,1,0,100,0,1
131259,-100,4,1,0,90,0,0
131592,-100,4,1,0,100,0,1
136592,-100,4,1,0,90,0,0
136759,-100,4,1,0,60,0,0
177926,-100,4,1,0,65,0,0
178092,-100,4,1,0,70,0,0
178259,-100,4,1,0,75,0,0
178426,-100,4,1,0,70,0,0
178592,-100,4,1,0,85,0,0
178759,-100,4,1,0,90,0,0
179259,-100,4,1,0,70,0,0
181926,-100,4,1,0,100,0,1
208592,-100,4,1,0,90,0,0
208926,-100,4,1,0,100,0,1
213926,-100,4,1,0,90,0,0
214092,-100,4,1,0,90,0,0

[HitObjects]
212,139,593,5,4,0:0:0:0:
212,139,926,1,8,0:0:0:0:
212,139,1259,1,0,0:0:0:0:
212,139,1426,1,8,0:0:0:0:
212,139,1592,1,8,0:0:0:0:
212,139,1759,1,0,0:0:0:0:
212,139,2092,1,8,0:0:0:0:
212,139,2259,1,8,0:0:0:0:
212,139,2592,1,8,0:0:0:0:
212,139,2926,1,0,0:0:0:0:
212,139,3259,1,4,0:0:0:0:
323,134,3592,1,8,0:0:0:0:
210,139,3926,1,0,0:0:0:0:
210,139,4259,1,0,0:0:0:0:
210,139,4426,1,8,0:0:0:0:
210,139,4759,1,8,0:0:0:0:
210,139,4926,1,8,0:0:0:0:
210,139,5259,1,0,0:0:0:0:
210,139,5592,1,0,0:0:0:0:
210,139,5926,1,12,0:0:0:0:
222,134,6259,1,8,0:0:0:0:
222,134,6926,1,8,0:0:0:0:
222,134,7259,1,0,0:0:0:0:
222,134,7592,1,8,0:0:0:0:
222,134,7926,1,0,0:0:0:0:
222,134,8259,1,8,0:0:0:0:
198,99,8426,1,8,0:0:0:0:
198,99,8592,1,0,0:0:0:0:
199,101,9092,1,8,0:0:0:0:
199,101,9259,1,8,0:0:0:0:
199,101,9592,1,8,0:0:0:0:
189,100,9926,1,0,0:0:0:0:
239,106,10259,1,8,0:0:0:0:
187,101,10426,1,0,0:0:0:0:
244,128,10759,1,0,0:0:0:0:
244,128,10926,1,8,0:0:0:0:
244,128,11092,1,8,0:0:0:0:
244,128,11259,1,0,0:0:0:0:
243,127,11592,1,8,0:0:0:0:
243,127,12259,1,8,0:0:0:0:
243,127,12592,1,0,0:0:0:0:
243,127,12926,1,0,0:0:0:0:
243,127,13259,1,8,0:0:0:0:
243,127,13592,1,8,0:0:0:0:
243,127,13926,1,4,0:0:0:0:
243,127,14426,1,0,0:0:0:0:
243,127,14926,1,8,0:0:0:0:
243,127,15426,1,8,0:0:0:0:
243,127,15926,1,8,0:0:0:0:
243,127,16259,1,0,0:0:0:0:
243,127,16592,1,4,0:0:0:0:
166,83,17092,1,0,0:0:0:0:
164,83,17926,1,8,0:0:0:0:
164,83,18426,1,0,0:0:0:0:
164,83,19259,1,8,0:0:0:0:
271,127,19592,1,0,0:0:0:0:
161,83,19926,1,8,0:0:0:0:
222,116,20259,1,8,0:0:0:0:
161,83,20592,1,0,0:0:0:0:
161,83,21092,1,8,0:0:0:0:
161,83,21592,1,0,0:0:0:0:
237,131,22259,1,8,0:0:0:0:
227,134,22592,1,0,0:0:0:0:
259,123,23092,1,8,0:0:0:0:
226,141,23592,1,0,0:0:0:0:
223,141,23926,1,0,0:0:0:0:
189,114,24426,1,12,0:0:0:0:
189,114,24926,1,8,0:0:0:0:
189,114,25259,1,0,0:0:0:0:
188,114,25759,1,8,0:0:0:0:
187,114,26092,1,8,0:0:0:0:
187,114,26259,1,8,0:0:0:0:
188,114,26592,1,0,0:0:0:0:
229,152,26759,1,0,0:0:0:0:
188,114,26926,1,8,0:0:0:0:
188,114,27259,1,4,0:0:0:0:
290,149,27592,1,0,0:0:0:0:
260,159,27926,1,8,0:0:0:0:
260,159,28259,1,0,0:0:0:0:
260,159,28592,1,0,0:0:0:0:
258,160,29092,1,0,0:0:0:0:
254,160,29426,1,0,0:0:0:0:
252,158,29926,1,8,0:0:0:0:
251,158,30592,1,8,0:0:0:0:
249,158,30926,1,8,0:0:0:0:
249,158,31259,1,0,0:0:0:0:
246,158,31759,1,0,0:0:0:0:
246,158,32092,1,0,0:0:0:0:
178,159,32259,1,8,0:0:0:0:
212,166,32592,1,12,0:0:0:0:
187,170,32926,1,0,0:0:0:0:
216,170,33259,1,0,0:0:0:0:
187,170,33592,1,0,0:0:0:0:
216,170,33926,1,8,0:0:0:0:
189,170,34092,1,0,0:0:0:0:
216,170,34592,1,8,0:0:0:0:
189,170,34926,1,0,0:0:0:0:
189,170,35092,1,8,0:0:0:0:
217,171,35259,1,4,0:0:0:0:
217,171,35759,1,0,0:0:0:0:
189,170,35926,1,8,0:0:0:0:
216,173,36259,1,8,0:0:0:0:
216,173,36592,1,0,0:0:0:0:
216,173,36759,1,8,0:0:0:0:
211,177,36926,1,0,0:0:0:0:
199,167,37259,1,0,0:0:0:0:
199,168,37592,1,0,0:0:0:0:
199,169,37926,1,4,0:0:0:0:
246,164,45259,5,8,0:0:0:0:
246,164,45592,1,8,0:0:0:0:
246,164,45759,1,0,0:0:0:0:
202,165,46092,1,0,0:0:0:0:
190,191,46259,1,8,0:0:0:0:
205,145,46592,1,8,0:0:0:0:
202,171,46926,1,8,0:0:0:0:
202,171,47092,1,4,0:0:0:0:
216,202,48092,5,0,0:0:0:0:
215,207,48259,1,8,0:0:0:0:
214,207,48592,1,4,0:0:0:0:
214,207,48926,1,8,0:0:0:0:
214,207,49426,1,0,0:0:0:0:
214,207,49592,1,8,0:0:0:0:
214,211,49926,1,0,0:0:0:0:
211,218,50092,1,0,0:0:0:0:
211,218,50259,1,8,0:0:0:0:
210,218,50592,1,8,0:0:0:0:
210,218,50926,1,8,0:0:0:0:
210,218,51259,1,0,0:0:0:0:
202,86,51592,1,8,0:0:0:0:
210,219,51759,1,0,0:0:0:0:
161,171,52092,1,0,0:0:0:0:
210,219,52259,1,8,0:0:0:0:
224,204,52926,1,0,0:0:0:0:
221,204,53259,1,8,0:0:0:0:
219,207,53592,1,8,0:0:0:0:
210,206,53926,1,0,0:0:0:0:
210,206,54259,1,8,0:0:0:0:
244,117,54426,1,8,0:0:0:0:
210,206,54592,1,0,0:0:0:0:
250,158,54926,1,8,0:0:0:0:
209,206,55592,1,8,0:0:0:0:
203,185,55926,1,0,0:0:0:0:
198,138,56092,1,0,0:0:0:0:
204,185,56259,1,8,0:0:0:0:
188,144,56592,1,0,0:0:0:0:
152,139,56926,1,8,0:0:0:0:
188,146,57092,1,8,0:0:0:0:
182,147,57592,1,0,0:0:0:0:
168,115,58092,1,8,0:0:0:0:
150,116,58259,1,8,0:0:0:0:
150,116,58426,1,8,0:0:0:0:
141,130,58592,1,0,0:0:0:0:
140,133,58926,1,8,0:0:0:0:
139,133,59259,1,4,0:0:0:0:
232,142,59592,1,8,0:0:0:0:
215,165,60259,1,8,0:0:0:0:
202,164,60592,1,0,0:0:0:0:
199,170,60926,1,8,0:0:0:0:
199,170,61259,1,0,0:0:0:0:
199,170,61592,1,8,0:0:0:0:
199,170,61759,1,8,0:0:0:0:
199,170,61926,1,0,0:0:0:0:
196,171,62259,1,8,0:0:0:0:
196,171,62426,1,0,0:0:0:0:
196,171,62759,1,0,0:0:0:0:
196,171,62926,1,8,0:0:0:0:
188,175,63592,1,0,0:0:0:0:
186,177,63926,1,0,0:0:0:0:
187,177,64259,1,8,0:0:0:0:
187,177,64426,1,8,0:0:0:0:
187,177,64592,1,0,0:0:0:0:
187,177,64926,1,8,0:0:0:0:
185,176,65592,1,0,0:0:0:0:
159,157,65926,1,0,0:0:0:0:
184,131,66092,1,0,0:0:0:0:
185,176,66259,1,8,0:0:0:0:
203,139,66592,1,0,0:0:0:0:
200,132,66759,1,0,0:0:0:0:
200,132,66926,1,8,0:0:0:0:
200,132,67092,1,8,0:0:0:0:
200,132,67259,1,4,0:0:0:0:
203,132,67759,1,8,0:0:0:0:
200,133,68259,1,0,0:0:0:0:
190,126,68592,1,0,0:0:0:0:
190,126,68759,1,8,0:0:0:0:
190,126,68926,1,0,0:0:0:0:
205,126,69259,1,8,0:0:0:0:
198,128,69592,1,8,0:0:0:0:
194,130,69926,1,4,0:0:0:0:
194,131,70426,1,8,0:0:0:0:
194,131,71092,1,0,0:0:0:0:
195,132,71926,1,4,0:0:0:0:
195,132,72259,1,4,0:0:0:0:
195,132,72592,1,12,0:0:0:0:
195,132,73092,1,8,0:0:0:0:
195,133,73759,1,8,0:0:0:0:
99,204,73926,2,0,L|375:287,2,280
198,120,75592,1,8,0:0:0:0:
145,217,76092,1,0,0:0:0:0:
179,135,76259,1,8,0:0:0:0:
194,178,76926,1,8,0:0:0:0:
191,179,77259,1,0,0:0:0:0:
189,180,77592,1,8,0:0:0:0:
189,180,77759,1,0,0:0:0:0:
189,180,77926,1,8,0:0:0:0:
206,134,78426,1,8,0:0:0:0:
172,150,78926,1,8,0:0:0:0:
174,147,79259,1,4,0:0:0:0:
174,147,79592,1,8,0:0:0:0:
174,147,79759,1,8,0:0:0:0:
174,147,79926,1,0,0:0:0:0:
174,147,80092,1,8,0:0:0:0:
174,147,80259,1,0,0:0:0:0:
169,150,80592,1,12,0:0:0:0:
200,174,83259,5,4,0:0:0:0:
272,188,83759,1,0,0:0:0:0:
194,172,84092,1,0,0:0:0:0:
194,172,84592,1,8,0:0:0:0:
194,172,84926,1,0,0:0:0:0:
194,172,85259,1,8,0:0:0:0:
196,148,85926,1,0,0:0:0:0:
225,179,86592,1,8,0:0:0:0:
187,166,86926,1,0,0:0:0:0:
183,165,87259,1,0,0:0:0:0:
183,164,87759,1,8,0:0:0:0:
181,161,88259,1,8,0:0:0:0:
177,159,88592,1,4,0:0:0:0:
239,156,88926,1,8,0:0:0:0:
227,161,89259,1,8,0:0:0:0:
227,163,89759,1,0,0:0:0:0:
222,161,90259,1,0,0:0:0:0:
215,161,90592,1,8,0:0:0:0:
211,160,91259,1,4,0:0:0:0:
265,157,91592,1,8,0:0:0:0:
254,163,91926,1,8,0:0:0:0:
246,186,92592,1,0,0:0:0:0:
215,175,92759,1,8,0:0:0:0:
210,169,92926,1,0,0:0:0:0:
208,169,93259,1,8,0:0:0:0:
208,169,93426,1,8,0:0:0:0:
208,169,93592,1,8,0:0:0:0:
208,169,93759,1,8,0:0:0:0:
208,169,93926,1,4,0:0:0:0:
215,176,94592,1,0,0:0:0:0:
212,177,94926,1,8,0:0:0:0:
183,166,95259,1,0,0:0:0:0:
183,166,95592,1,8,0:0:0:0:
183,166,95759,1,0,0:0:0:0:
185,168,96092,1,0,0:0:0:0:
185,169,96592,1,8,0:0:0:0:
185,169,96926,1,8,0:0:0:0:
185,169,97259,1,0,0:0:0:0:
185,170,97592,1,0,0:0:0:0:
186,170,97926,1,8,0:0:0:0:
186,170,98426,1,8,0:0:0:0:
185,170,98926,1,8,0:0:0:0:
212,179,99259,1,4,0:0:0:0:
315,188,99592,1,0,0:0:0:0:
289,184,99926,1,8,0:0:0:0:
166,154,100259,1,8,0:0:0:0:
221,182,100592,1,0,0:0:0:0:
162,166,100926,1,8,0:0:0:0:
212,179,101092,1,0,0:0:0:0:
202,179,101926,1,0,0:0:0:0:
208,150,102426,1,8,0:0:0:0:
185,161,102926,1,8,0:0:0:0:
172,172,104092,1,0,0:0:0:0:
172,172,104259,1,8,0:0:0:0:
173,170,104592,1,4,0:0:0:0:
172,170,104926,1,8,0:0:0:0:
166,178,105592,1,8,0:0:0:0:
166,179,105926,1,0,0:0:0:0:
164,186,106259,1,8,0:0:0:0:
165,186,106592,1,0,0:0:0:0:
164,186,106759,1,0,0:0:0:0:
164,181,106926,1,8,0:0:0:0:
208,106,107092,1,8,0:0:0:0:
208,106,107259,1,0,0:0:0:0:
208,104,107592,1,8,0:0:0:0:
208,104,107759,1,0,0:0:0:0:
204,98,108092,1,0,0:0:0:0:
204,98,108259,1,8,0:0:0:0:
195,103,108926,1,0,0:0:0:0:
196,104,109259,1,0,0:0:0:0:
196,105,109592,1,8,0:0:0:0:
196,105,109926,1,8,0:0:0:0:
195,106,110259,1,0,0:0:0:0:
195,106,110426,1,8,0:0:0:0:
195,106,110592,1,0,0:0:0:0:
160,123,110926,1,8,0:0:0:0:
205,149,111592,1,8,0:0:0:0:
195,152,111926,1,0,0:0:0:0:
195,152,112092,1,0,0:0:0:0:
198,88,112259,1,8,0:0:0:0:
237,165,112592,1,0,0:0:0:0:
230,160,112926,1,8,0:0:0:0:
230,160,113092,1,8,0:0:0:0:
230,157,113426,1,0,0:0:0:0:
230,157,113592,1,8,0:0:0:0:
224,160,114092,1,8,0:0:0:0:
224,160,114259,1,0,0:0:0:0:
216,157,114592,1,8,0:0:0:0:
216,157,114759,1,0,0:0:0:0:
216,157,114926,1,8,0:0:0:0:
213,157,115259,1,4,0:0:0:0:
271,188,115592,1,8,0:0:0:0:
270,191,116259,1,8,0:0:0:0:
199,188,116592,1,0,0:0:0:0:
199,185,116926,1,8,0:0:0:0:
199,185,117092,1,8,0:0:0:0:
199,185,117259,1,0,0:0:0:0:
213,165,117426,1,0,0:0:0:0:
201,186,117592,1,8,0:0:0:0:
263,172,117926,1,0,0:0:0:0:
143,187,118259,1,8,0:0:0:0:
263,172,118426,1,0,0:0:0:0:
172,288,118759,1,0,0:0:0:0:
263,171,118926,1,8,0:0:0:0:
248,168,119592,1,8,0:0:0:0:
242,172,119759,1,8,0:0:0:0:
242,172,119926,1,0,0:0:0:0:
244,171,120259,1,8,0:0:0:0:
244,170,120592,1,0,0:0:0:0:
244,169,120926,1,0,0:0:0:0:
244,170,121592,1,8,0:0:0:0:
233,180,122259,1,8,0:0:0:0:
235,180,122592,1,0,0:0:0:0:
237,181,122926,1,8,0:0:0:0:
237,181,123259,1,8,0:0:0:0:
237,182,123759,1,8,0:0:0:0:
180,144,124259,1,8,0:0:0:0:
184,142,124759,1,0,0:0:0:0:
184,142,124926,1,8,0:0:0:0:
163,150,125259,1,0,0:0:0:0:
164,150,125592,1,0,0:0:0:0:
156,154,125926,1,12,0:0:0:0:
230,171,126426,1,0,0:0:0:0:
223,166,127092,1,8,0:0:0:0:
217,161,127926,1,4,0:0:0:0:
219,162,128259,1,4,0:0:0:0:
217,166,128592,1,12,0:0:0:0:
175,171,129092,1,8,0:0:0:0:
164,164,129759,1,0,0:0:0:0:
112,170,129926,2,8,P|166:134|327:254,2,280
145,201,131592,1,8,0:0:0:0:
97,157,132092,1,0,0:0:0:0:
140,200,132259,1,8,0:0:0:0:
135,201,132926,1,8,0:0:0:0:
179,218,133592,1,8,0:0:0:0:
167,224,133759,1,0,0:0:0:0:
167,227,133926,1,8,0:0:0:0:
166,224,134426,1,8,0:0:0:0:
167,224,134926,1,8,0:0:0:0:
167,222,135259,1,0,0:0:0:0:
167,222,135592,1,8,0:0:0:0:
167,222,135759,1,8,0:0:0:0:
159,218,135926,1,8,0:0:0:0:
167,222,136092,1,8,0:0:0:0:
160,217,136259,1,0,0:0:0:0:
160,217,136592,1,12,0:0:0:0:
212,154,147259,5,8,0:0:0:0:
212,155,148592,1,8,0:0:0:0:
212,157,149926,1,0,0:0:0:0:
215,157,151259,1,0,0:0:0:0:
249,158,152592,1,8,0:0:0:0:
233,154,153926,1,0,0:0:0:0:
230,148,155259,1,8,0:0:0:0:
226,150,156592,1,8,0:0:0:0:
228,152,157926,1,0,0:0:0:0:
228,153,158592,1,8,0:0:0:0:
228,154,159259,1,0,0:0:0:0:
231,154,159592,1,0,0:0:0:0:
227,157,159926,1,8,0:0:0:0:
224,155,160592,1,0,0:0:0:0:
225,158,161259,1,8,0:0:0:0:
225,158,161592,1,0,0:0:0:0:
226,158,161926,1,8,0:0:0:0:
226,158,162592,1,8,0:0:0:0:
242,149,163259,1,0,0:0:0:0:
246,150,163592,1,0,0:0:0:0:
246,150,163926,1,8,0:0:0:0:
246,151,164259,1,0,0:0:0:0:
249,153,164592,1,8,0:0:0:0:
247,153,165259,1,8,0:0:0:0:
218,169,165926,1,0,0:0:0:0:
217,170,166592,1,8,0:0:0:0:
214,172,167259,1,0,0:0:0:0:
216,172,167592,1,0,0:0:0:0:
213,172,167926,1,8,0:0:0:0:
212,172,168259,1,8,0:0:0:0:
212,172,168426,1,8,0:0:0:0:
212,172,168592,1,4,0:0:0:0:
212,176,169259,1,8,0:0:0:0:
204,179,169926,1,8,0:0:0:0:
204,179,170259,1,8,0:0:0:0:
201,178,170592,1,0,0:0:0:0:
307,147,171259,1,8,0:0:0:0:
206,141,171592,1,0,0:0:0:0:
203,143,171926,1,8,0:0:0:0:
196,142,172259,1,8,0:0:0:0:
190,139,172592,1,0,0:0:0:0:
186,142,173259,1,0,0:0:0:0:
186,142,173426,1,8,0:0:0:0:
186,142,173592,1,8,0:0:0:0:
186,142,173759,1,8,0:0:0:0:
186,142,173926,1,4,0:0:0:0:
186,152,174592,1,0,0:0:0:0:
189,151,175259,1,8,0:0:0:0:
190,152,175926,1,8,0:0:0:0:
192,152,176592,1,0,0:0:0:0:
194,153,177259,1,0,0:0:0:0:
196,153,177926,1,12,0:0:0:0:
273,163,178259,1,12,0:0:0:0:
269,167,178592,1,12,0:0:0:0:
268,160,178926,1,12,0:0:0:0:
196,153,179259,1,4,0:0:0:0:
232,179,180592,1,8,0:0:0:0:
215,120,180759,1,0,0:0:0:0:
219,170,181092,1,0,0:0:0:0:
183,181,181259,1,8,0:0:0:0:
182,185,181592,1,8,0:0:0:0:
179,188,181926,1,4,0:0:0:0:
242,171,182259,1,8,0:0:0:0:
300,206,182926,1,8,0:0:0:0:
267,189,183259,1,0,0:0:0:0:
267,189,183426,1,0,0:0:0:0:
267,189,183592,1,8,0:0:0:0:
268,188,183926,1,8,0:0:0:0:
268,190,184259,1,8,0:0:0:0:
268,190,184592,1,0,0:0:0:0:
270,191,184926,1,8,0:0:0:0:
270,191,185092,1,0,0:0:0:0:
270,190,185426,1,0,0:0:0:0:
270,190,185592,1,8,0:0:0:0:
274,189,186259,1,8,0:0:0:0:
214,196,186592,1,8,0:0:0:0:
221,196,186926,1,0,0:0:0:0:
221,196,187092,1,8,0:0:0:0:
221,196,187259,1,0,0:0:0:0:
222,197,187592,1,0,0:0:0:0:
222,197,188259,1,8,0:0:0:0:
250,206,188926,1,8,0:0:0:0:
239,162,189259,1,0,0:0:0:0:
238,164,189592,1,8,0:0:0:0:
238,164,189759,1,8,0:0:0:0:
234,177,189926,1,0,0:0:0:0:
234,177,190259,1,0,0:0:0:0:
234,177,190426,1,8,0:0:0:0:
216,100,190759,1,0,0:0:0:0:
203,170,190926,1,8,0:0:0:0:
250,124,191259,1,0,0:0:0:0:
250,124,191426,1,0,0:0:0:0:
250,124,191592,1,8,0:0:0:0:
237,147,192259,1,8,0:0:0:0:
217,169,192592,1,0,0:0:0:0:
217,169,192759,1,0,0:0:0:0:
217,169,192926,1,8,0:0:0:0:
224,167,193592,1,8,0:0:0:0:
216,179,193926,1,0,0:0:0:0:
215,180,194259,1,8,0:0:0:0:
215,180,194592,1,8,0:0:0:0:
215,180,194759,1,0,0:0:0:0:
215,180,194926,1,8,0:0:0:0:
216,180,195259,1,0,0:0:0:0:
216,180,195592,1,8,0:0:0:0:
216,180,195759,1,0,0:0:0:0:
218,182,196092,1,0,0:0:0:0:
218,182,196259,1,8,0:0:0:0:
249,187,196926,1,8,0:0:0:0:
246,187,197259,1,8,0:0:0:0:
245,188,197592,1,8,0:0:0:0:
249,187,197759,1,8,0:0:0:0:
245,186,197926,1,0,0:0:0:0:
245,186,198259,1,8,0:0:0:0:
244,190,198926,1,8,0:0:0:0:
246,191,199259,1,0,0:0:0:0:
245,187,199592,1,0,0:0:0:0:
244,190,199759,1,8,0:0:0:0:
247,191,199926,1,0,0:0:0:0:
249,191,200259,1,0,0:0:0:0:
249,191,200592,1,12,0:0:0:0:
249,191,201092,1,8,0:0:0:0:
252,192,201592,1,8,0:0:0:0:
252,192,202092,1,0,0:0:0:0:
252,192,202259,1,8,0:0:0:0:
254,192,202926,1,0,0:0:0:0:
254,192,203092,1,0,0:0:0:0:
254,192,203259,1,12,0:0:0:0:
244,197,203759,1,8,0:0:0:0:
244,198,204092,1,0,0:0:0:0:
247,200,204426,1,8,0:0:0:0:
251,200,205259,1,4,0:0:0:0:
251,201,205592,1,4,0:0:0:0:
251,200,205926,1,12,0:0:0:0:
252,201,206426,1,8,0:0:0:0:
252,201,207092,1,8,0:0:0:0:
268,165,207259,2,0,P|423:222|196:325,1,560
179,160,208926,1,8,0:0:0:0:
100,152,209426,1,0,0:0:0:0:
163,184,209592,1,8,0:0:0:0:
203,203,210259,1,8,0:0:0:0:
207,205,210592,1,0,0:0:0:0:
212,207,210926,1,8,0:0:0:0:
212,208,211259,1,8,0:0:0:0:
212,211,211759,1,8,0:0:0:0:
207,216,212092,1,0,0:0:0:0:
207,216,212259,1,8,0:0:0:0:
214,213,212592,1,0,0:0:0:0:
211,220,212926,1,8,0:0:0:0:
210,219,213259,1,8,0:0:0:0:
210,219,213426,1,0,0:0:0:0:
210,219,213592,1,8,0:0:0:0:
206,223,213759,1,8,0:0:0:0:
206,223,213926,1,4,0:0:0:0:
254,217,214592,1,8,0:0:0:0:
253,218,214926,1,8,0:0:0:0:
253,218,215092,1,0,0:0:0:0:
253,218,215426,1,8,0:0:0:0:
253,218,215592,1,8,0:0:0:0:
253,220,215926,1,8,0:0:0:0:
254,221,216259,1,0,0:0:0:0:
259,223,216592,1,4,0:0:0:0:
218,169,216926,1,8,0:0:0:0:
222,191,217259,1,8,0:0:0:0:
251,198,217926,1,0,0:0:0:0:
251,198,218092,1,8,0:0:0:0:
251,198,218259,1,8,0:0:0:0:
254,199,218592,1,8,0:0:0:0:
252,201,218926,1,0,0:0:0:0:
252,201,219259,1,12,0:0:0:0:
259,200,219926,1,0,0:0:0:0:
262,200,220259,1,8,0:0:0:0:
264,201,220592,1,0,0:0:0:0:
203,203,221259,1,0,0:0:0:0:
204,204,221926,1,8,0:0:0:0:
204,203,222426,1,8,0:0:0:0:
204,209,222592,1,8,0:0:0:0:
206,209,222926,1,8,0:0:0:0:
208,211,223259,1,0,0:0:0:0:
208,210,223592,1,8,0:0:0:0:
208,211,223926,1,0,0:0:0:0:
208,211,224092,1,8,0:0:0:0:
208,211,224426,1,8,0:0:0:0:
208,211,224592,1,0,0:0:0:0:
208,212,224926,1,8,0:0:0:0:
230,211,225592,1,8,0:0:0:0:
225,208,225926,1,0,0:0:0:0:
225,209,226259,1,8,0:0:0:0:
225,209,226592,1,8,0:0:0:0:
227,209,226926,1,0,0:0:0:0:
227,209,227259,1,12,0:0:0:0:
227,209,227759,1,0,0:0:0:0:
220,212,228259,1,8,0:0:0:0:
220,212,228759,1,8,0:0:0:0:
217,137,228926,1,8,0:0:0:0:
258,162,229259,1,4,0:0:0:0:
258,162,229426,1,4,0:0:0:0:
249,165,229592,1,4,0:0:0:0:
249,165,229759,1,4,0:0:0:0:
