osu file format v14

[General]
AudioFilename: audio.mp3
AudioLeadIn: 0
PreviewTime: 48366
Countdown: 0
SampleSet: Soft
StackLeniency: 0.7
Mode: 0
LetterboxInBreaks: 0
WidescreenStoryboard: 0

[Editor]
DistanceSpacing: 1.65
BeatDivisor: 4
GridSize: 8
TimelineZoom: 2.899999

[Metadata]
Title:Shizuka na Yoru ni (Cut Ver.)
TitleUnicode:静かな夜に (Cut Ver.)
Artist:SECONDWALL
ArtistUnicode:SECONDWALL
Creator:Nao Tomori
Version:Expert
Source:osu!
Tags:japanese rock jrock beautiful lasse lie mappers' guild featured artist fa mpg icekalt lmt lmt1996
BeatmapID:2834118
BeatmapSetID:1370680

[Difficulty]
HPDrainRate:6
CircleSize:4.2
OverallDifficulty:8.5
ApproachRate:9.2
SliderMultiplier:1.76
SliderTickRate:1

[Events]
//Background and Video events
0,0,"axle bg.jpg",0,0
//Break Periods
//Storyboard Layer 0 (Background)
//Storyboard Layer 1 (Fail)
//Storyboard Layer 2 (Pass)
//Storyboard Layer 3 (Foreground)
//Storyboard Layer 4 (Overlay)
//Storyboard Sound Samples

[TimingPoints]
1450,333.333333333333,4,2,1,70,1,0
1450,-100,4,2,1,70,0,0
17449,-125,4,2,1,45,0,0
28116,-111.111111111111,4,2,1,60,0,0
38783,-250,4,2,1,40,0,0
39949,-200,4,2,1,40,0,0
40449,-166.666666666667,4,2,1,40,0,0
41449,-250,4,2,1,40,0,0
42616,-200,4,2,1,40,0,0
43116,-166.666666666667,4,2,1,40,0,0
44116,-250,4,2,1,40,0,0
45283,-200,4,2,1,40,0,0
45783,-166.666666666667,4,2,1,40,0,0
46116,-166.666666666667,4,2,1,70,0,0
46616,-100,4,2,1,70,0,0
47949,-66.6666666666667,4,2,1,80,0,0
49116,-133.333333333333,4,2,1,70,0,0
49449,-86.9565217391304,4,2,1,75,0,1
76116,-86.9565217391304,4,2,1,75,0,0
76449,-86.9565217391304,4,2,1,75,0,1
81449,-86.9565217391304,4,2,1,75,0,0
84116,-111.111111111111,4,2,1,60,0,0
103699,-111.111111111111,4,2,1,70,0,0
105116,-133.333333333333,4,2,1,70,0,0
105449,-86.9565217391304,4,2,1,75,0,1
132116,-86.9565217391304,4,2,1,75,0,0
132449,-86.9565217391304,4,2,1,75,0,1
137449,-86.9565217391304,4,2,1,75,0,0
137533,-86.9565217391304,4,2,1,70,0,0
138616,-100,4,2,1,70,0,0
153283,-133.333333333333,4,2,1,50,0,0

[Colours]
Combo1 : 203,186,243
Combo2 : 173,236,250
Combo3 : 250,150,152
Combo4 : 174,244,164

[HitObjects]
366,140,1450,5,6,3:2:0:0:
440,205,1616,1,0,3:2:0:0:
279,348,1783,2,0,B|209:335|239:284|133:280,1,132,10|0,0:2|0:2,0:2:0:0:
100,320,2116,1,2,3:2:0:0:
0,175,2283,1,8,0:2:0:0:
39,194,2366,1,8,0:2:0:0:
82,192,2449,1,8,0:2:0:0:
119,169,2532,1,8,0:2:0:0:
140,131,2616,6,0,P|133:91|124:28,1,88,2|0,3:2|0:2,0:2:0:0:
270,208,2949,1,10,0:2:0:0:
337,149,3116,2,0,P|330:109|321:46,1,88,10|0,0:2|3:2,0:2:0:0:
456,12,3449,1,8,0:2:0:0:
487,22,3532,1,8,0:2:0:0:
508,46,3615,1,8,0:2:0:0:
512,78,3698,1,8,0:2:0:0:
503,109,3783,1,8,0:3:0:0:
490,126,3866,1,8,0:3:0:0:
482,146,3949,1,4,0:3:0:0:
480,168,4032,1,4,0:3:0:0:
483,190,4116,5,6,3:2:0:0:
439,299,4283,1,0,3:2:0:0:
253,236,4449,2,0,B|294:220|294:220|356:243,1,88,10|0,0:2|0:2,0:2:0:0:
199,357,4783,1,10,0:2:0:0:
146,212,4949,1,0,3:2:0:0:
66,274,5116,1,0,3:2:0:0:
253,236,5283,6,0,P|257:199|260:129,1,88,10|0,0:2|3:2,0:2:0:0:
328,78,5616,1,10,0:2:0:0:
45,168,5783,2,0,P|41:131|38:61,1,88,10|0,0:2|3:2,0:2:0:0:
3,263,6116,1,8,0:2:0:0:
33,274,6199,1,8,0:2:0:0:
66,274,6282,1,8,0:2:0:0:
96,261,6365,1,8,0:2:0:0:
120,238,6449,1,8,0:3:0:0:
137,225,6532,1,8,0:3:0:0:
158,217,6615,1,4,0:3:0:0:
180,215,6698,1,4,0:3:0:0:
201,220,6783,5,6,3:2:0:0:
268,293,6949,1,0,3:2:0:0:
416,202,7116,2,0,P|472:198|503:286,1,132,10|0,0:2|0:2,0:2:0:0:
468,323,7449,1,2,2:2:0:0:
397,117,7616,1,0,3:2:0:0:
457,25,7783,2,0,B|490:14|490:14|470:79,1,88,10|0,0:2|0:2,0:2:0:0:
312,184,8116,6,0,L|294:69,1,88,2|0,3:2|3:2,0:2:0:0:
97,185,8449,2,0,L|111:272,1,88,10|0,0:2|0:2,0:2:0:0:
207,202,8783,1,2,2:2:0:0:
22,128,8949,1,0,3:2:0:0:
22,128,9033,1,0,3:2:0:0:
22,128,9116,1,8,0:2:0:0:
207,202,9283,1,2,0:2:0:0:
79,363,9449,6,0,P|43:365|-11:325,1,88,2|0,3:2|3:2,0:2:0:0:
207,202,9783,2,0,L|228:322,1,88,8|2,0:2|0:2,0:2:0:0:
424,358,10116,1,2,0:2:0:0:
464,280,10283,1,0,3:2:0:0:
464,280,10366,1,0,3:2:0:0:
464,280,10449,2,0,B|430:266|430:266|404:271|351:294,1,88,8|0,0:2|0:2,0:2:0:0:
223,86,10783,5,2,3:2:0:0:
307,144,10949,1,0,3:2:0:0:
402,105,11116,1,10,0:2:0:0:
318,46,11282,1,0,3:2:0:0:
290,259,11449,5,2,3:2:0:0:
109,140,11616,2,0,P|63:150|13:158,1,88,10|0,0:2|3:2,0:2:0:0:
59,60,11949,1,8,0:2:0:0:
143,316,12116,5,2,3:2:0:0:
180,234,12283,1,0,3:2:0:0:
304,361,12449,2,0,B|378:340|336:303|424:282,1,132,10|0,0:2|0:2,0:2:0:0:
476,330,12783,1,2,0:2:0:0:
337,230,12949,1,0,3:2:0:0:
487,110,13116,2,0,B|465:134|465:134|384:134|337:112,1,132,8|0,0:2|0:2,0:2:0:0:
303,64,13449,5,2,3:2:0:0:
179,251,13616,1,0,3:2:0:0:
146,88,13783,1,8,0:2:0:0:
236,146,13949,1,2,0:2:0:0:
110,319,14116,2,0,P|86:292|100:221,1,88,2|0,3:2|3:2,0:2:0:0:
283,288,14449,2,0,L|264:400,1,88,8|0,0:2|0:2,0:2:0:0:
505,199,14783,5,14,2:2:0:0:
409,69,14949,1,0,3:2:0:0:
340,216,15116,1,0,3:2:0:0:
41,130,15283,5,10,0:2:0:0:
137,0,15449,1,0,3:2:0:0:
206,147,15616,1,0,3:2:0:0:
129,96,15783,5,14,0:2:0:0:
249,43,15949,1,0,3:2:0:0:
348,130,16116,1,0,3:2:0:0:
479,80,16283,2,0,L|471:167,1,88,10|0,0:2|3:2,0:2:0:0:
446,317,16616,5,8,0:2:0:0:
431,306,16699,1,8,0:2:0:0:
415,299,16783,1,8,0:2:0:0:
304,379,16949,1,8,0:3:0:0:
227,292,17116,1,4,0:3:0:0:
155,342,17283,1,4,0:3:0:0:
124,332,17449,6,0,P|114:284|104:160,1,140.8,6|0,3:2|3:2,0:2:0:0:
159,54,17949,2,0,P|169:105|178:145,1,70.4,2|0,0:2|3:2,0:2:0:0:
27,253,18283,2,0,P|18:204|5:157,1,70.4,2|0,0:2|3:2,0:2:0:0:
79,117,18616,1,2,0:2:0:0:
188,229,18783,2,0,B|267:212|231:176|328:161,1,140.8,2|0,3:2|3:2,0:2:0:0:
392,197,19283,1,2,0:2:0:0:
489,158,19449,2,0,P|419:168|381:110,1,140.8,0|0,3:2|3:2,0:2:0:0:
381,117,19949,1,2,0:2:0:0:
475,285,20116,6,0,B|486:320|486:320|472:366,1,70.4,2|0,3:2|0:2,0:2:0:0:
315,317,20449,2,0,B|304:282|304:282|318:236,1,70.4,0|0,3:2|0:2,0:2:0:0:
397,284,20783,1,0,3:2:0:0:
249,368,20949,1,2,0:2:0:0:
249,368,21116,2,0,P|198:356|167:349,1,70.4,2|0,3:2|0:2,0:2:0:0:
19,256,21449,2,0,B|61:249|61:249|90:219|90:219|169:205,1,140.8,2|0,3:2|3:2,0:2:0:0:
219,139,21949,2,0,P|249:155|298:159,1,70.4,2|0,0:2|3:2,0:2:0:0:
368,106,22283,1,2,0:2:0:0:
288,66,22449,1,2,3:2:0:0:
320,253,22616,1,8,0:2:0:0:
384,193,22783,6,0,B|413:185|413:185|434:189|473:210,1,70.4,0|0,3:2|0:2,0:2:0:0:
309,335,23116,2,0,L|299:250,1,70.4,2|0,3:2|0:2,0:2:0:0:
205,125,23449,2,0,L|214:199,1,70.4,2|0,3:2|0:2,0:2:0:0:
146,262,23783,1,2,3:2:0:0:
184,46,23949,2,0,B|262:32|238:83|327:73,1,140.8,2|0,0:2|0:2,0:2:0:0:
414,28,24449,2,0,P|406:61|400:123,1,70.4,2|0,3:2|0:2,0:2:0:0:
497,307,24783,2,0,P|490:234|473:162,1,140.8,2|0,3:2|3:2,0:2:0:0:
256,278,25283,5,12,0:2:0:0:
342,316,25449,2,0,B|351:293|351:293|345:268|327:220,1,70.4,0|0,3:2|0:2,0:2:0:0:
201,144,25783,2,0,L|186:244,1,70.4,2|0,3:2|0:2,0:2:0:0:
136,287,26116,2,0,B|47:299|91:347|-12:361,1,140.8,2|2,3:2|3:3,0:2:0:0:
26,181,26616,2,0,P|61:173|93:189,1,70.4,2|0,0:2|3:2,0:2:0:0:
207,354,26949,1,8,0:2:0:0:
320,113,27116,2,0,P|325:155|330:200,1,70.4,12|0,0:3|0:2,0:2:0:0:
508,311,27449,5,8,0:2:0:0:
406,243,27616,1,8,0:2:0:0:
292,285,27783,1,8,0:3:0:0:
393,353,27950,1,4,0:3:0:0:
510,132,28116,6,0,B|472:113|472:113|450:116|416:123,1,79.1999975830079,6|0,3:2|0:2,0:2:0:0:
244,209,28449,2,0,P|198:223|156:204,1,79.1999975830079,2|0,3:2|0:2,0:2:0:0:
91,159,28783,2,0,B|101:84|101:84|100:78|100:78|110:-3,1,158.399995166016,10|0,0:2|3:2,0:2:0:0:
109,2,29283,1,2,0:2:0:0:
0,265,29449,6,0,B|-2:297|24:323|50:325|50:325|62:300|87:280|134:284,1,158.399995166016,2|0,3:2|3:2,0:2:0:0:
258,333,29949,2,0,L|146:354,1,79.1999975830079,2|8,0:2|0:2,0:2:0:0:
283,243,30283,2,0,L|171:264,1,79.1999975830079,2|0,0:2|3:2,0:2:0:0:
342,306,30616,1,2,0:2:0:0:
372,223,30783,5,2,3:2:0:0:
309,155,30949,1,0,0:2:0:0:
336,66,31116,2,0,B|361:50|361:50|392:53|419:62,1,79.1999975830079,2|0,3:2|0:2,0:2:0:0:
309,155,31449,2,0,B|226:169|246:104|149:126,1,158.399995166016,10|0,0:2|3:2,0:2:0:0:
79,169,31949,1,2,0:2:0:0:
8,100,32116,5,2,3:2:0:0:
61,264,32283,1,8,0:2:0:0:
158,123,32449,1,0,3:2:0:0:
461,78,32783,5,8,0:2:0:0:
351,192,32949,1,8,0:2:0:0:
296,51,33116,2,0,P|334:104|403:114,1,118.799996374512,2|0,3:2|0:2,0:2:0:0:
451,174,33449,6,0,B|467:197|467:197|466:229|450:267,1,79.1999975830079,6|0,3:2|0:2,0:2:0:0:
382,343,33783,1,2,3:2:0:0:
325,244,33949,1,2,0:2:0:0:
257,331,34116,2,0,P|206:351|153:287,1,118.799996374512,10|0,0:2|0:2,0:2:0:0:
158,316,34449,2,0,P|164:278|168:232,1,79.1999975830079,2|0,3:2|0:2,0:2:0:0:
141,76,34783,5,2,3:2:0:0:
68,175,34949,1,8,0:2:0:0:
1,74,35116,2,0,P|-4:62|10:-1,1,79.1999975830079,2|0,3:2|0:2,0:2:0:0:
162,77,35449,2,0,L|170:169,1,79.1999975830079,10|0,0:2|0:2,0:2:0:0:
287,225,35783,2,0,B|321:218|321:218|388:233,1,79.1999975830079,0|0,3:2|0:2,0:2:0:0:
203,312,36116,6,0,B|119:308|138:371|35:372,1,158.399995166016,6|0,3:2|3:2,0:2:0:0:
295,146,36616,2,0,P|289:207|283:248,1,79.1999975830079,2|8,0:2|0:2,0:2:0:0:
348,310,36949,1,2,0:2:0:0:
511,250,37116,2,0,P|506:210|502:171,1,79.1999975830079,2|0,3:2|0:2,0:2:0:0:
510,65,37449,5,0,3:2:0:0:
407,176,37616,1,8,0:2:0:0:
355,33,37783,1,2,3:3:0:0:
204,101,38116,5,8,0:2:0:0:
204,101,38158,1,8,0:2:0:0:
135,70,38283,1,0,3:2:0:0:
65,116,38450,1,8,0:3:0:0:
69,199,38616,1,4,0:3:0:0:
82,209,38783,6,0,B|142:206|172:268|150:269|182:324|244:323,1,211.2,6|0,3:2|0:2,0:2:0:0:
384,208,39949,2,0,P|360:240|358:288,1,88,2|0,3:2|0:2,0:2:0:0:
357,286,40449,2,0,P|390:238|343:105,1,211.199993554688,2|0,3:2|0:2,0:2:0:0:
339,13,41449,6,0,B|275:24|275:24|252:76|252:76|158:93,1,211.2,2|0,3:2|0:2,0:2:0:0:
80,77,42616,2,0,B|64:50|64:50|70:22|92:-2,1,88,2|0,3:2|0:2,0:2:0:0:
89,0,43116,2,0,B|117:41|117:41|127:123|57:195,1,211.199993554688,2|2,3:2|0:3,0:2:0:0:
15,305,44116,6,0,B|70:277|70:224|70:224|95:270|161:266,1,211.2,6|0,3:2|0:2,0:2:0:0:
233,204,45283,2,0,B|305:205|272:255|355:267,1,132,0|0,3:2|3:2,0:2:0:0:
442,200,46116,5,10,0:2:0:0:
350,354,46283,1,0,3:2:0:0:
233,204,46449,1,8,0:2:0:0:
41,301,46616,6,0,B|93:317|93:317|153:267|112:183,1,176,6|8,3:2|2:2,0:2:0:0:
82,106,47116,1,8,0:2:0:0:
27,183,47283,1,8,0:2:0:0:
187,126,47449,1,8,0:2:0:0:
45,15,47616,1,8,0:2:0:0:
122,208,47783,1,8,0:2:0:0:
375,6,47949,6,0,B|396:10|396:10|411:17|411:17|454:26,1,66.0000025177003,14|0,0:2|0:2,0:2:0:0:
500,365,48949,5,0,3:2:0:0:
439,300,49116,2,0,B|405:312|405:312|393:331|393:331|339:351,1,99.0000037765504,10|0,0:2|0:2,0:2:0:0:
281,298,49449,5,6,3:2:0:0:
236,123,49616,1,0,3:2:0:0:
25,277,49783,2,0,P|80:265|178:372,1,202.400003860474,8|0,0:2|0:2,0:2:0:0:
177,356,50283,1,0,3:2:0:0:
323,196,50449,2,0,P|372:190|428:121,1,101.200001930237,8|0,0:2|0:2,0:2:0:0:
148,25,50783,5,0,3:2:0:0:
231,117,50949,1,0,3:2:0:0:
128,242,51116,2,0,B|87:229|87:229|82:223|82:223|30:206,1,101.200001930237,10|0,0:2|0:2,0:2:0:0:
273,16,51449,2,0,P|262:72|255:136,1,101.200001930237,2|0,2:2|3:2,0:2:0:0:
354,249,51783,2,0,B|384:228|384:228|409:227|465:246,1,101.200001930237,10|0,0:2|0:2,0:2:0:0:
388,118,52116,5,2,3:2:0:0:
279,346,52283,1,0,3:2:0:0:
130,144,52449,1,8,0:2:0:0:
35,280,52616,2,0,B|86:299|86:299|158:253|132:158,1,202.400003860474,2|0,0:2|3:2,0:2:0:0:
285,22,53116,2,8,B|301:88|301:88|332:104|332:104|363:217,1,202.400003860474,10|0,0:2|0:2,0:2:0:0:
438,315,53616,1,0,3:2:0:0:
438,315,53699,1,0,3:2:0:0:
438,315,53783,1,10,0:2:0:0:
486,187,53949,1,0,3:2:0:0:
254,289,54116,5,8,0:2:0:0:
215,304,54199,1,8,0:2:0:0:
175,296,54282,1,8,0:2:0:0:
144,267,54366,1,8,0:2:0:0:
137,226,54450,1,8,0:2:0:0:
128,184,54533,1,8,0:2:0:0:
98,155,54616,1,8,0:2:0:0:
57,147,54700,1,8,0:2:0:0:
46,155,54783,6,0,P|36:195|14:313,1,151.800002895355,2|0,3:2|0:2,0:2:0:0:
22,322,55116,2,0,B|61:358|61:358|135:316,1,101.200001930237,10|0,0:2|0:2,0:2:0:0:
245,174,55449,1,2,0:2:0:0:
178,250,55616,1,0,3:2:0:0:
353,351,55783,2,0,P|342:304|323:243,1,101.200001930237,8|0,0:2|0:2,0:2:0:0:
481,213,56116,2,0,P|492:260|511:321,1,101.200001930237,0|0,3:2|3:2,0:2:0:0:
236,66,56449,6,0,B|244:45|244:45|285:71|270:127,1,101.200001930237,10|0,0:2|0:2,0:2:0:0:
193,304,56783,2,0,B|185:325|185:325|144:299|159:243,1,101.200001930237,2|0,0:2|3:2,0:2:0:0:
326,253,57116,2,0,B|380:263|354:295|443:308,1,101.200001930237,10|0,0:2|0:2,0:2:0:0:
221,179,57449,5,2,3:2:0:0:
67,219,57616,1,0,3:2:0:0:
23,62,57783,1,8,0:2:0:0:
180,22,57949,1,10,0:2:0:0:
180,22,58283,1,0,3:2:0:0:
252,73,58449,6,0,B|377:99|295:159|430:181,1,202.400003860474,10|0,0:2|3:2,0:2:0:0:
384,20,58949,1,2,3:2:0:0:
384,20,59033,1,0,3:2:0:0:
384,20,59116,1,8,2:2:0:0:
305,242,59282,1,10,0:2:0:0:
361,347,59449,1,0,3:2:0:0:
312,147,59616,5,8,0:2:0:0:
271,153,59699,1,8,0:2:0:0:
239,179,59782,1,8,0:3:0:0:
222,216,59866,1,8,0:3:0:0:
205,254,59949,1,4,0:3:0:0:
172,278,60032,1,4,0:3:0:0:
131,282,60116,5,6,3:2:0:0:
56,207,60283,1,0,3:2:0:0:
150,33,60449,2,0,B|203:60|203:111|203:111|227:66|290:70,1,202.400003860474,8|0,0:2|0:2,0:2:0:0:
290,70,60949,1,0,3:2:0:0:
398,11,61116,2,0,B|424:36|424:36|456:29|506:8,1,101.200001930237,8|0,0:2|0:2,0:2:0:0:
340,150,61449,5,0,3:2:0:0:
476,250,61616,1,0,3:2:0:0:
340,349,61783,2,0,P|333:299|360:245,1,101.200001930237,10|0,0:2|0:2,0:2:0:0:
186,78,62116,2,0,B|200:203,1,101.200001930237,2|0,0:2|3:2,0:2:0:0:
107,340,62449,2,0,B|72:371|72:371|1:347,1,101.200001930237,10|0,0:2|0:2,0:2:0:0:
81,148,62783,5,2,3:2:0:0:
230,292,62949,1,0,3:2:0:0:
301,98,63116,1,8,0:2:0:0:
467,310,63283,2,0,B|352:289|420:205|264:201,1,202.400003860474,2|0,0:2|3:2,0:2:0:0:
54,156,63783,2,0,P|106:175|211:67,1,202.400003860474,10|0,0:2|0:2,0:2:0:0:
102,44,64283,1,0,3:2:0:0:
187,259,64449,5,10,0:2:0:0:
303,120,64616,2,0,B|312:74|312:74|276:11,1,101.200001930237,8|2,0:2|0:2,0:2:0:0:
210,91,64949,1,0,3:2:0:0:
379,191,65116,1,10,0:2:0:0:
468,132,65283,1,8,0:2:0:0:
468,132,65366,1,8,0:2:0:0:
468,132,65449,6,0,L|476:28,1,101.200001930237,2|0,3:2|3:2,0:2:0:0:
379,191,65783,2,0,L|371:291,1,101.200001930237,10|0,0:2|0:2,0:2:0:0:
303,362,66116,1,2,0:2:0:0:
86,288,66283,1,0,3:2:0:0:
37,370,66449,2,0,P|68:330|222:329,1,202.400003860474,8|0,0:2|3:2,0:2:0:0:
209,319,66949,1,0,3:2:0:0:
150,129,67116,6,0,B|118:113|118:113|76:113|30:145,1,101.200001930237,10|0,0:2|0:2,0:2:0:0:
259,181,67449,2,0,B|280:60,1,101.200001930237,2|0,0:2|3:2,0:2:0:0:
460,238,67783,2,0,P|438:288|367:278,1,101.200001930237,10|0,0:2|0:2,0:2:0:0:
172,123,68116,5,2,3:2:0:0:
359,170,68283,1,0,3:2:0:0:
231,313,68449,1,8,0:2:0:0:
44,266,68616,1,10,0:2:0:0:
44,266,68949,1,0,3:2:0:0:
135,213,69116,2,0,P|124:261|115:327,1,101.200001930237,10|0,0:2|0:2,0:2:0:0:
282,201,69449,6,0,P|301:246|321:309,1,101.200001930237,2|0,3:2|3:2,0:2:0:0:
406,347,69783,1,10,0:2:0:0:
473,284,69949,1,0,3:2:0:0:
473,284,70033,1,0,3:2:0:0:
473,284,70116,1,8,3:2:0:0:
436,199,70283,1,0,3:2:0:0:
436,199,70366,1,0,3:2:0:0:
436,199,70449,1,8,3:2:0:0:
458,106,70616,1,0,3:2:0:0:
419,21,70783,5,14,0:2:0:0:
296,124,70949,1,0,3:2:0:0:
149,55,71116,1,0,3:2:0:0:
20,111,71283,5,10,0:2:0:0:
143,214,71449,1,0,3:2:0:0:
290,145,71616,1,2,3:2:0:0:
470,239,71783,5,8,2:2:0:0:
378,169,71949,1,2,3:2:0:0:
361,283,72116,1,0,3:2:0:0:
71,300,72283,5,8,0:2:0:0:
163,230,72449,1,0,3:2:0:0:
180,344,72616,1,0,3:2:0:0:
91,158,72783,6,0,P|61:150|-15:204,1,101.200001930237,10|0,0:2|0:2,0:2:0:0:
338,278,73116,2,0,B|396:282|372:324|476:319,1,101.200001930237,12|0,0:3|0:2,0:2:0:0:
343,384,73449,5,14,2:2:0:0:
338,170,73617,1,0,3:2:0:0:
451,228,73783,1,2,3:2:0:0:
256,85,73949,5,10,0:2:0:0:
241,193,74116,1,0,3:2:0:0:
226,301,74283,1,2,3:2:0:0:
110,158,74449,5,8,0:2:0:0:
39,111,74616,1,0,3:2:0:0:
120,345,74783,5,10,0:2:0:0:
143,326,74894,2,0,P|180:330|210:331,1,67.4666679534912,8|8,0:2|0:2,0:2:0:0:
279,281,75116,5,8,0:2:0:0:
302,300,75227,2,0,P|339:296|369:295,1,67.4666679534912,8|8,0:2|0:2,0:2:0:0:
443,336,75449,5,8,0:3:0:0:
469,297,75560,1,8,0:3:0:0:
476,257,75671,1,8,0:3:0:0:
470,223,75782,1,4,0:3:0:0:
456,199,75893,1,4,0:3:0:0:
440,185,76004,1,4,0:3:0:0:
427,179,76116,5,2,3:2:0:0:
427,179,76449,2,0,B|444:143|444:143|436:113|417:88,1,101.200001930237,14|0,0:2|0:2,0:2:0:0:
227,154,76783,1,2,0:2:0:0:
328,146,76949,1,0,3:2:0:0:
138,88,77116,2,0,B|80:100|107:133|34:145,1,101.200001930237,8|0,0:2|0:2,0:2:0:0:
192,356,77449,5,0,3:2:0:0:
122,223,77616,1,0,3:2:0:0:
60,363,77783,2,0,P|115:365|219:266,1,202.400003860474,10|0,0:2|3:2,0:2:0:0:
217,270,78283,1,0,3:2:0:0:
397,371,78449,2,0,B|377:340|377:340|388:255,1,101.200001930237,10|0,0:2|3:2,0:2:0:0:
419,36,78783,5,14,0:2:0:0:
508,190,78949,1,0,3:2:0:0:
322,203,79116,1,0,3:2:0:0:
395,118,79283,5,8,0:2:0:0:
231,31,79449,1,2,3:2:0:0:
138,179,79616,1,0,3:2:0:0:
102,77,79783,5,8,0:2:0:0:
141,293,79949,1,2,0:2:0:0:
35,360,80116,5,2,3:2:0:0:
51,263,80283,1,0,3:2:0:0:
134,326,80449,1,8,0:2:0:0:
273,260,80616,5,8,0:2:0:0:
266,282,80699,1,8,0:2:0:0:
259,304,80783,1,10,0:2:0:0:
356,368,80949,1,0,3:2:0:0:
433,306,81116,1,8,0:3:0:0:
490,362,81283,1,4,0:3:0:0:
511,339,81449,5,6,3:2:0:0:
171,280,81616,1,2,3:2:0:0:
85,304,82449,5,2,3:2:0:0:
425,245,82616,1,2,3:2:0:0:
288,32,83449,5,2,3:2:0:0:
208,144,83616,1,8,2:3:0:0:
256,272,83783,1,4,0:3:0:0:
249,356,84116,6,0,P|205:378|129:299,1,158.399995166016,6|0,3:2|3:2,0:2:0:0:
47,354,84616,2,0,B|38:333|38:333|38:332|48:274,1,79.1999975830079,2|8,0:2|0:2,0:2:0:0:
196,175,84949,2,0,B|205:196|205:196|205:197|195:255,1,79.1999975830079,2|0,0:2|3:2,0:2:0:0:
123,136,85283,1,2,0:2:0:0:
187,78,85449,6,0,P|237:93|357:122,1,158.399995166016,2|0,3:2|3:2,0:2:0:0:
462,265,85949,1,2,0:2:0:0:
503,169,86116,2,0,P|425:187|349:209,1,158.399995166016,10|0,0:2|3:2,0:2:0:0:
349,209,86616,1,2,0:2:0:0:
200,252,86783,6,0,P|213:285|235:351,1,79.1999975830079,2|0,3:2|0:2,0:2:0:0:
140,366,87116,2,0,P|127:333|105:267,1,79.1999975830079,2|0,3:2|0:2,0:2:0:0:
313,307,87449,2,0,P|314:354|284:404,1,79.1999975830079,10|0,0:2|0:2,0:2:0:0:
30,311,87783,2,0,P|29:264|59:214,1,79.1999975830079,2|0,3:2|0:2,0:2:0:0:
120,177,88116,5,2,3:2:0:0:
37,58,88283,1,8,0:2:0:0:
120,177,88449,2,0,B|152:200|152:200|158:142,1,79.1999975830079,2|2,3:2|0:2,0:2:0:0:
174,10,88783,5,8,0:2:0:0:
257,114,88949,1,8,0:2:0:0:
368,39,89116,1,2,3:3:0:0:
493,249,89449,6,0,P|452:281|396:261,1,79.1999975830079,6|0,3:2|0:2,0:2:0:0:
285,195,89783,2,0,P|324:199|352:227,1,79.1999975830079,2|2,3:2|0:2,0:2:0:0:
224,328,90116,2,0,P|208:292|218:255,1,79.1999975830079,10|0,0:2|0:2,0:2:0:0:
369,315,90449,1,2,3:2:0:0:
369,315,90616,2,0,P|346:346|308:356,1,79.1999975830079,2|0,0:2|3:2,0:2:0:0:
114,293,90949,1,2,0:2:0:0:
114,293,91116,2,0,L|107:200,1,79.1999975830079,2|0,3:2|0:2,0:2:0:0:
24,259,91449,2,0,L|30:342,2,79.1999975830079,10|0|0,0:2|0:2|3:2,0:2:0:0:
0,54,92116,6,0,B|36:41|36:41|91:72,1,79.1999975830079,0|0,3:2|0:2,0:2:0:0:
153,130,92449,2,0,B|189:142|189:142|244:111,1,79.1999975830079,2|0,3:2|0:2,0:2:0:0:
319,57,92783,2,0,L|301:230,1,158.399995166016,10|0,0:2|3:2,0:2:0:0:
302,214,93283,1,2,0:2:0:0:
372,280,93449,5,2,3:2:0:0:
449,232,93616,1,8,0:2:0:0:
509,304,93783,2,0,P|519:343|494:380,1,79.1999975830079,2|0,3:3|0:2,0:2:0:0:
101,321,94116,5,10,0:2:0:0:
185,207,94283,1,8,0:2:0:0:
184,348,94449,1,10,0:2:0:0:
101,234,94616,1,0,0:2:0:0:
235,277,94783,1,6,3:2:0:0:
139,16,95116,5,10,2:2:0:0:
179,89,95283,1,2,0:2:0:0:
110,147,95449,2,0,P|75:152|20:115,1,79.1999975830079,2|0,3:2|0:2,0:2:0:0:
179,89,95783,2,0,P|214:72|253:76,1,79.1999975830079,8|0,2:2|0:2,0:2:0:0:
388,166,96116,6,0,L|412:355,1,158.399995166016,2|8,3:2|0:2,0:2:0:0:
495,259,96616,2,0,B|507:230|507:230|480:179,1,79.1999975830079,2|0,0:2|3:2,0:2:0:0:
297,137,96949,2,0,B|285:166|285:166|312:217,1,79.1999975830079,2|8,0:2|0:2,0:2:0:0:
388,166,97283,1,2,0:2:0:0:
207,121,97449,6,0,L|109:106,1,79.1999975830079,2|0,3:2|0:2,0:2:0:0:
261,290,97783,2,0,L|163:275,1,79.1999975830079,10|0,0:2|0:2,0:2:0:0:
110,334,98116,1,2,3:2:0:0:
110,334,98283,1,0,0:2:0:0:
268,202,98449,2,0,P|306:208|332:237,1,79.1999975830079,10|0,0:2|0:2,0:2:0:0:
182,278,98783,6,0,P|187:192|208:117,1,158.399995166016,2|8,3:2|0:2,0:2:0:0:
375,142,99283,2,0,P|372:193|356:242,1,79.1999975830079,2|0,0:2|3:2,0:2:0:0:
364,220,99616,1,10,0:2:0:0:
404,316,99783,2,0,P|450:324|502:358,1,79.1999975830079,10|0,0:2|0:2,0:2:0:0:
347,241,100116,6,0,B|306:278|306:278|250:282|177:243,1,158.399995166016,6|10,3:2|0:2,0:2:0:0:
107,187,100616,1,2,0:2:0:0:
29,257,100782,2,0,P|18:296|7:342,1,79.1999975830079,2|0,3:2|0:2,0:2:0:0:
107,187,101116,2,0,P|97:148|86:110,1,79.1999975830079,10|0,0:2|0:2,0:2:0:0:
20,25,101449,6,0,P|72:79|156:33,1,158.399995166016,2|8,3:2|0:2,0:2:0:0:
242,118,101949,2,0,P|294:64|378:110,1,158.399995166016,2|0,0:2|3:2,0:2:0:0:
482,68,102449,2,0,B|466:94|466:94|485:167,1,79.1999975830079,8|0,0:2|0:2,0:2:0:0:
492,311,102783,6,0,B|411:304|435:244|341:244,1,158.399995166016,2|8,3:2|0:2,0:2:0:0:
277,301,103283,2,0,L|291:383,1,79.1999975830079,2|0,0:2|3:2,0:2:0:0:
400,161,103616,1,2,0:2:0:0:
199,359,103783,5,12,0:2:0:0:
199,359,104949,5,0,3:2:0:0:
181,276,105116,2,0,B|169:251|145:243|145:243|134:279|151:301,1,99.0000037765504,10|0,0:2|0:2,0:2:0:0:
199,359,105449,5,6,3:2:0:0:
259,175,105616,1,0,3:2:0:0:
202,71,105783,2,0,B|78:71|142:156|8:154,1,202.400003860474,8|0,0:2|0:2,0:2:0:0:
27,153,106283,1,0,3:2:0:0:
13,32,106449,2,0,P|64:57|129:66,1,101.200001930237,8|0,0:2|0:2,0:2:0:0:
298,13,106783,5,0,3:2:0:0:
417,67,106949,1,0,3:2:0:0:
417,67,107033,1,0,3:2:0:0:
417,67,107116,2,0,B|396:99|396:99|399:127|425:166,1,101.200001930237,10|0,0:2|0:2,0:2:0:0:
264,316,107449,2,0,B|256:273|256:273|260:268|260:268|249:206,1,101.200001930237,2|0,0:2|3:2,0:2:0:0:
107,65,107783,2,0,L|84:183,1,101.200001930237,10|0,3:2|0:2,0:2:0:0:
24,292,108116,5,2,3:2:0:0:
165,196,108283,1,0,3:2:0:0:
186,365,108449,1,8,0:2:0:0:
116,285,108616,2,0,B|182:294|182:294|210:333|210:333|301:344,1,202.400003860474,2|0,0:2|3:2,0:2:0:0:
512,224,109116,2,0,B|459:251|459:302|459:302|435:257|372:261,1,202.400003860474,10|0,0:2|3:2,0:2:0:0:
292,133,109616,1,0,3:2:0:0:
292,133,109699,1,0,3:2:0:0:
292,133,109783,2,0,B|326:138|350:154|350:154|376:148|399:128,1,101.200001930237,10|0,0:2|0:2,0:2:0:0:
339,21,110116,5,8,0:2:0:0:
302,1,110199,1,8,0:2:0:0:
262,4,110282,1,8,0:2:0:0:
228,25,110365,1,8,0:2:0:0:
210,60,110450,1,8,0:3:0:0:
181,90,110533,1,8,0:3:0:0:
141,98,110616,1,4,0:3:0:0:
104,85,110699,1,4,0:3:0:0:
99,69,110783,6,0,P|93:127|131:230,1,151.800002895355,2|0,3:2|0:2,0:2:0:0:
135,229,111116,2,0,B|110:264|110:264|91:271|21:250,1,101.200001930237,10|0,0:2|0:2,0:2:0:0:
159,367,111449,1,2,0:2:0:0:
243,192,111616,1,0,3:2:0:0:
419,318,111783,2,0,B|383:316|357:328|357:328|300:268|358:181,1,202.400003860474,8|0,0:2|3:2,0:2:0:0:
428,143,112283,1,0,3:2:0:0:
428,143,112366,1,0,3:2:0:0:
428,143,112449,6,0,B|455:187|455:187|439:248,1,101.200001930237,10|0,0:2|0:2,0:2:0:0:
261,119,112783,2,0,P|268:67|276:-6,1,101.200001930237,2|0,0:2|3:2,0:2:0:0:
56,174,113116,2,0,P|110:189|154:142,1,101.200001930237,10|0,0:2|0:2,0:2:0:0:
97,60,113449,5,2,3:2:0:0:
16,268,113616,1,0,3:2:0:0:
105,353,113783,1,8,0:2:0:0:
16,268,113949,2,0,B|42:284|42:284|80:283|124:266,1,101.200001930237,10|0,0:2|0:2,0:2:0:0:
348,202,114283,1,0,3:2:0:0:
274,149,114449,2,0,P|226:182|234:280,1,151.800002895355,10|0,0:2|0:2,0:2:0:0:
225,269,114783,5,0,3:2:0:0:
362,107,114949,1,0,3:2:0:0:
93,177,115116,1,10,0:2:0:0:
500,367,115449,5,8,0:2:0:0:
480,341,115533,1,8,0:2:0:0:
461,315,115616,1,0,3:2:0:0:
451,313,115699,1,0,3:2:0:0:
438,309,115783,5,10,0:2:0:0:
413,265,115866,1,8,0:2:0:0:
411,215,115949,1,8,0:2:0:0:
431,169,116032,1,8,0:2:0:0:
470,137,116116,6,0,B|451:113|451:113|451:83|467:31,1,101.200001930237,6|0,3:2|3:2,0:2:0:0:
328,89,116449,2,0,B|214:90|278:185|119:175,1,202.400003860474,8|0,0:2|0:2,0:2:0:0:
0,90,116949,1,0,3:2:0:0:
118,12,117116,2,0,P|102:59|94:132,1,101.200001930237,8|0,0:2|0:2,0:2:0:0:
174,328,117449,5,0,3:2:0:0:
227,263,117616,1,0,3:2:0:0:
227,263,117699,1,0,3:2:0:0:
227,263,117783,2,0,B|278:250|278:250|339:294,1,101.200001930237,10|0,0:2|0:2,0:2:0:0:
482,109,118116,2,0,B|418:116|443:150|359:161,1,101.200001930237,2|0,0:2|3:2,0:2:0:0:
202,72,118449,1,10,0:2:0:0:
309,33,118616,1,8,0:2:0:0:
309,33,118699,1,8,0:2:0:0:
309,33,118783,5,2,3:2:0:0:
227,221,118949,1,0,3:2:0:0:
104,56,119116,1,8,0:2:0:0:
0,220,119283,2,0,P|68:171|192:149,1,202.400003860474,2|0,0:2|3:2,0:2:0:0:
372,283,119783,2,0,B|390:304|400:326|400:326|450:307|478:220|417:168,1,202.400003860474,10|0,0:2|3:2,0:2:0:0:
375,129,120283,1,0,3:2:0:0:
419,37,120449,6,0,P|455:18|528:40,1,101.200001930237,10|0,0:2|0:2,0:2:0:0:
305,199,120783,2,0,B|276:216|276:216|174:193,1,101.200001930237,2|0,0:2|3:2,0:2:0:0:
3,169,121116,1,10,0:2:0:0:
135,38,121283,1,8,0:2:0:0:
135,38,121366,1,8,0:2:0:0:
135,38,121449,5,0,3:2:0:0:
170,308,121616,1,0,3:2:0:0:
375,129,121783,2,0,B|409:112|409:112|444:117|492:144,1,101.200001930237,10|0,0:2|0:2,0:2:0:0:
403,288,122116,1,2,0:2:0:0:
276,121,122283,1,0,3:2:0:0:
276,121,122366,1,0,3:2:0:0:
276,121,122449,2,0,P|221:143|145:150,1,101.200001930237,10|0,0:2|0:2,0:2:0:0:
10,277,122783,6,0,P|57:277|113:333,1,101.200001930237,2|0,0:2|3:2,0:2:0:0:
289,244,123116,2,0,P|336:244|392:188,1,101.200001930237,10|0,0:2|0:2,0:2:0:0:
179,149,123449,6,0,L|189:278,1,101.200001930237,2|0,0:2|3:2,0:2:0:0:
386,314,123783,2,0,L|378:213,1,101.200001930237,10|0,0:2|0:2,0:2:0:0:
160,66,124116,5,2,3:2:0:0:
291,161,124283,1,0,3:2:0:0:
448,113,124449,1,8,0:2:0:0:
316,18,124616,1,10,0:2:0:0:
316,18,124949,1,0,3:2:0:0:
251,85,125116,6,0,B|188:110|188:110|167:153|167:153|78:188,1,202.400003860474,10|0,0:2|3:2,0:2:0:0:
86,185,125616,1,0,3:2:0:0:
163,255,125783,1,10,0:2:0:0:
110,338,125949,1,0,3:2:0:0:
102,334,126033,1,0,3:2:0:0:
90,329,126116,5,8,0:3:0:0:
129,298,126199,1,8,0:3:0:0:
179,289,126282,1,8,0:3:0:0:
226,305,126365,1,8,0:3:0:0:
262,340,126450,1,8,0:2:0:0:
301,370,126533,1,8,0:2:0:0:
351,379,126616,1,4,0:3:0:0:
398,363,126699,1,4,0:3:0:0:
434,328,126783,5,14,0:2:0:0:
357,198,126949,1,0,3:2:0:0:
509,207,127116,1,2,3:2:0:0:
225,202,127283,5,10,0:2:0:0:
302,72,127449,1,0,3:2:0:0:
150,81,127616,1,2,3:2:0:0:
322,319,127783,5,8,0:2:0:0:
373,239,127949,1,2,3:2:0:0:
316,163,128116,1,0,3:2:0:0:
80,213,128283,5,10,0:2:0:0:
29,293,128449,1,0,3:2:0:0:
86,369,128616,1,0,3:2:0:0:
244,299,128783,5,10,0:2:0:0:
158,265,129116,5,12,0:3:0:0:
316,53,129449,5,14,0:2:0:0:
447,3,129616,1,0,3:2:0:0:
512,127,129783,1,2,3:2:0:0:
217,132,129949,5,10,0:2:0:0:
86,82,130116,1,0,3:2:0:0:
21,206,130283,1,2,3:2:0:0:
247,318,130449,6,0,P|248:275|254:211,1,101.200001930237,8|0,0:2|0:2,0:2:0:0:
307,77,130783,5,0,3:2:0:0:
327,93,130894,2,0,B|348:104|348:104|409:90,1,67.4666679534912,8|8,0:2|0:2,0:2:0:0:
171,193,131116,5,8,0:2:0:0:
151,209,131227,2,0,P|118:220|69:206,1,67.4666679534912,8|8,0:2|0:2,0:2:0:0:
242,286,131449,5,8,0:3:0:0:
291,277,131560,1,8,0:3:0:0:
338,293,131671,1,8,0:3:0:0:
374,328,131782,1,4,0:3:0:0:
411,363,131893,1,4,0:3:0:0:
459,376,132004,1,4,0:3:0:0:
508,367,132116,5,2,3:2:0:0:
508,367,132449,2,0,B|517:337|517:337|480:255,1,101.200001930237,14|0,0:2|0:2,0:2:0:0:
385,86,132783,1,2,0:2:0:0:
267,264,132949,1,0,3:2:0:0:
267,264,133033,1,0,3:2:0:0:
267,264,133116,2,0,B|212:275|232:311|153:319,1,101.200001930237,8|0,0:2|0:2,0:2:0:0:
24,158,133449,5,0,3:2:0:0:
158,215,133616,1,0,3:2:0:0:
250,114,133783,2,0,B|217:85|196:32|196:32|152:72|99:91,1,202.400003860474,10|0,0:2|3:2,0:2:0:0:
353,206,134283,1,0,3:2:0:0:
353,206,134366,1,0,3:2:0:0:
353,206,134449,2,0,B|401:223|401:223|452:174,1,101.200001930237,10|0,0:2|3:2,0:2:0:0:
417,315,134783,5,10,0:2:0:0:
378,108,134949,1,0,3:2:0:0:
417,315,135116,1,0,3:2:0:0:
194,281,135283,5,8,0:2:0:0:
222,128,135449,1,2,3:2:0:0:
194,281,135616,1,0,3:2:0:0:
30,67,135783,5,8,0:2:0:0:
88,363,135949,1,2,3:2:0:0:
0,232,136116,5,2,3:2:0:0:
69,159,136283,1,0,3:2:0:0:
169,189,136449,2,0,L|274:163,1,101.200001930237,8|0,0:2|0:2,0:2:0:0:
512,203,136783,5,8,0:2:0:0:
487,246,136866,1,8,0:2:0:0:
444,272,136949,1,8,0:2:0:0:
394,272,137033,1,8,0:2:0:0:
350,248,137116,5,8,0:2:0:0:
373,203,137199,1,8,0:2:0:0:
377,153,137282,1,8,0:2:0:0:
359,106,137366,1,8,0:2:0:0:
324,70,137449,6,0,B|356:43|356:43|452:62,1,101.200001930237,2|0,3:2|0:2,0:2:0:0:
169,189,137783,2,0,P|119:173|41:206,1,101.200001930237,10|0,0:2|0:2,0:2:0:0:
294,341,138116,1,8,0:2:0:0:
309,311,138199,1,8,0:2:0:0:
333,287,138282,1,8,0:2:0:0:
362,271,138366,1,8,0:2:0:0:
395,265,138449,1,8,0:2:0:0:
429,270,138532,1,8,0:2:0:0:
459,284,138616,6,0,B|416:300|416:300|344:264|388:163,1,176,0|10,3:2|0:2,0:2:0:0:
448,37,139116,2,0,B|482:52|482:52|490:84|473:134,1,88,10|0,0:2|0:2,0:2:0:0:
273,228,139449,1,8,0:2:0:0:
235,220,139532,1,8,0:2:0:0:
198,213,139615,1,8,0:2:0:0:
161,205,139699,1,8,0:2:0:0:
124,198,139783,5,8,0:3:0:0:
114,206,139866,1,8,0:3:0:0:
103,213,139949,1,4,0:3:0:0:
93,221,140033,1,4,0:3:0:0:
83,228,140116,5,2,3:2:0:0:
19,137,140283,1,0,3:2:0:0:
65,354,140449,2,0,P|110:355|167:309,1,88,10|0,0:2|3:2,0:2:0:0:
267,90,140783,5,10,0:2:0:0:
312,310,140949,1,0,3:2:0:0:
364,214,141116,1,0,3:2:0:0:
212,183,141283,1,8,0:2:0:0:
212,183,141366,1,8,0:2:0:0:
212,183,141449,5,0,3:2:0:0:
402,323,141616,1,10,0:2:0:0:
470,94,141783,2,0,B|425:85|425:85|373:127,1,88,10|0,0:2|3:2,0:2:0:0:
203,52,142116,5,8,0:2:0:0:
162,23,142199,1,8,0:2:0:0:
113,25,142282,1,8,0:2:0:0:
75,58,142366,1,8,0:2:0:0:
66,107,142449,1,8,0:3:0:0:
73,131,142532,1,8,0:3:0:0:
79,156,142615,1,4,0:3:0:0:
85,180,142699,1,4,0:3:0:0:
89,209,142783,6,0,P|42:214|-9:245,1,88,6|0,3:2|0:2,0:2:0:0:
135,351,143116,2,0,P|91:377|42:383,1,88,10|0,0:2|0:2,0:2:0:0:
183,252,143449,1,0,3:2:0:0:
267,345,143616,1,0,3:2:0:0:
267,345,143699,1,0,3:2:0:0:
267,345,143783,2,0,B|333:315|289:279|400:245,1,132,10|0,0:2|0:2,0:2:0:0:
457,291,144116,5,2,3:2:0:0:
327,175,144283,1,0,3:2:0:0:
502,105,144449,1,10,0:2:0:0:
455,183,144616,1,2,0:2:0:0:
455,183,144699,1,2,0:2:0:0:
455,183,144783,2,0,B|419:156|419:156|413:129|431:80,1,88,0|0,3:2|3:2,0:2:0:0:
326,20,145116,1,10,0:2:0:0:
224,99,145283,1,0,0:2:0:0:
32,41,145449,5,2,0:2:0:0:
134,42,145616,2,0,P|112:108|103:148,1,88,2|8,3:2|0:2,0:2:0:0:
204,240,145949,1,2,0:2:0:0:
157,316,146116,2,0,B|130:326|107:338|107:338|64:320,1,88,2|0,3:2|3:2,0:2:0:0:
234,147,146449,2,0,B|264:154|285:175|285:175|319:137|379:146,1,132,10|0,0:2|0:2,0:2:0:0:
443,185,146783,5,2,3:2:0:0:
296,72,146949,1,0,3:2:0:0:
355,319,147116,1,10,0:2:0:0:
276,373,147283,2,0,P|222:378|185:339,1,88,2|8,3:2|0:2,0:2:0:0:
455,98,147616,6,0,B|486:66|486:66|491:122,1,88,10|0,0:2|3:2,0:2:0:0:
302,265,147949,1,8,0:2:0:0:
302,265,148033,1,8,0:2:0:0:
302,265,148116,5,0,3:2:0:0:
242,175,148283,1,0,3:2:0:0:
40,287,148449,2,0,B|75:316|75:316|86:261,1,88,10|0,0:2|0:2,0:2:0:0:
31,93,148783,1,2,0:2:0:0:
19,191,148949,1,0,3:2:0:0:
112,152,149116,2,0,B|187:136|170:196|246:193,1,132,8|0,0:2|0:2,0:2:0:0:
302,153,149449,5,2,3:2:0:0:
336,54,149616,1,0,3:2:0:0:
400,228,149783,2,0,B|348:245|348:245|329:285|329:285|236:318,1,176,10|2,0:2|0:2,0:2:0:0:
115,346,150283,1,0,3:2:0:0:
115,346,150366,1,0,3:2:0:0:
115,346,150449,2,0,B|89:320|89:320|87:300|103:259,1,88,10|0,0:2|0:2,0:2:0:0:
249,46,150783,5,14,2:2:0:0:
161,195,150949,1,0,3:2:0:0:
24,86,151116,1,0,3:2:0:0:
236,143,151283,5,10,0:2:0:0:
324,292,151449,1,0,3:2:0:0:
461,183,151616,1,2,3:2:0:0:
203,341,151783,5,10,0:2:0:0:
123,299,151949,1,0,3:2:0:0:
50,360,152116,1,0,3:2:0:0:
288,181,152283,5,10,0:2:0:0:
411,334,152449,2,0,B|424:348|424:348|434:313|408:261,1,88,10|0,0:2|3:2,0:2:0:0:
328,77,152783,5,8,0:2:0:0:
276,326,152949,1,8,0:2:0:0:
27,274,153116,1,8,0:2:0:0:
79,25,153283,2,0,B|124:36|139:68|122:68|133:104|189:113,1,132.000005035401,12|0,0:3|0:2,0:1:0:0:
