osu file format v14

[General]
AudioFilename: audio.ogg
AudioLeadIn: 0
PreviewTime: 51670
Countdown: 0
SampleSet: Soft
StackLeniency: 0.7
Mode: 3
LetterboxInBreaks: 0
SpecialStyle: 0
WidescreenStoryboard: 0

[Editor]
Bookmarks: 113026
DistanceSpacing: 0.8
BeatDivisor: 4
GridSize: 8
TimelineZoom: 2.8

[Metadata]
Title:Light
TitleUnicode:Light
Artist:SECONDWALL
ArtistUnicode:SECONDWALL
Creator:anatharax
Version:Ray
Source:
Tags:pairoxd Beautiful Lie japanese pop rock j jpop jrock hybrid fa featured artist mappers' guild mg mpg APG Yuka
BeatmapID:4233643
BeatmapSetID:2031239

[Difficulty]
HPDrainRate:8
CircleSize:4
OverallDifficulty:7.5
ApproachRate:5
SliderMultiplier:1.4
SliderTickRate:1

[Events]
//Background and Video events
0,0,"L.jpg",0,0
//Break Periods
//Storyboard Layer 0 (Background)
//Storyboard Layer 1 (Fail)
//Storyboard Layer 2 (Pass)
//Storyboard Layer 3 (Foreground)
//Storyboard Layer 4 (Overlay)
//Storyboard Sound Samples

[TimingPoints]
10899,319.148936170213,4,2,1,45,1,0
51750,-100,4,2,1,45,0,1
72175,-100,4,2,1,45,0,0
155154,-100,4,2,1,45,0,1
175579,-100,4,2,1,45,0,0

[HitObjects]
64,192,10101,5,0,0:0:0:0:
192,192,10180,1,0,0:0:0:0:
320,192,10260,1,0,0:0:0:0:
448,192,10260,1,0,0:0:0:0:
448,192,10420,1,0,0:0:0:0:
320,192,10420,1,0,0:0:0:0:
64,192,10898,1,0,0:0:0:0:
192,192,10898,128,0,10978:0:0:0:0:
448,192,10898,128,0,11138:0:0:0:0:
192,192,11058,128,0,11138:0:0:0:0:
448,192,11218,1,0,0:0:0:0:
64,192,11218,128,0,11377:0:0:0:0:
320,192,11218,1,0,0:0:0:0:
320,192,11377,128,0,11537:0:0:0:0:
64,192,11537,128,0,11696:0:0:0:0:
192,192,11537,1,0,0:0:0:0:
192,192,11696,128,0,11856:0:0:0:0:
320,192,11696,1,0,0:0:0:0:
64,192,11856,1,0,0:0:0:0:
320,192,11856,128,0,12016:0:0:0:0:
448,192,11856,1,0,0:0:0:0:
192,192,12016,128,0,12335:0:0:0:0:
64,192,12016,128,0,12175:0:0:0:0:
320,192,12175,128,0,12494:0:0:0:0:
64,192,12335,128,0,12654:0:0:0:0:
448,192,12335,1,0,0:0:0:0:
192,192,12494,128,0,12654:0:0:0:0:
448,192,12494,1,0,0:0:0:0:
320,192,12654,128,0,12973:0:0:0:0:
448,192,12813,128,0,12973:0:0:0:0:
64,192,12813,1,0,0:0:0:0:
64,192,12973,128,0,13133:0:0:0:0:
192,192,12973,1,0,0:0:0:0:
320,192,13133,1,0,0:0:0:0:
192,192,13133,128,0,13292:0:0:0:0:
448,192,13133,1,0,0:0:0:0:
448,192,13292,128,0,13452:0:0:0:0:
64,192,13452,128,0,13691:0:0:0:0:
192,192,13452,1,0,0:0:0:0:
320,192,13452,128,0,13531:0:0:0:0:
320,192,13611,128,0,13691:0:0:0:0:
64,192,13771,1,0,0:0:0:0:
448,192,13771,128,0,13930:0:0:0:0:
192,192,13771,1,0,0:0:0:0:
192,192,13930,128,0,14090:0:0:0:0:
448,192,14090,128,0,14250:0:0:0:0:
64,192,14090,1,0,0:0:0:0:
64,192,14250,128,0,14409:0:0:0:0:
320,192,14250,1,0,0:0:0:0:
448,192,14409,1,0,0:0:0:0:
192,192,14409,128,0,14569:0:0:0:0:
320,192,14409,1,0,0:0:0:0:
320,192,14569,128,0,14728:0:0:0:0:
64,192,14569,128,0,15047:0:0:0:0:
192,192,14728,128,0,14888:0:0:0:0:
448,192,14888,128,0,15207:0:0:0:0:
320,192,15047,128,0,15207:0:0:0:0:
192,192,15047,1,0,0:0:0:0:
64,192,15207,128,0,15526:0:0:0:0:
320,192,15367,128,0,15526:0:0:0:0:
192,192,15367,1,0,0:0:0:0:
192,192,15526,128,0,15686:0:0:0:0:
448,192,15526,1,0,0:0:0:0:
320,192,15686,1,0,0:0:0:0:
448,192,15686,128,0,16005:0:0:0:0:
64,192,15686,1,0,0:0:0:0:
64,192,16005,128,0,16244:0:0:0:0:
320,192,16005,128,0,16085:0:0:0:0:
192,192,16005,1,0,0:0:0:0:
320,192,16164,128,0,16244:0:0:0:0:
64,192,16324,1,0,0:0:0:0:
192,192,16324,1,0,0:0:0:0:
448,192,16324,128,0,16484:0:0:0:0:
64,192,16484,128,0,16643:0:0:0:0:
192,192,16643,1,0,0:0:0:0:
320,192,16643,128,0,16803:0:0:0:0:
192,192,16803,128,0,16962:0:0:0:0:
448,192,16803,1,0,0:0:0:0:
448,192,16962,128,0,17122:0:0:0:0:
64,192,16962,1,0,0:0:0:0:
320,192,16962,1,0,0:0:0:0:
64,192,17122,128,0,17281:0:0:0:0:
192,192,17122,128,0,17441:0:0:0:0:
320,192,17281,128,0,17601:0:0:0:0:
64,192,17441,128,0,17760:0:0:0:0:
192,192,17601,128,0,17760:0:0:0:0:
448,192,17601,1,0,0:0:0:0:
448,192,17760,128,0,17920:0:0:0:0:
64,192,17920,128,0,18079:0:0:0:0:
320,192,17920,1,0,0:0:0:0:
320,192,18079,128,0,18239:0:0:0:0:
192,192,18079,1,0,0:0:0:0:
64,192,18239,1,0,0:0:0:0:
448,192,18239,128,0,18399:0:0:0:0:
192,192,18239,1,0,0:0:0:0:
64,192,18399,128,0,18558:0:0:0:0:
192,192,18558,1,0,0:0:0:0:
320,192,18558,128,0,18718:0:0:0:0:
64,192,18718,128,0,18797:0:0:0:0:
192,192,18718,128,0,18877:0:0:0:0:
448,192,18718,1,0,0:0:0:0:
448,192,18877,128,0,19037:0:0:0:0:
320,192,18877,128,0,18957:0:0:0:0:
192,192,19037,128,0,19117:0:0:0:0:
64,192,19117,1,0,0:0:0:0:
448,192,19117,128,0,19196:0:0:0:0:
192,192,19196,1,0,0:0:0:0:
320,192,19196,128,0,19356:0:0:0:0:
64,192,19356,128,0,19516:0:0:0:0:
320,192,19516,1,0,0:0:0:0:
448,192,19516,1,0,0:0:0:0:
192,192,19595,1,0,0:0:0:0:
64,192,19595,1,0,0:0:0:0:
320,192,19675,128,0,19835:0:0:0:0:
64,192,19755,1,0,0:0:0:0:
192,192,19835,1,0,0:0:0:0:
448,192,19835,128,0,19994:0:0:0:0:
320,192,19994,1,0,0:0:0:0:
192,192,19994,128,0,20154:0:0:0:0:
448,192,20154,1,0,0:0:0:0:
320,192,20154,1,0,0:0:0:0:
64,192,20154,128,0,20313:0:0:0:0:
448,192,20313,128,0,20393:0:0:0:0:
320,192,20393,1,0,0:0:0:0:
64,192,20393,1,0,0:0:0:0:
192,192,20473,128,0,20553:0:0:0:0:
448,192,20473,128,0,20633:0:0:0:0:
192,192,20633,128,0,20792:0:0:0:0:
64,192,20633,1,0,0:0:0:0:
448,192,20792,1,0,0:0:0:0:
320,192,20792,1,0,0:0:0:0:
192,192,20872,1,0,0:0:0:0:
64,192,20952,1,0,0:0:0:0:
448,192,20952,1,0,0:0:0:0:
320,192,21031,1,0,0:0:0:0:
192,192,21111,1,0,0:0:0:0:
64,192,21111,128,0,21430:0:0:0:0:
320,192,21430,1,0,0:0:0:0:
448,192,21430,1,0,0:0:0:0:
192,192,21590,128,0,21670:0:0:0:0:
320,192,21750,128,0,21829:0:0:0:0:
192,192,21750,1,0,0:0:0:0:
448,192,21909,128,0,21989:0:0:0:0:
64,192,22069,128,0,22149:0:0:0:0:
448,192,22069,1,0,0:0:0:0:
192,192,22069,1,0,0:0:0:0:
64,192,22228,128,0,22308:0:0:0:0:
320,192,22228,1,0,0:0:0:0:
448,192,22388,1,0,0:0:0:0:
192,192,22388,128,0,22547:0:0:0:0:
448,192,22547,1,0,0:0:0:0:
448,192,22707,1,0,0:0:0:0:
64,192,22707,1,0,0:0:0:0:
320,192,22707,128,0,22946:0:0:0:0:
192,192,22867,128,0,22946:0:0:0:0:
192,192,23026,1,0,0:0:0:0:
320,192,23186,1,0,0:0:0:0:
448,192,23186,128,0,23266:0:0:0:0:
448,192,23345,1,0,0:0:0:0:
192,192,23345,1,0,0:0:0:0:
64,192,23345,128,0,23425:0:0:0:0:
320,192,23505,128,0,23585:0:0:0:0:
192,192,23505,1,0,0:0:0:0:
448,192,23664,128,0,23904:0:0:0:0:
64,192,23664,128,0,23744:0:0:0:0:
64,192,23824,128,0,23984:0:0:0:0:
448,192,23984,1,0,0:0:0:0:
192,192,23984,1,0,0:0:0:0:
320,192,23984,128,0,24063:0:0:0:0:
192,192,24143,128,0,24223:0:0:0:0:
320,192,24223,128,0,24383:0:0:0:0:
448,192,24303,128,0,24383:0:0:0:0:
64,192,24303,128,0,24383:0:0:0:0:
448,192,24462,1,0,0:0:0:0:
192,192,24462,128,0,24542:0:0:0:0:
64,192,24622,128,0,24702:0:0:0:0:
192,192,24622,1,0,0:0:0:0:
320,192,24622,128,0,24861:0:0:0:0:
64,192,24781,128,0,24861:0:0:0:0:
448,192,24941,128,0,25260:0:0:0:0:
192,192,24941,128,0,25101:0:0:0:0:
320,192,25101,128,0,25260:0:0:0:0:
64,192,25260,1,0,0:0:0:0:
192,192,25260,1,0,0:0:0:0:
192,192,25420,128,0,25500:0:0:0:0:
448,192,25579,128,0,25659:0:0:0:0:
64,192,25579,1,0,0:0:0:0:
64,192,25739,128,0,25819:0:0:0:0:
320,192,25739,1,0,0:0:0:0:
64,192,25899,1,0,0:0:0:0:
192,192,25899,128,0,25978:0:0:0:0:
320,192,25899,1,0,0:0:0:0:
192,192,26058,1,0,0:0:0:0:
448,192,26058,128,0,26218:0:0:0:0:
64,192,26218,128,0,26377:0:0:0:0:
320,192,26218,128,0,26377:0:0:0:0:
192,192,26377,128,0,26617:0:0:0:0:
320,192,26537,1,0,0:0:0:0:
64,192,26537,128,0,26617:0:0:0:0:
448,192,26537,1,0,0:0:0:0:
320,192,26696,128,0,26776:0:0:0:0:
64,192,26856,1,0,0:0:0:0:
448,192,26856,128,0,26936:0:0:0:0:
448,192,27016,128,0,27175:0:0:0:0:
320,192,27016,1,0,0:0:0:0:
64,192,27175,1,0,0:0:0:0:
192,192,27175,128,0,27255:0:0:0:0:
192,192,27335,128,0,27574:0:0:0:0:
320,192,27494,128,0,27574:0:0:0:0:
320,192,27654,128,0,27973:0:0:0:0:
64,192,27813,1,0,0:0:0:0:
192,192,27813,1,0,0:0:0:0:
448,192,27813,128,0,27973:0:0:0:0:
64,192,27973,128,0,28053:0:0:0:0:
64,192,28133,1,0,0:0:0:0:
448,192,28133,128,0,28212:0:0:0:0:
320,192,28292,128,0,28372:0:0:0:0:
192,192,28292,1,0,0:0:0:0:
64,192,28452,1,0,0:0:0:0:
448,192,28452,1,0,0:0:0:0:
192,192,28452,128,0,28531:0:0:0:0:
192,192,28611,128,0,28771:0:0:0:0:
320,192,28771,128,0,28930:0:0:0:0:
448,192,28771,128,0,29090:0:0:0:0:
192,192,28930,1,0,0:0:0:0:
192,192,29090,1,0,0:0:0:0:
320,192,29090,1,0,0:0:0:0:
64,192,29090,128,0,29170:0:0:0:0:
64,192,29250,128,0,29409:0:0:0:0:
320,192,29409,1,0,0:0:0:0:
192,192,29409,128,0,29489:0:0:0:0:
192,192,29569,1,0,0:0:0:0:
448,192,29569,128,0,29649:0:0:0:0:
320,192,29728,1,0,0:0:0:0:
448,192,29728,1,0,0:0:0:0:
64,192,29728,128,0,29808:0:0:0:0:
320,192,29888,128,0,30047:0:0:0:0:
64,192,30047,128,0,30207:0:0:0:0:
448,192,30047,128,0,30367:0:0:0:0:
320,192,30207,128,0,30446:0:0:0:0:
192,192,30207,1,0,0:0:0:0:
64,192,30367,1,0,0:0:0:0:
192,192,30367,128,0,30446:0:0:0:0:
64,192,30526,128,0,30606:0:0:0:0:
448,192,30686,128,0,30766:0:0:0:0:
192,192,30686,128,0,30925:0:0:0:0:
448,192,30845,128,0,31005:0:0:0:0:
192,192,31005,1,0,0:0:0:0:
64,192,31005,1,0,0:0:0:0:
320,192,31005,1,0,0:0:0:0:
64,192,31164,128,0,31244:0:0:0:0:
320,192,31324,128,0,31484:0:0:0:0:
448,192,31324,1,0,0:0:0:0:
64,192,31324,1,0,0:0:0:0:
192,192,31484,128,0,31643:0:0:0:0:
64,192,31643,1,0,0:0:0:0:
320,192,31643,1,0,0:0:0:0:
448,192,31643,128,0,31803:0:0:0:0:
192,192,31803,128,0,31883:0:0:0:0:
320,192,31962,128,0,32042:0:0:0:0:
64,192,31962,128,0,32122:0:0:0:0:
192,192,32122,128,0,32281:0:0:0:0:
448,192,32122,1,0,0:0:0:0:
64,192,32281,128,0,32361:0:0:0:0:
320,192,32281,1,0,0:0:0:0:
448,192,32281,128,0,32441:0:0:0:0:
192,192,32441,128,0,32601:0:0:0:0:
64,192,32601,128,0,32760:0:0:0:0:
448,192,32601,128,0,32680:0:0:0:0:
192,192,32760,128,0,32840:0:0:0:0:
448,192,32760,128,0,32920:0:0:0:0:
64,192,32920,128,0,33239:0:0:0:0:
192,192,32920,1,0,0:0:0:0:
320,192,32920,128,0,33079:0:0:0:0:
192,192,33079,128,0,33239:0:0:0:0:
320,192,33239,128,0,33399:0:0:0:0:
64,192,33399,128,0,33558:0:0:0:0:
448,192,33399,128,0,33478:0:0:0:0:
320,192,33558,128,0,33718:0:0:0:0:
192,192,33558,128,0,33638:0:0:0:0:
448,192,33558,1,0,0:0:0:0:
64,192,33718,128,0,33877:0:0:0:0:
192,192,33718,1,0,0:0:0:0:
448,192,33877,128,0,34037:0:0:0:0:
192,192,34037,1,0,0:0:0:0:
320,192,34037,128,0,34117:0:0:0:0:
320,192,34196,1,0,0:0:0:0:
64,192,34196,1,0,0:0:0:0:
192,192,34196,128,0,34276:0:0:0:0:
64,192,34356,128,0,34516:0:0:0:0:
448,192,34516,1,0,0:0:0:0:
320,192,34516,128,0,34675:0:0:0:0:
192,192,34675,128,0,34835:0:0:0:0:
64,192,34675,1,0,0:0:0:0:
320,192,34835,128,0,34994:0:0:0:0:
448,192,34835,1,0,0:0:0:0:
64,192,34835,1,0,0:0:0:0:
192,192,34994,128,0,35074:0:0:0:0:
448,192,34994,128,0,35313:0:0:0:0:
192,192,35154,128,0,35313:0:0:0:0:
64,192,35313,1,0,0:0:0:0:
320,192,35313,128,0,35473:0:0:0:0:
192,192,35473,1,0,0:0:0:0:
448,192,35473,1,0,0:0:0:0:
64,192,35473,128,0,35633:0:0:0:0:
320,192,35633,128,0,35712:0:0:0:0:
448,192,35792,128,0,35872:0:0:0:0:
64,192,35792,1,0,0:0:0:0:
64,192,35952,128,0,36031:0:0:0:0:
320,192,35952,128,0,36111:0:0:0:0:
64,192,36111,1,0,0:0:0:0:
448,192,36111,1,0,0:0:0:0:
192,192,36111,128,0,36191:0:0:0:0:
448,192,36271,128,0,36510:0:0:0:0:
192,192,36271,1,0,0:0:0:0:
320,192,36430,128,0,36510:0:0:0:0:
64,192,36430,128,0,36750:0:0:0:0:
448,192,36590,128,0,36670:0:0:0:0:
192,192,36590,128,0,36750:0:0:0:0:
448,192,36750,1,0,0:0:0:0:
320,192,36750,128,0,36909:0:0:0:0:
64,192,36909,128,0,37069:0:0:0:0:
320,192,37069,1,0,0:0:0:0:
448,192,37069,128,0,37149:0:0:0:0:
448,192,37228,128,0,37388:0:0:0:0:
64,192,37228,1,0,0:0:0:0:
64,192,37388,1,0,0:0:0:0:
192,192,37388,128,0,37547:0:0:0:0:
320,192,37547,128,0,37867:0:0:0:0:
448,192,37547,1,0,0:0:0:0:
64,192,37707,128,0,37867:0:0:0:0:
448,192,37867,128,0,38026:0:0:0:0:
192,192,37867,128,0,38186:0:0:0:0:
320,192,38026,128,0,38345:0:0:0:0:
64,192,38026,1,0,0:0:0:0:
448,192,38186,128,0,38505:0:0:0:0:
64,192,38345,128,0,38664:0:0:0:0:
192,192,38345,1,0,0:0:0:0:
320,192,38505,128,0,38824:0:0:0:0:
192,192,38664,128,0,39063:0:0:0:0:
448,192,38664,1,0,0:0:0:0:
64,192,38824,128,0,39063:0:0:0:0:
448,192,38824,1,0,0:0:0:0:
320,192,38984,128,0,39143:0:0:0:0:
192,192,39143,128,0,39303:0:0:0:0:
64,192,39143,128,0,39223:0:0:0:0:
320,192,39303,1,0,0:0:0:0:
448,192,39303,128,0,39383:0:0:0:0:
448,192,39462,128,0,39622:0:0:0:0:
192,192,39622,128,0,39702:0:0:0:0:
320,192,39781,128,0,40101:0:0:0:0:
192,192,39941,1,0,0:0:0:0:
64,192,39941,128,0,40101:0:0:0:0:
448,192,40101,128,0,40420:0:0:0:0:
192,192,40260,128,0,40579:0:0:0:0:
320,192,40260,128,0,40500:0:0:0:0:
64,192,40420,1,0,0:0:0:0:
320,192,40579,128,0,40739:0:0:0:0:
448,192,40579,1,0,0:0:0:0:
64,192,40739,128,0,41058:0:0:0:0:
192,192,40739,1,0,0:0:0:0:
192,192,40899,128,0,41058:0:0:0:0:
320,192,40899,1,0,0:0:0:0:
448,192,41058,1,0,0:0:0:0:
320,192,41058,128,0,41218:0:0:0:0:
448,192,41218,128,0,41377:0:0:0:0:
64,192,41218,128,0,41537:0:0:0:0:
320,192,41377,1,0,0:0:0:0:
320,192,41537,1,0,0:0:0:0:
448,192,41537,128,0,42175:0:0:0:0:
192,192,41537,128,0,41856:0:0:0:0:
320,192,41856,1,0,0:0:0:0:
192,192,42016,1,0,0:0:0:0:
192,192,42175,1,0,0:0:0:0:
64,192,42175,128,0,42813:0:0:0:0:
320,192,42175,128,0,42494:0:0:0:0:
448,192,42494,1,0,0:0:0:0:
448,192,42654,1,0,0:0:0:0:
320,192,42813,128,0,43133:0:0:0:0:
192,192,42813,128,0,43452:0:0:0:0:
64,192,42973,1,0,0:0:0:0:
448,192,42973,1,0,0:0:0:0:
448,192,43133,1,0,0:0:0:0:
64,192,43292,1,0,0:0:0:0:
320,192,43452,128,0,43930:0:0:0:0:
448,192,43452,128,0,43611:0:0:0:0:
64,192,43611,1,0,0:0:0:0:
192,192,43771,128,0,43930:0:0:0:0:
64,192,43930,128,0,44250:0:0:0:0:
448,192,44090,128,0,44250:0:0:0:0:
192,192,44090,1,0,0:0:0:0:
320,192,44250,128,0,44569:0:0:0:0:
192,192,44409,1,0,0:0:0:0:
64,192,44569,128,0,44888:0:0:0:0:
448,192,44569,1,0,0:0:0:0:
192,192,44728,1,0,0:0:0:0:
448,192,44728,1,0,0:0:0:0:
320,192,44888,128,0,45207:0:0:0:0:
192,192,45047,1,0,0:0:0:0:
448,192,45207,1,0,0:0:0:0:
192,192,45207,128,0,45526:0:0:0:0:
64,192,45367,1,0,0:0:0:0:
320,192,45526,1,0,0:0:0:0:
448,192,45526,128,0,45845:0:0:0:0:
192,192,45686,1,0,0:0:0:0:
64,192,45845,1,0,0:0:0:0:
192,192,45925,1,0,0:0:0:0:
448,192,46005,1,0,0:0:0:0:
320,192,46005,128,0,46164:0:0:0:0:
64,192,46164,1,0,0:0:0:0:
448,192,46164,1,0,0:0:0:0:
192,192,46244,1,0,0:0:0:0:
320,192,46324,1,0,0:0:0:0:
64,192,46324,128,0,46643:0:0:0:0:
192,192,46643,128,0,46962:0:0:0:0:
320,192,46643,128,0,47122:0:0:0:0:
448,192,46643,128,0,47281:0:0:0:0:
64,192,46962,1,0,0:0:0:0:
192,192,47122,1,0,0:0:0:0:
192,192,47281,128,0,47601:0:0:0:0:
64,192,47281,128,0,47920:0:0:0:0:
448,192,47601,1,0,0:0:0:0:
448,192,47760,1,0,0:0:0:0:
320,192,47920,128,0,48239:0:0:0:0:
192,192,48079,1,0,0:0:0:0:
64,192,48079,1,0,0:0:0:0:
192,192,48239,1,0,0:0:0:0:
448,192,48239,1,0,0:0:0:0:
448,192,48399,1,0,0:0:0:0:
320,192,48399,1,0,0:0:0:0:
64,192,48558,1,0,0:0:0:0:
192,192,48558,128,0,48638:0:0:0:0:
192,192,48718,1,0,0:0:0:0:
448,192,48718,128,0,48797:0:0:0:0:
64,192,48877,128,0,48957:0:0:0:0:
320,192,48877,1,0,0:0:0:0:
320,192,49037,128,0,49117:0:0:0:0:
64,192,49037,1,0,0:0:0:0:
448,192,49117,1,0,0:0:0:0:
192,192,49196,128,0,49356:0:0:0:0:
320,192,49196,1,0,0:0:0:0:
448,192,49356,1,0,0:0:0:0:
320,192,49356,1,0,0:0:0:0:
192,192,49436,1,0,0:0:0:0:
64,192,49516,1,0,0:0:0:0:
320,192,49516,128,0,49595:0:0:0:0:
64,192,49675,1,0,0:0:0:0:
192,192,49675,1,0,0:0:0:0:
448,192,49675,128,0,49994:0:0:0:0:
64,192,49835,1,0,0:0:0:0:
320,192,49835,1,0,0:0:0:0:
192,192,49994,128,0,50074:0:0:0:0:
320,192,49994,1,0,0:0:0:0:
64,192,50074,1,0,0:0:0:0:
448,192,50154,1,0,0:0:0:0:
320,192,50154,128,0,50234:0:0:0:0:
64,192,50234,1,0,0:0:0:0:
192,192,50234,1,0,0:0:0:0:
320,192,50313,1,0,0:0:0:0:
448,192,50313,128,0,50393:0:0:0:0:
64,192,50393,1,0,0:0:0:0:
192,192,50393,1,0,0:0:0:0:
320,192,50473,1,0,0:0:0:0:
448,192,50473,1,0,0:0:0:0:
192,192,50553,1,0,0:0:0:0:
448,192,50633,1,0,0:0:0:0:
64,192,50633,128,0,50712:0:0:0:0:
320,192,50712,1,0,0:0:0:0:
64,192,50792,1,0,0:0:0:0:
192,192,50792,128,0,50872:0:0:0:0:
320,192,50872,1,0,0:0:0:0:
64,192,50952,1,0,0:0:0:0:
448,192,50952,128,0,51031:0:0:0:0:
192,192,51031,1,0,0:0:0:0:
448,192,51111,1,0,0:0:0:0:
320,192,51111,128,0,51351:0:0:0:0:
64,192,51111,1,0,0:0:0:0:
448,192,51750,1,0,0:0:0:0:
320,192,51750,128,0,51829:0:0:0:0:
192,192,51750,128,0,51909:0:0:0:0:
64,192,51750,128,0,51909:0:0:0:0:
64,192,52069,1,0,0:0:0:0:
448,192,52069,128,0,52228:0:0:0:0:
320,192,52069,128,0,52228:0:0:0:0:
192,192,52069,128,0,52149:0:0:0:0:
192,192,52388,1,0,0:0:0:0:
64,192,52388,1,0,0:0:0:0:
448,192,52388,128,0,52547:0:0:0:0:
64,192,52547,1,0,0:0:0:0:
320,192,52547,1,0,0:0:0:0:
448,192,52707,1,0,0:0:0:0:
192,192,52707,128,0,52787:0:0:0:0:
320,192,52707,128,0,53026:0:0:0:0:
192,192,52867,128,0,53186:0:0:0:0:
64,192,53026,128,0,53186:0:0:0:0:
448,192,53186,1,0,0:0:0:0:
320,192,53186,128,0,53266:0:0:0:0:
320,192,53345,1,0,0:0:0:0:
192,192,53345,128,0,53505:0:0:0:0:
64,192,53345,128,0,53505:0:0:0:0:
448,192,53505,1,0,0:0:0:0:
320,192,53505,1,0,0:0:0:0:
64,192,53664,1,0,0:0:0:0:
448,192,53664,128,0,53984:0:0:0:0:
192,192,53824,1,0,0:0:0:0:
320,192,53824,1,0,0:0:0:0:
320,192,53984,1,0,0:0:0:0:
64,192,53984,1,0,0:0:0:0:
192,192,53984,128,0,54143:0:0:0:0:
448,192,54143,1,0,0:0:0:0:
320,192,54143,1,0,0:0:0:0:
448,192,54303,1,0,0:0:0:0:
64,192,54303,128,0,54462:0:0:0:0:
192,192,54303,128,0,54383:0:0:0:0:
192,192,54462,128,0,54622:0:0:0:0:
320,192,54462,1,0,0:0:0:0:
320,192,54622,1,0,0:0:0:0:
64,192,54622,1,0,0:0:0:0:
448,192,54622,128,0,54702:0:0:0:0:
448,192,54781,128,0,54941:0:0:0:0:
192,192,54941,1,0,0:0:0:0:
64,192,54941,128,0,55180:0:0:0:0:
320,192,55101,128,0,55180:0:0:0:0:
448,192,55101,1,0,0:0:0:0:
64,192,55260,1,0,0:0:0:0:
192,192,55260,1,0,0:0:0:0:
320,192,55260,128,0,55579:0:0:0:0:
448,192,55420,128,0,55739:0:0:0:0:
64,192,55420,128,0,55899:0:0:0:0:
320,192,55739,1,0,0:0:0:0:
448,192,55899,1,0,0:0:0:0:
320,192,55899,1,0,0:0:0:0:
192,192,55899,128,0,56218:0:0:0:0:
64,192,56218,128,0,56297:0:0:0:0:
448,192,56218,128,0,56457:0:0:0:0:
320,192,56377,128,0,56457:0:0:0:0:
64,192,56377,1,0,0:0:0:0:
192,192,56537,128,0,56696:0:0:0:0:
320,192,56537,1,0,0:0:0:0:
448,192,56537,1,0,0:0:0:0:
448,192,56696,128,0,56856:0:0:0:0:
192,192,56856,1,0,0:0:0:0:
320,192,56856,1,0,0:0:0:0:
448,192,57016,1,0,0:0:0:0:
192,192,57016,128,0,57255:0:0:0:0:
448,192,57175,1,0,0:0:0:0:
64,192,57175,1,0,0:0:0:0:
320,192,57175,128,0,57255:0:0:0:0:
320,192,57335,128,0,57494:0:0:0:0:
192,192,57494,1,0,0:0:0:0:
448,192,57494,128,0,57734:0:0:0:0:
64,192,57654,128,0,57734:0:0:0:0:
192,192,57654,1,0,0:0:0:0:
320,192,57813,1,0,0:0:0:0:
448,192,57813,1,0,0:0:0:0:
192,192,57813,128,0,57973:0:0:0:0:
448,192,57973,128,0,58292:0:0:0:0:
64,192,57973,1,0,0:0:0:0:
64,192,58133,128,0,58292:0:0:0:0:
320,192,58292,128,0,58452:0:0:0:0:
192,192,58292,1,0,0:0:0:0:
448,192,58452,1,0,0:0:0:0:
192,192,58452,1,0,0:0:0:0:
64,192,58452,1,0,0:0:0:0:
448,192,58611,128,0,58691:0:0:0:0:
448,192,58771,128,0,58930:0:0:0:0:
64,192,58771,128,0,58851:0:0:0:0:
64,192,58930,128,0,59090:0:0:0:0:
320,192,58930,1,0,0:0:0:0:
192,192,59090,1,0,0:0:0:0:
448,192,59090,1,0,0:0:0:0:
320,192,59090,128,0,59250:0:0:0:0:
448,192,59250,128,0,59489:0:0:0:0:
64,192,59250,1,0,0:0:0:0:
64,192,59409,1,0,0:0:0:0:
320,192,59409,128,0,59489:0:0:0:0:
320,192,59569,1,0,0:0:0:0:
448,192,59569,1,0,0:0:0:0:
64,192,59728,128,0,59808:0:0:0:0:
320,192,59728,1,0,0:0:0:0:
448,192,59808,1,0,0:0:0:0:
64,192,59888,128,0,60127:0:0:0:0:
192,192,59888,1,0,0:0:0:0:
448,192,60047,1,0,0:0:0:0:
192,192,60047,128,0,60127:0:0:0:0:
64,192,60207,1,0,0:0:0:0:
320,192,60207,128,0,60287:0:0:0:0:
192,192,60287,1,0,0:0:0:0:
64,192,60367,1,0,0:0:0:0:
320,192,60367,1,0,0:0:0:0:
448,192,60367,1,0,0:0:0:0:
192,192,60526,128,0,60606:0:0:0:0:
320,192,60526,1,0,0:0:0:0:
64,192,60606,1,0,0:0:0:0:
448,192,60686,1,0,0:0:0:0:
192,192,60686,1,0,0:0:0:0:
320,192,60766,1,0,0:0:0:0:
448,192,60845,128,0,61005:0:0:0:0:
192,192,60845,1,0,0:0:0:0:
64,192,60845,1,0,0:0:0:0:
64,192,61005,1,0,0:0:0:0:
320,192,61005,1,0,0:0:0:0:
192,192,61005,1,0,0:0:0:0:
448,192,61164,1,0,0:0:0:0:
64,192,61164,128,0,61244:0:0:0:0:
192,192,61244,1,0,0:0:0:0:
448,192,61324,1,0,0:0:0:0:
320,192,61324,128,0,61404:0:0:0:0:
64,192,61324,1,0,0:0:0:0:
448,192,61484,1,0,0:0:0:0:
320,192,61484,1,0,0:0:0:0:
192,192,61563,1,0,0:0:0:0:
64,192,61563,1,0,0:0:0:0:
320,192,61643,1,0,0:0:0:0:
192,192,61723,1,0,0:0:0:0:
448,192,61803,1,0,0:0:0:0:
64,192,61803,1,0,0:0:0:0:
320,192,61883,1,0,0:0:0:0:
192,192,61962,128,0,62122:0:0:0:0:
64,192,61962,128,0,62122:0:0:0:0:
448,192,61962,128,0,62042:0:0:0:0:
64,192,62281,1,0,0:0:0:0:
192,192,62281,128,0,62361:0:0:0:0:
320,192,62281,128,0,62441:0:0:0:0:
448,192,62281,128,0,62441:0:0:0:0:
64,192,62601,128,0,62760:0:0:0:0:
192,192,62601,128,0,62920:0:0:0:0:
448,192,62760,1,0,0:0:0:0:
448,192,62920,1,0,0:0:0:0:
64,192,62920,1,0,0:0:0:0:
320,192,62920,128,0,63000:0:0:0:0:
320,192,63079,128,0,63239:0:0:0:0:
192,192,63079,128,0,63399:0:0:0:0:
448,192,63399,1,0,0:0:0:0:
64,192,63399,128,0,63558:0:0:0:0:
320,192,63558,1,0,0:0:0:0:
448,192,63558,128,0,63718:0:0:0:0:
192,192,63558,128,0,63877:0:0:0:0:
320,192,63718,128,0,63877:0:0:0:0:
448,192,63877,1,0,0:0:0:0:
64,192,63877,128,0,64117:0:0:0:0:
320,192,64037,1,0,0:0:0:0:
448,192,64037,1,0,0:0:0:0:
64,192,64196,1,0,0:0:0:0:
320,192,64196,1,0,0:0:0:0:
192,192,64196,128,0,64356:0:0:0:0:
448,192,64356,1,0,0:0:0:0:
64,192,64356,1,0,0:0:0:0:
448,192,64516,128,0,64595:0:0:0:0:
320,192,64675,128,0,64755:0:0:0:0:
192,192,64675,1,0,0:0:0:0:
192,192,64835,128,0,64914:0:0:0:0:
448,192,64835,1,0,0:0:0:0:
64,192,64835,1,0,0:0:0:0:
64,192,64994,128,0,65074:0:0:0:0:
192,192,65154,1,0,0:0:0:0:
448,192,65154,128,0,65393:0:0:0:0:
320,192,65313,128,0,65393:0:0:0:0:
64,192,65313,1,0,0:0:0:0:
192,192,65473,128,0,65553:0:0:0:0:
320,192,65473,1,0,0:0:0:0:
64,192,65473,1,0,0:0:0:0:
448,192,65633,128,0,65952:0:0:0:0:
192,192,65633,128,0,65952:0:0:0:0:
320,192,65952,1,0,0:0:0:0:
64,192,65952,128,0,66111:0:0:0:0:
448,192,66111,1,0,0:0:0:0:
192,192,66111,1,0,0:0:0:0:
320,192,66111,128,0,66351:0:0:0:0:
192,192,66271,128,0,66351:0:0:0:0:
320,192,66430,128,0,66590:0:0:0:0:
192,192,66430,128,0,66670:0:0:0:0:
448,192,66590,1,0,0:0:0:0:
64,192,66590,128,0,66670:0:0:0:0:
320,192,66750,1,0,0:0:0:0:
64,192,66750,1,0,0:0:0:0:
448,192,66750,128,0,66989:0:0:0:0:
64,192,66909,128,0,67228:0:0:0:0:
192,192,66909,128,0,67308:0:0:0:0:
448,192,67069,1,0,0:0:0:0:
320,192,67069,128,0,67388:0:0:0:0:
192,192,67388,1,0,0:0:0:0:
64,192,67388,1,0,0:0:0:0:
448,192,67388,1,0,0:0:0:0:
448,192,67547,128,0,67627:0:0:0:0:
64,192,67707,128,0,68026:0:0:0:0:
192,192,67707,1,0,0:0:0:0:
448,192,67867,1,0,0:0:0:0:
192,192,68026,1,0,0:0:0:0:
448,192,68026,128,0,68505:0:0:0:0:
320,192,68026,1,0,0:0:0:0:
320,192,68186,128,0,68425:0:0:0:0:
192,192,68186,128,0,68345:0:0:0:0:
192,192,68505,1,0,0:0:0:0:
64,192,68505,128,0,68664:0:0:0:0:
320,192,68664,1,0,0:0:0:0:
448,192,68664,1,0,0:0:0:0:
192,192,68664,1,0,0:0:0:0:
64,192,68824,1,0,0:0:0:0:
320,192,68824,128,0,69143:0:0:0:0:
64,192,68984,1,0,0:0:0:0:
192,192,68984,1,0,0:0:0:0:
192,192,69143,1,0,0:0:0:0:
448,192,69143,128,0,69223:0:0:0:0:
64,192,69303,1,0,0:0:0:0:
192,192,69303,128,0,69383:0:0:0:0:
64,192,69462,1,0,0:0:0:0:
320,192,69462,128,0,69861:0:0:0:0:
448,192,69622,128,0,69781:0:0:0:0:
192,192,69622,128,0,69941:0:0:0:0:
448,192,69941,128,0,70101:0:0:0:0:
64,192,70101,128,0,70420:0:0:0:0:
320,192,70101,1,0,0:0:0:0:
192,192,70180,1,0,0:0:0:0:
320,192,70260,1,0,0:0:0:0:
448,192,70260,1,0,0:0:0:0:
448,192,70420,128,0,70739:0:0:0:0:
64,192,70579,1,0,0:0:0:0:
192,192,70739,128,0,70899:0:0:0:0:
320,192,70739,128,0,71058:0:0:0:0:
64,192,70739,1,0,0:0:0:0:
448,192,71058,128,0,71377:0:0:0:0:
192,192,71058,1,0,0:0:0:0:
320,192,71138,1,0,0:0:0:0:
64,192,71218,1,0,0:0:0:0:
192,192,71218,1,0,0:0:0:0:
192,192,71377,128,0,71537:0:0:0:0:
448,192,71537,1,0,0:0:0:0:
320,192,71537,128,0,71696:0:0:0:0:
64,192,71696,1,0,0:0:0:0:
192,192,71696,1,0,0:0:0:0:
448,192,71776,1,0,0:0:0:0:
320,192,71776,1,0,0:0:0:0:
192,192,71856,1,0,0:0:0:0:
64,192,71856,1,0,0:0:0:0:
448,192,71936,1,0,0:0:0:0:
320,192,71936,1,0,0:0:0:0:
64,192,72016,1,0,0:0:0:0:
192,192,72016,1,0,0:0:0:0:
320,192,72095,1,0,0:0:0:0:
448,192,72175,1,0,0:0:0:0:
192,192,72175,128,0,72335:0:0:0:0:
64,192,72175,128,0,72494:0:0:0:0:
320,192,72335,128,0,72654:0:0:0:0:
448,192,72494,1,0,0:0:0:0:
192,192,72494,128,0,72654:0:0:0:0:
448,192,72654,128,0,72813:0:0:0:0:
64,192,72813,128,0,73133:0:0:0:0:
320,192,72813,128,0,72973:0:0:0:0:
192,192,72973,128,0,73133:0:0:0:0:
448,192,72973,1,0,0:0:0:0:
448,192,73133,128,0,73292:0:0:0:0:
320,192,73133,128,0,73452:0:0:0:0:
192,192,73292,128,0,73611:0:0:0:0:
64,192,73292,128,0,73771:0:0:0:0:
448,192,73452,128,0,73611:0:0:0:0:
320,192,73611,1,0,0:0:0:0:
448,192,73771,1,0,0:0:0:0:
320,192,73771,128,0,74090:0:0:0:0:
192,192,73771,128,0,73930:0:0:0:0:
448,192,73930,128,0,74250:0:0:0:0:
64,192,74090,128,0,74409:0:0:0:0:
192,192,74090,1,0,0:0:0:0:
320,192,74250,1,0,0:0:0:0:
192,192,74250,128,0,74409:0:0:0:0:
320,192,74409,1,0,0:0:0:0:
448,192,74409,128,0,74728:0:0:0:0:
64,192,74569,128,0,74728:0:0:0:0:
320,192,74728,128,0,75047:0:0:0:0:
192,192,74728,128,0,74888:0:0:0:0:
448,192,74888,128,0,75047:0:0:0:0:
64,192,74888,1,0,0:0:0:0:
192,192,75047,1,0,0:0:0:0:
64,192,75047,128,0,75367:0:0:0:0:
320,192,75207,128,0,75367:0:0:0:0:
192,192,75367,128,0,75526:0:0:0:0:
448,192,75367,128,0,75686:0:0:0:0:
320,192,75526,128,0,75686:0:0:0:0:
64,192,75526,1,0,0:0:0:0:
64,192,75686,1,0,0:0:0:0:
192,192,75686,128,0,76005:0:0:0:0:
320,192,75845,128,0,76005:0:0:0:0:
448,192,75845,128,0,76164:0:0:0:0:
64,192,76005,128,0,76324:0:0:0:0:
320,192,76164,128,0,76324:0:0:0:0:
192,192,76324,128,0,76643:0:0:0:0:
448,192,76324,1,0,0:0:0:0:
448,192,76484,128,0,76803:0:0:0:0:
64,192,76643,128,0,76803:0:0:0:0:
320,192,76643,1,0,0:0:0:0:
320,192,76803,128,0,77122:0:0:0:0:
192,192,76803,1,0,0:0:0:0:
448,192,76962,128,0,77281:0:0:0:0:
64,192,76962,1,0,0:0:0:0:
192,192,76962,128,0,77122:0:0:0:0:
192,192,77281,128,0,77601:0:0:0:0:
64,192,77281,128,0,77441:0:0:0:0:
320,192,77281,1,0,0:0:0:0:
320,192,77441,128,0,77760:0:0:0:0:
448,192,77441,1,0,0:0:0:0:
64,192,77601,1,0,0:0:0:0:
448,192,77601,128,0,77920:0:0:0:0:
192,192,77760,128,0,77920:0:0:0:0:
64,192,77920,128,0,78239:0:0:0:0:
320,192,77920,128,0,78079:0:0:0:0:
192,192,78079,128,0,78239:0:0:0:0:
448,192,78079,1,0,0:0:0:0:
320,192,78239,1,0,0:0:0:0:
448,192,78239,128,0,78558:0:0:0:0:
64,192,78399,128,0,78558:0:0:0:0:
192,192,78399,128,0,78718:0:0:0:0:
320,192,78558,128,0,78877:0:0:0:0:
448,192,78718,128,0,79037:0:0:0:0:
64,192,78718,1,0,0:0:0:0:
64,192,78877,128,0,79196:0:0:0:0:
192,192,78877,1,0,0:0:0:0:
192,192,79037,128,0,79356:0:0:0:0:
448,192,79196,128,0,79516:0:0:0:0:
320,192,79196,1,0,0:0:0:0:
320,192,79356,128,0,79675:0:0:0:0:
64,192,79356,1,0,0:0:0:0:
192,192,79516,1,0,0:0:0:0:
64,192,79516,128,0,79835:0:0:0:0:
192,192,79675,128,0,79835:0:0:0:0:
320,192,79835,1,0,0:0:0:0:
448,192,79835,128,0,79994:0:0:0:0:
64,192,79994,1,0,0:0:0:0:
320,192,79994,1,0,0:0:0:0:
192,192,79994,128,0,80074:0:0:0:0:
192,192,80154,128,0,80313:0:0:0:0:
64,192,80313,128,0,80473:0:0:0:0:
320,192,80313,1,0,0:0:0:0:
192,192,80473,1,0,0:0:0:0:
448,192,80473,1,0,0:0:0:0:
320,192,80473,128,0,80553:0:0:0:0:
320,192,80633,128,0,80792:0:0:0:0:
448,192,80633,1,0,0:0:0:0:
192,192,80792,1,0,0:0:0:0:
64,192,80792,128,0,80952:0:0:0:0:
320,192,80952,1,0,0:0:0:0:
448,192,80952,128,0,81271:0:0:0:0:
192,192,80952,128,0,81111:0:0:0:0:
320,192,81111,128,0,81271:0:0:0:0:
192,192,81271,1,0,0:0:0:0:
64,192,81271,128,0,81430:0:0:0:0:
448,192,81430,1,0,0:0:0:0:
320,192,81430,1,0,0:0:0:0:
192,192,81430,128,0,81590:0:0:0:0:
448,192,81590,128,0,81750:0:0:0:0:
192,192,81750,1,0,0:0:0:0:
64,192,81750,1,0,0:0:0:0:
320,192,81750,128,0,81829:0:0:0:0:
320,192,81909,128,0,82069:0:0:0:0:
192,192,82069,1,0,0:0:0:0:
64,192,82069,1,0,0:0:0:0:
448,192,82228,1,0,0:0:0:0:
192,192,82228,128,0,82388:0:0:0:0:
64,192,82388,1,0,0:0:0:0:
448,192,82388,1,0,0:0:0:0:
320,192,82388,128,0,82547:0:0:0:0:
192,192,82707,1,0,0:0:0:0:
320,192,82707,128,0,82787:0:0:0:0:
64,192,82867,128,0,83186:0:0:0:0:
320,192,83026,1,0,0:0:0:0:
448,192,83186,128,0,83266:0:0:0:0:
64,192,83345,1,0,0:0:0:0:
320,192,83345,128,0,83585:0:0:0:0:
448,192,83664,1,0,0:0:0:0:
192,192,83664,128,0,83744:0:0:0:0:
192,192,83824,128,0,83984:0:0:0:0:
320,192,83984,1,0,0:0:0:0:
320,192,84143,128,0,84223:0:0:0:0:
192,192,84303,1,0,0:0:0:0:
64,192,84303,1,0,0:0:0:0:
448,192,84303,128,0,84462:0:0:0:0:
192,192,84462,1,0,0:0:0:0:
64,192,84462,1,0,0:0:0:0:
448,192,84622,128,0,84702:0:0:0:0:
320,192,84622,1,0,0:0:0:0:
64,192,84781,128,0,84861:0:0:0:0:
320,192,84941,128,0,85180:0:0:0:0:
192,192,84941,1,0,0:0:0:0:
448,192,85101,128,0,85260:0:0:0:0:
64,192,85260,128,0,85500:0:0:0:0:
192,192,85260,128,0,85420:0:0:0:0:
320,192,85260,1,0,0:0:0:0:
448,192,85420,128,0,85579:0:0:0:0:
320,192,85579,128,0,85819:0:0:0:0:
192,192,85579,1,0,0:0:0:0:
448,192,85739,1,0,0:0:0:0:
192,192,85739,128,0,85899:0:0:0:0:
320,192,85899,1,0,0:0:0:0:
64,192,85899,1,0,0:0:0:0:
448,192,85899,128,0,85978:0:0:0:0:
448,192,86058,128,0,86218:0:0:0:0:
192,192,86058,1,0,0:0:0:0:
64,192,86218,128,0,86537:0:0:0:0:
192,192,86218,128,0,86377:0:0:0:0:
320,192,86377,1,0,0:0:0:0:
448,192,86537,1,0,0:0:0:0:
320,192,86537,1,0,0:0:0:0:
192,192,86537,128,0,86617:0:0:0:0:
192,192,86696,128,0,86856:0:0:0:0:
448,192,86856,128,0,86936:0:0:0:0:
64,192,86856,1,0,0:0:0:0:
448,192,87016,128,0,87175:0:0:0:0:
192,192,87016,1,0,0:0:0:0:
320,192,87175,1,0,0:0:0:0:
192,192,87175,1,0,0:0:0:0:
64,192,87175,1,0,0:0:0:0:
448,192,87335,1,0,0:0:0:0:
64,192,87335,128,0,87414:0:0:0:0:
64,192,87494,128,0,87654:0:0:0:0:
320,192,87494,128,0,87654:0:0:0:0:
192,192,87654,1,0,0:0:0:0:
448,192,87813,128,0,88053:0:0:0:0:
192,192,87813,1,0,0:0:0:0:
64,192,87813,1,0,0:0:0:0:
448,192,88133,1,0,0:0:0:0:
192,192,88133,128,0,88292:0:0:0:0:
448,192,88292,128,0,88452:0:0:0:0:
64,192,88292,1,0,0:0:0:0:
320,192,88452,1,0,0:0:0:0:
192,192,88452,1,0,0:0:0:0:
64,192,88452,128,0,88611:0:0:0:0:
448,192,88611,128,0,88691:0:0:0:0:
192,192,88611,1,0,0:0:0:0:
448,192,88771,128,0,89010:0:0:0:0:
192,192,88930,1,0,0:0:0:0:
448,192,89090,1,0,0:0:0:0:
192,192,89090,1,0,0:0:0:0:
320,192,89250,1,0,0:0:0:0:
64,192,89409,1,0,0:0:0:0:
320,192,89409,1,0,0:0:0:0:
64,192,89569,1,0,0:0:0:0:
448,192,89569,1,0,0:0:0:0:
448,192,89728,1,0,0:0:0:0:
320,192,89728,1,0,0:0:0:0:
192,192,89728,1,0,0:0:0:0:
64,192,89888,1,0,0:0:0:0:
320,192,89888,128,0,89968:0:0:0:0:
320,192,90047,128,0,90207:0:0:0:0:
448,192,90207,128,0,90367:0:0:0:0:
192,192,90207,1,0,0:0:0:0:
320,192,90367,1,0,0:0:0:0:
192,192,90367,1,0,0:0:0:0:
64,192,90367,128,0,90526:0:0:0:0:
320,192,90526,128,0,90686:0:0:0:0:
64,192,90686,1,0,0:0:0:0:
192,192,90686,128,0,90766:0:0:0:0:
192,192,90845,128,0,91005:0:0:0:0:
448,192,90845,1,0,0:0:0:0:
448,192,91005,1,0,0:0:0:0:
64,192,91005,1,0,0:0:0:0:
320,192,91005,128,0,91085:0:0:0:0:
320,192,91164,128,0,91484:0:0:0:0:
192,192,91164,1,0,0:0:0:0:
192,192,91324,128,0,91484:0:0:0:0:
64,192,91484,1,0,0:0:0:0:
448,192,91484,1,0,0:0:0:0:
320,192,91643,1,0,0:0:0:0:
192,192,91643,1,0,0:0:0:0:
64,192,91643,1,0,0:0:0:0:
192,192,91962,1,0,0:0:0:0:
448,192,91962,1,0,0:0:0:0:
448,192,92122,1,0,0:0:0:0:
320,192,92122,1,0,0:0:0:0:
320,192,92281,1,0,0:0:0:0:
192,192,92281,1,0,0:0:0:0:
64,192,92281,1,0,0:0:0:0:
64,192,92441,1,0,0:0:0:0:
448,192,92601,128,0,92760:0:0:0:0:
192,192,92601,128,0,92680:0:0:0:0:
192,192,92760,128,0,92920:0:0:0:0:
320,192,92920,1,0,0:0:0:0:
448,192,92920,1,0,0:0:0:0:
64,192,92920,1,0,0:0:0:0:
320,192,93079,128,0,93159:0:0:0:0:
192,192,93239,128,0,93319:0:0:0:0:
320,192,93239,1,0,0:0:0:0:
64,192,93399,128,0,93478:0:0:0:0:
192,192,93399,1,0,0:0:0:0:
64,192,93558,1,0,0:0:0:0:
448,192,93558,128,0,93638:0:0:0:0:
320,192,93558,128,0,93718:0:0:0:0:
448,192,93718,128,0,93877:0:0:0:0:
192,192,93718,1,0,0:0:0:0:
192,192,93877,128,0,94037:0:0:0:0:
320,192,94037,1,0,0:0:0:0:
448,192,94037,1,0,0:0:0:0:
64,192,94196,1,0,0:0:0:0:
192,192,94196,1,0,0:0:0:0:
320,192,94196,128,0,94516:0:0:0:0:
448,192,94356,128,0,94516:0:0:0:0:
192,192,94516,1,0,0:0:0:0:
64,192,94516,1,0,0:0:0:0:
192,192,94675,1,0,0:0:0:0:
320,192,94675,128,0,94755:0:0:0:0:
320,192,94835,1,0,0:0:0:0:
448,192,94835,128,0,94914:0:0:0:0:
64,192,94835,1,0,0:0:0:0:
448,192,94994,1,0,0:0:0:0:
192,192,94994,128,0,95074:0:0:0:0:
448,192,95154,128,0,95313:0:0:0:0:
192,192,95313,1,0,0:0:0:0:
64,192,95313,1,0,0:0:0:0:
448,192,95473,1,0,0:0:0:0:
192,192,95473,1,0,0:0:0:0:
320,192,95473,128,0,95633:0:0:0:0:
192,192,95633,128,0,95792:0:0:0:0:
448,192,95792,1,0,0:0:0:0:
320,192,95792,1,0,0:0:0:0:
64,192,95952,128,0,96111:0:0:0:0:
192,192,95952,1,0,0:0:0:0:
320,192,96111,128,0,96271:0:0:0:0:
448,192,96111,1,0,0:0:0:0:
192,192,96111,1,0,0:0:0:0:
192,192,96271,128,0,96590:0:0:0:0:
448,192,96271,1,0,0:0:0:0:
320,192,96430,1,0,0:0:0:0:
448,192,96590,1,0,0:0:0:0:
64,192,96590,1,0,0:0:0:0:
320,192,96750,1,0,0:0:0:0:
64,192,96750,1,0,0:0:0:0:
192,192,96750,1,0,0:0:0:0:
448,192,96909,128,0,96989:0:0:0:0:
448,192,97069,1,0,0:0:0:0:
64,192,97069,128,0,97149:0:0:0:0:
320,192,97228,128,0,97308:0:0:0:0:
64,192,97228,1,0,0:0:0:0:
192,192,97388,128,0,97468:0:0:0:0:
320,192,97388,1,0,0:0:0:0:
448,192,97388,1,0,0:0:0:0:
448,192,97547,128,0,97627:0:0:0:0:
64,192,97547,1,0,0:0:0:0:
192,192,97707,128,0,97867:0:0:0:0:
320,192,97867,128,0,97946:0:0:0:0:
448,192,97867,1,0,0:0:0:0:
64,192,98026,1,0,0:0:0:0:
320,192,98026,1,0,0:0:0:0:
192,192,98026,1,0,0:0:0:0:
64,192,98186,128,0,98345:0:0:0:0:
448,192,98345,1,0,0:0:0:0:
320,192,98345,128,0,98425:0:0:0:0:
192,192,98505,128,0,98585:0:0:0:0:
320,192,98505,1,0,0:0:0:0:
192,192,98664,1,0,0:0:0:0:
64,192,98664,1,0,0:0:0:0:
448,192,98664,128,0,98744:0:0:0:0:
448,192,98824,128,0,98984:0:0:0:0:
320,192,98824,1,0,0:0:0:0:
192,192,98984,1,0,0:0:0:0:
192,192,99143,128,0,99303:0:0:0:0:
320,192,99143,1,0,0:0:0:0:
448,192,99303,1,0,0:0:0:0:
64,192,99303,1,0,0:0:0:0:
320,192,99303,128,0,99462:0:0:0:0:
64,192,99462,128,0,99622:0:0:0:0:
448,192,99622,128,0,99781:0:0:0:0:
64,192,99781,1,0,0:0:0:0:
192,192,99781,128,0,99941:0:0:0:0:
64,192,99941,1,0,0:0:0:0:
448,192,99941,1,0,0:0:0:0:
320,192,99941,128,0,100021:0:0:0:0:
320,192,100101,128,0,100260:0:0:0:0:
192,192,100101,1,0,0:0:0:0:
192,192,100260,128,0,100420:0:0:0:0:
448,192,100420,1,0,0:0:0:0:
320,192,100420,1,0,0:0:0:0:
64,192,100579,1,0,0:0:0:0:
320,192,100579,1,0,0:0:0:0:
192,192,100579,128,0,100659:0:0:0:0:
192,192,100739,128,0,100899:0:0:0:0:
448,192,100739,128,0,100819:0:0:0:0:
448,192,100899,128,0,101058:0:0:0:0:
320,192,100899,1,0,0:0:0:0:
192,192,101058,1,0,0:0:0:0:
64,192,101058,1,0,0:0:0:0:
192,192,101218,1,0,0:0:0:0:
320,192,101218,1,0,0:0:0:0:
448,192,101218,1,0,0:0:0:0:
64,192,101377,128,0,101457:0:0:0:0:
448,192,101377,1,0,0:0:0:0:
320,192,101537,1,0,0:0:0:0:
64,192,101696,1,0,0:0:0:0:
192,192,101696,128,0,101776:0:0:0:0:
320,192,101856,1,0,0:0:0:0:
448,192,101856,1,0,0:0:0:0:
192,192,101856,1,0,0:0:0:0:
448,192,102016,128,0,102175:0:0:0:0:
64,192,102175,1,0,0:0:0:0:
192,192,102175,1,0,0:0:0:0:
192,192,102335,1,0,0:0:0:0:
448,192,102335,1,0,0:0:0:0:
448,192,102494,1,0,0:0:0:0:
64,192,102494,1,0,0:0:0:0:
320,192,102654,1,0,0:0:0:0:
64,192,102654,1,0,0:0:0:0:
448,192,102813,128,0,103452:0:0:0:0:
192,192,102813,128,0,103133:0:0:0:0:
320,192,102813,1,0,0:0:0:0:
320,192,103133,1,0,0:0:0:0:
192,192,103292,1,0,0:0:0:0:
192,192,103452,1,0,0:0:0:0:
64,192,103452,128,0,104090:0:0:0:0:
320,192,103452,128,0,103771:0:0:0:0:
448,192,103771,1,0,0:0:0:0:
448,192,103930,1,0,0:0:0:0:
320,192,104090,128,0,104409:0:0:0:0:
192,192,104090,128,0,104728:0:0:0:0:
448,192,104250,128,0,104409:0:0:0:0:
64,192,104409,1,0,0:0:0:0:
320,192,104569,1,0,0:0:0:0:
64,192,104728,128,0,105047:0:0:0:0:
448,192,104728,128,0,104888:0:0:0:0:
320,192,104728,1,0,0:0:0:0:
192,192,104888,128,0,105207:0:0:0:0:
448,192,105207,128,0,105526:0:0:0:0:
192,192,105367,128,0,105526:0:0:0:0:
64,192,105367,1,0,0:0:0:0:
320,192,105367,1,0,0:0:0:0:
320,192,105526,128,0,105845:0:0:0:0:
64,192,105845,128,0,106164:0:0:0:0:
448,192,105845,1,0,0:0:0:0:
448,192,106005,1,0,0:0:0:0:
192,192,106005,128,0,106324:0:0:0:0:
320,192,106164,128,0,106324:0:0:0:0:
64,192,106324,1,0,0:0:0:0:
448,192,106324,1,0,0:0:0:0:
192,192,106484,128,0,106803:0:0:0:0:
448,192,106484,128,0,106643:0:0:0:0:
320,192,106803,1,0,0:0:0:0:
448,192,106803,128,0,107122:0:0:0:0:
192,192,106962,1,0,0:0:0:0:
64,192,107122,1,0,0:0:0:0:
448,192,107281,1,0,0:0:0:0:
320,192,107281,1,0,0:0:0:0:
192,192,107281,128,0,107441:0:0:0:0:
64,192,107441,1,0,0:0:0:0:
448,192,107441,1,0,0:0:0:0:
320,192,107441,1,0,0:0:0:0:
192,192,107601,1,0,0:0:0:0:
64,192,107601,1,0,0:0:0:0:
448,192,107601,128,0,107760:0:0:0:0:
320,192,107760,1,0,0:0:0:0:
192,192,107760,1,0,0:0:0:0:
64,192,107760,128,0,107920:0:0:0:0:
192,192,107920,128,0,108239:0:0:0:0:
320,192,107920,128,0,108399:0:0:0:0:
448,192,107920,128,0,108558:0:0:0:0:
192,192,108399,1,0,0:0:0:0:
192,192,108558,128,0,108877:0:0:0:0:
64,192,108558,128,0,109196:0:0:0:0:
320,192,108558,1,0,0:0:0:0:
448,192,108877,128,0,109196:0:0:0:0:
320,192,108877,1,0,0:0:0:0:
320,192,109037,1,0,0:0:0:0:
192,192,109196,128,0,109516:0:0:0:0:
448,192,109356,1,0,0:0:0:0:
64,192,109356,1,0,0:0:0:0:
320,192,109516,1,0,0:0:0:0:
448,192,109516,128,0,109675:0:0:0:0:
192,192,109675,1,0,0:0:0:0:
320,192,109675,1,0,0:0:0:0:
192,192,109835,1,0,0:0:0:0:
448,192,109835,1,0,0:0:0:0:
64,192,109835,128,0,109994:0:0:0:0:
320,192,109994,1,0,0:0:0:0:
448,192,109994,1,0,0:0:0:0:
192,192,110154,128,0,110313:0:0:0:0:
64,192,110154,1,0,0:0:0:0:
320,192,110154,128,0,110473:0:0:0:0:
192,192,110473,128,0,110792:0:0:0:0:
64,192,110473,128,0,110952:0:0:0:0:
448,192,110633,1,0,0:0:0:0:
320,192,110633,1,0,0:0:0:0:
448,192,110952,1,0,0:0:0:0:
192,192,110952,1,0,0:0:0:0:
64,192,111111,1,0,0:0:0:0:
320,192,111111,128,0,111430:0:0:0:0:
448,192,111111,128,0,111590:0:0:0:0:
192,192,111271,1,0,0:0:0:0:
64,192,111271,1,0,0:0:0:0:
192,192,111430,1,0,0:0:0:0:
64,192,111590,1,0,0:0:0:0:
320,192,111590,1,0,0:0:0:0:
192,192,111670,1,0,0:0:0:0:
448,192,111670,1,0,0:0:0:0:
320,192,111750,128,0,111909:0:0:0:0:
192,192,111909,1,0,0:0:0:0:
64,192,111909,1,0,0:0:0:0:
448,192,111989,1,0,0:0:0:0:
320,192,111989,1,0,0:0:0:0:
192,192,112069,1,0,0:0:0:0:
64,192,112069,1,0,0:0:0:0:
320,192,112149,1,0,0:0:0:0:
448,192,112149,1,0,0:0:0:0:
192,192,112228,1,0,0:0:0:0:
64,192,112228,1,0,0:0:0:0:
320,192,112308,1,0,0:0:0:0:
448,192,112308,1,0,0:0:0:0:
64,192,112388,1,0,0:0:0:0:
192,192,112388,1,0,0:0:0:0:
320,192,112468,1,0,0:0:0:0:
448,192,112547,1,0,0:0:0:0:
64,192,112547,1,0,0:0:0:0:
192,192,112627,1,0,0:0:0:0:
320,192,112707,1,0,0:0:0:0:
448,192,112707,1,0,0:0:0:0:
64,192,112787,1,0,0:0:0:0:
320,192,112867,128,0,113026:0:0:0:0:
192,192,112946,1,0,0:0:0:0:
448,192,113026,128,0,113186:0:0:0:0:
64,192,113026,128,0,113345:0:0:0:0:
448,192,113345,1,0,0:0:0:0:
192,192,113345,1,0,0:0:0:0:
320,192,113345,128,0,113664:0:0:0:0:
192,192,113505,128,0,113664:0:0:0:0:
64,192,113664,1,0,0:0:0:0:
448,192,113664,128,0,113824:0:0:0:0:
64,192,113824,128,0,114303:0:0:0:0:
192,192,113824,1,0,0:0:0:0:
448,192,113984,1,0,0:0:0:0:
192,192,113984,128,0,114462:0:0:0:0:
320,192,113984,1,0,0:0:0:0:
448,192,114143,128,0,114303:0:0:0:0:
320,192,114303,128,0,114462:0:0:0:0:
448,192,114462,128,0,114781:0:0:0:0:
64,192,114462,1,0,0:0:0:0:
192,192,114622,1,0,0:0:0:0:
320,192,114622,128,0,114941:0:0:0:0:
64,192,114622,1,0,0:0:0:0:
192,192,114781,128,0,115101:0:0:0:0:
64,192,114941,128,0,115101:0:0:0:0:
448,192,114941,1,0,0:0:0:0:
448,192,115101,128,0,115579:0:0:0:0:
320,192,115101,1,0,0:0:0:0:
192,192,115260,1,0,0:0:0:0:
320,192,115260,128,0,115420:0:0:0:0:
64,192,115260,1,0,0:0:0:0:
192,192,115420,128,0,115739:0:0:0:0:
64,192,115420,1,0,0:0:0:0:
64,192,115579,128,0,115739:0:0:0:0:
448,192,115739,128,0,116218:0:0:0:0:
320,192,115739,1,0,0:0:0:0:
320,192,115899,128,0,116058:0:0:0:0:
64,192,115899,1,0,0:0:0:0:
192,192,115899,1,0,0:0:0:0:
64,192,116058,128,0,116377:0:0:0:0:
320,192,116218,1,0,0:0:0:0:
192,192,116297,1,0,0:0:0:0:
320,192,116377,128,0,116617:0:0:0:0:
448,192,116457,128,0,116537:0:0:0:0:
64,192,116537,128,0,117016:0:0:0:0:
192,192,116537,128,0,116696:0:0:0:0:
448,192,116696,1,0,0:0:0:0:
320,192,116696,1,0,0:0:0:0:
448,192,117016,128,0,117175:0:0:0:0:
320,192,117016,128,0,117175:0:0:0:0:
64,192,117175,128,0,117335:0:0:0:0:
192,192,117175,128,0,117255:0:0:0:0:
320,192,117255,128,0,117494:0:0:0:0:
192,192,117335,128,0,117414:0:0:0:0:
448,192,117335,128,0,117574:0:0:0:0:
64,192,117494,128,0,117654:0:0:0:0:
448,192,117654,128,0,117813:0:0:0:0:
320,192,117654,1,0,0:0:0:0:
320,192,117813,1,0,0:0:0:0:
192,192,117813,128,0,117973:0:0:0:0:
64,192,117813,1,0,0:0:0:0:
320,192,117973,128,0,118133:0:0:0:0:
448,192,117973,128,0,118292:0:0:0:0:
64,192,117973,128,0,118133:0:0:0:0:
192,192,118133,128,0,118611:0:0:0:0:
64,192,118292,128,0,118771:0:0:0:0:
320,192,118292,1,0,0:0:0:0:
320,192,118452,128,0,118771:0:0:0:0:
448,192,118452,1,0,0:0:0:0:
448,192,118611,128,0,118930:0:0:0:0:
192,192,118771,128,0,118930:0:0:0:0:
320,192,118930,128,0,119090:0:0:0:0:
64,192,118930,1,0,0:0:0:0:
64,192,119090,128,0,119250:0:0:0:0:
192,192,119090,128,0,119409:0:0:0:0:
448,192,119090,1,0,0:0:0:0:
448,192,119250,128,0,119569:0:0:0:0:
320,192,119250,1,0,0:0:0:0:
320,192,119409,128,0,119569:0:0:0:0:
64,192,119569,128,0,119728:0:0:0:0:
192,192,119569,128,0,119888:0:0:0:0:
320,192,119728,128,0,119888:0:0:0:0:
448,192,119728,128,0,120047:0:0:0:0:
64,192,119888,128,0,120207:0:0:0:0:
320,192,120047,128,0,120367:0:0:0:0:
192,192,120047,1,0,0:0:0:0:
192,192,120207,128,0,120526:0:0:0:0:
448,192,120207,1,0,0:0:0:0:
448,192,120367,128,0,120686:0:0:0:0:
64,192,120367,128,0,120526:0:0:0:0:
320,192,120526,128,0,120686:0:0:0:0:
64,192,120686,128,0,120845:0:0:0:0:
192,192,120686,128,0,120845:0:0:0:0:
320,192,120845,128,0,121085:0:0:0:0:
64,192,121005,128,0,121244:0:0:0:0:
448,192,121005,128,0,121085:0:0:0:0:
192,192,121085,128,0,121164:0:0:0:0:
448,192,121164,128,0,121324:0:0:0:0:
64,192,121324,128,0,121484:0:0:0:0:
320,192,121324,128,0,121404:0:0:0:0:
320,192,121484,128,0,121643:0:0:0:0:
64,192,121643,1,0,0:0:0:0:
192,192,121643,128,0,121803:0:0:0:0:
448,192,121643,128,0,122122:0:0:0:0:
320,192,121803,1,0,0:0:0:0:
64,192,122122,128,0,122281:0:0:0:0:
320,192,122281,128,0,122441:0:0:0:0:
448,192,122281,128,0,122441:0:0:0:0:
64,192,122441,1,0,0:0:0:0:
192,192,122441,1,0,0:0:0:0:
448,192,122601,1,0,0:0:0:0:
320,192,122601,1,0,0:0:0:0:
192,192,122601,128,0,122760:0:0:0:0:
64,192,122760,1,0,0:0:0:0:
320,192,122760,128,0,122920:0:0:0:0:
192,192,122920,1,0,0:0:0:0:
64,192,122920,1,0,0:0:0:0:
448,192,122920,128,0,123079:0:0:0:0:
192,192,123079,128,0,123239:0:0:0:0:
320,192,123079,128,0,123239:0:0:0:0:
64,192,123399,128,0,123558:0:0:0:0:
448,192,123558,1,0,0:0:0:0:
192,192,123558,1,0,0:0:0:0:
320,192,123558,128,0,123718:0:0:0:0:
320,192,123877,128,0,124037:0:0:0:0:
64,192,124037,1,0,0:0:0:0:
192,192,124037,1,0,0:0:0:0:
448,192,124196,1,0,0:0:0:0:
320,192,124196,1,0,0:0:0:0:
64,192,124196,1,0,0:0:0:0:
448,192,124356,128,0,124516:0:0:0:0:
192,192,124356,1,0,0:0:0:0:
64,192,124516,128,0,124675:0:0:0:0:
448,192,124675,1,0,0:0:0:0:
320,192,124675,1,0,0:0:0:0:
320,192,124835,128,0,124994:0:0:0:0:
192,192,124835,1,0,0:0:0:0:
64,192,124835,1,0,0:0:0:0:
448,192,125154,128,0,125313:0:0:0:0:
192,192,125154,1,0,0:0:0:0:
192,192,125313,128,0,125473:0:0:0:0:
320,192,125313,1,0,0:0:0:0:
320,192,125473,128,0,125633:0:0:0:0:
64,192,125473,1,0,0:0:0:0:
448,192,125473,1,0,0:0:0:0:
64,192,125633,128,0,125792:0:0:0:0:
192,192,125633,1,0,0:0:0:0:
448,192,125633,1,0,0:0:0:0:
320,192,125792,1,0,0:0:0:0:
192,192,125792,1,0,0:0:0:0:
448,192,125952,128,0,126111:0:0:0:0:
320,192,126111,1,0,0:0:0:0:
192,192,126111,1,0,0:0:0:0:
64,192,126111,128,0,126271:0:0:0:0:
448,192,126430,1,0,0:0:0:0:
320,192,126430,1,0,0:0:0:0:
192,192,126430,128,0,126590:0:0:0:0:
320,192,126590,1,0,0:0:0:0:
64,192,126590,1,0,0:0:0:0:
64,192,126750,1,0,0:0:0:0:
192,192,126750,1,0,0:0:0:0:
448,192,126750,1,0,0:0:0:0:
320,192,126909,128,0,127069:0:0:0:0:
448,192,126909,1,0,0:0:0:0:
192,192,127069,128,0,127228:0:0:0:0:
64,192,127069,1,0,0:0:0:0:
320,192,127228,1,0,0:0:0:0:
192,192,127388,1,0,0:0:0:0:
64,192,127388,1,0,0:0:0:0:
448,192,127388,128,0,127547:0:0:0:0:
64,192,127707,128,0,127867:0:0:0:0:
320,192,127707,1,0,0:0:0:0:
320,192,127867,128,0,128026:0:0:0:0:
192,192,127867,1,0,0:0:0:0:
448,192,128026,1,0,0:0:0:0:
192,192,128026,128,0,128186:0:0:0:0:
64,192,128026,1,0,0:0:0:0:
448,192,128186,1,0,0:0:0:0:
320,192,128186,1,0,0:0:0:0:
64,192,128186,1,0,0:0:0:0:
448,192,128345,1,0,0:0:0:0:
320,192,128345,1,0,0:0:0:0:
192,192,128345,128,0,128505:0:0:0:0:
64,192,128505,128,0,128664:0:0:0:0:
192,192,128664,1,0,0:0:0:0:
320,192,128664,1,0,0:0:0:0:
448,192,128664,128,0,128824:0:0:0:0:
192,192,128824,128,0,128984:0:0:0:0:
320,192,128984,128,0,129143:0:0:0:0:
448,192,128984,1,0,0:0:0:0:
448,192,129143,128,0,129303:0:0:0:0:
64,192,129303,128,0,129622:0:0:0:0:
192,192,129303,128,0,129462:0:0:0:0:
320,192,129303,1,0,0:0:0:0:
448,192,129462,128,0,129781:0:0:0:0:
192,192,129622,128,0,129781:0:0:0:0:
320,192,129622,128,0,129941:0:0:0:0:
64,192,129781,1,0,0:0:0:0:
448,192,129941,1,0,0:0:0:0:
192,192,129941,1,0,0:0:0:0:
64,192,129941,128,0,130101:0:0:0:0:
448,192,130101,128,0,130420:0:0:0:0:
64,192,130260,1,0,0:0:0:0:
192,192,130260,128,0,130579:0:0:0:0:
320,192,130420,1,0,0:0:0:0:
448,192,130579,128,0,130899:0:0:0:0:
64,192,130579,1,0,0:0:0:0:
320,192,130579,128,0,130739:0:0:0:0:
192,192,130739,128,0,130899:0:0:0:0:
64,192,130899,128,0,131218:0:0:0:0:
320,192,130899,128,0,131058:0:0:0:0:
448,192,131058,1,0,0:0:0:0:
448,192,131218,128,0,131537:0:0:0:0:
320,192,131218,128,0,131377:0:0:0:0:
192,192,131218,1,0,0:0:0:0:
192,192,131377,128,0,131537:0:0:0:0:
64,192,131377,128,0,131696:0:0:0:0:
320,192,131537,128,0,131696:0:0:0:0:
448,192,131696,128,0,131856:0:0:0:0:
64,192,131856,1,0,0:0:0:0:
192,192,131856,128,0,132016:0:0:0:0:
320,192,131856,128,0,132175:0:0:0:0:
448,192,132016,128,0,132175:0:0:0:0:
64,192,132175,128,0,132335:0:0:0:0:
192,192,132175,1,0,0:0:0:0:
448,192,132335,128,0,132494:0:0:0:0:
320,192,132335,1,0,0:0:0:0:
192,192,132335,128,0,132654:0:0:0:0:
320,192,132494,1,0,0:0:0:0:
64,192,132494,1,0,0:0:0:0:
448,192,132654,1,0,0:0:0:0:
64,192,132654,1,0,0:0:0:0:
192,192,132734,1,0,0:0:0:0:
320,192,132813,1,0,0:0:0:0:
448,192,132813,128,0,133133:0:0:0:0:
320,192,132973,1,0,0:0:0:0:
192,192,133053,1,0,0:0:0:0:
64,192,133133,1,0,0:0:0:0:
320,192,133133,1,0,0:0:0:0:
64,192,133292,128,0,133452:0:0:0:0:
320,192,133452,128,0,133611:0:0:0:0:
448,192,133452,128,0,133771:0:0:0:0:
192,192,133771,128,0,133930:0:0:0:0:
320,192,133930,128,0,134250:0:0:0:0:
64,192,134409,128,0,134569:0:0:0:0:
448,192,134569,128,0,134888:0:0:0:0:
192,192,134888,128,0,135047:0:0:0:0:
64,192,135047,128,0,135367:0:0:0:0:
192,192,135845,128,0,136005:0:0:0:0:
64,192,136005,128,0,136164:0:0:0:0:
448,192,136005,1,0,0:0:0:0:
320,192,136005,128,0,136324:0:0:0:0:
192,192,136324,128,0,136484:0:0:0:0:
448,192,136484,128,0,136643:0:0:0:0:
320,192,136643,128,0,136803:0:0:0:0:
64,192,136803,128,0,136962:0:0:0:0:
192,192,136962,128,0,137122:0:0:0:0:
320,192,137122,128,0,137281:0:0:0:0:
448,192,137281,1,0,0:0:0:0:
64,192,137281,1,0,0:0:0:0:
192,192,137281,1,0,0:0:0:0:
64,192,137441,128,0,137760:0:0:0:0:
448,192,137920,1,0,0:0:0:0:
192,192,137920,1,0,0:0:0:0:
64,192,137920,1,0,0:0:0:0:
320,192,138159,1,0,0:0:0:0:
192,192,138159,1,0,0:0:0:0:
320,192,138399,128,0,138478:0:0:0:0:
448,192,138399,1,0,0:0:0:0:
320,192,138558,1,0,0:0:0:0:
192,192,138558,1,0,0:0:0:0:
64,192,138558,128,0,138797:0:0:0:0:
448,192,138797,128,0,138957:0:0:0:0:
448,192,139037,128,0,139196:0:0:0:0:
192,192,139196,128,0,139516:0:0:0:0:
320,192,139516,128,0,139675:0:0:0:0:
448,192,139675,128,0,139994:0:0:0:0:
192,192,139835,1,0,0:0:0:0:
320,192,139835,1,0,0:0:0:0:
64,192,139835,1,0,0:0:0:0:
64,192,139994,128,0,140154:0:0:0:0:
320,192,140154,128,0,140313:0:0:0:0:
192,192,140473,128,0,140633:0:0:0:0:
64,192,140792,128,0,140952:0:0:0:0:
320,192,140952,128,0,141111:0:0:0:0:
192,192,141111,1,0,0:0:0:0:
64,192,141111,1,0,0:0:0:0:
448,192,141111,128,0,141271:0:0:0:0:
192,192,141430,128,0,141590:0:0:0:0:
320,192,141590,128,0,141750:0:0:0:0:
192,192,141750,1,0,0:0:0:0:
64,192,141750,128,0,141909:0:0:0:0:
448,192,141750,1,0,0:0:0:0:
448,192,141909,128,0,142069:0:0:0:0:
192,192,142069,128,0,142228:0:0:0:0:
320,192,142228,128,0,142388:0:0:0:0:
192,192,142388,1,0,0:0:0:0:
64,192,142388,1,0,0:0:0:0:
448,192,142388,128,0,142547:0:0:0:0:
192,192,142547,128,0,142707:0:0:0:0:
448,192,142707,1,0,0:0:0:0:
320,192,142707,128,0,142867:0:0:0:0:
192,192,142867,1,0,0:0:0:0:
64,192,142867,128,0,143186:0:0:0:0:
192,192,143186,1,0,0:0:0:0:
448,192,143186,1,0,0:0:0:0:
448,192,143345,1,0,0:0:0:0:
320,192,143345,1,0,0:0:0:0:
320,192,143664,128,0,143984:0:0:0:0:
64,192,143664,128,0,143824:0:0:0:0:
448,192,143664,1,0,0:0:0:0:
192,192,143824,128,0,144143:0:0:0:0:
64,192,143984,128,0,144303:0:0:0:0:
448,192,143984,128,0,144143:0:0:0:0:
320,192,144143,1,0,0:0:0:0:
192,192,144303,128,0,144622:0:0:0:0:
320,192,144303,128,0,144462:0:0:0:0:
448,192,144303,1,0,0:0:0:0:
64,192,144462,128,0,144781:0:0:0:0:
448,192,144622,1,0,0:0:0:0:
192,192,144781,128,0,145101:0:0:0:0:
448,192,144781,128,0,144941:0:0:0:0:
320,192,144941,128,0,145260:0:0:0:0:
448,192,145101,128,0,145260:0:0:0:0:
64,192,145101,1,0,0:0:0:0:
64,192,145260,1,0,0:0:0:0:
192,192,145260,128,0,145420:0:0:0:0:
320,192,145420,1,0,0:0:0:0:
192,192,145500,1,0,0:0:0:0:
64,192,145579,1,0,0:0:0:0:
448,192,145579,128,0,145899:0:0:0:0:
320,192,145579,128,0,145739:0:0:0:0:
64,192,145739,128,0,145899:0:0:0:0:
320,192,145899,128,0,146058:0:0:0:0:
192,192,145899,1,0,0:0:0:0:
448,192,146058,1,0,0:0:0:0:
64,192,146058,1,0,0:0:0:0:
192,192,146058,1,0,0:0:0:0:
64,192,146218,1,0,0:0:0:0:
320,192,146218,128,0,146377:0:0:0:0:
448,192,146218,128,0,146537:0:0:0:0:
192,192,146377,128,0,146537:0:0:0:0:
64,192,146537,128,0,146696:0:0:0:0:
320,192,146537,1,0,0:0:0:0:
192,192,146696,1,0,0:0:0:0:
320,192,146776,1,0,0:0:0:0:
192,192,146856,1,0,0:0:0:0:
64,192,146856,1,0,0:0:0:0:
448,192,146856,128,0,147016:0:0:0:0:
320,192,147016,128,0,147175:0:0:0:0:
192,192,147175,128,0,147335:0:0:0:0:
448,192,147335,128,0,147494:0:0:0:0:
320,192,147335,128,0,147654:0:0:0:0:
64,192,147494,128,0,147813:0:0:0:0:
192,192,147494,128,0,147654:0:0:0:0:
448,192,147654,128,0,147813:0:0:0:0:
320,192,147813,128,0,147973:0:0:0:0:
192,192,147973,1,0,0:0:0:0:
320,192,148053,1,0,0:0:0:0:
448,192,148133,1,0,0:0:0:0:
64,192,148133,1,0,0:0:0:0:
192,192,148133,128,0,148292:0:0:0:0:
448,192,148292,1,0,0:0:0:0:
320,192,148292,1,0,0:0:0:0:
64,192,148372,1,0,0:0:0:0:
448,192,148452,1,0,0:0:0:0:
192,192,148452,1,0,0:0:0:0:
320,192,148452,128,0,148611:0:0:0:0:
64,192,148611,128,0,148930:0:0:0:0:
448,192,148771,1,0,0:0:0:0:
320,192,148771,1,0,0:0:0:0:
192,192,148771,128,0,148930:0:0:0:0:
448,192,149090,1,0,0:0:0:0:
320,192,149090,1,0,0:0:0:0:
64,192,149250,1,0,0:0:0:0:
448,192,149250,128,0,149409:0:0:0:0:
320,192,149409,1,0,0:0:0:0:
64,192,149409,128,0,149569:0:0:0:0:
320,192,149569,128,0,149728:0:0:0:0:
192,192,149569,1,0,0:0:0:0:
192,192,149728,128,0,149888:0:0:0:0:
448,192,149728,1,0,0:0:0:0:
448,192,149888,128,0,150047:0:0:0:0:
320,192,149888,1,0,0:0:0:0:
320,192,150047,128,0,150207:0:0:0:0:
64,192,150047,1,0,0:0:0:0:
64,192,150207,128,0,150367:0:0:0:0:
192,192,150207,1,0,0:0:0:0:
192,192,150367,128,0,150526:0:0:0:0:
320,192,150367,1,0,0:0:0:0:
320,192,150526,128,0,150686:0:0:0:0:
448,192,150526,128,0,150845:0:0:0:0:
192,192,150686,128,0,150845:0:0:0:0:
64,192,150686,128,0,151005:0:0:0:0:
320,192,150845,1,0,0:0:0:0:
448,192,151005,1,0,0:0:0:0:
320,192,151005,1,0,0:0:0:0:
192,192,151005,1,0,0:0:0:0:
448,192,151164,1,0,0:0:0:0:
64,192,151164,1,0,0:0:0:0:
64,192,151324,5,0,0:0:0:0:
192,192,151324,1,0,0:0:0:0:
448,192,151404,1,0,0:0:0:0:
320,192,151404,1,0,0:0:0:0:
192,192,151484,1,0,0:0:0:0:
64,192,151484,1,0,0:0:0:0:
320,192,151563,1,0,0:0:0:0:
448,192,151643,1,0,0:0:0:0:
192,192,151643,1,0,0:0:0:0:
64,192,151723,1,0,0:0:0:0:
448,192,151803,1,0,0:0:0:0:
320,192,151803,1,0,0:0:0:0:
64,192,151883,1,0,0:0:0:0:
192,192,151962,1,0,0:0:0:0:
448,192,151962,1,0,0:0:0:0:
320,192,152042,1,0,0:0:0:0:
448,192,152122,1,0,0:0:0:0:
64,192,152122,1,0,0:0:0:0:
192,192,152122,1,0,0:0:0:0:
448,192,152281,1,0,0:0:0:0:
64,192,152281,1,0,0:0:0:0:
320,192,152361,1,0,0:0:0:0:
192,192,152441,1,0,0:0:0:0:
64,192,152441,1,0,0:0:0:0:
448,192,152521,1,0,0:0:0:0:
320,192,152521,1,0,0:0:0:0:
192,192,152601,1,0,0:0:0:0:
448,192,152680,1,0,0:0:0:0:
64,192,152760,1,0,0:0:0:0:
192,192,152760,1,0,0:0:0:0:
320,192,152840,1,0,0:0:0:0:
448,192,152840,1,0,0:0:0:0:
192,192,152920,1,0,0:0:0:0:
64,192,152920,1,0,0:0:0:0:
320,192,153000,1,0,0:0:0:0:
448,192,153000,1,0,0:0:0:0:
192,192,153079,1,0,0:0:0:0:
448,192,153159,1,0,0:0:0:0:
64,192,153239,1,0,0:0:0:0:
320,192,153239,1,0,0:0:0:0:
192,192,153319,1,0,0:0:0:0:
64,192,153399,1,0,0:0:0:0:
448,192,153399,1,0,0:0:0:0:
320,192,153478,1,0,0:0:0:0:
192,192,153558,1,0,0:0:0:0:
64,192,153558,1,0,0:0:0:0:
448,192,153638,5,0,0:0:0:0:
320,192,153638,1,0,0:0:0:0:
192,192,153718,1,0,0:0:0:0:
64,192,153718,1,0,0:0:0:0:
448,192,153797,1,0,0:0:0:0:
320,192,153797,1,0,0:0:0:0:
64,192,153877,128,0,154356:0:0:0:0:
448,192,154835,5,0,0:0:0:0:
320,192,154835,1,0,0:0:0:0:
64,192,154835,1,0,0:0:0:0:
448,192,155154,1,0,0:0:0:0:
320,192,155154,128,0,155234:0:0:0:0:
192,192,155154,128,0,155313:0:0:0:0:
64,192,155154,128,0,155313:0:0:0:0:
64,192,155473,1,0,0:0:0:0:
448,192,155473,128,0,155633:0:0:0:0:
320,192,155473,128,0,155633:0:0:0:0:
192,192,155473,128,0,155553:0:0:0:0:
64,192,155792,1,0,0:0:0:0:
448,192,155792,128,0,155952:0:0:0:0:
192,192,155792,1,0,0:0:0:0:
64,192,155952,1,0,0:0:0:0:
320,192,155952,1,0,0:0:0:0:
448,192,156111,1,0,0:0:0:0:
192,192,156111,128,0,156191:0:0:0:0:
320,192,156111,128,0,156430:0:0:0:0:
192,192,156271,128,0,156590:0:0:0:0:
448,192,156430,128,0,156590:0:0:0:0:
64,192,156590,1,0,0:0:0:0:
320,192,156590,128,0,156670:0:0:0:0:
192,192,156750,1,0,0:0:0:0:
448,192,156750,128,0,156909:0:0:0:0:
320,192,156750,128,0,157069:0:0:0:0:
64,192,157069,1,0,0:0:0:0:
448,192,157069,128,0,157388:0:0:0:0:
192,192,157228,1,0,0:0:0:0:
320,192,157228,1,0,0:0:0:0:
320,192,157388,1,0,0:0:0:0:
64,192,157388,1,0,0:0:0:0:
192,192,157388,128,0,157547:0:0:0:0:
448,192,157547,1,0,0:0:0:0:
64,192,157707,128,0,157867:0:0:0:0:
320,192,157707,128,0,157787:0:0:0:0:
192,192,157867,128,0,158026:0:0:0:0:
320,192,157867,1,0,0:0:0:0:
320,192,158026,1,0,0:0:0:0:
64,192,158026,1,0,0:0:0:0:
448,192,158026,128,0,158106:0:0:0:0:
448,192,158186,128,0,158345:0:0:0:0:
192,192,158345,1,0,0:0:0:0:
64,192,158345,128,0,158585:0:0:0:0:
320,192,158505,128,0,158585:0:0:0:0:
448,192,158505,1,0,0:0:0:0:
64,192,158664,1,0,0:0:0:0:
192,192,158664,1,0,0:0:0:0:
320,192,158664,128,0,158984:0:0:0:0:
448,192,158824,128,0,159143:0:0:0:0:
64,192,158824,128,0,159303:0:0:0:0:
320,192,159143,1,0,0:0:0:0:
448,192,159303,1,0,0:0:0:0:
320,192,159303,1,0,0:0:0:0:
192,192,159303,128,0,159622:0:0:0:0:
64,192,159622,128,0,159702:0:0:0:0:
448,192,159622,128,0,159861:0:0:0:0:
320,192,159781,128,0,159861:0:0:0:0:
64,192,159781,1,0,0:0:0:0:
192,192,159941,128,0,160101:0:0:0:0:
320,192,159941,1,0,0:0:0:0:
448,192,159941,1,0,0:0:0:0:
448,192,160101,128,0,160260:0:0:0:0:
64,192,160101,1,0,0:0:0:0:
320,192,160260,128,0,160420:0:0:0:0:
448,192,160420,1,0,0:0:0:0:
192,192,160420,128,0,160659:0:0:0:0:
448,192,160579,1,0,0:0:0:0:
64,192,160579,1,0,0:0:0:0:
320,192,160579,128,0,160659:0:0:0:0:
320,192,160739,128,0,160899:0:0:0:0:
192,192,160899,1,0,0:0:0:0:
448,192,160899,128,0,161138:0:0:0:0:
64,192,161058,128,0,161138:0:0:0:0:
192,192,161058,1,0,0:0:0:0:
320,192,161218,1,0,0:0:0:0:
448,192,161218,1,0,0:0:0:0:
192,192,161218,128,0,161377:0:0:0:0:
448,192,161377,128,0,161696:0:0:0:0:
64,192,161377,1,0,0:0:0:0:
64,192,161537,128,0,161696:0:0:0:0:
320,192,161696,128,0,161856:0:0:0:0:
192,192,161696,1,0,0:0:0:0:
448,192,161856,1,0,0:0:0:0:
192,192,161856,1,0,0:0:0:0:
64,192,161856,1,0,0:0:0:0:
448,192,162016,128,0,162095:0:0:0:0:
448,192,162175,128,0,162335:0:0:0:0:
64,192,162175,128,0,162255:0:0:0:0:
64,192,162335,128,0,162494:0:0:0:0:
320,192,162335,1,0,0:0:0:0:
192,192,162494,1,0,0:0:0:0:
448,192,162494,1,0,0:0:0:0:
320,192,162494,128,0,162654:0:0:0:0:
448,192,162654,128,0,162973:0:0:0:0:
64,192,162654,1,0,0:0:0:0:
320,192,162813,128,0,162973:0:0:0:0:
192,192,162973,1,0,0:0:0:0:
64,192,162973,1,0,0:0:0:0:
64,192,163133,128,0,163212:0:0:0:0:
320,192,163133,1,0,0:0:0:0:
448,192,163133,1,0,0:0:0:0:
64,192,163292,128,0,163531:0:0:0:0:
448,192,163452,1,0,0:0:0:0:
192,192,163452,128,0,163531:0:0:0:0:
320,192,163452,1,0,0:0:0:0:
448,192,163611,128,0,163930:0:0:0:0:
64,192,163771,1,0,0:0:0:0:
192,192,163930,128,0,164010:0:0:0:0:
320,192,163930,128,0,164090:0:0:0:0:
64,192,163930,1,0,0:0:0:0:
448,192,164250,128,0,164409:0:0:0:0:
192,192,164250,1,0,0:0:0:0:
64,192,164409,1,0,0:0:0:0:
320,192,164409,1,0,0:0:0:0:
192,192,164409,1,0,0:0:0:0:
448,192,164569,1,0,0:0:0:0:
64,192,164569,128,0,164649:0:0:0:0:
320,192,164569,1,0,0:0:0:0:
448,192,164728,1,0,0:0:0:0:
192,192,164728,128,0,164888:0:0:0:0:
64,192,164728,1,0,0:0:0:0:
448,192,164888,1,0,0:0:0:0:
320,192,164888,1,0,0:0:0:0:
192,192,164968,1,0,0:0:0:0:
64,192,164968,1,0,0:0:0:0:
320,192,165047,1,0,0:0:0:0:
192,192,165127,1,0,0:0:0:0:
448,192,165207,1,0,0:0:0:0:
64,192,165207,1,0,0:0:0:0:
320,192,165287,1,0,0:0:0:0:
192,192,165367,128,0,165526:0:0:0:0:
64,192,165367,128,0,165526:0:0:0:0:
448,192,165367,128,0,165446:0:0:0:0:
64,192,165686,1,0,0:0:0:0:
192,192,165686,128,0,165766:0:0:0:0:
320,192,165686,128,0,165845:0:0:0:0:
448,192,165686,128,0,165845:0:0:0:0:
320,192,166005,1,0,0:0:0:0:
64,192,166005,128,0,166164:0:0:0:0:
192,192,166005,128,0,166324:0:0:0:0:
448,192,166164,1,0,0:0:0:0:
448,192,166324,1,0,0:0:0:0:
64,192,166324,1,0,0:0:0:0:
320,192,166324,128,0,166404:0:0:0:0:
320,192,166484,128,0,166643:0:0:0:0:
192,192,166484,128,0,166803:0:0:0:0:
448,192,166803,1,0,0:0:0:0:
64,192,166803,128,0,166962:0:0:0:0:
320,192,166962,1,0,0:0:0:0:
448,192,166962,128,0,167122:0:0:0:0:
192,192,166962,128,0,167281:0:0:0:0:
320,192,167122,128,0,167281:0:0:0:0:
448,192,167281,1,0,0:0:0:0:
64,192,167281,128,0,167521:0:0:0:0:
320,192,167441,1,0,0:0:0:0:
448,192,167441,1,0,0:0:0:0:
64,192,167601,1,0,0:0:0:0:
320,192,167601,1,0,0:0:0:0:
192,192,167601,128,0,167760:0:0:0:0:
448,192,167760,1,0,0:0:0:0:
320,192,167760,1,0,0:0:0:0:
448,192,167920,128,0,168000:0:0:0:0:
320,192,168079,128,0,168159:0:0:0:0:
192,192,168079,1,0,0:0:0:0:
192,192,168239,128,0,168319:0:0:0:0:
448,192,168239,1,0,0:0:0:0:
64,192,168239,1,0,0:0:0:0:
64,192,168399,128,0,168478:0:0:0:0:
192,192,168558,1,0,0:0:0:0:
448,192,168558,128,0,168797:0:0:0:0:
320,192,168718,128,0,168797:0:0:0:0:
64,192,168718,1,0,0:0:0:0:
192,192,168877,128,0,168957:0:0:0:0:
320,192,168877,1,0,0:0:0:0:
64,192,168877,1,0,0:0:0:0:
448,192,169037,128,0,169356:0:0:0:0:
192,192,169037,128,0,169356:0:0:0:0:
320,192,169356,1,0,0:0:0:0:
64,192,169356,128,0,169516:0:0:0:0:
448,192,169516,1,0,0:0:0:0:
192,192,169516,1,0,0:0:0:0:
320,192,169516,128,0,169755:0:0:0:0:
192,192,169675,128,0,169755:0:0:0:0:
320,192,169835,128,0,169994:0:0:0:0:
192,192,169835,128,0,170074:0:0:0:0:
448,192,169994,1,0,0:0:0:0:
64,192,169994,128,0,170074:0:0:0:0:
320,192,170154,1,0,0:0:0:0:
64,192,170154,1,0,0:0:0:0:
448,192,170154,128,0,170393:0:0:0:0:
64,192,170313,128,0,170633:0:0:0:0:
192,192,170313,128,0,170712:0:0:0:0:
448,192,170473,1,0,0:0:0:0:
320,192,170473,128,0,170792:0:0:0:0:
192,192,170792,1,0,0:0:0:0:
64,192,170792,1,0,0:0:0:0:
448,192,170792,1,0,0:0:0:0:
448,192,170952,128,0,171031:0:0:0:0:
64,192,171111,128,0,171430:0:0:0:0:
192,192,171111,1,0,0:0:0:0:
320,192,171271,1,0,0:0:0:0:
192,192,171430,1,0,0:0:0:0:
448,192,171430,128,0,171909:0:0:0:0:
320,192,171590,128,0,171829:0:0:0:0:
192,192,171590,128,0,171750:0:0:0:0:
192,192,171909,1,0,0:0:0:0:
64,192,171909,128,0,172069:0:0:0:0:
320,192,172069,1,0,0:0:0:0:
448,192,172069,1,0,0:0:0:0:
192,192,172069,1,0,0:0:0:0:
64,192,172228,1,0,0:0:0:0:
320,192,172228,128,0,172547:0:0:0:0:
64,192,172388,1,0,0:0:0:0:
192,192,172388,1,0,0:0:0:0:
448,192,172388,1,0,0:0:0:0:
192,192,172547,1,0,0:0:0:0:
448,192,172547,128,0,172627:0:0:0:0:
64,192,172707,1,0,0:0:0:0:
192,192,172707,128,0,172787:0:0:0:0:
64,192,172867,1,0,0:0:0:0:
320,192,172867,128,0,173266:0:0:0:0:
448,192,173026,128,0,173186:0:0:0:0:
192,192,173026,128,0,173345:0:0:0:0:
448,192,173345,128,0,173505:0:0:0:0:
64,192,173505,128,0,173824:0:0:0:0:
320,192,173505,1,0,0:0:0:0:
320,192,173664,1,0,0:0:0:0:
448,192,173664,1,0,0:0:0:0:
192,192,173664,1,0,0:0:0:0:
448,192,173824,128,0,174143:0:0:0:0:
64,192,173984,1,0,0:0:0:0:
192,192,174143,128,0,174303:0:0:0:0:
320,192,174143,128,0,174462:0:0:0:0:
64,192,174143,1,0,0:0:0:0:
448,192,174462,128,0,174781:0:0:0:0:
192,192,174462,1,0,0:0:0:0:
64,192,174622,1,0,0:0:0:0:
192,192,174622,1,0,0:0:0:0:
320,192,174622,1,0,0:0:0:0:
64,192,174781,128,0,174941:0:0:0:0:
448,192,174941,1,0,0:0:0:0:
320,192,174941,128,0,175101:0:0:0:0:
64,192,175101,1,0,0:0:0:0:
192,192,175101,1,0,0:0:0:0:
448,192,175180,1,0,0:0:0:0:
320,192,175180,1,0,0:0:0:0:
64,192,175260,1,0,0:0:0:0:
448,192,175340,1,0,0:0:0:0:
320,192,175420,1,0,0:0:0:0:
192,192,175420,1,0,0:0:0:0:
64,192,175500,1,0,0:0:0:0:
320,192,175579,128,0,175739:0:0:0:0:
448,192,175579,128,0,175899:0:0:0:0:
192,192,175739,128,0,176058:0:0:0:0:
64,192,175899,1,0,0:0:0:0:
320,192,175899,128,0,176218:0:0:0:0:
448,192,176058,128,0,176218:0:0:0:0:
192,192,176218,128,0,176377:0:0:0:0:
64,192,176218,128,0,176537:0:0:0:0:
448,192,176377,1,0,0:0:0:0:
320,192,176377,128,0,176537:0:0:0:0:
192,192,176537,128,0,176696:0:0:0:0:
448,192,176537,128,0,176856:0:0:0:0:
320,192,176696,128,0,177016:0:0:0:0:
64,192,176696,128,0,176856:0:0:0:0:
192,192,176856,128,0,177175:0:0:0:0:
64,192,177016,128,0,177335:0:0:0:0:
448,192,177016,1,0,0:0:0:0:
320,192,177175,1,0,0:0:0:0:
448,192,177175,128,0,177494:0:0:0:0:
192,192,177335,128,0,177494:0:0:0:0:
64,192,177494,128,0,177654:0:0:0:0:
320,192,177494,128,0,177654:0:0:0:0:
448,192,177654,128,0,177813:0:0:0:0:
192,192,177734,1,0,0:0:0:0:
320,192,177813,128,0,178133:0:0:0:0:
64,192,177813,128,0,177973:0:0:0:0:
192,192,177973,128,0,178133:0:0:0:0:
64,192,178133,128,0,178452:0:0:0:0:
448,192,178133,128,0,178292:0:0:0:0:
320,192,178292,1,0,0:0:0:0:
192,192,178292,128,0,178611:0:0:0:0:
448,192,178452,128,0,178771:0:0:0:0:
320,192,178452,128,0,178611:0:0:0:0:
64,192,178611,128,0,178930:0:0:0:0:
192,192,178771,128,0,178930:0:0:0:0:
320,192,178771,1,0,0:0:0:0:
320,192,178930,128,0,179250:0:0:0:0:
448,192,178930,1,0,0:0:0:0:
64,192,179090,1,0,0:0:0:0:
192,192,179090,128,0,179250:0:0:0:0:
64,192,179250,128,0,179569:0:0:0:0:
448,192,179250,128,0,179409:0:0:0:0:
192,192,179409,128,0,179728:0:0:0:0:
320,192,179569,128,0,179888:0:0:0:0:
448,192,179569,1,0,0:0:0:0:
64,192,179728,128,0,180047:0:0:0:0:
448,192,179728,128,0,179888:0:0:0:0:
192,192,179888,128,0,180207:0:0:0:0:
320,192,180047,128,0,180287:0:0:0:0:
64,192,180207,1,0,0:0:0:0:
192,192,180287,1,0,0:0:0:0:
320,192,180367,128,0,180526:0:0:0:0:
448,192,180367,128,0,180686:0:0:0:0:
320,192,180686,128,0,180845:0:0:0:0:
192,192,180686,128,0,181005:0:0:0:0:
448,192,180845,128,0,181164:0:0:0:0:
64,192,180845,1,0,0:0:0:0:
320,192,181005,1,0,0:0:0:0:
64,192,181005,128,0,181324:0:0:0:0:
192,192,181164,128,0,181324:0:0:0:0:
320,192,181324,128,0,181484:0:0:0:0:
448,192,181324,128,0,181643:0:0:0:0:
64,192,181484,1,0,0:0:0:0:
192,192,181484,128,0,181643:0:0:0:0:
64,192,181643,128,0,181962:0:0:0:0:
320,192,181643,128,0,181803:0:0:0:0:
448,192,181803,128,0,182122:0:0:0:0:
192,192,181962,128,0,182281:0:0:0:0:
64,192,182122,128,0,182441:0:0:0:0:
320,192,182122,1,0,0:0:0:0:
320,192,182281,1,0,0:0:0:0:
448,192,182281,128,0,182601:0:0:0:0:
192,192,182441,128,0,182601:0:0:0:0:
64,192,182601,128,0,182760:0:0:0:0:
192,192,182760,1,0,0:0:0:0:
320,192,182760,128,0,182920:0:0:0:0:
448,192,182840,1,0,0:0:0:0:
64,192,182920,1,0,0:0:0:0:
192,192,182920,128,0,183079:0:0:0:0:
320,192,183079,128,0,183239:0:0:0:0:
64,192,183239,128,0,183399:0:0:0:0:
192,192,183239,1,0,0:0:0:0:
320,192,183399,1,0,0:0:0:0:
448,192,183399,128,0,183478:0:0:0:0:
64,192,183558,1,0,0:0:0:0:
192,192,183558,128,0,183638:0:0:0:0:
320,192,183638,1,0,0:0:0:0:
448,192,183638,1,0,0:0:0:0:
192,192,183718,1,0,0:0:0:0:
64,192,183718,128,0,183797:0:0:0:0:
320,192,183797,1,0,0:0:0:0:
448,192,183877,128,0,184037:0:0:0:0:
64,192,183877,1,0,0:0:0:0:
192,192,184037,128,0,184117:0:0:0:0:
64,192,184037,1,0,0:0:0:0:
320,192,184117,1,0,0:0:0:0:
64,192,184196,1,0,0:0:0:0:
448,192,184196,128,0,184276:0:0:0:0:
192,192,184276,1,0,0:0:0:0:
320,192,184276,1,0,0:0:0:0:
448,192,184356,1,0,0:0:0:0:
64,192,184356,128,0,184436:0:0:0:0:
320,192,184436,1,0,0:0:0:0:
192,192,184436,1,0,0:0:0:0:
448,192,184516,128,0,184675:0:0:0:0:
192,192,184675,1,0,0:0:0:0:
64,192,184675,128,0,184755:0:0:0:0:
320,192,184755,1,0,0:0:0:0:
448,192,184755,1,0,0:0:0:0:
64,192,184835,1,0,0:0:0:0:
192,192,184835,128,0,184994:0:0:0:0:
64,192,184994,1,0,0:0:0:0:
320,192,184994,128,0,185074:0:0:0:0:
192,192,185074,1,0,0:0:0:0:
320,192,185154,1,0,0:0:0:0:
64,192,185154,128,0,185234:0:0:0:0:
448,192,185154,128,0,185234:0:0:0:0:
448,192,185313,1,0,0:0:0:0:
64,192,185313,1,0,0:0:0:0:
192,192,185313,128,0,185473:0:0:0:0:
320,192,185393,128,0,185473:0:0:0:0:
64,192,185633,1,0,0:0:0:0:
192,192,185633,1,0,0:0:0:0:
448,192,185633,1,0,0:0:0:0:
320,192,185633,128,0,192813:0:0:0:0:
