osu file format v14

[General]
AudioFilename: audio.mp3
AudioLeadIn: 0
PreviewTime: 51054
Countdown: 0
SampleSet: Soft
StackLeniency: 0.7
Mode: 0
LetterboxInBreaks: 0
WidescreenStoryboard: 0

[Editor]
Bookmarks: 6335,18523,30523,42523,51335,63335,75335,87523,99523,111523,120335,132335,144335,156335,171335,183335,195335,207335,219335
DistanceSpacing: 1.1
BeatDivisor: 4
GridSize: 32
TimelineZoom: 1.6

[Metadata]
Title:Freedom
TitleUnicode:Freedom
Artist:SECONDWALL
ArtistUnicode:SECONDWALL
Creator:Hinsvar
Version:Insane
Source:
Tags:Japanese Rock J-Rock JRock Pop J-Pop JPop Beautiful Lie Featured Artist FA Mappers' Guild MG MPG
BeatmapID:4253887
BeatmapSetID:2039403

[Difficulty]
HPDrainRate:5
CircleSize:4
OverallDifficulty:7
ApproachRate:8
SliderMultiplier:1.6
SliderTickRate:1

[Events]
//Background and Video events
0,0,"BG.jpg",0,0
//Break Periods
2,171535,182023
//Storyboard Layer 0 (Background)
//Storyboard Layer 1 (Fail)
//Storyboard Layer 2 (Pass)
//Storyboard Layer 3 (Foreground)
//Storyboard Layer 4 (Overlay)
//Storyboard Sound Samples

[TimingPoints]
523,375,4,2,1,70,1,0
18523,-125,4,2,1,65,0,0
42523,-166.666666666667,4,2,1,60,0,0
48523,-100,4,2,1,70,0,0
51335,-83.3333333333333,4,2,1,80,0,1
62960,-83.3333333333333,4,2,1,80,0,0
63335,-83.3333333333333,4,2,1,80,0,1
74960,-83.3333333333333,4,2,1,80,0,0
75335,-100,4,2,1,70,0,1
75429,-100,4,2,1,70,0,0
87523,-125,4,2,1,65,0,0
111523,-166.666666666667,4,2,1,60,0,0
117523,-100,4,2,1,70,0,0
119960,-166.666666666667,4,2,1,60,0,0
120335,-83.3333333333333,4,2,1,80,0,1
131960,-83.3333333333333,4,2,1,80,0,0
132335,-83.3333333333333,4,2,1,80,0,1
144335,-100,4,2,1,70,0,0
183335,-83.3333333333333,4,2,1,80,0,1
195148,-83.3333333333333,4,2,1,80,0,0
195335,-100,4,2,1,70,0,1
195429,-100,4,2,1,70,0,0

[Colours]
Combo1 : 97,191,197
Combo2 : 237,185,97
Combo3 : 145,196,98
Combo4 : 250,154,90

[HitObjects]
51,47,5773,5,8,0:0:0:0:
203,142,5960,1,8,0:0:0:0:
203,142,6335,6,0,B|250:155|277:129|276:124|305:94|376:109,1,160,6|0,3:2|3:0,0:0:0:0:
442,209,6898,1,8,0:0:0:0:
486,81,7085,1,0,3:0:0:0:
486,81,7179,1,8,0:0:0:0:
486,81,7273,2,0,B|503:63|498:45|496:44|490:24|514:-2,2,80,0|2|8,3:0|3:2|0:0,0:0:0:0:
335,30,7835,6,0,P|257:25|169:8,1,160,2|0,3:2|3:0,0:0:0:0:
23,61,8398,1,8,0:0:0:0:
75,214,8585,1,0,3:0:0:0:
75,214,8679,1,8,0:0:0:0:
75,214,8773,2,0,P|72:253|64:297,2,80,0|2|8,3:0|3:2|0:0,0:0:0:0:
258,107,9335,6,0,P|262:188|331:250,1,160,2|0,3:2|3:0,0:0:0:0:
226,384,9898,1,8,0:0:0:0:
157,309,10085,1,0,3:0:0:0:
157,309,10179,1,8,0:0:0:0:
157,309,10273,2,0,P|197:307|228:272,2,80,0|2|8,3:0|3:2|0:0,0:0:0:0:
7,188,10835,6,0,L|174:218,1,160,2|0,3:2|3:0,0:0:0:0:
302,324,11398,1,8,0:0:0:0:
427,350,11585,1,0,3:0:0:0:
427,350,11679,1,8,0:0:0:0:
427,350,11773,2,0,L|510:365,1,80,2|0,3:2|3:0,0:0:0:0:
486,270,12148,1,8,0:0:0:0:
428,128,12335,6,0,B|389:128|361:164|365:170|335:204|277:200,1,160,6|0,3:2|3:0,0:0:0:0:
356,53,12898,1,8,0:0:0:0:
219,133,13085,1,0,3:0:0:0:
219,133,13179,1,8,0:0:0:0:
219,133,13273,2,0,B|196:134|181:117|183:114|169:96|150:96,2,80,0|2|8,3:0|3:2|0:0,0:0:0:0:
383,207,13835,6,0,P|361:277|358:390,1,160,2|0,3:2|3:0,0:0:0:0:
256,275,14398,1,8,0:0:0:0:
156,363,14585,1,0,3:0:0:0:
156,363,14679,1,8,0:0:0:0:
156,363,14773,2,0,P|154:323|142:285,2,80,0|2|8,3:0|3:2|0:0,0:0:0:0:
37,210,15335,6,0,P|117:205|162:128,1,160,2|0,3:2|3:0,0:0:0:0:
63,102,15898,1,8,0:0:0:0:
281,25,16085,1,0,3:0:0:0:
281,25,16179,1,8,0:0:0:0:
281,25,16273,2,0,P|242:26|219:57,2,80,0|2|8,3:0|3:2|0:0,0:0:0:0:
488,35,16835,6,0,P|502:102|513:211,1,160,2|0,3:2|3:0,0:0:0:0:
381,83,17398,2,0,P|388:116|393:171,1,80,8|0,0:0|0:0,0:0:0:0:
325,369,17773,5,10,0:0:0:0:
187,325,17960,1,10,0:0:0:0:
293,229,18148,1,8,0:0:0:0:
431,271,18335,5,8,0:0:0:0:
431,271,18429,1,8,0:0:0:0:
431,271,18523,2,0,P|430:205|449:137,2,128,4|8|2,3:2|0:0|3:2,0:0:0:0:
186,164,19648,1,8,0:0:0:0:
234,226,19835,2,0,P|265:238|310:246,1,64,2|0,3:2|0:0,0:0:0:0:
214,90,20210,2,0,P|208:56|193:13,1,64,0|8,3:0|0:0,0:0:0:0:
110,188,20585,2,0,P|68:233|26:304,1,128,2|0,0:0|3:0,0:0:0:0:
151,345,21148,2,0,P|171:322|192:286,1,64,8|0,0:0|0:0,0:0:0:0:
261,153,21523,6,0,L|257:84,1,64,2|0,3:2|0:0,0:0:0:0:
346,148,21898,2,0,L|342:79,1,64,8|0,0:0|0:0,0:0:0:0:
431,143,22273,5,2,3:2:0:0:
511,263,22460,1,0,3:0:0:0:
390,342,22648,1,8,0:0:0:0:
309,222,22835,2,0,P|247:230|165:248,1,128,2|0,3:2|3:0,0:0:0:0:
235,148,23398,1,8,0:0:0:0:
151,24,23585,5,2,3:2:0:0:
151,24,23773,1,0,3:0:0:0:
288,74,23960,2,0,P|297:43|299:12,1,64,8|2,0:0|3:2,0:0:0:0:
135,122,24335,1,8,0:0:0:0:
40,195,24523,6,0,B|19:166|31:134|33:136|41:109|7:60,1,128,6|8,3:2|0:0,0:0:0:0:
124,206,25085,1,2,0:0:0:0:
157,285,25273,2,0,B|149:301|132:304|133:302|119:306|106:333,2,64,0|0|8,3:0|3:0|0:0,0:0:0:0:
171,143,25835,2,0,P|229:135|287:87,1,128,2|0,3:2|3:0,0:0:0:0:
410,5,26398,2,0,P|379:10|355:30,1,64,8|2,0:0|0:0,0:0:0:0:
352,169,26773,5,0,3:0:0:0:
352,169,26960,1,0,3:0:0:0:
287,298,27148,2,0,P|282:338|275:373,1,64,8|0,0:0|0:0,0:0:0:0:
207,320,27523,6,0,L|137:326,1,64,2|0,3:2|0:0,0:0:0:0:
369,256,27898,2,0,L|439:250,1,64,8|0,0:0|0:0,0:0:0:0:
227,239,28273,5,2,3:2:0:0:
149,217,28460,1,0,3:0:0:0:
83,173,28648,1,8,0:0:0:0:
262,148,28835,6,0,L|249:10,1,128,2|0,3:2|3:0,0:0:0:0:
441,123,29398,1,8,0:0:0:0:
373,213,29585,1,0,3:0:0:0:
373,213,29679,1,0,3:0:0:0:
373,213,29773,1,0,3:0:0:0:
139,213,29960,5,8,0:0:0:0:
139,213,30335,1,8,0:0:0:0:
266,253,30523,6,0,P|256:323|240:385,2,128,6|8|2,3:2|0:0|3:2,0:0:0:0:
340,50,31648,1,8,0:0:0:0:
269,5,31835,2,0,P|262:36|257:68,1,64,2|0,3:2|0:0,0:0:0:0:
189,164,32210,2,0,P|157:156|126:152,1,64,0|8,3:0|0:0,0:0:0:0:
355,176,32585,2,0,P|417:191|480:199,1,128,2|0,0:0|3:0,0:0:0:0:
438,287,33148,2,0,P|406:279|375:275,1,64,8|0,0:0|0:0,0:0:0:0:
181,293,33523,6,0,L|186:358,1,64,2|0,3:2|0:0,0:0:0:0:
266,354,33898,2,0,L|261:289,1,64,8|0,0:0|0:0,0:0:0:0:
116,146,34273,5,2,3:2:0:0:
222,221,34460,1,0,3:0:0:0:
319,134,34648,1,8,0:0:0:0:
213,59,34835,2,0,P|153:45|91:14,1,128,2|0,3:2|3:0,0:0:0:0:
6,134,35398,1,8,0:0:0:0:
82,259,35585,5,2,3:2:0:0:
82,259,35773,1,0,3:0:0:0:
169,139,35960,2,0,P|176:168|173:214,2,64,0|8|0,3:0|0:0|0:0,0:0:0:0:
177,310,36523,6,0,B|207:306|236:328|234:333|272:361|306:343,1,128,2|8,3:2|0:0,0:0:0:0:
428,336,37085,1,2,0:0:0:0:
451,259,37273,2,0,B|465:261|480:250|479:247|498:233|515:242,2,64,0|0|8,3:0|3:0|0:0,0:0:0:0:
366,162,37835,2,0,P|372:100|371:28,1,128,2|0,3:2|0:0,0:0:0:0:
467,76,38398,2,0,P|464:107|464:143,1,64,8|2,0:0|0:0,0:0:0:0:
363,254,38773,5,0,3:2:0:0:
363,254,38960,1,0,3:0:0:0:
243,276,39148,2,0,L|175:288,1,64,8|0,0:0|0:0,0:0:0:0:
161,208,39523,6,0,P|135:207|104:178,1,64,2|0,3:2|0:0,0:0:0:0:
279,136,39898,2,0,P|261:116|259:74,1,64,8|0,0:0|0:0,0:0:0:0:
85,91,40273,5,2,3:2:0:0:
103,12,40460,1,0,3:0:0:0:
162,67,40648,1,8,0:0:0:0:
350,66,40835,6,0,P|409:89|437:146,1,128,2|0,3:2|3:0,0:0:0:0:
280,228,41398,1,8,0:0:0:0:
425,342,41585,1,8,0:0:0:0:
425,342,41679,1,8,0:0:0:0:
425,342,41773,1,8,0:0:0:0:
335,382,41960,2,0,P|327:345|327:319,1,64,0|2,3:0|0:0,0:0:0:0:
510,311,42335,1,0,3:0:0:0:
409,207,42523,6,0,P|385:162|387:71,2,143.999995605469,4|0|0,3:2|3:0|0:0,0:0:0:0:
409,207,43835,1,2,0:0:0:0:
482,136,44023,1,0,3:0:0:0:
482,136,44210,1,0,3:0:0:0:
214,219,44585,2,0,P|169:243|78:241,1,143.999995605469,2|8,3:2|0:0,0:0:0:0:
137,159,45335,1,0,3:0:0:0:
36,157,45523,6,0,B|57:115|45:82|40:85|26:58|58:7,1,143.999995605469,2|0,3:2|3:0,0:0:0:0:
253,58,46460,2,0,B|270:84|260:102|257:100|249:122|263:150,1,95.9999970703126,2|0,0:0|0:0,0:0:0:0:
259,326,47023,5,0,3:0:0:0:
259,326,47210,2,0,P|240:304|217:291,1,47.9999985351563,0|0,3:0|0:0,0:0:0:0:
334,197,47585,2,0,P|372:153|418:127,1,95.9999970703126,2|0,3:2|3:0,0:0:0:0:
183,170,48148,1,8,0:0:0:0:
183,170,48523,5,2,3:2:0:0:
102,219,48710,2,0,P|60:220|14:228,1,80,0|8,3:0|0:0,0:0:0:0:
130,93,49085,2,0,P|43:70|3:8,1,160,2|0,3:2|3:0,0:0:0:0:
256,52,49648,1,8,0:0:0:0:
224,215,49835,6,0,L|215:130,1,80,2|0,3:2|0:0,0:0:0:0:
398,166,50210,1,0,3:0:0:0:
384,38,50398,1,8,0:0:0:0:
501,89,50585,1,2,3:2:0:0:
501,89,51148,1,2,0:0:0:0:
412,294,51335,6,0,B|373:289|331:313|335:338|280:374|226:359,1,191.999994140625,6|0,3:2|3:0,0:0:0:0:
65,298,51898,2,0,L|57:195,1,95.9999970703126,8|0,0:0|3:0,0:0:0:0:
57,202,52179,1,8,0:0:0:0:
57,202,52273,1,2,3:2:0:0:
176,260,52460,1,0,3:0:0:0:
325,182,52648,1,8,0:0:0:0:
183,92,52835,6,0,P|93:90|35:5,1,191.999994140625,2|0,3:2|3:0,0:0:0:0:
291,100,53398,2,0,P|269:60|291:14,1,95.9999970703126,8|0,0:0|3:0,0:0:0:0:
288,16,53679,1,8,0:0:0:0:
288,16,53773,1,0,3:0:0:0:
207,172,53960,1,2,3:2:0:0:
330,292,54148,1,8,0:0:0:0:
166,344,54335,6,0,P|134:303|97:161,1,191.999994140625,2|0,3:2|3:0,0:0:0:0:
291,100,54898,2,0,P|307:120|325:191,1,95.9999970703126,8|0,0:0|3:0,0:0:0:0:
325,186,55179,1,8,0:0:0:0:
325,186,55273,1,2,3:2:0:0:
257,284,55460,1,0,3:0:0:0:
496,343,55648,1,8,0:0:0:0:
295,369,55835,6,0,B|355:362|381:320|377:314|398:278|462:261,1,191.999994140625,2|0,3:2|3:0,0:0:0:0:
507,78,56398,2,0,B|480:71|470:53|472:50|459:29|429:25,1,95.9999970703126,8|2,0:0|0:0,0:0:0:0:
272,68,56773,1,8,0:0:0:0:
286,87,56866,1,8,0:0:0:0:
295,109,56960,1,8,0:0:0:0:
300,132,57054,1,8,0:0:0:0:
300,156,57148,1,8,0:0:0:0:
294,179,57241,1,8,0:0:0:0:
282,200,57335,6,0,P|191:169|93:150,1,191.999994140625,6|0,3:2|3:0,0:0:0:0:
45,314,57898,2,0,P|81:282|113:244,1,95.9999970703126,8|0,0:0|3:0,0:0:0:0:
112,246,58179,1,8,0:0:0:0:
112,246,58273,1,2,3:2:0:0:
21,212,58460,1,0,3:0:0:0:
145,355,58648,1,8,0:0:0:0:
288,231,58835,6,0,B|315:180|297:137|279:141|255:85|286:44,1,191.999994140625,2|0,3:2|3:0,0:0:0:0:
482,96,59398,2,0,B|495:121|486:143|477:141|465:169|481:189,1,95.9999970703126,8|0,0:0|3:0,0:0:0:0:
479,187,59679,1,8,0:0:0:0:
479,187,59773,1,0,3:0:0:0:
385,147,59960,1,2,3:2:0:0:
207,187,60148,1,8,0:0:0:0:
331,322,60335,5,0,3:0:0:0:
331,322,60523,2,0,P|320:282|317:226,1,95.9999970703126,2|0,0:0|3:0,0:0:0:0:
271,13,60898,2,0,P|281:52|285:109,1,95.9999970703126,8|0,0:0|3:0,0:0:0:0:
285,107,61179,1,8,0:0:0:0:
285,107,61273,1,2,3:2:0:0:
107,163,61460,1,0,3:0:0:0:
168,46,61648,1,8,0:0:0:0:
223,223,61835,6,0,P|157:268|45:284,1,191.999994140625,2|0,3:2|3:0,0:0:0:0:
211,365,62398,2,0,P|244:342|300:334,1,95.9999970703126,8|0,0:0|3:0,0:0:0:0:
501,367,62773,1,8,0:0:0:0:
428,174,62960,1,8,0:0:0:0:
428,174,63335,6,0,P|476:134|463:12,1,191.999994140625,6|0,3:2|3:0,0:0:0:0:
286,22,63898,2,0,P|262:42|268:103,1,95.9999970703126,8|0,0:0|3:0,0:0:0:0:
267,101,64179,1,8,0:0:0:0:
267,101,64273,1,2,3:2:0:0:
378,79,64460,1,0,3:0:0:0:
409,273,64648,1,8,0:0:0:0:
215,304,64835,6,0,B|163:336|116:295|126:290|84:252|37:272,1,191.999994140625,2|0,3:2|3:0,0:0:0:0:
72,112,65398,2,0,B|98:128|121:107|116:105|137:86|161:96,1,95.9999970703126,8|0,0:0|3:0,0:0:0:0:
160,95,65679,1,8,0:0:0:0:
160,95,65773,1,0,3:0:0:0:
257,167,65960,1,2,3:2:0:0:
352,95,66148,1,8,0:0:0:0:
256,261,66335,6,0,P|352:277|445:306,1,191.999994140625,2|0,3:2|3:0,0:0:0:0:
438,162,66898,2,0,P|446:114|460:67,1,95.9999970703126,8|0,0:0|3:0,0:0:0:0:
459,68,67179,1,8,0:0:0:0:
459,68,67273,1,2,3:2:0:0:
272,30,67460,1,0,3:0:0:0:
250,123,67648,1,8,0:0:0:0:
185,312,67835,6,0,P|102:359|19:323,1,191.999994140625,2|2,3:2|3:2,0:0:0:0:
63,164,68398,2,0,P|104:140|146:158,1,95.9999970703126,8|0,0:0|0:0,0:0:0:0:
297,200,68773,1,8,0:0:0:0:
313,217,68866,1,8,0:0:0:0:
323,238,68960,1,8,0:0:0:0:
328,262,69054,1,8,0:0:0:0:
333,285,69148,1,8,0:0:0:0:
343,307,69241,1,8,0:0:0:0:
358,325,69335,6,0,B|415:310|433:258|429:250|452:209|500:192,1,191.999994140625,6|0,3:2|3:0,0:0:0:0:
411,29,69898,2,0,B|397:45|397:68|401:71|406:98|385:118,1,95.9999970703126,8|0,0:0|3:0,0:0:0:0:
385,118,70179,1,8,0:0:0:0:
385,118,70273,1,2,3:2:0:0:
225,151,70460,1,0,3:0:0:0:
116,28,70648,1,8,0:0:0:0:
5,102,70835,6,0,P|88:145|116:238,1,191.999994140625,2|0,3:2|3:0,0:0:0:0:
64,383,71398,2,0,P|22:361|8:315,1,95.9999970703126,8|0,0:0|3:0,0:0:0:0:
8,316,71679,1,8,0:0:0:0:
8,316,71773,1,0,3:0:0:0:
152,315,71960,1,2,3:2:0:0:
194,167,72148,1,8,0:0:0:0:
299,358,72335,5,0,3:0:0:0:
299,358,72523,2,0,P|347:358|397:345,1,95.9999970703126,2|0,0:0|3:0,0:0:0:0:
435,197,72898,2,0,P|386:196|337:210,1,95.9999970703126,8|0,0:0|3:0,0:0:0:0:
341,208,73179,1,8,0:0:0:0:
341,208,73273,1,2,3:2:0:0:
480,289,73460,1,0,3:0:0:0:
459,106,73648,1,8,0:0:0:0:
276,127,73835,6,0,P|207:158|129:83,1,191.999994140625,2|0,3:2|3:0,0:0:0:0:
75,251,74398,2,0,P|105:273|92:325,1,95.9999970703126,8|2,0:0|0:0,0:0:0:0:
244,340,74773,1,8,0:0:0:0:
436,200,74960,1,8,0:0:0:0:
436,200,75335,6,0,B|387:187|372:155|376:151|352:110|305:102,1,160,6|0,3:2|3:0,0:0:0:0:
161,124,75898,1,8,0:0:0:0:
130,29,76085,1,0,3:0:0:0:
130,29,76179,1,8,0:0:0:0:
130,29,76273,2,0,B|105:35|98:51|100:53|88:74|64:78,2,80,0|2|8,3:0|3:2|0:0,0:0:0:0:
236,172,76835,6,0,P|222:251|213:354,1,160,2|0,3:2|3:0,0:0:0:0:
75,188,77398,1,8,0:0:0:0:
31,287,77585,1,0,3:0:0:0:
31,287,77679,1,8,0:0:0:0:
31,287,77773,2,0,P|45:324|66:371,2,80,0|2|8,3:0|3:2|0:0,0:0:0:0:
0,101,78335,6,0,P|92:104|155:74,1,160,2|0,3:2|3:0,0:0:0:0:
288,14,78898,1,8,0:0:0:0:
342,110,79085,1,0,3:0:0:0:
342,110,79179,1,8,0:0:0:0:
342,110,79273,2,0,P|296:108|264:123,2,80,0|2|8,3:0|3:2|0:0,0:0:0:0:
459,25,79835,6,0,B|495:51|471:104|465:97|441:142|480:180,1,160,2|0,3:2|3:0,0:0:0:0:
320,192,80398,1,8,0:0:0:0:
394,345,80585,1,0,3:0:0:0:
394,345,80679,1,8,0:0:0:0:
394,345,80773,2,0,B|414:335|431:359|426:360|440:382|466:374,1,80,2|0,3:2|3:0,0:0:0:0:
484,297,81148,1,8,0:0:0:0:
275,285,81335,6,0,P|220:291|149:369,1,160,6|0,3:2|3:0,0:0:0:0:
2,201,81898,1,8,0:0:0:0:
110,235,82085,1,0,3:0:0:0:
110,235,82179,1,8,0:0:0:0:
110,235,82273,2,0,P|137:231|172:192,2,80,0|2|8,3:0|3:2|0:0,0:0:0:0:
105,145,82835,6,0,P|65:90|96:4,1,160,2|0,3:2|3:0,0:0:0:0:
222,72,83398,1,8,0:0:0:0:
332,98,83585,1,0,3:0:0:0:
332,98,83679,1,8,0:0:0:0:
332,98,83773,2,0,P|312:70|327:27,2,80,0|2|8,3:0|3:2|0:0,0:0:0:0:
507,130,84335,6,0,B|458:134|434:153|439:158|409:185|346:189,1,160,2|0,3:2|3:0,0:0:0:0:
200,223,84898,1,8,0:0:0:0:
322,346,85085,1,0,3:0:0:0:
322,346,85179,1,8,0:0:0:0:
322,346,85273,2,0,B|346:348|358:357|356:360|371:373|402:375,2,80,0|2|8,3:0|3:2|0:0,0:0:0:0:
268,149,85835,6,0,B|234:130|226:103|232:103|220:72|171:58,1,120,6|0,3:2|0:0,0:0:0:0:
122,30,86210,2,0,L|74:36,1,40,8|0,0:0|0:0,0:0:0:0:
15,64,86398,2,0,L|94:54,1,80,8|0,0:0|0:0,0:0:0:0:
277,32,86773,5,12,0:0:0:0:
465,64,86960,1,8,0:0:0:0:
465,64,87054,1,8,0:0:0:0:
465,64,87148,1,8,0:0:0:0:
361,119,87335,5,0,3:0:0:0:
361,119,87429,1,0,3:0:0:0:
361,119,87523,2,0,B|336:152|352:178|359:176|381:206|358:248,1,128,6|8,3:2|0:0,0:0:0:0:
279,286,88085,1,2,0:0:0:0:
198,237,88273,2,0,B|178:237|171:254|174:257|166:270|146:268,2,64,0|0|8,3:0|3:0|0:0,0:0:0:0:
277,379,88835,2,0,P|339:360|404:348,1,128,2|0,3:2|3:0,0:0:0:0:
512,284,89398,2,0,P|480:278|449:268,1,64,8|2,0:0|0:0,0:0:0:0:
379,138,89773,5,0,3:0:0:0:
379,138,89960,1,0,3:0:0:0:
489,127,90148,2,0,L|469:208,1,64,8|0,0:0|0:0,0:0:0:0:
314,283,90523,6,0,L|294:202,1,64,2|0,3:2|0:0,0:0:0:0:
231,303,90898,2,0,L|211:222,1,64,8|0,0:0|0:0,0:0:0:0:
141,288,91273,5,2,3:2:0:0:
3,253,91460,1,0,3:0:0:0:
38,115,91648,1,8,0:0:0:0:
176,150,91835,2,0,P|214:104|207:29,1,128,2|0,3:2|3:0,0:0:0:0:
128,74,92398,1,8,0:0:0:0:
304,115,92585,5,2,3:2:0:0:
304,115,92773,1,0,3:0:0:0:
402,35,92960,2,0,P|432:26|474:28,2,64,0|8|0,3:0|0:0|0:0,0:0:0:0:
422,159,93523,6,0,P|409:204|401:297,2,128,2|8|2,3:2|0:0|3:2,0:0:0:0:
161,234,94648,1,8,0:0:0:0:
97,282,94835,2,0,P|102:304|122:347,1,64,2|0,3:2|0:0,0:0:0:0:
234,265,95210,2,0,P|250:248|277:210,1,64,0|8,3:0|0:0,0:0:0:0:
151,155,95585,2,0,P|106:142|13:134,1,128,2|0,0:0|3:0,0:0:0:0:
82,18,96148,2,0,P|104:24|151:28,1,64,8|0,0:0|0:0,0:0:0:0:
298,20,96523,6,0,L|289:91,1,64,2|0,3:2|0:0,0:0:0:0:
443,70,96898,2,0,L|434:141,1,64,8|0,0:0|0:0,0:0:0:0:
278,161,97273,5,2,3:2:0:0:
266,239,97460,1,0,3:0:0:0:
256,318,97648,1,8,0:0:0:0:
139,369,97835,6,0,P|139:312|103:250,1,128,2|0,3:2|3:0,0:0:0:0:
7,104,98398,1,8,0:0:0:0:
83,161,98585,1,0,3:0:0:0:
177,148,98773,1,0,3:0:0:0:
335,17,98960,6,0,L|340:92,1,64,8|0,0:0|3:0,0:0:0:0:
488,39,99335,1,8,0:0:0:0:
254,58,99523,6,0,B|217:70|192:49|198:46|168:24|122:34,1,128,6|8,3:2|0:0,0:0:0:0:
177,133,100085,1,2,0:0:0:0:
235,199,100273,2,0,B|239:179|254:174|254:177|271:170|278:147,2,64,0|0|8,3:0|3:0|0:0,0:0:0:0:
89,150,100835,2,0,P|111:207|124:273,1,128,2|0,3:2|3:0,0:0:0:0:
243,365,101398,2,0,P|231:336|225:303,1,64,8|2,0:0|0:0,0:0:0:0:
402,307,101773,5,0,3:0:0:0:
402,307,101960,1,0,3:0:0:0:
442,213,102148,2,0,P|470:201|503:195,1,64,8|0,0:0|0:0,0:0:0:0:
326,136,102523,6,0,L|255:125,1,64,2|0,3:2|0:0,0:0:0:0:
340,53,102898,2,0,L|269:42,1,64,8|0,0:0|0:0,0:0:0:0:
202,72,103273,5,2,3:2:0:0:
76,16,103460,1,0,3:0:0:0:
63,154,103648,1,8,0:0:0:0:
189,210,103835,2,0,P|189:271|198:343,1,128,2|0,3:2|3:0,0:0:0:0:
287,270,104398,1,8,0:0:0:0:
98,312,104585,5,2,3:2:0:0:
98,312,104773,1,0,3:0:0:0:
40,219,104960,2,0,P|75:217|102:202,2,64,0|8|0,3:0|0:0|3:0,0:0:0:0:
1,42,105523,6,0,B|39:50|55:70|54:75|74:95|125:105,1,128,6|8,3:2|0:0,0:0:0:0:
167,159,106085,1,2,0:0:0:0:
244,140,106273,2,0,B|257:125|270:121|272:123|285:121|298:107,2,64,0|0|8,3:0|3:0|0:0,0:0:0:0:
144,235,106835,2,0,P|176:288|203:371,1,128,2|0,3:2|3:0,0:0:0:0:
337,250,107398,2,0,P|321:223|307:182,1,64,8|2,0:0|0:0,0:0:0:0:
306,353,107773,5,0,3:0:0:0:
306,353,107960,1,0,3:0:0:0:
434,310,108148,2,0,P|434:275|462:245,1,64,8|0,0:0|0:0,0:0:0:0:
487,112,108523,6,0,L|417:123,1,64,2|0,3:2|0:0,0:0:0:0:
261,121,108898,2,0,L|331:110,1,64,8|0,0:0|0:0,0:0:0:0:
176,46,109273,5,2,3:2:0:0:
96,33,109460,1,0,3:0:0:0:
17,21,109648,1,8,0:0:0:0:
84,112,109835,6,0,P|134:154|132:226,1,128,2|0,3:2|3:0,0:0:0:0:
117,379,110398,1,8,0:0:0:0:
64,313,110585,1,0,3:0:0:0:
64,313,110679,1,0,3:0:0:0:
64,313,110773,1,0,3:0:0:0:
183,326,110960,2,0,L|219:331,2,32,0|0|2,3:0|3:0|3:2,0:0:0:0:
64,313,111335,1,0,3:0:0:0:
237,226,111523,6,0,B|284:216|301:194|300:187|320:163|366:153,2,143.999995605469,6|0|2,3:2|3:0|0:0,0:0:0:0:
237,226,112835,1,2,0:0:0:0:
251,107,113023,1,0,3:0:0:0:
251,107,113210,1,0,3:0:0:0:
479,18,113585,2,0,B|466:56|477:85|483:88|494:113|479:159,1,143.999995605469,2|8,3:2|0:0,0:0:0:0:
424,217,114335,1,0,3:0:0:0:
507,293,114523,6,0,P|437:297|358:319,1,143.999995605469,2|0,3:2|0:0,0:0:0:0:
207,288,115460,2,0,P|209:334|224:387,1,95.9999970703126,2|0,0:0|0:0,0:0:0:0:
302,246,116023,5,0,3:0:0:0:
302,246,116210,2,0,P|305:221|285:197,1,47.9999985351563,0|0,3:0|0:0,0:0:0:0:
128,175,116585,2,0,P|168:205|229:194,1,95.9999970703126,2|0,3:2|0:0,0:0:0:0:
276,59,117148,1,8,0:0:0:0:
276,59,117523,5,2,3:2:0:0:
165,106,117710,2,0,P|166:68|161:21,1,80,0|8,3:0|0:0,0:0:0:0:
101,192,118085,2,0,P|64:125|9:48,1,160,2|8,3:2|0:0,0:0:0:0:
209,205,118648,1,8,0:0:0:0:
145,291,118835,6,0,P|117:296|80:333,1,80,2|0,3:2|0:0,0:0:0:0:
295,269,119210,1,0,3:0:0:0:
368,374,119398,1,8,0:0:0:0:
423,259,119585,1,2,3:2:0:0:
423,259,119960,6,0,P|418:219|425:178,1,71.9999978027344,10|0,0:0|0:0,0:0:0:0:
495,177,120335,6,0,B|492:130|451:93|445:99|406:58|399:7,1,191.999994140625,6|0,3:2|3:0,0:0:0:0:
236,67,120898,2,0,B|233:88|213:109|210:106|190:124|188:148,1,95.9999970703126,8|0,0:0|3:0,0:0:0:0:
188,148,121179,1,8,0:0:0:0:
188,148,121273,1,2,3:2:0:0:
303,129,121460,1,0,3:0:0:0:
121,86,121648,1,8,0:0:0:0:
175,266,121835,6,0,P|88:304|10:370,1,191.999994140625,2|0,3:2|3:0,0:0:0:0:
104,185,122398,2,0,P|60:204|21:237,1,95.9999970703126,8|0,0:0|3:0,0:0:0:0:
23,234,122679,1,8,0:0:0:0:
23,234,122773,1,0,3:0:0:0:
46,62,122960,1,2,3:2:0:0:
188,143,123148,1,8,0:0:0:0:
269,1,123335,6,0,B|312:-4|363:16|357:29|399:53|455:38,1,191.999994140625,2|0,3:2|3:0,0:0:0:0:
416,210,123898,2,0,B|394:207|369:217|372:224|351:236|324:228,1,95.9999970703126,8|0,0:0|3:0,0:0:0:0:
324,228,124179,1,8,0:0:0:0:
324,228,124273,1,2,3:2:0:0:
365,128,124460,1,0,3:0:0:0:
476,286,124648,1,8,0:0:0:0:
278,306,124835,6,0,P|233:282|221:149,1,191.999994140625,2|0,3:2|3:0,0:0:0:0:
7,18,125398,2,0,P|29:30|35:96,1,95.9999970703126,8|2,0:0|3:2,0:0:0:0:
36,94,125679,1,8,0:0:0:0:
36,94,125773,1,0,3:0:0:0:
7,219,125960,1,0,3:0:0:0:
217,153,126148,1,8,0:0:0:0:
119,166,126335,6,0,P|105:271|103:366,1,191.999994140625,6|0,3:2|3:0,0:0:0:0:
278,321,126898,2,0,P|285:268|286:221,1,95.9999970703126,8|0,0:0|3:0,0:0:0:0:
286,225,127179,1,8,0:0:0:0:
286,225,127273,1,2,3:2:0:0:
198,268,127460,1,0,3:0:0:0:
361,366,127648,1,8,0:0:0:0:
459,203,127835,6,0,B|402:205|361:174|373:159|333:127|278:133,1,191.999994140625,2|0,3:2|3:0,0:0:0:0:
463,108,128398,2,0,B|437:94|427:70|436:67|427:43|402:32,1,95.9999970703126,8|0,0:0|3:0,0:0:0:0:
405,34,128679,1,8,0:0:0:0:
405,34,128773,1,0,3:0:0:0:
241,57,128960,1,2,3:2:0:0:
264,221,129148,1,8,0:0:0:0:
428,198,129335,5,0,3:0:0:0:
428,198,129523,2,0,P|388:168|341:148,1,95.9999970703126,2|0,0:0|3:0,0:0:0:0:
201,374,129898,2,0,P|246:354|287:323,1,95.9999970703126,8|0,0:0|3:0,0:0:0:0:
283,327,130179,1,8,0:0:0:0:
283,327,130273,1,2,3:2:0:0:
160,184,130460,1,0,3:0:0:0:
30,105,130648,1,8,0:0:0:0:
155,16,130835,6,0,P|229:66|257:172,1,191.999994140625,2|0,3:2|3:0,0:0:0:0:
112,274,131398,2,0,P|74:248|61:196,1,95.9999970703126,8|0,0:0|3:0,0:0:0:0:
60,201,131679,1,8,0:0:0:0:
60,201,131773,1,0,3:0:0:0:
228,230,131960,5,0,3:0:0:0:
304,220,132148,1,0,3:0:0:0:
208,352,132335,6,0,B|248:401|298:374|299:366|350:340|407:393,1,191.999994140625,6|0,3:2|3:0,0:0:0:0:
491,263,132898,2,0,B|515:243|502:218|498:217|485:192|511:163,1,95.9999970703126,8|0,0:0|3:0,0:0:0:0:
503,173,133179,1,8,0:0:0:0:
503,173,133273,1,2,3:2:0:0:
303,135,133460,1,0,3:0:0:0:
380,248,133648,1,8,0:0:0:0:
243,258,133835,6,0,P|177:218|61:245,1,191.999994140625,2|0,3:2|3:0,0:0:0:0:
189,339,134398,2,0,P|222:359|280:345,1,95.9999970703126,8|0,0:0|3:0,0:0:0:0:
276,348,134679,1,8,0:0:0:0:
276,348,134773,1,0,3:0:0:0:
250,154,134960,1,2,3:2:0:0:
166,61,135148,1,8,0:0:0:0:
343,70,135335,6,0,B|389:106|424:47|420:37|459:-13|505:12,1,191.999994140625,2|0,3:2|3:0,0:0:0:0:
471,231,135898,2,0,B|489:208|459:190|454:192|429:173|442:150,1,95.9999970703126,8|0,0:0|3:0,0:0:0:0:
441,150,136179,1,8,0:0:0:0:
441,150,136273,1,2,3:2:0:0:
319,213,136460,1,0,3:0:0:0:
296,9,136648,1,8,0:0:0:0:
158,158,136835,6,0,P|188:194|149:330,1,191.999994140625,2|2,3:2|3:2,0:0:0:0:
64,173,137398,2,0,P|49:155|68:87,1,95.9999970703126,8|0,0:0|3:0,0:0:0:0:
64,90,137679,1,8,0:0:0:0:
64,90,137773,1,0,3:0:0:0:
229,87,137960,1,0,3:0:0:0:
143,12,138148,1,8,0:0:0:0:
308,9,138335,6,0,B|371:14|392:55|385:58|410:101|480:98,1,191.999994140625,6|0,3:2|3:0,0:0:0:0:
324,149,138898,2,0,B|321:180|301:191|299:187|278:200|279:235,1,95.9999970703126,8|0,0:0|3:0,0:0:0:0:
279,229,139179,1,8,0:0:0:0:
279,229,139273,1,2,3:2:0:0:
467,346,139460,1,0,3:0:0:0:
422,188,139648,1,8,0:0:0:0:
272,334,139835,6,0,P|172:327|97:387,1,191.999994140625,2|0,3:2|3:0,0:0:0:0:
23,259,140398,2,0,P|73:262|110:232,1,95.9999970703126,8|0,0:0|3:0,0:0:0:0:
108,236,140679,1,8,0:0:0:0:
108,236,140773,1,0,3:0:0:0:
276,231,140960,1,2,3:2:0:0:
103,68,141148,1,8,0:0:0:0:
271,63,141335,5,0,3:0:0:0:
271,63,141523,2,0,P|310:57|342:8,1,95.9999970703126,2|0,0:0|3:0,0:0:0:0:
488,87,141898,2,0,P|473:123|500:175,1,95.9999970703126,8|0,0:0|3:0,0:0:0:0:
496,172,142179,1,8,0:0:0:0:
496,172,142273,1,2,3:2:0:0:
358,262,142460,1,0,3:0:0:0:
374,138,142648,1,8,0:0:0:0:
188,120,142835,6,0,P|155:189|192:310,1,191.999994140625,2|0,3:2|3:0,0:0:0:0:
14,252,143398,2,0,P|30:217|12:157,1,95.9999970703126,8|2,0:0|0:0,0:0:0:0:
140,42,143773,1,8,0:0:0:0:
159,28,143866,1,8,0:0:0:0:
183,24,143960,1,8,0:0:0:0:
206,28,144054,1,8,0:0:0:0:
230,33,144148,1,8,0:0:0:0:
254,32,144241,1,8,0:0:0:0:
275,23,144335,6,0,B|318:6|355:40|347:46|387:81|435:48,1,160,6|0,3:2|3:0,0:0:0:0:
499,175,144898,2,0,B|477:166|459:183|463:186|443:204|419:187,1,80,8|0,0:0|3:0,0:0:0:0:
424,190,145179,1,8,0:0:0:0:
424,190,145273,2,0,L|436:283,1,80,2|0,3:2|3:0,0:0:0:0:
346,354,145648,1,8,0:0:0:0:
217,200,145835,6,0,L|241:386,1,160,2|0,3:2|3:0,0:0:0:0:
71,335,146398,2,0,L|81:255,1,80,8|0,0:0|3:0,0:0:0:0:
81,255,146679,1,8,0:0:0:0:
81,255,146773,1,0,3:0:0:0:
24,160,146960,2,0,P|66:162|103:133,1,80,2|8,3:2|0:0,0:0:0:0:
153,18,147335,6,0,B|108:16|84:47|84:53|51:84|-3:69,1,160,2|0,3:2|3:0,0:0:0:0:
182,112,147898,2,0,B|204:111|216:126|216:129|232:145|260:137,1,80,8|0,0:0|3:0,0:0:0:0:
254,139,148179,1,8,0:0:0:0:
254,139,148273,2,0,P|252:94|270:49,1,80,2|0,3:2|3:0,0:0:0:0:
356,113,148648,1,8,0:0:0:0:
470,0,148835,6,0,P|473:88|437:178,1,160,2|0,3:2|3:0,0:0:0:0:
329,208,149398,1,8,0:0:0:0:
363,356,149585,1,2,3:2:0:0:
363,356,149679,1,8,0:0:0:0:
363,356,149773,1,0,3:0:0:0:
260,338,149960,2,0,P|244:303|244:262,1,80,0|8,3:0|0:0,0:0:0:0:
37,210,150335,6,0,B|80:231|98:264|93:270|113:299|155:315,1,160,2|0,3:2|3:0,0:0:0:0:
229,180,150898,2,0,B|219:159|222:142|226:141|232:123|224:101,1,80,8|0,0:0|3:0,0:0:0:0:
224,101,151179,1,8,0:0:0:0:
224,101,151273,2,0,B|225:77|236:64|240:65|255:53|259:30,1,80,2|0,3:2|3:0,0:0:0:0:
124,69,151648,1,8,0:0:0:0:
329,131,151835,6,0,P|391:87|477:75,1,160,2|0,3:2|3:0,0:0:0:0:
507,207,152398,2,0,P|476:229|433:235,1,80,8|0,0:0|3:0,0:0:0:0:
435,235,152679,1,8,0:0:0:0:
435,235,152773,1,2,3:2:0:0:
265,197,152960,2,0,P|243:166|237:123,1,80,0|8,3:0|0:0,0:0:0:0:
124,14,153335,6,0,L|91:183,1,160,2|0,3:2|3:0,0:0:0:0:
19,365,153898,2,0,L|35:280,1,80,8|0,0:0|3:0,0:0:0:0:
34,286,154179,1,8,0:0:0:0:
34,286,154273,2,0,L|118:302,1,80,2|0,3:2|3:0,0:0:0:0:
301,166,154648,2,0,L|223:151,1,80,8|0,0:0|3:0,0:0:0:0:
242,281,155023,5,8,0:0:0:0:
242,281,155116,1,8,0:0:0:0:
242,281,155210,1,8,0:0:0:0:
414,214,155398,1,8,0:0:0:0:
414,214,155491,1,8,0:0:0:0:
414,214,155585,1,8,0:0:0:0:
356,329,155773,1,8,0:0:0:0:
485,322,155960,1,8,0:0:0:0:
496,305,156054,1,8,0:0:0:0:
505,287,156148,1,8,0:0:0:0:
510,268,156241,1,8,0:0:0:0:
512,248,156335,6,0,P|505:162|483:81,1,160,2|0,3:2|3:0,0:0:0:0:
309,33,156898,2,0,P|312:76|323:116,1,80,8|0,0:0|3:0,0:0:0:0:
321,111,157179,1,8,0:0:0:0:
321,111,157273,1,2,3:2:0:0:
126,132,157460,1,0,3:0:0:0:
141,29,157648,1,8,0:0:0:0:
226,97,157835,1,2,3:2:0:0:
226,97,158210,6,0,L|232:181,1,80,0|8,3:0|0:0,0:0:0:0:
38,203,158585,1,2,3:2:0:0:
38,203,158679,1,8,0:0:0:0:
38,203,158773,1,0,3:0:0:0:
114,225,158960,1,0,3:0:0:0:
56,279,159148,1,8,0:0:0:0:
182,375,159335,6,0,B|241:365|258:347|257:342|277:318|342:306,1,160,2|0,3:2|3:0,0:0:0:0:
294,147,159898,2,0,B|264:142|256:133|256:130|246:118|214:112,1,80,8|0,0:0|3:0,0:0:0:0:
222,114,160179,1,8,0:0:0:0:
222,114,160273,1,2,3:2:0:0:
333,22,160460,1,0,3:0:0:0:
417,138,160648,1,8,0:0:0:0:
306,230,160835,6,0,P|254:285|214:372,1,160,2|2,3:2|3:2,0:0:0:0:
405,271,161398,2,0,P|406:308|422:353,1,80,8|0,0:0|3:0,0:0:0:0:
419,348,161679,1,8,0:0:0:0:
419,348,161773,1,0,3:0:0:0:
93,348,162148,1,8,0:0:0:0:
61,111,162335,6,0,P|125:160|209:135,1,160,6|0,3:2|3:0,0:0:0:0:
6,283,162898,2,0,P|30:251|18:209,1,80,8|0,0:0|3:0,0:0:0:0:
22,214,163179,1,8,0:0:0:0:
22,214,163273,1,2,3:2:0:0:
179,281,163460,1,0,3:0:0:0:
291,167,163648,1,8,0:0:0:0:
139,105,163835,1,2,3:2:0:0:
139,105,164210,6,0,P|142:61|149:17,1,80,0|8,3:0|0:0,0:0:0:0:
18,52,164585,1,2,3:2:0:0:
18,52,164679,1,8,0:0:0:0:
18,52,164773,1,0,3:0:0:0:
233,34,164960,2,0,P|227:73|224:113,1,80,0|8,3:0|0:0,0:0:0:0:
402,218,165335,6,0,B|407:263|430:296|435:289|463:314|468:367,1,160,6|0,3:2|3:0,0:0:0:0:
504,219,165898,1,8,0:0:0:0:
365,360,166085,1,0,3:0:0:0:
365,360,166179,1,8,0:0:0:0:
365,360,166273,1,2,3:2:0:0:
202,263,166460,2,0,P|164:255|115:276,1,80,0|8,3:0|0:0,0:0:0:0:
206,353,166835,6,0,P|272:320|280:223,1,160,2|0,3:2|3:0,0:0:0:0:
256,18,167398,1,8,0:0:0:0:
311,137,167585,1,0,3:0:0:0:
311,137,167679,1,8,0:0:0:0:
311,137,167773,2,0,P|271:121|222:110,1,80,2|0,3:2|3:0,0:0:0:0:
164,47,168148,1,8,0:0:0:0:
13,202,168335,6,0,P|92:201|170:181,1,160,6|0,3:2|3:0,0:0:0:0:
85,109,168898,1,8,0:0:0:0:
65,303,169085,2,0,P|104:302|143:292,1,80,2|8,3:2|0:0,0:0:0:0:
283,374,169460,2,0,P|310:345|331:311,1,80,2|8,3:2|0:0,0:0:0:0:
487,269,169835,1,10,0:0:0:0:
487,269,169929,1,8,0:0:0:0:
487,269,170023,2,0,P|486:229|476:190,1,80,0|2,3:0|3:2,0:0:0:0:
332,60,170398,5,8,0:0:0:0:
332,60,170491,1,8,0:0:0:0:
332,60,170585,1,8,0:0:0:0:
373,251,170773,1,8,0:0:0:0:
451,73,170960,1,0,3:0:0:0:
283,169,171148,1,0,3:0:0:0:
476,190,171335,1,4,3:2:0:0:
167,143,182773,5,8,0:0:0:0:
345,241,182960,1,8,0:0:0:0:
345,241,183335,6,0,B|367:197|343:148|338:146|318:98|336:45,1,191.999994140625,6|0,3:2|3:0,0:0:0:0:
510,100,183898,2,0,P|474:116|432:168,1,95.9999970703126,8|0,0:0|3:0,0:0:0:0:
436,157,184179,1,8,0:0:0:0:
436,157,184273,1,2,3:2:0:0:
359,328,184460,1,0,3:0:0:0:
188,250,184648,1,8,0:0:0:0:
83,163,184835,6,0,P|189:166|275:141,1,191.999994140625,2|0,3:2|3:0,0:0:0:0:
115,9,185398,2,0,P|168:7|211:20,1,95.9999970703126,8|0,0:0|3:0,0:0:0:0:
208,19,185679,1,8,0:0:0:0:
208,19,185773,1,0,3:0:0:0:
48,76,185960,1,2,3:2:0:0:
43,247,186148,1,8,0:0:0:0:
214,252,186335,6,0,B|259:263|293:303|292:312|325:345|385:359,1,191.999994140625,2|0,3:2|3:0,0:0:0:0:
319,211,186898,2,0,P|307:164|303:104,1,95.9999970703126,8|0,0:0|3:0,0:0:0:0:
302,116,187179,1,8,0:0:0:0:
302,116,187273,1,2,3:2:0:0:
142,178,187460,1,0,3:0:0:0:
3,65,187648,1,8,0:0:0:0:
164,7,187835,6,0,P|197:60|228:194,1,191.999994140625,2|2,3:2|3:2,0:0:0:0:
316,288,188398,2,0,P|324:335|348:377,1,95.9999970703126,8|0,0:0|3:0,0:0:0:0:
347,376,188679,1,8,0:0:0:0:
347,376,188773,1,0,3:0:0:0:
416,308,188960,1,0,3:0:0:0:
233,342,189148,1,8,0:0:0:0:
328,188,189335,6,0,B|375:208|416:153|413:147|449:99|495:108,1,191.999994140625,6|0,3:2|3:0,0:0:0:0:
334,99,189898,2,0,B|330:73|296:69|295:72|265:68|257:46,1,95.9999970703126,8|0,0:0|3:0,0:0:0:0:
258,48,190179,1,8,0:0:0:0:
258,48,190273,1,2,3:2:0:0:
457,28,190460,1,0,3:0:0:0:
477,226,190648,1,8,0:0:0:0:
279,246,190835,6,0,P|246:342|155:364,1,191.999994140625,2|0,3:2|3:0,0:0:0:0:
10,334,191398,2,0,P|26:286|72:275,1,95.9999970703126,8|0,0:0|3:0,0:0:0:0:
66,274,191679,1,8,0:0:0:0:
66,274,191773,1,0,3:0:0:0:
151,105,191960,1,2,3:2:0:0:
279,246,192148,1,8,0:0:0:0:
164,195,192335,5,0,3:0:0:0:
164,195,192523,2,0,P|118:182|75:156,1,95.9999970703126,2|0,0:0|3:0,0:0:0:0:
91,6,192898,2,0,P|183:32|269:84,1,191.999994140625,8|0,0:0|3:0,0:0:0:0:
401,213,193460,1,2,3:2:0:0:
497,199,193648,1,8,0:0:0:0:
219,265,193835,6,0,B|176:278|160:307|162:315|146:343|90:344,1,143.999995605469,6|0,3:2|0:0,0:0:0:0:
50,295,194210,2,0,L|41:242,1,47.9999985351563,10|0,0:0|0:0,0:0:0:0:
154,212,194398,2,0,L|136:106,1,95.9999970703126,10|0,0:0|0:0,0:0:0:0:
281,214,194773,1,8,0:0:0:0:
276,190,194866,1,8,0:0:0:0:
272,166,194960,1,8,0:0:0:0:
268,143,195054,1,8,0:0:0:0:
264,119,195148,1,8,0:0:0:0:
260,95,195241,1,8,0:0:0:0:
256,72,195335,6,0,P|329:67|388:-2,1,160,6|0,3:2|3:0,0:0:0:0:
377,173,195898,1,8,0:0:0:0:
498,83,196085,1,0,3:0:0:0:
498,83,196179,1,8,0:0:0:0:
498,83,196273,2,0,P|481:115|497:158,2,80,0|2|8,3:0|3:2|0:0,0:0:0:0:
496,261,196835,6,0,B|455:260|422:287|423:294|393:318|336:317,1,160,2|0,3:2|3:0,0:0:0:0:
190,256,197398,1,8,0:0:0:0:
189,365,197585,1,0,3:0:0:0:
189,365,197679,1,8,0:0:0:0:
189,365,197773,2,0,B|166:365|151:353|152:350|135:336|115:337,2,80,0|2|8,3:0|3:2|0:0,0:0:0:0:
123,162,198335,6,0,P|85:234|9:287,1,160,2|0,3:2|3:0,0:0:0:0:
19,166,198898,1,8,0:0:0:0:
216,96,199085,1,0,3:0:0:0:
216,96,199179,1,8,0:0:0:0:
216,96,199273,2,0,P|228:134|220:180,2,80,0|2|8,3:0|3:2|0:0,0:0:0:0:
10,35,199835,6,0,L|181:16,1,160,2|0,3:2|3:0,0:0:0:0:
340,50,200398,1,8,0:0:0:0:
390,136,200585,1,0,3:0:0:0:
390,136,200679,1,8,0:0:0:0:
390,136,200773,2,0,L|304:145,1,80,2|0,3:2|3:0,0:0:0:0:
240,358,201148,1,8,0:0:0:0:
194,206,201335,6,0,B|243:215|263:242|258:249|283:275|352:287,1,160,6|0,3:2|3:0,0:0:0:0:
356,171,201898,1,8,0:0:0:0:
428,327,202085,1,0,3:0:0:0:
428,327,202179,1,8,0:0:0:0:
428,327,202273,2,0,B|403:331|393:345|396:348|383:361|349:367,2,80,0|2|8,3:0|3:2|0:0,0:0:0:0:
489,171,202835,6,0,P|483:96|503:-3,1,160,2|0,3:2|3:0,0:0:0:0:
281,66,203398,1,8,0:0:0:0:
369,30,203585,1,0,3:0:0:0:
369,30,203679,1,8,0:0:0:0:
369,30,203773,2,0,P|372:67|362:117,2,80,0|2|8,3:0|3:2|0:0,0:0:0:0:
155,24,204335,6,0,L|233:184,1,160,2|0,3:2|3:0,0:0:0:0:
356,205,204898,1,8,0:0:0:0:
486,242,205085,1,0,3:0:0:0:
486,242,205179,1,8,0:0:0:0:
486,242,205273,2,0,L|457:326,2,80,0|2|8,3:0|3:2|0:0,0:0:0:0:
298,308,205835,6,0,B|257:292|220:322|223:326|183:352|140:334,1,160,2|0,3:2|3:0,0:0:0:0:
231,210,206398,2,0,B|222:189|198:187|198:189|174:184|165:163,1,80,8|2,0:0|0:0,0:0:0:0:
40,28,206773,1,8,0:0:0:0:
161,86,206960,1,8,0:0:0:0:
271,10,207148,1,8,0:0:0:0:
392,68,207335,6,0,P|469:74|510:139,1,160,6|0,3:2|3:0,0:0:0:0:
361,157,207898,2,0,P|358:195|325:216,1,80,8|0,3:0|3:0,3:0:0:0:
325,216,208179,1,8,0:0:0:0:
325,216,208273,1,0,3:0:0:0:
332,374,208460,2,0,P|335:335|367:315,1,80,0|8,3:0|0:0,0:0:0:0:
446,206,208835,6,0,P|467:281|470:373,1,160,2|0,3:2|3:0,0:0:0:0:
250,314,209398,2,0,P|239:276|238:230,1,80,8|0,0:0|3:0,0:0:0:0:
237,235,209679,1,8,0:0:0:0:
237,235,209773,1,0,3:0:0:0:
319,53,209960,2,0,P|329:90|331:136,1,80,0|8,3:0|0:0,0:0:0:0:
222,103,210335,6,0,P|175:55|81:43,1,160,2|0,3:2|3:0,0:0:0:0:
106,221,210898,2,0,P|138:212|167:174,1,80,8|0,0:0|3:0,0:0:0:0:
166,177,211179,1,8,0:0:0:0:
166,177,211273,1,0,3:0:0:0:
0,104,211460,2,0,P|-8:136|10:180,1,80,0|8,3:0|0:0,0:0:0:0:
16,318,211835,6,0,B|67:310|92:332|91:338|120:363|178:345,1,160,2|0,3:2|3:0,0:0:0:0:
321,361,212398,1,8,0:0:0:0:
335,208,212585,1,0,3:0:0:0:
335,208,212679,1,8,0:0:0:0:
335,208,212773,2,0,B|359:200|373:212|373:215|385:226|411:222,2,80,0|0|8,3:0|3:0|0:0,0:0:0:0:
150,38,213335,6,0,P|175:114|181:194,1,160,6|0,3:2|3:0,0:0:0:0:
384,107,213898,1,8,0:0:0:0:
283,126,214085,1,0,3:0:0:0:
283,126,214179,1,8,0:0:0:0:
283,126,214273,2,0,P|286:86|298:48,2,80,0|2|8,3:0|3:2|0:0,0:0:0:0:
178,277,214835,6,0,P|99:264|19:256,1,160,2|0,3:2|3:0,0:0:0:0:
273,230,215398,1,8,0:0:0:0:
274,343,215585,1,0,3:0:0:0:
274,343,215679,1,8,0:0:0:0:
274,343,215773,2,0,P|313:349|353:353,2,80,0|2|8,3:0|3:2|0:0,0:0:0:0:
177,164,216335,6,0,P|137:157|85:57,1,160,2|0,3:2|3:0,0:0:0:0:
266,182,216898,1,8,0:0:0:0:
254,29,217085,1,0,3:0:0:0:
254,29,217179,1,8,0:0:0:0:
254,29,217273,2,0,P|261:47|230:95,2,80,0|2|8,3:0|3:2|0:0,0:0:0:0:
459,18,217835,6,0,B|416:32|398:64|401:69|385:101|328:127,1,160,2|0,3:2|3:0,0:0:0:0:
211,258,218398,2,0,B|218:279|234:288|236:287|252:295|265:323,1,80,8|0,0:0|0:0,0:0:0:0:
443,373,218773,1,8,0:0:0:0:
449,354,218866,1,8,0:0:0:0:
451,334,218960,1,8,0:0:0:0:
448,314,219054,1,8,0:0:0:0:
445,294,219148,1,8,0:0:0:0:
446,274,219241,1,8,0:0:0:0:
451,255,219335,2,0,P|459:215|476:171,1,80,2|0,3:2|0:0,0:0:0:0:
