osu file format v14

[General]
AudioFilename: audio.mp3
AudioLeadIn: 0
PreviewTime: 51054
Countdown: 0
SampleSet: Soft
StackLeniency: 0.7
Mode: 0
LetterboxInBreaks: 0
WidescreenStoryboard: 1

[Editor]
Bookmarks: 6335,18523,30523,42523,51335,63335,75335,87523,99523,111523,120335,132335,144335,156335,171335,183335,195335,207335,219335
DistanceSpacing: 1.1
BeatDivisor: 4
GridSize: 32
TimelineZoom: 0.9999999

[Metadata]
Title:Freedom
TitleUnicode:Freedom
Artist:SECONDWALL
ArtistUnicode:SECONDWALL
Creator:Hinsvar
Version:Easy
Source:
Tags:Japanese Rock J-Rock JRock Pop J-Pop JPop Beautiful Lie Featured Artist FA Mappers' Guild MG MPG
BeatmapID:4258499
BeatmapSetID:2039403

[Difficulty]
HPDrainRate:2
CircleSize:2
OverallDifficulty:3
ApproachRate:4
SliderMultiplier:0.96
SliderTickRate:1

[Events]
//Background and Video events
0,0,"BG.jpg",0,0
//Break Periods
2,171535,182015
//Storyboard Layer 0 (Background)
//Storyboard Layer 1 (Fail)
//Storyboard Layer 2 (Pass)
//Storyboard Layer 3 (Foreground)
//Storyboard Layer 4 (Overlay)
//Storyboard Sound Samples

[TimingPoints]
523,375,4,2,1,70,1,0
18523,-111.111111111111,4,2,1,65,0,0
42523,-111.111111111111,4,2,1,60,0,0
48523,-100,4,2,1,70,0,0
51335,-90.9090909090909,4,2,1,80,0,1
62960,-90.9090909090909,4,2,1,80,0,0
63335,-90.9090909090909,4,2,1,80,0,1
74960,-90.9090909090909,4,2,1,80,0,0
75335,-100,4,2,1,70,0,1
75429,-100,4,2,1,70,0,0
87523,-111.111111111111,4,2,1,65,0,0
111523,-111.111111111111,4,2,1,60,0,0
117523,-100,4,2,1,70,0,0
119960,-100,4,2,1,60,0,0
120335,-90.9090909090909,4,2,1,80,0,1
131960,-90.9090909090909,4,2,1,80,0,0
132335,-90.9090909090909,4,2,1,80,0,1
144335,-100,4,2,1,70,0,0
183335,-90.9090909090909,4,2,1,80,0,1
195148,-90.9090909090909,4,2,1,80,0,0
195335,-100,4,2,1,70,0,1
195429,-100,4,2,1,70,0,0

[Colours]
Combo1 : 97,191,197
Combo2 : 237,185,97
Combo3 : 145,196,98
Combo4 : 250,154,90

[HitObjects]
444,38,6335,6,0,P|473:105|473:209,1,144,6|8,3:2|0:0,0:0:0:0:
473,271,7273,1,0,3:0:0:0:
333,346,7835,2,0,P|304:279|304:175,1,144,2|8,3:2|0:0,0:0:0:0:
304,113,8773,1,0,3:0:0:0:
162,41,9335,6,0,P|91:41|39:105,1,144,2|8,3:2|0:0,0:0:0:0:
49,187,10273,1,0,3:0:0:0:
99,337,10835,2,0,P|170:337|222:273,1,144,2|8,3:2|0:0,0:0:0:0:
212,191,11773,1,2,3:2:0:0:
285,50,12335,6,0,B|335:41|353:69|344:73|365:98|437:96,1,144,6|8,3:2|0:0,0:0:0:0:
499,142,13273,1,0,3:0:0:0:
376,242,13835,2,0,B|326:233|308:261|316:265|296:290|224:288,1,144,2|8,3:2|0:0,0:0:0:0:
162,334,14773,1,0,3:0:0:0:
39,234,15335,6,0,P|28:163|45:85,1,144,2|8,3:2|0:0,0:0:0:0:
112,27,16273,1,0,3:0:0:0:
270,32,16835,2,0,P|281:103|264:181,1,144,2|8,3:2|0:0,0:0:0:0:
197,239,17773,1,10,0:0:0:0:
239,326,18148,1,8,0:0:0:0:
334,312,18523,6,0,P|376:317|432:332,2,86.3999973632813,4|8|2,3:2|0:0|3:2,0:0:0:0:
406,174,19835,1,2,3:2:0:0:
438,84,20210,1,0,3:0:0:0:
362,25,20585,2,0,B|319:22|304:46|308:56|287:77|229:71,1,129.599996044922,2|8,0:0|0:0,0:0:0:0:
152,55,21523,6,0,P|107:52|63:62,1,86.3999973632813,2|8,3:2|0:0,0:0:0:0:
51,154,22273,2,0,P|118:158|184:143,1,129.599996044922,2|2,3:2|3:2,0:0:0:0:
268,176,23210,1,0,3:0:0:0:
267,272,23585,1,2,3:2:0:0:
175,300,23960,1,8,0:0:0:0:
31,239,24523,6,0,P|21:193|22:148,2,86.3999973632813,6|8|0,3:2|0:0|3:0,0:0:0:0:
160,153,25835,1,2,3:2:0:0:
200,67,26210,1,0,3:0:0:0:
289,33,26585,2,0,B|325:25|349:45|348:50|378:76|424:61,1,129.599996044922,2|8,0:0|0:0,0:0:0:0:
484,125,27523,6,0,L|471:216,1,86.3999973632813,2|8,3:2|0:0,0:0:0:0:
462,305,28273,2,0,L|334:356,1,129.599996044922,2|2,3:2|3:2,0:0:0:0:
277,283,29210,1,0,3:0:0:0:
104,363,29960,1,8,0:0:0:0:
29,226,30523,6,0,P|66:202|114:205,2,86.3999973632813,6|8|2,3:2|0:0|3:2,0:0:0:0:
9,71,31835,1,2,3:2:0:0:
92,26,32210,1,0,3:0:0:0:
172,75,32585,2,0,B|199:84|215:116|209:118|225:166|267:176,1,129.599996044922,2|8,0:0|0:0,0:0:0:0:
338,126,33523,6,0,P|338:83|352:37,1,86.3999973632813,2|8,3:2|0:0,0:0:0:0:
445,40,34273,2,0,P|445:104|424:173,1,129.599996044922,2|2,3:2|3:2,0:0:0:0:
352,225,35210,1,0,3:0:0:0:
385,315,35585,1,2,3:2:0:0:
480,311,35960,1,0,3:0:0:0:
478,155,36523,6,0,P|480:111|492:56,2,86.3999973632813,2|8|0,3:2|0:0|3:0,0:0:0:0:
337,88,37835,1,2,3:2:0:0:
260,143,38210,1,0,0:0:0:0:
183,85,38585,2,0,B|140:89|118:72|122:69|93:52|44:58,1,129.599996044922,2|8,0:0|0:0,0:0:0:0:
19,143,39523,6,0,P|41:181|50:235,1,86.3999973632813,2|8,3:2|0:0,0:0:0:0:
126,278,40273,2,0,P|158:220|222:168,1,129.599996044922,2|2,3:2|3:2,0:0:0:0:
300,169,41210,1,0,3:0:0:0:
387,298,41773,2,0,P|429:312|474:306,1,86.3999973632813,8|2,0:0|0:0,0:0:0:0:
488,205,42523,6,0,B|496:169|482:136|476:139|450:93|463:47,1,129.599996044922,4|0,3:2|3:0,0:0:0:0:
205,34,44023,1,0,3:0:0:0:
68,74,44585,2,0,B|76:110|62:143|56:140|30:186|43:232,1,129.599996044922,2|8,3:2|0:0,0:0:0:0:
50,293,45523,2,0,P|107:301|167:362,1,129.599996044922,2|0,3:2|3:0,0:0:0:0:
316,140,47023,2,0,P|259:132|199:71,2,129.599996044922,0|2|8,3:0|3:2|0:0,0:0:0:0:
411,95,48523,6,0,P|464:140|455:212,1,144,2|2,3:2|3:2,0:0:0:0:
338,358,49835,1,2,3:2:0:0:
264,295,50210,1,0,3:0:0:0:
271,199,50585,1,2,3:2:0:0:
156,21,51335,6,0,B|108:38|94:65|99:71|82:100|27:122,1,158.400004833985,6|8,3:2|0:0,0:0:0:0:
35,224,52273,2,0,B|83:241|97:268|92:274|109:303|155:321,1,158.400004833985,2|2,3:2|3:2,0:0:0:0:
256,353,53210,1,0,3:0:0:0:
256,141,53960,1,2,3:2:0:0:
311,51,54335,6,0,P|381:26|472:32,1,158.400004833985,2|8,3:2|0:0,0:0:0:0:
488,132,55273,2,0,P|474:205|423:280,1,158.400004833985,2|2,3:2|3:2,0:0:0:0:
329,244,56210,1,0,3:0:0:0:
265,162,56585,1,2,0:0:0:0:
103,27,57335,6,0,P|52:73|54:164,1,158.400004833985,6|8,3:2|0:0,0:0:0:0:
36,262,58273,2,0,P|101:283|179:235,1,158.400004833985,2|2,3:2|3:2,0:0:0:0:
274,203,59210,1,0,3:0:0:0:
341,286,59585,1,0,3:0:0:0:
282,375,59960,1,2,3:2:0:0:
111,340,60523,6,0,P|59:341|-4:354,2,105.600003222656,2|8|2,0:0|0:0|3:2,0:0:0:0:
255,242,61835,1,2,3:2:0:0:
221,141,62210,2,0,P|117:160|11:162,1,211.200006445313,0|8,3:0|0:0,0:0:0:0:
35,59,63335,6,0,B|79:74|116:54|111:47|140:32|188:49,1,158.400004833985,6|8,3:2|0:0,0:0:0:0:
292,66,64273,2,0,B|339:48|369:64|363:70|400:91|445:75,1,158.400004833985,2|2,3:2|3:2,0:0:0:0:
482,245,65398,1,8,0:0:0:0:
315,289,65960,1,2,3:2:0:0:
239,362,66335,6,0,P|204:334|188:223,1,158.400004833985,2|8,3:2|0:0,0:0:0:0:
282,183,67273,2,0,P|281:105|229:48,1,158.400004833985,2|2,3:2|3:2,0:0:0:0:
126,26,68210,1,2,3:2:0:0:
18,163,68773,1,8,0:0:0:0:
82,325,69335,6,0,P|149:327|247:315,1,158.400004833985,6|8,3:2|0:0,0:0:0:0:
345,306,70273,1,2,3:2:0:0:
387,137,70835,2,0,P|342:135|277:143,1,105.600003222656,2|0,3:2|3:0,0:0:0:0:
176,148,71585,1,0,3:0:0:0:
170,43,71960,1,2,3:2:0:0:
42,161,72523,6,0,P|29:213|52:265,2,105.600003222656,2|8|2,0:0|0:0|3:2,0:0:0:0:
211,201,73835,1,2,3:2:0:0:
308,242,74210,1,0,3:0:0:0:
387,172,74585,2,0,B|412:166|431:182|436:200|460:219|484:207,1,105.600003222656,2|8,0:0|0:0,0:0:0:0:
483,304,75335,6,0,P|413:316|328:340,1,144,6|8,3:2|0:0,0:0:0:0:
250,364,76273,1,0,3:0:0:0:
154,237,76835,2,0,P|224:225|309:201,1,144,2|8,3:2|0:0,0:0:0:0:
387,177,77773,1,0,3:0:0:0:
281,58,78335,6,0,P|226:19|152:24,1,144,2|8,3:2|0:0,0:0:0:0:
67,68,79273,1,0,3:0:0:0:
51,225,79835,2,0,P|105:263|179:258,1,144,2|8,3:2|0:0,0:0:0:0:
265,214,80773,1,2,3:2:0:0:
355,343,81335,6,0,P|391:312|420:216,1,144,6|8,3:2|0:0,0:0:0:0:
419,126,82273,1,0,3:0:0:0:
296,25,82835,2,0,P|260:56|231:152,1,144,2|8,3:2|0:0,0:0:0:0:
232,242,83773,1,0,3:0:0:0:
99,328,84335,6,0,B|59:296|62:265|65:262|73:232|31:194,1,144,2|8,3:2|0:0,0:0:0:0:
29,106,85273,1,0,3:0:0:0:
179,22,85835,2,0,B|219:54|216:85|213:88|205:118|247:156,1,144,6|8,3:2|0:0,0:0:0:0:
249,244,86773,1,12,0:0:0:0:
345,264,87148,1,8,0:0:0:0:
393,178,87523,6,0,P|437:166|490:170,2,86.3999973632813,6|8|0,3:2|0:0|3:0,0:0:0:0:
290,60,88835,1,2,3:2:0:0:
198,33,89210,1,0,3:0:0:0:
128,99,89585,2,0,B|98:123|88:146|91:152|80:177|48:203,1,129.599996044922,2|8,0:0|0:0,0:0:0:0:
44,296,90523,6,0,P|80:318|97:362,1,86.3999973632813,2|8,3:2|0:0,0:0:0:0:
190,371,91273,2,0,P|223:317|289:291,1,129.599996044922,2|2,3:2|3:2,0:0:0:0:
350,357,92210,1,0,3:0:0:0:
434,313,92585,1,2,3:2:0:0:
418,219,92960,1,0,3:0:0:0:
279,147,93523,6,0,L|187:122,2,86.3999973632813,2|8|2,3:2|0:0|3:2,0:0:0:0:
384,32,94835,1,2,3:2:0:0:
469,73,95210,1,0,3:0:0:0:
475,167,95585,2,0,B|493:209|474:230|472:227|453:249|468:302,1,129.599996044922,2|8,0:0|0:0,0:0:0:0:
390,350,96523,6,0,P|353:332|299:320,1,86.3999973632813,2|8,3:2|0:0,0:0:0:0:
235,261,97273,2,0,P|172:276|113:304,1,129.599996044922,2|2,3:2|3:2,0:0:0:0:
33,355,98210,1,0,3:0:0:0:
4,167,98960,1,8,0:0:0:0:
151,218,99523,6,0,P|192:199|203:159,2,86.3999973632813,6|8|0,3:2|0:0|3:0,0:0:0:0:
65,87,100835,1,2,3:2:0:0:
140,29,101210,1,0,3:0:0:0:
227,64,101585,2,0,B|268:40|288:52|288:57|310:71|361:47,1,129.599996044922,2|8,0:0|0:0,0:0:0:0:
444,29,102523,6,0,P|478:60|489:110,1,86.3999973632813,2|8,3:2|0:0,0:0:0:0:
500,192,103273,2,0,P|485:259|428:311,1,129.599996044922,2|2,3:2|3:2,0:0:0:0:
353,328,104210,1,0,3:0:0:0:
301,250,104585,1,2,3:2:0:0:
359,176,104960,1,0,3:0:0:0:
256,58,105523,6,0,L|159:23,2,86.3999973632813,6|8|0,3:2|0:0|3:0,0:0:0:0:
157,178,106835,1,2,3:2:0:0:
74,130,107210,1,0,3:0:0:0:
17,206,107585,2,0,L|39:333,1,129.599996044922,2|8,0:0|0:0,0:0:0:0:
130,362,108523,6,0,P|164:335|214:326,1,86.3999973632813,2|8,3:2|0:0,0:0:0:0:
295,296,109273,2,0,P|357:310|407:350,1,129.599996044922,2|2,3:2|3:2,0:0:0:0:
499,325,110210,1,0,3:0:0:0:
470,172,110773,2,0,P|457:131|463:88,1,86.3999973632813,0|2,3:0|3:2,0:0:0:0:
386,32,111523,6,0,P|330:64|261:50,1,129.599996044922,6|0,3:2|3:0,0:0:0:0:
131,274,113023,1,0,3:0:0:0:
39,148,113585,2,0,P|7:92|21:23,1,129.599996044922,2|8,3:2|0:0,0:0:0:0:
109,52,114523,1,2,3:2:0:0:
495,30,116023,2,0,P|504:92|473:148,2,129.599996044922,0|2|8,3:0|3:2|0:0,0:0:0:0:
399,31,117523,6,0,P|334:33|253:55,1,144,2|2,3:2|3:2,0:0:0:0:
67,26,118835,1,2,3:2:0:0:
71,122,119210,1,0,3:0:0:0:
97,214,119585,2,0,P|101:262|77:312,1,96,2|10,3:2|0:0,0:0:0:0:
182,341,120335,6,0,B|233:353|255:327|250:316|277:286|336:307,1,158.400004833985,6|8,3:2|0:0,0:0:0:0:
330,198,121273,2,0,B|279:210|257:184|262:173|235:143|176:164,1,158.400004833985,2|2,3:2|3:2,0:0:0:0:
95,104,122210,1,0,3:0:0:0:
295,37,122960,1,2,3:2:0:0:
399,24,123335,6,0,P|467:70|485:156,1,158.400004833985,2|8,3:2|0:0,0:0:0:0:
479,245,124273,2,0,P|433:313|347:331,1,158.400004833985,2|2,3:2|3:2,0:0:0:0:
257,324,125210,1,0,3:0:0:0:
178,259,125585,1,2,3:2:0:0:
32,101,126335,6,0,B|88:95|97:61|93:55|111:20|169:24,1,158.400004833985,6|8,3:2|0:0,0:0:0:0:
184,127,127273,2,0,B|240:133|249:167|245:172|263:208|321:204,1,158.400004833985,2|2,3:2|3:2,0:0:0:0:
374,118,128210,1,0,3:0:0:0:
475,150,128585,1,0,3:0:0:0:
475,255,128960,1,2,3:2:0:0:
311,316,129523,6,0,P|267:334|213:371,2,105.600003222656,2|8|2,0:0|0:0|3:2,0:0:0:0:
165,220,130835,1,2,3:2:0:0:
73,272,131210,2,0,P|25:210|35:79,1,211.200006445313,0|0,3:0|3:0,0:0:0:0:
120,24,132335,6,0,B|181:8|203:36|197:35|218:66|288:51,1,158.400004833985,6|8,3:2|0:0,0:0:0:0:
305,153,133273,2,0,B|321:214|293:236|294:230|263:251|278:321,1,158.400004833985,2|2,3:2|3:2,0:0:0:0:
176,338,134210,1,0,3:0:0:0:
22,192,134960,1,2,3:2:0:0:
123,222,135335,6,0,P|191:217|266:162,1,158.400004833985,2|8,3:2|0:0,0:0:0:0:
338,92,136273,2,0,P|406:97|481:152,1,158.400004833985,2|2,3:2|3:2,0:0:0:0:
491,252,137210,1,2,3:2:0:0:
354,360,137773,1,0,3:0:0:0:
342,186,138335,6,0,P|340:116|294:26,1,158.400004833985,6|8,3:2|0:0,0:0:0:0:
219,101,139273,1,2,3:2:0:0:
44,106,139835,2,0,P|45:152|75:212,1,105.600003222656,2|0,3:2|3:0,0:0:0:0:
134,288,140585,1,0,3:0:0:0:
239,301,140960,1,2,3:2:0:0:
410,269,141523,6,0,P|410:322|397:378,2,105.600003222656,2|8|2,0:0|0:0|3:2,0:0:0:0:
252,193,142835,1,2,3:2:0:0:
188,108,143210,2,0,P|225:32|291:35,1,158.400004833985,0|8,3:0|0:0,0:0:0:0:
448,27,144335,6,0,B|443:77|469:96|472:91|493:112|487:162,1,144,6|8,3:2|0:0,0:0:0:0:
482,256,145273,1,2,3:2:0:0:
360,357,145835,2,0,B|365:307|339:288|336:293|315:272|321:222,1,144,2|8,3:2|0:0,0:0:0:0:
326,128,146773,1,0,3:0:0:0:
196,36,147335,6,0,P|129:36|53:78,1,144,2|8,3:2|0:0,0:0:0:0:
27,160,148273,1,2,3:2:0:0:
108,295,148835,2,0,P|152:295|203:267,1,96,2|0,3:2|3:0,0:0:0:0:
268,206,149585,1,2,3:2:0:0:
353,254,149960,1,0,3:0:0:0:
333,349,150335,6,0,P|402:371|478:351,1,144,2|8,3:2|0:0,0:0:0:0:
497,263,151273,1,2,3:2:0:0:
395,141,151835,2,0,P|379:70|324:14,1,144,2|8,3:2|0:0,0:0:0:0:
239,42,152773,1,2,3:2:0:0:
184,192,153335,2,0,P|130:240|109:316,1,144,2|8,3:2|0:0,0:0:0:0:
176,377,154273,1,2,3:2:0:0:
303,233,155023,5,8,0:0:0:0:
379,175,155398,1,8,0:0:0:0:
347,84,155773,1,8,0:0:0:0:
193,44,156335,6,0,B|141:39|125:72|128:77|114:102|50:107,1,144,2|8,3:2|0:0,0:0:0:0:
43,197,157273,2,0,B|95:192|111:225|108:230|122:255|186:260,1,144,2|2,3:2|3:2,0:0:0:0:
230,185,158210,1,0,3:0:0:0:
302,248,158585,1,2,3:2:0:0:
479,362,159335,6,0,P|490:309|493:207,1,144,2|8,3:2|0:0,0:0:0:0:
402,190,160273,2,0,P|391:243|388:345,1,144,2|2,3:2|3:2,0:0:0:0:
296,365,161210,1,2,3:2:0:0:
138,348,161773,1,0,3:0:0:0:
231,219,162335,6,0,P|279:161|271:79,1,144,6|8,3:2|0:0,0:0:0:0:
199,40,163273,2,0,P|124:27|57:75,1,144,2|2,3:2|3:2,0:0:0:0:
60,158,164210,1,0,3:0:0:0:
100,244,164585,1,2,3:2:0:0:
194,232,164960,1,0,3:0:0:0:
211,138,165335,6,0,B|243:49|368:108|362:227|484:282|512:168,1,384,6|2,3:2|3:2,0:0:0:0:
501,75,167210,2,0,P|431:72|361:28,1,144,0|2,3:0|3:2,0:0:0:0:
256,147,168335,6,0,B|290:203|272:249|269:247|244:290|281:341,2,192,6|2|10,3:2|3:2|0:0,0:0:0:0:
173,98,170210,2,0,P|104:98|44:157,1,144,2|8,3:2|0:0,0:0:0:0:
159,259,171335,1,4,3:2:0:0:
393,348,183335,6,0,P|452:330|474:243,1,158.400004833985,6|8,3:2|0:0,0:0:0:0:
421,151,184273,2,0,P|362:169|340:256,1,158.400004833985,2|2,3:2|3:2,0:0:0:0:
196,355,185398,1,8,0:0:0:0:
96,212,185960,1,2,3:2:0:0:
201,204,186335,6,0,P|217:141|204:38,1,158.400004833985,2|8,3:2|0:0,0:0:0:0:
310,22,187273,2,0,P|356:67|452:107,1,158.400004833985,2|2,3:2|3:2,0:0:0:0:
413,207,188210,1,2,3:2:0:0:
297,337,188773,1,0,3:0:0:0:
167,221,189335,6,0,P|86:237|18:185,1,158.400004833985,6|8,3:2|0:0,0:0:0:0:
18,91,190273,1,2,3:2:0:0:
186,47,190835,2,0,P|239:36|285:70,1,105.600003222656,2|0,3:2|3:0,0:0:0:0:
320,160,191585,1,0,3:0:0:0:
425,168,191960,1,2,3:2:0:0:
369,333,192523,6,0,L|258:348,2,105.600003222656,2|8|0,0:0|0:0|3:0,0:0:0:0:
510,230,193835,1,6,3:2:0:0:
494,125,194210,2,0,P|423:103|374:29,1,158.400004833985,10|8,0:0|0:0,0:0:0:0:
216,23,195335,6,0,B|167:10|147:40|149:46|134:70|68:56,1,144,6|8,3:2|0:0,0:0:0:0:
16,127,196273,1,0,3:0:0:0:
83,269,196835,2,0,B|132:256|152:286|150:292|165:316|231:302,1,144,2|8,3:2|0:0,0:0:0:0:
283,373,197773,1,0,3:0:0:0:
441,365,198335,6,0,P|466:309|472:219,1,144,2|8,3:2|0:0,0:0:0:0:
378,245,199273,1,0,3:0:0:0:
241,165,199835,2,0,P|224:202|220:262,1,96,2|0,3:2|3:0,0:0:0:0:
170,339,200585,1,0,3:0:0:0:
87,290,200960,1,0,3:0:0:0:
30,211,201335,6,0,B|9:169|29:139|26:135|52:116|34:59,1,144,6|8,3:2|0:0,0:0:0:0:
123,28,202273,1,0,3:0:0:0:
211,159,202835,2,0,B|190:201|210:231|207:235|233:254|215:311,1,144,2|8,3:2|0:0,0:0:0:0:
304,342,203773,1,0,3:0:0:0:
415,229,204335,6,0,P|465:230|504:202,1,96,2|0,3:2|3:0,0:0:0:0:
500,108,205085,2,0,P|475:64|432:44,1,96,0|2,3:0|3:2,0:0:0:0:
353,95,205835,2,0,B|300:107|293:129|298:131|288:154|229:170,1,144,2|8,3:2|0:0,0:0:0:0:
152,116,206773,1,8,0:0:0:0:
31,218,207335,6,0,P|54:278|69:365,1,144,6|8,3:2|3:0,0:0:0:0:
163,370,208273,1,0,3:0:0:0:
320,360,208835,2,0,P|297:300|282:213,1,144,2|8,3:2|0:0,0:0:0:0:
188,208,209773,1,0,3:0:0:0:
112,68,210335,6,0,P|165:38|247:57,1,144,2|8,3:2|0:0,0:0:0:0:
330,95,211273,1,0,3:0:0:0:
403,235,211835,2,0,P|350:265|268:246,1,144,2|8,3:2|0:0,0:0:0:0:
185,208,212773,1,0,3:0:0:0:
43,279,213335,6,0,B|89:302|100:321|97:325|106:350|157:370,1,144,6|8,3:2|0:0,0:0:0:0:
247,352,214273,1,0,3:0:0:0:
405,361,214835,2,0,B|401:309|412:290|417:291|434:270|426:216,1,144,2|8,3:2|0:0,0:0:0:0:
366,147,215773,1,0,3:0:0:0:
296,7,216335,2,0,B|253:35|231:35|229:30|203:26|160:60,1,144,2|8,3:2|0:0,0:0:0:0:
130,147,217273,1,0,3:0:0:0:
282,189,217835,6,0,P|359:203|430:234,1,144,2|8,3:2|0:0,0:0:0:0:
419,325,218773,2,0,P|352:352|281:365,1,144,8|2,0:0|3:2,0:0:0:0:
