osu file format v14

[General]
AudioFilename: audio.mp3
AudioLeadIn: 0
PreviewTime: 48609
Countdown: 0
SampleSet: Soft
StackLeniency: 0.7
Mode: 2
LetterboxInBreaks: 0
WidescreenStoryboard: 1

[Editor]
Bookmarks: 534,10134,19884,29484,39084,48684,58284,67734,77484,87084,96684,106284,115884,125484,135084,144684,149484,154284,156684,163884,171084,173484,175734,178134
DistanceSpacing: 1.4
BeatDivisor: 4
GridSize: 8
TimelineZoom: 2.6

[Metadata]
Title:Boku wa Boku de shika Nakute
TitleUnicode:僕は僕でしかなくて
Artist:SECONDWALL
ArtistUnicode:SECONDWALL
Creator:Nelly
Version:Lumi's Platter
Source:
Tags:Aunn yukiya bashe mustacho -hex- -luminate wonjae paranoid grapes Beautiful Lie I'm only me swp yuka apg ryo yu-suke shohei japanese rock j-rock jrock
BeatmapID:2763891
BeatmapSetID:1334097

[Difficulty]
HPDrainRate:5
CircleSize:3.5
OverallDifficulty:8
ApproachRate:8
SliderMultiplier:1.7
SliderTickRate:2

[Events]
//Background and Video events
0,0,"background.jpg",0,0
//Break Periods
2,154504,155944
//Storyboard Layer 0 (Background)
//Storyboard Layer 1 (Fail)
//Storyboard Layer 2 (Pass)
//Storyboard Layer 3 (Foreground)
//Storyboard Layer 4 (Overlay)
//Storyboard Sound Samples

[TimingPoints]
694,300,4,2,1,75,1,0
19894,-100,4,2,1,60,0,0
29494,-100,4,2,1,70,0,0
39094,-100,4,2,1,65,0,0
43894,-100,4,2,1,75,0,0
47494,-100,4,2,1,75,0,0
48694,-100,4,2,1,95,0,1
67744,-100,4,2,1,75,0,0
77494,-100,4,2,1,65,0,0
87094,-100,4,2,1,70,0,0
96694,-100,4,2,1,65,0,0
101494,-100,4,2,1,75,0,0
105094,-100,4,2,1,75,0,0
106294,-100,4,2,1,95,0,1
125494,-100,4,2,1,65,0,0
144694,-100,4,2,1,70,0,0
149494,-100,4,2,1,75,0,0
149794,-100,4,2,1,55,0,0
150544,-100,4,2,1,65,0,0
151294,-100,4,2,1,75,0,0
153994,310.880829015544,4,2,1,75,1,0
154304,300,4,2,1,75,1,0
156694,300,4,2,1,95,1,1
156694,-100,4,2,1,95,0,1
173494,-100,4,2,1,75,0,0

[Colours]
Combo1 : 255,72,86
Combo2 : 45,160,41
Combo3 : 137,224,216
Combo4 : 255,64,121

[HitObjects]
128,280,544,6,0,P|88:184|136:136,1,170,0|0,3:0|3:0,0:0:0:0:
271,279,994,2,0,P|311:191|263:135,1,170,10|0,0:0|3:0,0:0:0:0:
123,141,1594,2,0,L|131:37,1,85,8|0,0:0|0:0,0:0:0:0:
344,320,1894,6,0,L|488:208,2,170,0|8|2,3:0|0:0|3:2,0:0:0:0:
296,248,2644,1,0,3:0:0:0:
344,160,2794,1,8,0:0:0:0:
112,320,2944,6,0,P|64:248|144:192,1,170,4|2,3:2|3:2,0:0:0:0:
248,192,3394,2,0,L|392:64,2,170,10|2|8,0:0|3:2|0:0,0:0:0:0:
464,320,4144,6,0,P|456:240|360:192,1,170,2|0,3:2|3:0,0:0:0:0:
240,280,4594,2,0,P|144:240|128:152,1,170,10|2,0:0|3:2,0:0:0:0:
136,104,5044,1,0,3:2:0:0:
208,64,5194,1,8,0:0:0:0:
432,304,5344,6,0,P|472:248|408:168,1,170,4|0,3:2|3:2,0:0:0:0:
280,128,5794,2,0,L|456:96,1,170,10|2,0:0|3:2,0:0:0:0:
488,176,6244,1,0,3:0:0:0:
448,256,6394,1,8,0:0:0:0:
216,328,6544,6,0,P|120:272|112:208,1,170,2|2,3:2|3:2,0:0:0:0:
200,208,6994,2,0,L|208:96,1,85,8|0,0:0|0:0,0:0:0:0:
112,120,7294,2,0,L|104:16,1,85,2|0,3:2|3:0,0:0:0:0:
200,40,7594,1,8,0:0:0:0:
432,328,7744,6,0,P|472:256|400:200,1,170,4|0,3:2|3:0,0:0:0:0:
288,200,8194,2,0,L|168:200,1,85,10|0,0:0|3:0,0:0:0:0:
336,72,8494,2,0,L|424:72,2,85,8|0|8,0:0|3:0|0:0,0:0:0:0:
96,80,8944,6,0,P|48:136|104:208,1,170,2|0,3:0|3:0,0:0:0:0:
240,272,9394,1,10,0:0:0:0:
168,240,9544,1,2,0:3:0:0:
96,208,9694,1,10,3:0:0:0:
352,200,9844,2,0,L|360:88,1,85,10|2,0:0|0:3,0:0:0:0:
96,208,10144,6,0,P|136:104|216:96,1,170,4|0,3:2|3:2,0:0:0:0:
320,288,10594,2,0,L|176:176,2,170,10|2|10,0:0|3:2|0:0,0:0:0:0:
408,240,11344,1,0,0:0:0:0:
320,288,11494,6,0,P|280:192|336:160,1,170,2|8,3:2|0:0,0:0:0:0:
480,160,12094,2,0,L|488:72,1,85,2|0,3:2|3:2,0:0:0:0:
408,48,12394,1,10,0:0:0:0:
192,328,12544,6,0,P|88:280|88:216,1,170,4|0,3:2|3:0,0:0:0:0:
256,232,12994,2,0,L|408:120,2,170,10|2|10,0:0|3:2|0:0,0:0:0:0:
472,336,13744,6,0,P|456:240|384:216,1,170,2|0,3:2|3:0,0:0:0:0:
256,232,14194,2,0,L|248:112,1,85,10|0,0:0|0:0,0:0:0:0:
400,152,14494,2,0,L|424:48,2,85,2|0|8,3:2|3:0|0:0,0:0:0:0:
152,336,14944,6,0,P|96:280|176:216,1,170,4|0,3:2|3:0,0:0:0:0:
272,216,15394,2,0,L|280:112,1,85,10|0,0:0|0:0,0:0:0:0:
136,88,15694,1,0,3:2:0:0:
208,56,15844,1,0,3:2:0:0:
280,32,15994,1,8,0:0:0:0:
56,336,16144,6,0,P|88:240|184:232,1,170,2|0,3:2|3:2,0:0:0:0:
296,224,16594,2,0,P|336:136|264:96,1,170,10|0,0:0|3:2,0:0:0:0:
168,96,17194,1,8,0:0:0:0:
416,336,17344,6,0,P|464:272|392:208,1,170,4|0,3:2|3:0,0:0:0:0:
280,208,17794,2,0,L|192:208,1,85,10|0,0:0|3:2,0:0:0:0:
320,80,18094,2,0,L|424:80,2,85,8|0|8,0:0|3:2|0:0,0:0:0:0:
88,288,18544,6,0,P|40:208|112:160,1,170,4|0,3:2|3:2,0:0:0:0:
320,288,18994,2,0,L|328:168,1,85,10|2,0:0|0:0,0:0:0:0:
88,160,19294,2,0,L|64:88,2,42.5,8|8|8,0:0|0:0|3:0,0:0:0:0:
176,216,19594,1,4,3:0:0:0:
176,258,19669,1,4,3:0:0:0:
157,295,19744,1,12,3:0:0:0:
123,320,19819,1,12,3:0:0:0:
96,344,19894,6,0,L|264:216,2,170,4|8|0,3:2|0:0|3:2,0:0:0:0:
72,344,20644,1,0,3:2:0:0:
256,328,20944,6,0,L|272:152,1,170,8|0,0:0|3:0,0:0:0:0:
344,144,21394,2,0,L|144:128,1,170,8|2,0:0|3:2,0:0:0:0:
240,80,21844,1,0,3:0:0:0:
176,40,21994,1,10,0:0:0:0:
448,304,22294,6,0,L|256:280,2,170,2|8|0,3:2|0:0|3:0,0:0:0:0:
488,296,23044,1,0,3:0:0:0:
248,264,23344,6,0,P|208:160|264:128,1,170,10|0,0:0|3:0,0:0:0:0:
352,184,23794,2,0,P|400:120|336:64,1,170,8|2,0:0|3:2,0:0:0:0:
272,40,24244,1,0,3:0:0:0:
344,16,24394,1,8,0:0:0:0:
72,344,24694,6,0,L|56:232,1,85,2|0,3:2|0:0,0:0:0:0:
160,248,24994,2,0,P|248:192|256:112,1,170,8|0,0:0|3:0,0:0:0:0:
192,64,25444,1,0,3:0:0:0:
376,336,25744,6,0,L|384:136,1,170,8|0,0:0|3:0,0:0:0:0:
288,128,26194,2,0,L|480:104,1,170,8|0,0:0|3:0,0:0:0:0:
464,56,26644,1,0,3:0:0:0:
472,176,26794,1,8,0:0:0:0:
208,312,27094,6,0,L|104:272,1,85,2|0,3:0|0:0,0:0:0:0:
208,248,27394,2,0,L|216:152,1,85,8|0,0:0|0:0,0:0:0:0:
64,176,27694,2,0,L|56:80,1,85,0|0,3:2|3:0,0:0:0:0:
288,304,28144,6,0,L|96:296,1,170,10|0,0:0|0:0,0:0:0:0:
208,256,28594,2,0,L|216:144,1,85,10|0,0:0|0:0,0:0:0:0:
128,152,28894,2,0,L|232:144,1,85,2|0,3:2|3:0,0:0:0:0:
360,160,29194,2,0,L|376:264,1,85,10|0,0:0|0:0,0:0:0:0:
104,336,29494,6,0,P|56:264|120:224,1,170,4|10,3:2|0:0,0:0:0:0:
176,192,29944,1,2,0:0:0:0:
208,112,30094,1,2,3:2:0:0:
192,32,30244,1,2,3:2:0:0:
48,96,30394,2,0,L|160:88,1,85,10|0,0:0|3:2,0:0:0:0:
272,328,30694,6,0,L|384:320,1,85,2|2,3:2|3:2,0:0:0:0:
280,256,30994,2,0,L|272:136,1,85,10|0,0:0|0:0,0:0:0:0:
432,200,31294,2,0,L|488:104,1,85,2|2,3:2|3:2,0:0:0:0:
472,56,31594,1,10,0:0:0:0:
192,344,31894,6,0,L|352:232,2,170,0|10|2,3:2|0:0|3:2,0:0:0:0:
120,304,32644,1,0,3:0:0:0:
48,256,32794,1,8,0:0:0:0:
48,184,32944,1,2,3:2:0:0:
208,352,33094,6,0,P|288:304|312:224,1,170,2|10,0:0|0:0,0:0:0:0:
224,224,33544,1,2,0:0:0:0:
72,216,33694,2,0,P|32:144|104:88,1,170,2|10,3:2|0:0,0:0:0:0:
168,88,34144,1,2,0:0:0:0:
320,248,34294,6,0,L|432:248,1,85,2|0,3:2|0:0,0:0:0:0:
264,160,34594,2,0,L|240:56,2,85,10|2|2,0:0|0:0|3:2,0:0:0:0:
352,208,35044,1,2,3:2:0:0:
288,248,35194,1,8,0:0:0:0:
216,280,35344,1,2,3:2:0:0:
368,352,35494,6,0,L|376:256,1,85,2|2,0:0|3:2,0:0:0:0:
280,248,35794,2,0,L|264:136,2,85,10|2|2,0:0|0:0|3:2,0:0:0:0:
360,248,36244,1,0,3:2:0:0:
280,336,36394,2,0,L|223:271,1,85,8|0,0:0|0:0,0:0:0:0:
376,288,36694,6,0,L|384:176,1,85,0|0,3:2|0:0,0:0:0:0:
304,192,36994,2,0,L|312:96,1,85,10|0,0:0|0:0,0:0:0:0:
464,136,37294,2,0,L|472:40,1,85,2|0,3:2|3:2,0:0:0:0:
320,48,37594,6,0,L|120:40,1,170,10|2,0:0|0:0,0:0:0:0:
224,112,38044,1,0,3:2:0:0:
72,248,38194,2,0,L|88:128,1,85,10|0,0:0|0:0,0:0:0:0:
352,240,38494,1,8,3:2:0:0:
425,198,38644,1,8,0:0:0:0:
420,117,38794,1,8,3:2:0:0:
349,77,38944,1,8,3:2:0:0:
96,80,39094,5,4,3:2:0:0:
296,288,39544,1,0,3:0:0:0:
144,288,39694,2,0,P|96:224|160:160,1,170,8|2,0:0|0:0,0:0:0:0:
224,152,40144,6,0,L|64:80,1,170,4|10,3:2|0:0,0:0:0:0:
224,264,40744,1,0,3:0:0:0:
224,264,40894,1,8,0:0:0:0:
136,344,41044,2,0,L|328:328,1,170,2|2,3:2|0:0,0:0:0:0:
56,224,41494,6,0,P|32:128|96:80,1,170,4|0,3:2|0:0,0:0:0:0:
152,88,41944,1,0,3:2:0:0:
280,224,42094,2,0,P|304:160|216:72,1,170,8|2,0:0|0:0,0:0:0:0:
112,304,42544,6,0,L|104:184,1,85,4|0,3:2|0:0,0:0:0:0:
264,216,42844,2,0,L|272:112,1,85,8|2,0:0|3:2,0:0:0:0:
184,120,43144,1,2,3:2:0:0:
328,336,43294,2,0,L|336:216,1,85,8|0,0:0|0:0,0:0:0:0:
184,256,43594,2,0,L|120:256,2,42.5,8|8|8,0:0|0:0|0:0,0:0:0:0:
424,192,43894,6,0,P|464:136|400:56,1,170,2|10,3:2|0:0,0:0:0:0:
336,64,44344,1,0,0:0:0:0:
176,336,44494,2,0,L|168:224,1,85,2|0,3:2|3:2,0:0:0:0:
256,248,44794,2,0,L|264:144,1,85,8|0,0:0|0:0,0:0:0:0:
48,176,45094,6,0,L|48:80,1,85,2|0,3:2|3:0,0:0:0:0:
192,280,45394,2,0,P|240:208|176:144,1,170,8|2,0:0|3:2,0:0:0:0:
112,144,45844,1,0,3:0:0:0:
48,91,45994,2,0,L|40:0,1,85,8|0,0:0|3:0,0:0:0:0:
312,336,46294,6,0,L|416:272,1,85,2|0,3:2|3:0,0:0:0:0:
304,240,46594,2,0,L|296:136,1,85,8|0,0:0|3:2,0:0:0:0:
448,184,46894,2,0,L|456:80,1,85,10|0,0:0|3:2,0:0:0:0:
304,88,47194,2,0,L|200:88,1,85,10|0,0:0|0:0,0:0:0:0:
440,320,47494,6,0,L|448:216,1,85,4|0,3:2|0:0,0:0:0:0:
224,256,47794,2,0,L|216:192,2,42.5,8|8|8,0:0|0:0|0:0,0:0:0:0:
368,320,48094,1,10,3:2:0:0:
406,302,48169,1,8,3:0:0:0:
432,270,48244,1,4,3:0:0:0:
441,228,48319,1,4,3:0:0:0:
429,188,48394,1,4,3:0:0:0:
400,157,48469,1,12,3:0:0:0:
360,144,48544,1,12,3:0:0:0:
80,216,48694,6,0,L|72:120,1,85,4|0,3:2|0:0,0:0:0:0:
160,144,48994,2,0,L|168:40,1,85,10|0,0:0|0:0,0:0:0:0:
16,288,49294,2,0,L|136:288,1,85,2|0,3:2|3:0,0:0:0:0:
336,200,49594,6,0,L|152:112,1,170,10|0,0:0|3:2,0:0:0:0:
416,344,50194,2,0,L|424:248,1,85,10|0,0:0|0:0,0:0:0:0:
328,264,50494,2,0,L|320:160,1,85,2|0,3:2|3:2,0:0:0:0:
472,136,50794,2,0,L|376:136,1,85,10|0,0:0|0:0,0:0:0:0:
160,192,51094,6,0,L|152:96,1,85,2|0,3:2|0:0,0:0:0:0:
240,280,51394,2,0,L|248:184,1,85,10|0,0:0|0:0,0:0:0:0:
104,120,51694,2,0,L|16:96,1,85,2|0,3:2|3:0,0:0:0:0:
256,336,51994,6,0,L|408:216,2,170,10|4|8,0:0|3:2|0:0,0:0:0:0:
448,328,52894,1,2,3:2:0:0:
384,272,53044,1,0,3:0:0:0:
448,232,53194,2,0,L|456:112,1,85,10|0,0:0|0:0,0:0:0:0:
200,96,53494,6,0,L|112:120,1,85,2|0,3:2|0:0,0:0:0:0:
120,168,53794,2,0,L|208:192,1,85,10|0,0:0|0:0,0:0:0:0:
56,336,54094,2,0,L|168:320,1,85,2|0,3:2|3:2,0:0:0:0:
384,248,54394,6,0,P|432:176|352:128,1,170,10|0,0:0|3:0,0:0:0:0:
208,144,54994,2,0,L|304:96,1,85,10|0,0:0|0:0,0:0:0:0:
288,72,55294,2,0,L|208:32,1,85,2|0,3:2|3:2,0:0:0:0:
376,344,55594,2,0,L|384:224,1,85,10|0,0:0|0:0,0:0:0:0:
136,272,55894,6,0,L|128:176,1,85,2|0,3:2|3:0,0:0:0:0:
192,128,56194,2,0,L|304:104,1,85,10|0,0:0|0:0,0:0:0:0:
424,104,56494,2,0,L|328:80,1,85,2|0,3:2|3:0,0:0:0:0:
112,208,56794,6,0,L|288:96,1,170,10|2,0:0|3:2,0:0:0:0:
48,96,57394,1,8,0:0:0:0:
48,96,57544,1,8,0:0:0:0:
184,304,57694,2,0,P|224:264|152:176,1,170,2|10,3:2|0:0,0:0:0:0:
96,176,58144,1,2,0:0:0:0:
336,344,58294,6,0,P|424:320|448:216,1,170,4|8,3:2|0:0,0:0:0:0:
376,232,58744,1,2,0:0:0:0:
232,216,58894,2,0,P|184:168|248:88,1,170,2|8,3:2|0:0,0:0:0:0:
312,96,59344,1,2,0:0:0:0:
80,312,59494,6,0,P|32:240|104:176,1,170,2|8,3:2|0:0,0:0:0:0:
296,248,60094,2,0,L|304:160,1,85,2|0,3:2|3:0,0:0:0:0:
216,176,60394,2,0,L|208:64,1,85,10|0,0:0|0:0,0:0:0:0:
448,368,60694,6,0,L|368:312,1,85,2|0,3:2|0:0,0:0:0:0:
240,272,60994,2,0,L|360:256,1,85,10|0,0:0|0:0,0:0:0:0:
400,248,61294,2,0,L|408:144,1,85,2|0,3:2|3:2,0:0:0:0:
160,168,61594,6,0,P|112:104|184:48,1,170,10|0,0:0|3:2,0:0:0:0:
400,240,62194,2,0,L|496:232,1,85,10|0,0:0|0:0,0:0:0:0:
360,128,62494,2,0,L|256:120,1,85,2|0,3:2|3:2,0:0:0:0:
400,240,62794,2,0,L|408:128,1,85,10|0,0:0|0:0,0:0:0:0:
176,144,63094,6,0,L|336:24,2,170,4|10|2,3:2|0:0|3:2,0:0:0:0:
104,144,63844,1,0,3:2:0:0:
312,304,64144,6,0,L|320:208,1,85,10|0,0:0|0:0,0:0:0:0:
240,208,64444,1,0,3:2:0:0:
320,192,64594,2,0,L|496:88,1,170,8|0,0:0|3:2,0:0:0:0:
392,88,65044,1,0,3:2:0:0:
240,128,65194,2,0,L|232:32,1,85,10|0,0:0|0:0,0:0:0:0:
464,328,65494,6,0,L|472:224,1,85,2|0,3:2|0:0,0:0:0:0:
328,232,65794,2,0,L|320:136,1,85,10|0,0:0|0:0,0:0:0:0:
464,104,66094,2,0,L|368:88,1,85,2|0,3:2|3:2,0:0:0:0:
304,64,66394,2,0,L|400:48,1,85,10|0,0:0|0:0,0:0:0:0:
152,320,66694,6,0,P|112:240|184:200,1,170,0|8,3:2|0:0,0:0:0:0:
408,264,67294,1,8,0:0:0:0:
439,236,67369,1,8,0:0:0:0:
459,198,67444,1,8,0:0:0:0:
448,152,67519,1,8,0:0:0:0:
408,120,67594,1,8,0:0:0:0:
120,336,67744,6,0,P|88:240|160:216,1,170,4|0,3:2|3:2,0:0:0:0:
271,279,68194,2,0,L|112:160,1,170,10|2,0:0|3:2,0:0:0:0:
320,160,68794,2,0,L|416:88,1,85,10|0,0:0|0:0,0:0:0:0:
168,320,69094,6,0,L|24:208,2,170,2|8|2,3:2|0:0|3:2,0:0:0:0:
216,248,69844,1,0,3:2:0:0:
168,160,69994,1,10,0:0:0:0:
400,320,70144,6,0,P|448:248|368:192,1,170,4|0,3:2|3:0,0:0:0:0:
264,192,70594,2,0,L|120:64,2,170,10|2|10,0:0|3:2|0:0,0:0:0:0:
48,320,71344,6,0,P|56:240|152:192,1,170,2|0,3:2|3:0,0:0:0:0:
272,280,71794,2,0,P|368:240|384:152,1,170,10|2,0:0|3:2,0:0:0:0:
376,104,72244,1,0,3:0:0:0:
304,64,72394,1,8,0:0:0:0:
80,304,72544,6,0,P|40:248|104:168,1,170,4|0,3:2|3:0,0:0:0:0:
232,128,72994,2,0,L|56:96,1,170,10|0,0:0|3:2,0:0:0:0:
24,176,73444,1,0,3:2:0:0:
64,256,73594,1,8,0:0:0:0:
296,328,73744,6,0,P|392:272|400:208,1,170,2|0,3:2|3:2,0:0:0:0:
312,208,74194,2,0,L|304:96,1,85,10|0,0:0|0:0,0:0:0:0:
400,120,74494,2,0,L|408:16,1,85,0|2,3:2|3:2,0:0:0:0:
312,40,74794,1,8,0:0:0:0:
80,328,74944,6,0,P|40:256|112:200,1,170,4|0,3:2|3:0,0:0:0:0:
224,200,75394,2,0,L|344:200,1,85,10|0,0:0|3:2,0:0:0:0:
168,32,75694,1,8,0:0:0:0:
134,56,75769,1,8,0:0:0:0:
120,96,75844,1,8,0:0:0:0:
130,136,75919,1,8,0:0:0:0:
162,163,75994,1,8,0:0:0:0:
424,320,76144,6,0,P|472:248|416:200,1,170,4|0,3:2|3:2,0:0:0:0:
208,352,76594,2,0,L|296:304,1,85,10|2,0:0|0:0,0:0:0:0:
421,200,76894,2,0,L|437:136,2,42.5,8|8|8,0:0|0:0|3:0,0:0:0:0:
293,216,77194,1,4,3:0:0:0:
296,257,77269,1,4,3:0:0:0:
321,291,77344,1,12,3:0:0:0:
360,307,77419,1,12,3:0:0:0:
416,344,77494,6,0,L|248:216,2,170,4|8|0,3:2|0:0|3:2,0:0:0:0:
440,344,78244,1,0,3:0:0:0:
256,328,78544,6,0,L|240:152,1,170,10|2,0:0|3:2,0:0:0:0:
328,192,78994,2,0,P|376:120|320:64,1,170,8|2,0:0|3:2,0:0:0:0:
256,48,79444,1,2,3:2:0:0:
328,16,79594,1,8,0:0:0:0:
64,304,79894,6,0,L|256:280,2,170,2|10|0,3:2|0:0|3:0,0:0:0:0:
24,296,80644,1,0,3:0:0:0:
264,264,80944,1,10,0:0:0:0:
160,248,81094,6,0,L|152:56,1,170,2|8,0:0|0:0,0:0:0:0:
240,64,81544,1,0,0:0:0:0:
88,64,81694,1,2,3:2:0:0:
24,120,81844,1,0,3:0:0:0:
88,184,81994,1,8,0:0:0:0:
360,344,82294,6,0,L|376:232,1,85,2|2,3:2|0:0,0:0:0:0:
280,248,82594,2,0,P|192:192|184:112,1,170,10|0,0:0|3:2,0:0:0:0:
256,120,83044,1,0,3:2:0:0:
56,336,83344,6,0,L|48:136,1,170,10|0,0:0|3:2,0:0:0:0:
184,176,83794,2,0,P|224:88|184:40,1,170,8|2,0:0|3:2,0:0:0:0:
56,40,84244,1,0,3:0:0:0:
48,128,84394,1,8,0:0:0:0:
248,344,84694,6,0,L|352:304,1,85,2|2,3:2|0:0,0:0:0:0:
400,272,84994,2,0,L|392:176,1,85,10|2,0:0|0:0,0:0:0:0:
256,192,85294,2,0,L|264:96,1,85,0|0,3:0|3:0,0:0:0:0:
392,104,85594,1,2,0:0:0:0:
464,328,85744,6,0,L|272:320,1,170,8|0,0:0|3:2,0:0:0:0:
384,272,86194,2,0,L|376:160,1,85,8|0,0:0|0:0,0:0:0:0:
288,192,86494,2,0,L|296:88,1,85,2|2,3:2|3:2,0:0:0:0:
432,112,86794,2,0,L|448:40,2,42.5,8|8|8,0:0|0:0|0:0,0:0:0:0:
198,347,87094,6,0,P|150:275|214:235,1,170,4|10,3:2|0:0,0:0:0:0:
270,187,87544,1,2,0:0:0:0:
294,107,87694,1,2,3:2:0:0:
262,43,87844,1,2,3:2:0:0:
128,40,87994,2,0,L|32:32,1,85,10|0,0:0|3:2,0:0:0:0:
192,336,88294,6,0,L|312:328,1,85,2|2,3:2|3:2,0:0:0:0:
136,248,88594,2,0,L|128:136,1,85,10|0,0:0|0:0,0:0:0:0:
208,168,88894,2,0,L|120:128,1,85,2|2,3:2|3:2,0:0:0:0:
48,128,89194,1,10,0:0:0:0:
328,296,89494,6,0,L|160:168,2,170,0|10|2,3:2|0:0|3:2,0:0:0:0:
400,280,90244,1,0,3:0:0:0:
464,248,90394,1,8,0:0:0:0:
472,184,90544,1,2,3:2:0:0:
320,352,90694,6,0,P|240:304|216:224,1,170,2|10,0:0|0:0,0:0:0:0:
304,224,91144,1,2,0:0:0:0:
440,216,91294,2,0,P|480:144|408:88,1,170,2|10,3:2|0:0,0:0:0:0:
344,88,91744,1,2,0:0:0:0:
200,224,91894,6,0,L|112:176,1,85,2|0,3:2|0:0,0:0:0:0:
272,128,92194,2,0,L|296:24,2,85,10|2|2,0:0|0:0|3:2,0:0:0:0:
192,152,92644,1,2,3:2:0:0:
128,208,92794,1,8,0:0:0:0:
128,280,92944,1,2,3:2:0:0:
280,336,93094,6,0,L|272:240,1,85,2|2,0:0|3:2,0:0:0:0:
184,240,93394,2,0,L|168:128,2,85,10|2|2,0:0|0:0|3:2,0:0:0:0:
264,240,93844,1,0,3:2:0:0:
400,216,93994,2,0,L|304:160,1,85,8|0,0:0|0:0,0:0:0:0:
176,304,94294,6,0,L|274:252,1,85,0|0,3:2|0:0,0:0:0:0:
248,176,94594,2,0,L|152:136,1,85,10|0,0:0|0:0,0:0:0:0:
24,136,94894,2,0,L|16:40,1,85,2|0,3:2|3:2,0:0:0:0:
168,40,95194,6,0,L|368:32,1,170,10|2,0:0|0:0,0:0:0:0:
264,112,95644,1,0,3:2:0:0:
400,288,95794,2,0,L|408:168,1,85,10|0,0:0|0:0,0:0:0:0:
152,248,96094,1,8,3:2:0:0:
87,198,96244,1,8,0:0:0:0:
92,117,96394,1,8,3:0:0:0:
163,77,96544,1,12,3:0:0:0:
416,80,96694,5,4,3:2:0:0:
216,288,97144,1,0,3:0:0:0:
368,288,97294,2,0,P|416:224|352:160,1,170,8|0,0:0|0:0,0:0:0:0:
288,152,97744,6,0,L|448:80,1,170,4|8,3:2|0:0,0:0:0:0:
288,264,98344,1,0,3:2:0:0:
288,264,98494,1,8,0:0:0:0:
200,264,98644,2,0,P|160:184|224:112,1,170,2|2,3:2|0:0,0:0:0:0:
440,224,99094,6,0,P|480:128|416:80,1,170,4|0,3:2|0:0,0:0:0:0:
360,88,99544,1,0,3:0:0:0:
200,224,99694,2,0,P|200:144|264:88,1,170,8|2,0:0|0:0,0:0:0:0:
392,304,100144,6,0,L|400:184,1,85,4|0,3:2|0:0,0:0:0:0:
248,216,100444,2,0,L|240:112,1,85,8|0,0:0|3:0,0:0:0:0:
328,120,100744,1,0,3:0:0:0:
176,336,100894,2,0,L|168:216,1,85,8|0,0:0|0:0,0:0:0:0:
328,256,101194,2,0,L|392:256,2,42.5,8|8|8,0:0|0:0|0:0,0:0:0:0:
88,192,101494,6,0,P|48:136|112:56,1,170,4|10,3:2|0:0,0:0:0:0:
176,64,101944,1,0,0:0:0:0:
336,336,102094,2,0,L|344:224,1,85,2|0,3:2|3:0,0:0:0:0:
256,248,102394,2,0,L|248:144,1,85,8|0,0:0|0:0,0:0:0:0:
464,176,102694,6,0,L|464:80,1,85,2|0,3:2|3:0,0:0:0:0:
320,280,102994,2,0,P|272:208|336:144,1,170,8|2,0:0|3:2,0:0:0:0:
400,144,103444,1,0,3:0:0:0:
464,91,103594,2,0,L|472:0,1,85,10|0,0:0|0:0,0:0:0:0:
200,336,103894,6,0,L|96:272,1,85,10|0,0:0|3:0,0:0:0:0:
112,248,104119,1,0,3:0:0:0:
128,200,104194,1,8,3:2:0:0:
216,184,104344,1,0,3:0:0:0:
64,184,104494,2,0,L|56:80,1,85,10|0,0:0|3:0,0:0:0:0:
80,56,104719,1,0,3:0:0:0:
128,32,104794,2,0,L|232:32,1,85,10|0,0:0|0:0,0:0:0:0:
432,296,105094,6,0,L|440:232,2,42.5,8|8|8,0:0|0:0|0:0,0:0:0:0:
304,280,105394,2,0,L|288:216,2,42.5,8|8|8,0:0|0:0|0:0,0:0:0:0:
424,320,105694,1,8,3:0:0:0:
462,302,105769,1,8,3:0:0:0:
488,270,105844,1,8,3:0:0:0:
497,228,105919,1,4,3:0:0:0:
485,188,105994,1,4,3:0:0:0:
456,157,106069,1,4,3:0:0:0:
416,144,106144,1,12,3:0:0:0:
200,200,106294,6,0,L|208:104,1,85,4|0,3:2|0:0,0:0:0:0:
296,120,106594,2,0,L|288:16,1,85,10|0,0:0|0:0,0:0:0:0:
120,296,106894,2,0,L|80:192,1,85,2|0,3:2|3:0,0:0:0:0:
328,352,107194,6,0,P|432:312|456:232,1,170,10|0,0:0|3:2,0:0:0:0:
232,232,107794,2,0,L|224:120,1,85,10|0,0:0|0:0,0:0:0:0:
304,120,108094,2,0,L|392:72,1,85,2|0,3:2|3:2,0:0:0:0:
240,72,108394,2,0,L|128:16,1,85,10|0,0:0|0:0,0:0:0:0:
384,304,108694,6,0,L|392:208,1,85,2|0,3:2|0:0,0:0:0:0:
304,216,108994,2,0,L|296:120,1,85,10|0,0:0|0:0,0:0:0:0:
448,160,109294,2,0,L|456:56,1,85,2|0,3:2|3:0,0:0:0:0:
232,336,109594,6,0,L|80:216,2,170,10|4|8,0:0|3:2|0:0,0:0:0:0:
88,328,110494,1,2,3:2:0:0:
160,272,110644,1,0,3:0:0:0:
80,232,110794,2,0,L|72:112,1,85,10|0,0:0|0:0,0:0:0:0:
312,88,111094,6,0,L|416:88,1,85,2|0,3:2|0:0,0:0:0:0:
368,192,111394,2,0,L|280:200,1,85,10|0,0:0|0:0,0:0:0:0:
128,272,111694,2,0,L|88:184,1,85,2|0,3:2|3:2,0:0:0:0:
312,256,111994,6,0,P|360:184|280:136,1,170,10|0,0:0|3:0,0:0:0:0:
136,160,112594,2,0,L|128:56,1,85,10|0,0:0|0:0,0:0:0:0:
288,96,112894,2,0,L|208:56,1,85,2|0,3:2|3:2,0:0:0:0:
72,256,113194,2,0,L|160:208,1,85,10|0,0:0|0:0,0:0:0:0:
384,232,113494,6,0,L|392:136,1,85,2|0,3:2|0:0,0:0:0:0:
304,168,113794,2,0,L|296:64,1,85,10|0,0:0|0:0,0:0:0:0:
448,64,114094,2,0,L|352:40,1,85,2|0,3:2|3:0,0:0:0:0:
128,216,114394,6,0,L|288:96,1,170,10|2,0:0|3:2,0:0:0:0:
40,96,114994,1,8,0:0:0:0:
128,120,115144,1,8,0:0:0:0:
144,168,115219,1,0,0:0:0:0:
121,216,115294,2,0,L|17:216,1,85,2|0,3:2|3:0,0:0:0:0:
176,304,115594,2,0,L|272:304,1,85,10|2,0:0|0:0,0:0:0:0:
36,216,115894,6,0,P|48:304|128:336,1,170,4|8,3:2|0:0,0:0:0:0:
208,296,116344,1,2,0:0:0:0:
360,216,116494,2,0,P|368:128|280:80,1,170,2|8,3:2|0:0,0:0:0:0:
216,88,116944,1,2,0:0:0:0:
440,312,117094,6,0,P|488:240|416:176,1,170,2|8,3:2|0:0,0:0:0:0:
216,248,117694,2,0,L|208:160,1,85,2|0,3:2|3:0,0:0:0:0:
296,176,117994,2,0,L|304:64,1,85,10|0,0:0|0:0,0:0:0:0:
80,376,118294,6,0,L|144:320,1,85,2|0,3:2|0:0,0:0:0:0:
280,320,118594,2,0,L|184:256,1,85,10|0,0:0|0:0,0:0:0:0:
120,248,118894,2,0,L|112:144,1,85,2|0,3:2|3:2,0:0:0:0:
352,168,119194,6,0,P|400:104|328:48,1,170,10|0,0:0|3:2,0:0:0:0:
112,240,119794,2,0,L|16:232,1,85,10|0,0:0|0:0,0:0:0:0:
176,128,120094,2,0,L|280:120,1,85,2|0,3:2|3:2,0:0:0:0:
112,240,120394,2,0,L|104:128,1,85,10|0,0:0|0:0,0:0:0:0:
336,144,120694,6,0,L|192:16,2,170,4|8|0,3:2|0:0|3:0,0:0:0:0:
408,144,121444,1,2,3:2:0:0:
200,304,121744,6,0,L|192:208,1,85,10|0,0:0|3:0,0:0:0:0:
272,208,122044,1,0,3:0:0:0:
192,192,122194,2,0,L|16:88,1,170,8|0,0:0|3:2,0:0:0:0:
120,88,122644,1,0,3:0:0:0:
272,128,122794,2,0,L|280:32,1,85,8|8,0:0|0:0,0:0:0:0:
48,328,123094,6,0,L|40:224,1,85,4|0,3:2|0:0,0:0:0:0:
176,224,123394,2,0,L|184:128,1,85,10|0,0:0|3:0,0:0:0:0:
48,104,123694,2,0,L|144:88,1,85,2|0,0:0|3:0,0:0:0:0:
200,48,123994,2,0,L|104:32,1,85,8|0,0:0|0:0,0:0:0:0:
360,320,124294,6,0,P|400:240|328:200,1,170,4|8,3:2|0:0,0:0:0:0:
264,200,124744,1,8,0:0:0:0:
416,152,124894,1,8,0:0:0:0:
488,120,125044,1,8,0:0:0:0:
488,32,125194,1,8,0:0:0:0:
408,8,125344,1,8,3:0:0:0:
176,24,125494,6,0,L|64:24,1,85,4|0,3:2|3:0,0:0:0:0:
224,136,125944,1,4,3:2:0:0:
96,248,126244,1,0,3:0:0:0:
328,296,126394,2,0,L|336:192,1,85,12|0,0:0|3:0,0:0:0:0:
472,200,126844,5,2,3:2:0:0:
216,128,127144,1,0,3:0:0:0:
344,120,127294,2,0,L|352:16,1,85,8|0,0:0|3:0,0:0:0:0:
272,32,127594,2,0,L|184:32,1,85,8|4,3:0|3:0,0:0:0:0:
432,280,127894,5,12,0:0:0:0:
344,280,128044,2,0,L|328:88,1,170,0|4,3:0|3:2,0:0:0:0:
184,104,128644,1,0,3:0:0:0:
424,288,128794,2,0,L|432:184,1,85,12|0,0:0|3:0,0:0:0:0:
288,200,129244,5,2,3:2:0:0:
432,152,129544,2,0,L|448:72,2,42.5,0|0|10,3:0|3:0|0:0,0:0:0:0:
352,152,129844,1,0,3:2:0:0:
432,152,129994,2,0,L|440:48,1,85,8|4,3:0|3:0,0:0:0:0:
192,320,130294,6,0,L|304:280,1,85,12|0,0:0|3:0,0:0:0:0:
168,208,130744,1,2,3:2:0:0:
272,144,131044,1,0,3:2:0:0:
56,272,131194,2,0,L|48:168,1,85,12|0,0:0|3:0,0:0:0:0:
176,160,131644,5,2,3:2:0:0:
48,120,131944,1,0,3:0:0:0:
272,136,132094,2,0,L|264:32,1,85,10|8,0:0|3:0,0:0:0:0:
216,56,132319,1,4,3:0:0:0:
168,136,132394,2,0,L|176:40,1,85,12|0,3:0|3:0,0:0:0:0:
400,216,132694,5,12,0:0:0:0:
480,144,132844,2,0,L|288:112,1,170,0|2,3:0|3:2,0:0:0:0:
440,304,133444,1,0,3:0:0:0:
216,304,133594,2,0,L|208:208,1,85,12|0,0:0|3:0,0:0:0:0:
64,216,134044,5,2,3:2:0:0:
208,152,134344,1,0,3:0:0:0:
128,144,134494,2,0,L|120:24,1,85,12|8,0:0|3:0,0:0:0:0:
160,40,134719,1,4,3:0:0:0:
208,32,134794,1,12,3:0:0:0:
120,16,134944,1,8,3:0:0:0:
360,320,135094,6,0,L|472:320,1,85,12|0,0:0|3:0,0:0:0:0:
320,216,135544,1,2,3:2:0:0:
448,144,135844,1,0,3:0:0:0:
224,136,135994,1,12,0:0:0:0:
304,112,136144,6,0,L|312:16,1,85,0|0,3:0|0:0,0:0:0:0:
224,136,136444,2,0,L|216:32,1,85,0|0,3:2|0:0,0:0:0:0:
368,288,136744,2,0,L|376:224,2,42.5,0|0|12,3:0|3:0|0:0,0:0:0:0:
288,320,137044,1,0,3:0:0:0:
368,360,137194,2,0,L|472:336,1,85,8|0,0:0|3:0,0:0:0:0:
192,224,137494,6,0,L|184:120,1,85,14|0,0:0|3:0,0:0:0:0:
320,80,137944,1,0,3:2:0:0:
168,80,138244,2,0,L|160:16,2,42.5,0|0|12,3:0|3:0|0:0,0:0:0:0:
296,136,138544,1,0,3:0:0:0:
96,280,138844,6,0,P|56:184|128:144,1,170,2|0,3:2|3:0,0:0:0:0:
328,312,139294,2,0,L|336:200,1,85,12|0,0:0|3:0,0:0:0:0:
184,224,139594,2,0,L|176:112,1,85,12|0,0:0|3:2,0:0:0:0:
432,160,139894,6,0,L|440:48,1,85,12|0,0:0|3:0,0:0:0:0:
280,80,140344,1,0,3:2:0:0:
432,216,140644,2,0,L|440:152,2,42.5,0|0|12,3:0|3:0|0:0,0:0:0:0:
360,336,140944,6,0,L|352:216,1,85,0|0,3:0|0:0,0:0:0:0:
264,240,141244,2,0,L|288:128,1,85,0|0,3:2|0:0,0:0:0:0:
440,136,141544,2,0,L|448:80,2,42.5,0|0|12,3:0|3:0|0:0,0:0:0:0:
360,136,141844,1,0,3:0:0:0:
200,136,141994,2,0,L|192:40,1,85,2|0,0:0|3:0,0:0:0:0:
440,320,142294,6,0,L|448:216,1,85,12|0,0:0|3:0,0:0:0:0:
360,240,142594,2,0,L|272:200,1,85,0|2,0:0|3:2,0:0:0:0:
200,208,142894,2,0,L|192:96,1,85,0|0,0:0|3:0,0:0:0:0:
416,184,143194,6,0,P|464:136|392:48,1,170,12|0,0:0|0:0,0:0:0:0:
224,48,143794,2,0,L|136:48,1,85,0|2,0:0|3:2,0:0:0:0:
296,176,144094,2,0,L|392:176,1,85,12|0,0:0|3:0,0:0:0:0:
424,160,144319,1,0,3:0:0:0:
432,136,144394,2,0,L|440:16,1,85,8|0,0:0|3:0,0:0:0:0:
200,320,144694,5,12,0:0:0:0:
288,296,144844,2,0,L|296:112,1,170,0|2,0:0|3:2,0:0:0:0:
152,128,145444,1,0,3:0:0:0:
392,224,145594,6,0,L|400:112,1,85,12|0,0:0|3:0,0:0:0:0:
312,152,145894,2,0,L|304:32,1,85,0|2,0:0|3:2,0:0:0:0:
400,136,146194,2,0,L|408:16,1,85,0|0,0:0|3:0,0:0:0:0:
192,272,146494,2,0,L|96:248,1,85,12|0,0:0|3:0,0:0:0:0:
256,152,146794,2,0,L|368:128,1,85,8|0,0:0|3:0,0:0:0:0:
104,144,147094,5,12,0:0:0:0:
32,96,147244,2,0,P|56:40|176:16,1,170,0|2,3:0|3:2,0:0:0:0:
328,280,147844,2,0,L|344:208,2,42.5,0|0|12,3:0|3:0|0:0,0:0:0:0:
200,296,148144,1,0,3:0:0:0:
432,336,148444,5,0,3:2:0:0:
296,232,148744,1,0,3:0:0:0:
432,200,148894,2,0,L|440:80,1,85,8|0,0:0|3:0,0:0:0:0:
360,80,149194,2,0,L|464:64,1,85,8|0,0:0|3:0,0:0:0:0:
208,336,149494,5,4,3:2:0:0:
128,288,149644,1,0,0:0:0:0:
128,192,149794,1,8,0:0:0:0:
208,144,149944,1,8,0:0:0:0:
352,336,150094,1,10,0:0:0:0:
432,288,150244,1,8,0:0:0:0:
432,192,150394,1,8,0:0:0:0:
352,144,150544,1,8,0:0:0:0:
136,296,150694,6,0,L|128:200,1,85,10|8,0:0|0:0,0:0:0:0:
216,208,150994,2,0,L|224:112,1,85,8|8,0:0|0:0,0:0:0:0:
80,128,151294,2,0,L|72:24,1,85,10|8,0:0|0:0,0:0:0:0:
152,32,151594,1,8,0:0:0:0:
72,40,151744,1,8,0:0:0:0:
304,336,151894,6,0,P|352:280|296:208,1,170,4|8,3:2|0:0,0:0:0:0:
256,184,152269,1,8,0:0:0:0:
208,176,152344,1,8,0:0:0:0:
336,136,152494,1,10,0:0:0:0:
344,88,152569,1,8,0:0:0:0:
352,40,152644,1,8,0:0:0:0:
480,296,152794,1,8,3:0:0:0:
472,248,152869,1,8,3:0:0:0:
464,192,152944,1,8,3:0:0:0:
248,184,153094,6,0,L|200:184,2,42.5,4|4|4,3:0|3:0|3:0,0:0:0:0:
336,184,153394,2,0,L|344:88,1,85,4|0,3:2|0:0,0:0:0:0:
112,336,153694,2,0,L|96:240,2,56.6666666666667,8|8|8,0:0|0:0|3:0,0:0:0:0:
192,336,153994,2,0,L|208:256,2,56.6666666666667,8|4|4,3:0|3:0|3:0,0:0:0:0:
112,336,154304,5,4,3:2:0:0:
432,304,156694,6,0,L|440:208,1,85,4|0,3:2|0:0,0:0:0:0:
296,184,156994,2,0,L|224:96,1,85,10|0,0:0|0:0,0:0:0:0:
416,120,157294,2,0,L|424:16,1,85,2|0,3:2|3:0,0:0:0:0:
184,336,157594,6,0,L|32:216,2,170,10|0|8,0:0|3:2|0:0,0:0:0:0:
392,328,158494,1,0,3:2:0:0:
400,240,158644,1,0,3:2:0:0:
264,216,158794,2,0,L|256:96,1,85,8|0,0:0|0:0,0:0:0:0:
480,80,159094,6,0,L|376:64,1,85,2|0,3:2|0:0,0:0:0:0:
304,72,159394,2,0,L|296:168,1,85,10|0,0:0|0:0,0:0:0:0:
432,312,159694,2,0,L|424:192,1,85,2|0,3:2|3:0,0:0:0:0:
208,328,159994,6,0,P|160:256|240:208,1,170,10|0,0:0|3:2,0:0:0:0:
392,208,160594,2,0,L|392:96,1,85,10|0,0:0|0:0,0:0:0:0:
304,160,160894,2,0,L|296:72,1,85,2|0,3:2|3:0,0:0:0:0:
440,328,161194,2,0,L|352:280,1,85,10|0,0:0|0:0,0:0:0:0:
144,272,161494,6,0,L|152:176,1,85,2|0,3:2|0:0,0:0:0:0:
289,164,161794,2,0,L|281:60,1,85,10|0,0:0|0:0,0:0:0:0:
152,128,162094,2,0,L|136:16,1,85,2|0,3:2|3:2,0:0:0:0:
368,328,162394,6,0,P|408:240|344:208,1,170,10|0,0:0|3:0,0:0:0:0:
200,208,162994,1,8,0:0:0:0:
264,168,163144,1,0,0:0:0:0:
128,128,163294,2,0,L|120:24,1,85,2|0,3:2|3:2,0:0:0:0:
200,32,163594,1,8,0:0:0:0:
120,16,163744,1,10,0:0:0:0:
344,240,163894,6,0,P|306:313|225:330,1,170,4|8,3:2|0:0,0:0:0:0:
304,344,164344,1,2,0:0:0:0:
176,264,164494,2,0,P|128:216|192:136,1,170,2|8,3:2|0:0,0:0:0:0:
256,136,164944,1,2,0:0:0:0:
32,312,165094,6,0,P|32:240|104:176,1,170,2|8,3:2|0:0,0:0:0:0:
288,264,165694,2,0,L|280:176,1,85,2|0,3:2|3:0,0:0:0:0:
192,176,165994,2,0,L|200:64,1,85,10|0,0:0|0:0,0:0:0:0:
424,352,166294,6,0,L|504:312,1,85,2|0,3:2|0:0,0:0:0:0:
368,256,166594,2,0,L|264:208,1,85,10|0,0:0|0:0,0:0:0:0:
208,192,166894,2,0,L|200:88,1,85,2|0,3:2|3:2,0:0:0:0:
432,176,167194,6,0,P|480:112|408:56,1,170,10|0,0:0|3:2,0:0:0:0:
248,312,167794,2,0,L|240:192,1,85,10|0,0:0|0:0,0:0:0:0:
329,228,168094,2,0,L|337:116,1,85,2|0,3:2|3:2,0:0:0:0:
184,128,168394,2,0,L|96:96,1,85,10|0,0:0|0:0,0:0:0:0:
335,143,168694,6,0,L|490:75,2,170,4|10|2,3:2|0:0|3:2,0:0:0:0:
416,184,169444,1,0,3:2:0:0:
496,312,169594,2,0,L|488:224,1,85,8|2,0:0|3:2,0:0:0:0:
368,224,169894,6,0,L|272:208,1,85,0|0,0:0|3:2,0:0:0:0:
416,184,170194,2,0,P|464:112|408:72,1,170,8|0,0:0|3:2,0:0:0:0:
328,64,170644,1,0,3:2:0:0:
192,96,170794,2,0,L|200:-8,1,85,10|0,0:0|0:0,0:0:0:0:
432,336,171094,6,0,L|440:232,1,85,14|0,0:0|3:0,0:0:0:0:
296,240,171394,2,0,L|288:144,1,85,0|8,3:2|0:0,0:0:0:0:
368,128,171694,2,0,L|272:112,1,85,2|0,3:2|3:2,0:0:0:0:
144,64,171994,2,0,L|136:184,1,85,10|0,0:0|0:0,0:0:0:0:
368,320,172294,5,8,0:0:0:0:
401,294,172369,1,8,0:0:0:0:
411,254,172444,1,8,3:0:0:0:
393,216,172519,1,8,3:0:0:0:
355,198,172594,1,4,3:0:0:0:
264,200,172744,1,8,0:0:0:0:
128,200,172894,1,8,0:0:0:0:
48,152,173044,1,8,0:0:0:0:
48,64,173194,1,8,0:0:0:0:
128,32,173344,1,8,0:0:0:0:
368,32,173494,5,4,3:2:0:0:
256,192,173644,12,0,175594,3:0:0:0:
136,336,175894,6,0,L|128:224,1,85,8|0,0:0|0:0,0:0:0:0:
224,240,176194,2,0,L|232:120,1,85,2|8,0:0|3:0,0:0:0:0:
320,168,176494,2,0,L|328:48,1,85,2|0,0:0|3:0,0:0:0:0:
416,64,176794,1,12,0:0:0:0:
168,136,177094,6,0,L|144:48,2,85,2|0|2,0:0|3:0|0:0,0:0:0:0:
248,168,177544,1,0,3:0:0:0:
80,328,177694,2,0,L|24:256,2,85,12|12|12,0:0|0:0|0:0,0:0:0:0:
312,336,178144,1,12,0:0:0:0:
