osu file format v14

[General]
AudioFilename: audio.mp3
AudioLeadIn: 0
PreviewTime: 48609
Countdown: 0
SampleSet: Soft
StackLeniency: 0.7
Mode: 2
LetterboxInBreaks: 0
WidescreenStoryboard: 1

[Editor]
Bookmarks: 534,10134,19884,29484,39084,48684,58284,67734,77484,87084,96684,106284,115884,125484,135084,144684,149484,154284,156684,163884,171084,173484,175734,178134
DistanceSpacing: 1
BeatDivisor: 6
GridSize: 32
TimelineZoom: 2.6

[Metadata]
Title:Boku wa Boku de shika Nakute
TitleUnicode:僕は僕でしかなくて
Artist:SECONDWALL
ArtistUnicode:SECONDWALL
Creator:Nelly
Version:Hex's Rain
Source:
Tags:Aunn yukiya bashe mustacho -hex- -luminate wonjae paranoid grapes Beautiful Lie I'm only me swp yuka apg ryo yu-suke shohei japanese rock j-rock jrock
BeatmapID:2763890
BeatmapSetID:1334097

[Difficulty]
HPDrainRate:6
CircleSize:4
OverallDifficulty:9
ApproachRate:9
SliderMultiplier:1.8
SliderTickRate:2

[Events]
//Background and Video events
0,0,"background.jpg",0,0
//Break Periods
2,154504,156094
//Storyboard Layer 0 (Background)
//Storyboard Layer 1 (Fail)
//Storyboard Layer 2 (Pass)
//Storyboard Layer 3 (Foreground)
//Storyboard Layer 4 (Overlay)
//Storyboard Sound Samples

[TimingPoints]
694,300,4,2,1,75,1,0
19894,-100,4,2,1,60,0,0
29494,-100,4,2,1,70,0,0
39094,-100,4,2,1,65,0,0
43894,-100,4,2,1,75,0,0
47494,-90.9090909090909,4,2,1,75,0,0
48694,-90.9090909090909,4,2,1,95,0,1
67744,-100,4,2,1,75,0,0
77494,-100,4,2,1,65,0,0
87094,-100,4,2,1,70,0,0
96694,-100,4,2,1,65,0,0
101494,-100,4,2,1,75,0,0
105094,-95.2380952380952,4,2,1,75,0,0
106294,-90.9090909090909,4,2,1,95,0,1
107794,-76.9230769230769,4,2,1,95,0,1
108544,-90.9090909090909,4,2,1,95,0,1
125494,-100,4,2,1,65,0,0
144694,-100,4,2,1,70,0,0
149494,-90.9090909090909,4,2,1,75,0,0
149794,-90.9090909090909,4,2,1,55,0,0
150544,-90.9090909090909,4,2,1,65,0,0
151294,-90.9090909090909,4,2,1,75,0,0
153994,310.880829015544,4,2,1,75,1,0
154304,300,4,2,1,75,1,0
156694,300,4,2,1,95,1,1
156694,-90.9090909090909,4,2,1,95,0,1
173494,-100,4,2,1,75,0,0

[Colours]
Combo1 : 255,72,86
Combo2 : 45,160,41
Combo3 : 137,224,216
Combo4 : 255,64,121

[HitObjects]
279,315,544,6,0,P|223:272|296:224,1,180,0|0,3:0|3:0,0:0:0:0:
425,221,994,2,0,L|434:115,1,90,10|0,0:0|0:0,0:0:0:0:
356,100,1294,1,0,3:0:0:0:
433,56,1444,1,0,3:0:0:0:
216,224,1594,6,0,L|18:209,1,180,8|0,0:0|3:0,0:0:0:0:
172,110,2044,2,0,L|278:100,2,90,2|8|2,3:2|0:0|0:0,0:0:0:0:
308,163,2494,2,0,L|316:273,1,90,2|0,3:2|3:0,0:0:0:0:
233,247,2794,1,8,0:0:0:0:
468,329,2944,6,0,P|427:242|339:202,1,180,4|2,3:2|3:2,0:0:0:0:
222,206,3394,2,0,L|215:111,1,90,10|0,0:0|0:0,0:0:0:0:
297,55,3694,2,0,L|392:52,2,90,2|0|8,3:2|3:0|0:0,0:0:0:0:
71,156,4144,6,0,P|18:191|81:274,1,180,2|0,3:2|3:0,0:0:0:0:
203,278,4594,2,0,L|305:276,1,90,10|0,0:0|0:0,0:0:0:0:
215,201,4894,2,0,L|92:202,2,90,2|0|8,3:2|3:2|0:0,0:0:0:0:
454,202,5344,6,0,P|448:133|339:88,1,180,4|0,3:2|3:2,0:0:0:0:
227,93,5794,2,0,L|345:89,1,90,10|0,0:0|0:0,0:0:0:0:
235,175,6094,2,0,L|121:175,2,90,2|0|8,3:2|3:0|0:0,0:0:0:0:
452,326,6544,6,0,P|397:367|305:306,1,180,2|2,3:2|3:2,0:0:0:0:
440,242,6994,2,0,L|443:137,1,90,8|0,0:0|0:0,0:0:0:0:
363,116,7294,2,0,L|266:113,2,90,2|0|8,3:2|3:0|0:0,0:0:0:0:
126,318,7744,6,0,P|74:297|140:229,1,180,4|0,3:2|3:0,0:0:0:0:
267,226,8194,2,0,L|273:117,1,90,10|0,0:0|3:0,0:0:0:0:
136,70,8494,2,0,L|257:64,1,90,8|0,0:0|3:0,0:0:0:0:
362,63,8794,1,8,0:0:0:0:
121,152,8944,6,0,P|62:176|129:251,1,180,2|0,3:0|3:0,0:0:0:0:
205,252,9394,1,10,0:0:0:0:
110,253,9544,1,2,0:3:0:0:
344,338,9694,1,10,3:0:0:0:
227,344,9844,1,10,0:0:0:0:
344,338,9994,1,2,0:3:0:0:
63,179,10144,6,0,P|102:127|235:65,1,180,4|0,3:2|3:2,0:0:0:0:
337,243,10594,2,0,L|220:242,1,90,10|0,0:0|0:0,0:0:0:0:
165,242,10894,1,2,3:2:0:0:
247,242,11044,1,0,3:2:0:0:
467,362,11194,6,0,P|472:301|356:245,1,180,10|2,0:0|3:2,0:0:0:0:
247,242,11644,2,0,L|146:239,2,90,0|8|2,3:0|0:0|0:0,0:0:0:0:
381,255,12094,2,0,L|394:150,1,90,2|0,3:2|3:2,0:0:0:0:
310,146,12394,1,10,0:0:0:0:
74,42,12544,6,0,L|250:128,1,180,4|0,3:2|3:0,0:0:0:0:
105,235,12994,2,0,L|2:236,1,90,10|0,0:0|0:0,0:0:0:0:
97,160,13294,2,0,L|213:159,2,90,2|0|10,3:2|3:0|0:0,0:0:0:0:
324,304,13744,6,0,L|534:296,1,180,2|0,3:2|3:0,0:0:0:0:
369,219,14194,2,0,L|364:121,1,90,10|0,0:0|0:0,0:0:0:0:
446,70,14494,2,0,L|316:63,2,90,2|0|8,3:2|3:0|0:0,0:0:0:0:
224,285,14944,6,0,P|161:234|236:194,1,180,4|0,3:2|3:0,0:0:0:0:
357,187,15394,2,0,L|466:189,1,90,10|0,0:0|0:0,0:0:0:0:
367,100,15694,2,0,L|255:100,2,90,0|0|8,3:2|3:2|0:0,0:0:0:0:
152,341,16144,6,0,P|81:327|81:219,1,180,2|0,3:2|3:2,0:0:0:0:
205,211,16594,2,0,L|213:99,1,90,10|0,0:0|0:0,0:0:0:0:
129,93,16894,2,0,L|28:91,2,90,0|2|8,3:2|3:2|0:0,0:0:0:0:
361,104,17344,6,0,P|432:126|455:238,1,180,4|0,3:2|3:0,0:0:0:0:
325,296,17794,2,0,L|196:286,1,90,10|0,0:0|3:2,0:0:0:0:
376,181,18094,2,0,L|483:177,1,90,8|0,0:0|3:2,0:0:0:0:
376,83,18394,1,8,0:0:0:0:
108,129,18544,6,0,P|45:165|124:212,1,180,4|0,3:2|3:2,0:0:0:0:
240,230,18994,2,0,L|349:230,1,90,10|2,0:0|0:0,0:0:0:0:
105,316,19294,1,8,0:0:0:0:
66,294,19369,1,8,0:0:0:0:
45,255,19444,1,8,3:0:0:0:
50,211,19519,1,8,3:0:0:0:
78,177,19594,1,4,3:0:0:0:
121,165,19669,1,4,3:0:0:0:
272,172,19744,2,0,L|280:95,1,45,12|12,3:0|3:0,0:0:0:0:
87,56,19894,6,0,P|26:112|91:163,1,180,4|8,3:2|0:0,0:0:0:0:
173,325,20494,2,0,L|65:317,1,90,0|0,3:2|3:2,0:0:0:0:
315,251,20944,6,0,L|320:35,1,180,8|0,0:0|3:0,0:0:0:0:
186,59,21394,1,8,0:0:0:0:
331,62,21694,1,2,3:2:0:0:
421,61,21844,1,0,3:0:0:0:
510,61,21994,1,10,0:0:0:0:
257,335,22294,6,0,L|34:320,1,180,2|8,3:2|0:0,0:0:0:0:
237,223,22894,1,0,3:0:0:0:
237,223,23044,1,0,3:0:0:0:
21,236,23344,6,0,L|18:52,1,180,10|0,0:0|3:0,0:0:0:0:
167,49,23794,2,0,L|170:259,1,180,8|2,0:0|3:2,0:0:0:0:
91,228,24244,1,0,3:0:0:0:
12,232,24394,1,8,0:0:0:0:
282,363,24694,6,0,L|495:356,1,180,2|8,3:2|0:0,0:0:0:0:
299,252,25294,2,0,L|190:253,1,90,0|0,3:0|3:0,0:0:0:0:
459,262,25744,6,0,P|503:179|447:104,1,180,8|0,0:0|3:0,0:0:0:0:
318,111,26194,1,8,0:0:0:0:
138,253,26494,1,0,3:0:0:0:
47,255,26644,1,0,3:0:0:0:
47,255,26794,1,8,0:0:0:0:
281,351,27094,6,0,L|394:350,1,90,2|0,3:0|0:0,0:0:0:0:
461,347,27394,2,0,L|467:250,1,90,8|0,0:0|0:0,0:0:0:0:
366,240,27694,2,0,L|262:238,1,90,0|0,3:2|3:0,0:0:0:0:
424,164,27994,6,0,P|481:111|418:59,1,180,2|0,0:3|0:0,0:0:0:0:
273,76,28594,2,0,L|162:76,1,90,10|0,0:0|0:0,0:0:0:0:
275,157,28894,2,0,L|372:155,1,90,2|0,3:2|3:0,0:0:0:0:
221,276,29194,2,0,L|114:275,1,90,10|0,0:0|0:0,0:0:0:0:
396,278,29494,6,0,P|460:223|391:183,1,180,4|10,3:2|0:0,0:0:0:0:
267,178,29944,2,0,L|160:178,2,90,2|2|2,0:0|3:2|3:2,0:0:0:0:
404,183,30394,2,0,L|408:89,1,90,10|0,0:0|3:2,0:0:0:0:
181,69,30694,6,0,L|61:69,1,90,2|2,3:2|3:2,0:0:0:0:
172,141,30994,2,0,L|279:139,1,90,10|0,0:0|0:0,0:0:0:0:
126,209,31294,2,0,L|112:322,1,90,2|2,3:2|3:2,0:0:0:0:
187,348,31594,2,0,L|72:348,1,90,10|0,0:0|0:0,0:0:0:0:
315,267,31894,6,0,L|522:255,1,180,0|10,3:2|0:0,0:0:0:0:
358,185,32344,2,0,L|257:181,2,90,2|2|0,0:0|3:2|3:0,0:0:0:0:
439,190,32794,1,8,0:0:0:0:
229,34,32944,5,2,3:2:0:0:
142,29,33094,2,0,P|88:46|72:180,1,180,2|10,0:0|0:0,0:0:0:0:
128,151,33544,1,2,0:0:0:0:
263,150,33694,2,0,L|486:145,1,180,2|10,3:2|0:0,0:0:0:0:
370,219,34144,1,2,0:0:0:0:
141,347,34294,6,0,L|39:345,1,90,2|0,3:2|0:0,0:0:0:0:
187,257,34594,2,0,L|318:247,2,90,10|2|2,0:0|0:0|3:2,0:0:0:0:
52,271,35044,2,0,L|43:169,1,90,2|8,3:2|0:0,0:0:0:0:
273,139,35344,5,2,3:2:0:0:
355,131,35494,1,2,0:0:0:0:
221,220,35644,2,0,L|211:320,1,90,2|10,3:2|0:0,0:0:0:0:
283,327,35944,1,2,0:0:0:0:
211,342,36094,1,2,3:2:0:0:
355,206,36244,1,0,3:2:0:0:
436,207,36394,2,0,L|445:104,1,90,8|0,0:0|0:0,0:0:0:0:
207,63,36694,6,0,L|102:62,1,90,0|0,3:2|0:0,0:0:0:0:
189,134,36994,2,0,L|194:232,1,90,10|0,0:0|0:0,0:0:0:0:
59,233,37294,2,0,L|49:345,1,90,2|0,3:2|3:2,0:0:0:0:
273,358,37594,6,0,L|476:335,1,180,10|2,0:0|0:0,0:0:0:0:
380,275,38044,1,0,3:2:0:0:
238,279,38194,2,0,L|229:173,1,90,10|0,0:0|0:0,0:0:0:0:
374,153,38494,1,8,3:2:0:0:
475,146,38644,1,8,0:0:0:0:
374,153,38794,1,8,3:2:0:0:
475,146,38944,1,8,3:2:0:0:
194,40,39094,6,0,P|124:75|216:207,1,270,4|0,3:2|3:0,0:0:0:0:
329,209,39694,1,8,0:0:0:0:
171,212,39994,1,2,0:0:0:0:
423,207,40144,6,0,P|437:275|325:313,1,180,4|10,3:2|0:0,0:0:0:0:
279,324,40594,2,0,L|180:324,2,90,2|0|8,3:2|3:0|0:0,0:0:0:0:
414,323,41044,2,0,P|465:315|455:202,1,180,2|2,3:2|0:0,0:0:0:0:
232,198,41494,6,0,P|150:188|193:49,1,270,4|0,3:2|3:2,0:0:0:0:
327,32,42094,1,8,0:0:0:0:
455,30,42394,1,2,0:0:0:0:
234,124,42544,6,0,L|121:123,1,90,4|0,3:2|0:0,0:0:0:0:
226,185,42844,2,0,L|229:292,1,90,8|2,0:0|3:2,0:0:0:0:
90,350,43144,2,0,P|40:321|111:250,1,180,2|0,3:2|0:0,0:0:0:0:
235,240,43594,2,0,L|303:238,1,45,8|8,0:0|0:0,0:0:0:0:
229,239,43744,2,0,L|173:233,1,45,8|8,0:0|0:0,0:0:0:0:
379,163,43894,6,0,L|489:158,1,90,2|0,3:2|0:0,0:0:0:0:
333,72,44194,2,0,L|324:178,1,90,10|0,0:0|0:0,0:0:0:0:
397,164,44494,1,2,3:2:0:0:
325,161,44644,1,0,3:2:0:0:
461,218,44794,2,0,L|467:327,1,90,8|0,0:0|0:0,0:0:0:0:
237,362,45094,5,2,3:2:0:0:
157,359,45244,1,0,3:0:0:0:
297,277,45394,2,0,L|307:176,1,90,8|0,0:0|0:0,0:0:0:0:
224,153,45694,1,2,3:2:0:0:
305,98,45844,1,0,3:0:0:0:
168,78,45994,2,0,L|37:72,1,90,8|0,0:0|3:0,0:0:0:0:
317,328,46294,5,2,3:2:0:0:
400,318,46444,1,0,3:0:0:0:
266,249,46594,2,0,L|258:142,1,90,8|0,0:0|3:2,0:0:0:0:
484,25,46894,2,0,L|369:30,1,90,10|0,0:0|3:2,0:0:0:0:
266,130,47194,2,0,L|368:126,1,90,10|0,0:0|0:0,0:0:0:0:
118,126,47494,6,0,P|57:157|123:238,1,198.000006042481,4|8,3:2|0:0,0:0:0:0:
172,240,47869,2,0,L|238:240,2,49.5000015106202,8|8|8,0:0|0:0|3:0,0:0:0:0:
28,239,48094,5,10,3:2:0:0:
23,289,48169,1,8,3:0:0:0:
55,328,48244,1,4,3:0:0:0:
105,335,48319,1,4,3:0:0:0:
278,159,48394,2,0,L|353:158,1,49.5000015106202,4|12,3:0|3:0,0:0:0:0:
278,159,48544,2,0,L|201:159,1,49.5000015106202,12|12,3:0|3:0,0:0:0:0:
404,210,48694,6,0,L|412:98,1,99.0000030212403,4|0,3:2|0:0,0:0:0:0:
272,95,48994,2,0,L|258:219,1,99.0000030212403,10|0,0:0|0:0,0:0:0:0:
400,328,49294,2,0,L|502:334,1,99.0000030212403,2|0,3:2|3:0,0:0:0:0:
257,251,49594,6,0,L|49:243,1,198.000006042481,10|0,0:0|3:2,0:0:0:0:
129,174,50044,1,0,0:0:0:0:
271,35,50194,2,0,L|280:144,1,99.0000030212403,10|0,0:0|0:0,0:0:0:0:
125,212,50494,2,0,L|105:337,1,99.0000030212403,2|0,3:2|3:2,0:0:0:0:
239,336,50794,2,0,L|133:332,1,99.0000030212403,10|0,0:0|0:0,0:0:0:0:
367,259,51094,6,0,L|477:257,1,99.0000030212403,2|0,3:2|0:0,0:0:0:0:
325,339,51394,2,0,L|319:230,1,99.0000030212403,10|0,0:0|0:0,0:0:0:0:
460,60,51694,2,0,L|352:63,1,99.0000030212403,2|0,3:2|3:0,0:0:0:0:
118,181,51994,6,0,L|15:181,1,99.0000030212403,10|0,0:0|0:0,0:0:0:0:
267,305,52294,2,0,P|335:251|260:215,1,198.000006042481,4|8,3:2|0:0,0:0:0:0:
185,211,52744,1,0,0:0:0:0:
39,171,52894,2,0,L|137:167,2,99.0000030212403,2|0|10,3:2|3:0|0:0,0:0:0:0:
491,34,53494,6,0,L|482:141,1,99.0000030212403,2|0,3:2|0:0,0:0:0:0:
339,179,53794,2,0,L|326:299,1,99.0000030212403,10|0,0:0|0:0,0:0:0:0:
187,351,54094,2,0,L|171:239,1,99.0000030212403,2|0,3:2|3:2,0:0:0:0:
428,241,54394,6,0,P|492:188|422:130,1,198.000006042481,10|0,0:0|3:0,0:0:0:0:
342,130,54844,1,0,0:0:0:0:
198,168,54994,2,0,L|183:284,1,99.0000030212403,10|0,0:0|0:0,0:0:0:0:
314,332,55294,2,0,L|432:313,1,99.0000030212403,2|0,3:2|3:2,0:0:0:0:
282,249,55594,2,0,L|172:228,1,99.0000030212403,10|0,0:0|0:0,0:0:0:0:
441,36,55894,6,0,L|450:142,1,99.0000030212403,2|0,3:2|3:0,0:0:0:0:
321,166,56194,2,0,L|206:165,1,99.0000030212403,10|0,0:0|0:0,0:0:0:0:
361,287,56494,2,0,L|376:173,1,99.0000030212403,2|0,3:2|3:0,0:0:0:0:
86,113,56794,6,0,P|78:185|194:227,1,198.000006042481,10|2,0:0|3:2,0:0:0:0:
104,297,57244,1,0,3:2:0:0:
249,349,57394,1,8,0:0:0:0:
338,340,57544,1,8,0:0:0:0:
91,195,57694,1,2,3:2:0:0:
175,183,57844,1,0,3:0:0:0:
35,38,57994,2,0,L|29:139,1,99.0000030212403,10|2,0:0|0:0,0:0:0:0:
306,321,58294,6,0,L|526:307,1,198.000006042481,4|8,3:2|0:0,0:0:0:0:
429,245,58744,1,2,0:0:0:0:
280,240,58894,2,0,P|282:174|400:130,1,198.000006042481,2|8,3:2|0:0,0:0:0:0:
479,125,59344,1,2,0:0:0:0:
214,339,59494,6,0,L|0:325,1,198.000006042481,2|8,3:2|0:0,0:0:0:0:
91,259,59944,1,0,0:0:0:0:
241,255,60094,2,0,L|248:149,1,99.0000030212403,2|0,3:2|3:0,0:0:0:0:
108,126,60394,2,0,L|-3:119,1,99.0000030212403,10|0,0:0|0:0,0:0:0:0:
279,207,60694,6,0,L|286:341,1,99.0000030212403,2|0,3:2|0:0,0:0:0:0:
147,278,60994,2,0,L|136:393,1,99.0000030212403,10|0,0:0|0:0,0:0:0:0:
274,373,61294,2,0,L|392:365,1,99.0000030212403,2|0,3:2|3:2,0:0:0:0:
127,315,61594,6,0,P|68:281|145:210,1,198.000006042481,10|0,0:0|3:2,0:0:0:0:
209,204,62044,1,0,0:0:0:0:
353,206,62194,2,0,L|494:198,1,99.0000030212403,10|0,0:0|0:0,0:0:0:0:
311,113,62494,2,0,L|194:108,1,99.0000030212403,2|0,3:2|3:2,0:0:0:0:
461,321,62794,6,0,L|470:216,1,99.0000030212403,10|0,0:0|0:0,0:0:0:0:
210,187,63094,2,0,L|103:190,1,99.0000030212403,4|0,3:2|0:0,0:0:0:0:
250,281,63394,2,0,P|305:232|225:161,1,198.000006042481,10|2,0:0|3:2,0:0:0:0:
84,161,63844,1,0,3:2:0:0:
262,344,64144,6,0,L|47:323,1,198.000006042481,10|0,0:0|3:2,0:0:0:0:
205,236,64594,2,0,L|407:213,1,198.000006042481,8|0,0:0|3:2,0:0:0:0:
323,154,65044,1,0,3:2:0:0:
463,43,65194,2,0,L|475:161,1,99.0000030212403,10|0,0:0|0:0,0:0:0:0:
205,364,65494,6,0,L|195:266,1,99.0000030212403,2|0,3:2|0:0,0:0:0:0:
320,174,65794,2,0,L|185:177,1,99.0000030212403,10|0,0:0|0:0,0:0:0:0:
363,22,66094,2,0,L|375:130,1,99.0000030212403,2|0,3:2|3:2,0:0:0:0:
234,199,66394,2,0,L|225:299,1,99.0000030212403,10|0,0:0|0:0,0:0:0:0:
462,357,66694,5,0,3:2:0:0:
342,355,66844,1,0,3:0:0:0:
221,359,66994,2,0,L|210:232,1,99.0000030212403,8|0,0:0|0:0,0:0:0:0:
454,224,67294,1,8,0:0:0:0:
450,175,67369,1,8,0:0:0:0:
422,135,67444,1,8,0:0:0:0:
377,116,67519,1,8,0:0:0:0:
232,125,67594,2,0,L|227:62,1,49.5000015106202,8|8,0:0|0:0,0:0:0:0:
397,21,67744,6,0,P|453:38|472:163,1,180,4|0,3:2|3:2,0:0:0:0:
346,322,68194,2,0,L|336:209,1,90,10|0,0:0|0:0,0:0:0:0:
418,209,68494,1,2,3:2:0:0:
498,201,68644,1,0,3:2:0:0:
271,121,68794,6,0,L|58:109,1,180,10|2,0:0|3:2,0:0:0:0:
227,256,69244,2,0,L|323:258,2,90,0|8|2,3:0|0:0|0:0,0:0:0:0:
91,314,69694,2,0,L|193:387,2,90,2|0|10,3:2|3:2|0:0,0:0:0:0:
319,278,70144,6,0,P|379:226|307:167,1,180,4|0,3:2|3:0,0:0:0:0:
183,174,70594,2,0,L|174:75,1,90,10|0,0:0|0:0,0:0:0:0:
255,33,70894,1,2,3:2:0:0:
176,34,71044,1,0,3:0:0:0:
94,37,71194,1,10,0:0:0:0:
320,361,71344,6,0,L|531:321,1,180,2|0,3:2|3:0,0:0:0:0:
363,259,71794,2,0,L|241:248,1,90,10|0,0:0|0:0,0:0:0:0:
354,167,72094,2,0,L|470:157,2,90,2|0|8,3:2|3:0|0:0,0:0:0:0:
131,171,72544,6,0,P|45:144|55:55,1,180,4|0,3:2|3:0,0:0:0:0:
183,49,72994,2,0,L|300:49,1,90,10|0,0:0|0:0,0:0:0:0:
194,126,73294,2,0,L|96:126,2,90,0|0|8,3:2|3:2|0:0,0:0:0:0:
418,315,73744,6,0,L|210:268,1,180,2|0,3:2|3:2,0:0:0:0:
375,206,74194,2,0,L|381:96,1,90,10|0,0:0|0:0,0:0:0:0:
300,97,74494,2,0,L|205:90,2,90,0|2|8,3:2|3:2|0:0,0:0:0:0:
65,154,74944,6,0,P|53:209|170:248,1,180,4|0,3:2|3:0,0:0:0:0:
282,259,75394,2,0,L|169:257,1,90,10|0,0:0|3:2,0:0:0:0:
415,348,75694,1,8,0:0:0:0:
456,332,75769,1,8,0:0:0:0:
481,296,75844,1,8,0:0:0:0:
481,252,75919,1,8,0:0:0:0:
455,216,75994,1,8,0:0:0:0:
413,202,76069,1,8,0:0:0:0:
241,204,76144,6,0,L|229:89,1,90,4|0,3:2|0:0,0:0:0:0:
313,73,76444,1,0,3:2:0:0:
89,41,76594,2,0,L|276:43,1,180,10|8,0:0|0:0,0:0:0:0:
221,103,76969,1,8,0:0:0:0:
174,101,77044,1,8,3:0:0:0:
26,136,77119,1,8,3:0:0:0:
12,177,77194,1,4,3:0:0:0:
26,219,77269,1,4,3:0:0:0:
63,243,77344,1,12,3:0:0:0:
107,239,77419,1,12,3:0:0:0:
307,355,77494,6,0,L|510:341,1,180,4|8,3:2|0:0,0:0:0:0:
361,226,78094,2,0,L|470:215,1,90,0|0,3:2|3:0,0:0:0:0:
316,117,78394,5,2,3:2:0:0:
396,45,78544,2,0,L|191:40,1,180,10|2,0:0|3:2,0:0:0:0:
351,167,78994,1,8,0:0:0:0:
207,263,79294,1,2,3:2:0:0:
117,263,79444,1,2,3:2:0:0:
28,265,79594,1,8,0:0:0:0:
284,356,79894,6,0,P|327:323|257:244,1,180,2|10,3:2|0:0,0:0:0:0:
119,228,80494,1,0,3:0:0:0:
119,228,80644,1,0,3:0:0:0:
380,228,80944,6,0,P|428:179|368:101,1,180,10|0,0:0|3:2,0:0:0:0:
236,186,81394,2,0,P|178:246|228:312,1,180,8|2,0:0|3:2,0:0:0:0:
364,309,81844,1,0,3:0:0:0:
274,309,81994,1,8,0:0:0:0:
364,309,82144,1,0,3:2:0:0:
116,310,82294,5,2,3:2:0:0:
116,310,82444,1,2,0:0:0:0:
260,212,82594,1,10,0:0:0:0:
260,212,82744,1,2,0:0:0:0:
188,118,82894,2,0,L|318:114,1,90,0|0,3:2|3:2,0:0:0:0:
423,100,83194,5,2,0:0:0:0:
432,101,83344,1,10,0:0:0:0:
289,191,83494,1,2,0:0:0:0:
278,192,83644,1,0,3:2:0:0:
422,180,83794,2,0,L|422:383,1,180,8|2,0:0|3:2,0:0:0:0:
341,364,84244,1,0,3:0:0:0:
478,358,84394,2,0,L|484:234,1,90,8|0,0:0|0:0,0:0:0:0:
246,234,84694,6,0,L|127:235,1,90,2|2,3:2|0:0,0:0:0:0:
237,156,84994,2,0,L|342:153,1,90,10|2,0:0|0:0,0:0:0:0:
247,29,85294,2,0,L|237:124,1,90,0|0,3:0|3:0,0:0:0:0:
382,130,85594,6,0,P|447:179|380:222,1,180,2|2,0:0|0:0,0:0:0:0:
231,239,86194,2,0,L|220:127,1,90,8|0,0:0|0:0,0:0:0:0:
304,132,86494,2,0,L|310:18,1,90,2|2,3:2|3:2,0:0:0:0:
164,35,86794,1,8,0:0:0:0:
116,35,86869,1,8,0:0:0:0:
68,34,86944,1,8,0:0:0:0:
18,34,87019,1,8,0:0:0:0:
215,199,87094,5,4,3:2:0:0:
297,196,87244,2,0,L|301:309,1,90,0|10,0:0|0:0,0:0:0:0:
165,350,87544,2,0,L|66:343,2,90,2|2|2,0:0|3:2|3:2,0:0:0:0:
299,350,87994,2,0,L|301:250,1,90,10|0,0:0|3:2,0:0:0:0:
75,125,88294,6,0,L|182:126,1,90,2|2,3:2|3:2,0:0:0:0:
255,127,88594,2,0,L|268:237,1,90,10|0,0:0|0:0,0:0:0:0:
130,322,88894,2,0,L|120:222,1,90,2|2,3:2|3:2,0:0:0:0:
210,157,89194,2,0,L|114:159,1,90,10|0,0:0|0:0,0:0:0:0:
386,157,89494,6,0,P|433:120|360:43,1,180,0|10,3:2|0:0,0:0:0:0:
241,45,89944,2,0,L|135:43,2,90,2|2|0,0:0|3:2|3:0,0:0:0:0:
323,44,90394,1,8,0:0:0:0:
80,132,90544,5,2,3:2:0:0:
161,168,90694,2,0,P|156:219|31:274,1,180,2|10,0:0|0:0,0:0:0:0:
135,333,91144,1,2,0:0:0:0:
271,364,91294,2,0,P|325:353|346:231,1,180,2|10,3:2|0:0,0:0:0:0:
265,230,91744,1,2,0:0:0:0:
486,58,91894,6,0,L|492:175,1,90,2|0,3:2|0:0,0:0:0:0:
356,146,92194,2,0,L|249:145,2,90,10|2|2,0:0|0:0|3:2,0:0:0:0:
490,147,92644,2,0,L|504:275,1,90,2|8,3:2|0:0,0:0:0:0:
266,367,92944,5,2,3:2:0:0:
184,363,93094,1,2,0:0:0:0:
319,287,93244,2,0,L|322:168,1,90,2|10,3:2|0:0,0:0:0:0:
235,167,93544,1,2,0:0:0:0:
320,108,93694,1,2,3:2:0:0:
194,58,93844,1,0,3:2:0:0:
329,52,93994,2,0,L|452:51,1,90,8|0,0:0|0:0,0:0:0:0:
161,290,94294,6,0,L|37:284,1,90,0|0,3:2|0:0,0:0:0:0:
161,212,94594,2,0,L|164:116,1,90,10|0,0:0|0:0,0:0:0:0:
29,44,94894,2,0,L|161:44,1,90,2|0,3:2|3:2,0:0:0:0:
367,41,95194,6,0,P|435:58|446:178,1,180,10|2,0:0|0:0,0:0:0:0:
381,156,95644,1,0,3:2:0:0:
236,172,95794,2,0,L|239:285,1,90,10|0,0:0|0:0,0:0:0:0:
390,271,96094,1,8,3:2:0:0:
483,240,96244,1,8,0:0:0:0:
476,154,96394,1,8,3:0:0:0:
381,137,96544,1,12,3:0:0:0:
150,43,96694,6,0,P|61:71|60:231,1,270,4|0,3:2|3:0,0:0:0:0:
191,218,97294,1,8,0:0:0:0:
48,334,97594,1,0,0:0:0:0:
271,328,97744,6,0,P|335:311|335:196,1,180,4|8,3:2|0:0,0:0:0:0:
265,202,98194,2,0,L|174:204,2,90,0|0|8,3:2|3:2|0:0,0:0:0:0:
130,35,98644,2,0,P|80:51|60:185,1,180,2|2,3:2|0:0,0:0:0:0:
308,335,99094,6,0,P|403:309|431:148,1,270,4|0,3:2|3:0,0:0:0:0:
301,149,99694,1,8,0:0:0:0:
427,41,99994,1,2,0:0:0:0:
201,46,100144,6,0,L|91:47,1,90,4|0,3:2|0:0,0:0:0:0:
183,123,100444,2,0,L|278:122,1,90,8|0,0:0|3:0,0:0:0:0:
419,112,100744,2,0,P|483:155|412:197,1,180,0|0,3:0|0:0,0:0:0:0:
290,294,101194,1,8,0:0:0:0:
339,292,101269,1,8,0:0:0:0:
388,292,101344,1,8,0:0:0:0:
437,293,101419,1,8,0:0:0:0:
260,181,101494,6,0,L|152:182,1,90,4|0,3:2|0:0,0:0:0:0:
302,108,101794,2,0,L|310:5,1,90,10|0,0:0|0:0,0:0:0:0:
232,16,102094,1,2,3:2:0:0:
313,7,102244,1,0,3:0:0:0:
177,161,102394,2,0,L|74:161,1,90,8|0,0:0|0:0,0:0:0:0:
325,154,102694,6,0,L|337:261,1,90,2|0,3:2|3:0,0:0:0:0:
200,337,102994,2,0,L|300:335,1,90,8|0,0:0|0:0,0:0:0:0:
154,205,103294,1,2,3:2:0:0:
235,209,103444,1,0,3:0:0:0:
377,211,103594,2,0,L|386:109,1,90,10|0,0:0|0:0,0:0:0:0:
113,119,103894,6,0,L|120:215,1,90,10|0,0:0|3:0,0:0:0:0:
177,199,104119,1,0,3:0:0:0:
233,196,104194,1,8,3:2:0:0:
143,299,104344,1,0,3:0:0:0:
365,240,104494,2,0,L|484:237,1,90,10|0,0:0|3:0,0:0:0:0:
397,172,104719,1,0,3:0:0:0:
340,172,104794,1,10,0:0:0:0:
433,55,104944,1,0,0:0:0:0:
197,57,105094,5,8,0:0:0:0:
146,56,105169,1,8,0:0:0:0:
94,57,105244,1,8,0:0:0:0:
42,56,105319,1,8,0:0:0:0:
108,111,105394,1,8,0:0:0:0:
114,156,105469,1,8,0:0:0:0:
85,192,105544,1,8,0:0:0:0:
39,196,105619,1,8,0:0:0:0:
219,296,105694,5,8,3:0:0:0:
275,281,105769,1,8,3:0:0:0:
276,236,105844,1,8,3:0:0:0:
222,219,105919,1,4,3:0:0:0:
79,207,105994,1,4,3:0:0:0:
23,192,106069,1,4,3:0:0:0:
22,147,106144,1,12,3:0:0:0:
75,130,106219,1,12,3:0:0:0:
276,88,106294,6,0,L|404:83,1,99.0000030212403,4|0,3:2|0:0,0:0:0:0:
231,164,106594,2,0,L|226:271,1,99.0000030212403,10|0,0:0|0:0,0:0:0:0:
371,223,106894,2,0,L|379:340,1,99.0000030212403,2|0,3:2|3:0,0:0:0:0:
102,338,107194,6,0,P|32:288|121:254,1,198.000006042481,10|0,0:0|3:2,0:0:0:0:
170,241,107644,1,0,0:0:0:0:
311,224,107794,2,0,B|677:212|431:103|75:56|504:26,1,584.999973220826,10|0,0:0|0:0,0:0:0:0:
253,36,108694,6,0,L|242:154,1,99.0000030212403,2|0,3:2|0:0,0:0:0:0:
385,151,108994,2,0,L|392:268,1,99.0000030212403,10|0,0:0|0:0,0:0:0:0:
246,317,109294,2,0,L|145:314,1,99.0000030212403,2|0,3:2|3:0,0:0:0:0:
396,230,109594,6,0,L|502:227,1,99.0000030212403,10|0,0:0|0:0,0:0:0:0:
246,167,109894,2,0,P|176:116|268:80,1,198.000006042481,4|8,3:2|0:0,0:0:0:0:
323,67,110344,1,0,0:0:0:0:
471,77,110494,2,0,L|372:77,2,99.0000030212403,2|0|10,3:2|3:0|0:0,0:0:0:0:
19,360,111094,6,0,L|36:261,1,99.0000030212403,2|0,3:2|0:0,0:0:0:0:
175,192,111394,2,0,L|40:189,1,99.0000030212403,10|0,0:0|0:0,0:0:0:0:
220,34,111694,2,0,L|229:144,1,99.0000030212403,2|0,3:2|3:2,0:0:0:0:
15,131,111994,6,0,P|46:219|157:257,1,198.000006042481,10|0,0:0|3:0,0:0:0:0:
57,324,112444,1,0,0:0:0:0:
202,323,112594,2,0,L|212:211,1,99.0000030212403,10|0,0:0|0:0,0:0:0:0:
60,219,112894,2,0,L|55:106,1,99.0000030212403,2|0,3:2|3:2,0:0:0:0:
202,34,113194,2,0,L|83:35,1,99.0000030212403,10|0,0:0|0:0,0:0:0:0:
381,132,113494,6,0,L|504:133,1,99.0000030212403,2|0,3:2|0:0,0:0:0:0:
342,215,113794,2,0,L|331:327,1,99.0000030212403,10|0,0:0|0:0,0:0:0:0:
478,347,114094,2,0,L|362:349,1,99.0000030212403,2|0,3:2|3:0,0:0:0:0:
116,346,114394,6,0,P|65:308|142:225,1,198.000006042481,10|2,0:0|3:2,0:0:0:0:
54,168,114844,1,0,3:2:0:0:
301,168,114994,1,8,0:0:0:0:
381,166,115144,2,0,L|308:166,1,49.5000015106202,8|0,0:0|0:0,0:0:0:0:
160,172,115294,2,0,L|148:280,1,99.0000030212403,2|0,3:2|3:0,0:0:0:0:
302,259,115594,2,0,L|306:363,1,99.0000030212403,10|2,0:0|0:0,0:0:0:0:
45,352,115894,6,0,P|85:293|231:243,1,198.000006042481,4|8,3:2|0:0,0:0:0:0:
278,243,116344,1,2,0:0:0:0:
134,248,116494,2,0,P|66:229|58:105,1,198.000006042481,2|8,3:2|0:0,0:0:0:0:
130,103,116944,1,2,0:0:0:0:
381,28,117094,6,0,L|160:27,1,198.000006042481,2|8,3:2|0:0,0:0:0:0:
261,98,117544,1,0,0:0:0:0:
408,116,117694,2,0,L|421:226,1,99.0000030212403,2|0,3:2|3:0,0:0:0:0:
280,316,117994,2,0,L|389:308,1,99.0000030212403,10|0,0:0|0:0,0:0:0:0:
133,232,118294,6,0,L|27:236,1,99.0000030212403,2|0,3:2|0:0,0:0:0:0:
164,34,118594,2,0,L|169:138,1,99.0000030212403,10|0,0:0|0:0,0:0:0:0:
39,202,118894,2,0,L|178:202,1,99.0000030212403,2|0,3:2|3:2,0:0:0:0:
397,218,119194,6,0,P|463:168|378:127,1,198.000006042481,10|0,0:0|3:2,0:0:0:0:
312,122,119644,1,0,0:0:0:0:
163,161,119794,2,0,L|149:279,1,99.0000030212403,10|0,0:0|0:0,0:0:0:0:
294,312,120094,2,0,L|396:311,1,99.0000030212403,2|0,3:2|3:2,0:0:0:0:
151,237,120394,2,0,L|26:235,1,99.0000030212403,10|0,0:0|0:0,0:0:0:0:
350,243,120694,6,0,P|409:178|328:113,1,198.000006042481,4|8,3:2|0:0,0:0:0:0:
166,107,121294,2,0,L|64:105,1,99.0000030212403,0|2,3:0|3:2,0:0:0:0:
325,302,121744,6,0,P|379:276|312:189,1,198.000006042481,10|0,0:0|3:0,0:0:0:0:
173,185,122194,2,0,P|119:159|189:79,1,198.000006042481,8|0,0:0|3:2,0:0:0:0:
331,71,122644,1,0,3:0:0:0:
232,71,122794,1,8,0:0:0:0:
331,71,122944,1,8,0:0:0:0:
88,166,123094,6,0,L|81:284,1,99.0000030212403,4|0,3:2|0:0,0:0:0:0:
162,268,123394,1,10,0:0:0:0:
301,81,123544,2,0,L|103:67,1,198.000006042481,0|0,3:0|3:0,0:0:0:0:
253,151,123994,2,0,L|261:259,1,99.0000030212403,8|0,0:0|0:0,0:0:0:0:
28,333,124294,6,0,L|233:343,1,198.000006042481,4|8,3:2|0:0,0:0:0:0:
303,286,124744,1,8,0:0:0:0:
318,190,124894,1,8,0:0:0:0:
260,114,125044,1,8,0:0:0:0:
164,101,125194,1,8,0:0:0:0:
30,26,125344,2,0,L|34:100,1,49.5000015106202,8|4,3:0|3:0,0:0:0:0:
249,62,125494,6,0,L|369:61,1,90,4|0,3:2|3:0,0:0:0:0:
483,108,125944,2,0,L|482:304,1,180,4|0,3:2|3:0,0:0:0:0:
426,288,126319,1,0,3:0:0:0:
270,293,126394,6,0,L|171:294,1,90,12|0,0:0|3:0,0:0:0:0:
34,290,126844,2,0,L|38:99,1,180,2|0,3:2|3:0,0:0:0:0:
172,41,127294,1,8,0:0:0:0:
263,62,127444,1,0,3:0:0:0:
263,146,127594,1,8,3:0:0:0:
171,164,127744,1,4,3:0:0:0:
392,257,127894,6,0,L|491:257,1,90,12|0,0:0|3:0,0:0:0:0:
365,346,128344,2,0,L|146:342,1,180,4|0,3:2|3:0,0:0:0:0:
230,276,128719,1,0,3:0:0:0:
401,281,128794,6,0,L|506:281,1,90,12|0,0:0|3:0,0:0:0:0:
347,213,129244,2,0,P|291:182|361:121,1,180,2|0,3:2|3:0,0:0:0:0:
402,116,129619,1,0,3:0:0:0:
245,36,129694,2,0,L|133:36,1,90,10|0,0:0|3:2,0:0:0:0:
226,105,129994,2,0,L|349:102,1,90,8|4,3:0|3:0,0:0:0:0:
72,163,130294,6,0,L|61:275,1,90,12|0,0:0|3:0,0:0:0:0:
207,336,130744,2,0,L|10:326,1,180,2|0,3:2|3:2,0:0:0:0:
259,258,131194,6,0,L|264:155,1,90,12|0,0:0|3:0,0:0:0:0:
147,78,131644,2,0,L|343:71,1,180,2|0,3:2|3:0,0:0:0:0:
114,159,132094,6,0,L|103:278,1,90,10|8,0:0|3:0,0:0:0:0:
163,249,132319,1,4,3:0:0:0:
220,292,132394,2,0,L|116:291,1,90,12|0,3:0|3:0,0:0:0:0:
358,226,132694,6,0,L|484:221,1,90,12|0,0:0|3:0,0:0:0:0:
302,352,133144,2,0,L|491:336,1,180,2|0,3:2|3:0,0:0:0:0:
225,256,133594,6,0,L|106:251,1,90,12|0,0:0|3:0,0:0:0:0:
280,183,134044,2,0,P|335:150|257:90,1,180,2|0,3:2|3:0,0:0:0:0:
57,74,134494,6,0,L|57:180,1,90,12|8,0:0|3:0,0:0:0:0:
113,164,134719,1,4,3:0:0:0:
168,165,134794,2,0,L|294:162,1,90,12|8,3:0|3:0,0:0:0:0:
43,329,135094,6,0,L|37:234,1,90,12|0,0:0|3:0,0:0:0:0:
190,159,135544,2,0,L|5:158,1,180,2|0,3:2|3:0,0:0:0:0:
55,94,135919,1,0,3:0:0:0:
210,95,135994,6,0,L|308:96,1,90,12|0,0:0|3:0,0:0:0:0:
463,232,136444,2,0,L|252:232,1,180,0|0,3:2|3:0,0:0:0:0:
232,231,136819,1,0,3:0:0:0:
396,31,136894,2,0,L|403:138,1,90,12|0,0:0|3:0,0:0:0:0:
268,218,137194,2,0,L|398:215,1,90,8|0,0:0|3:0,0:0:0:0:
129,338,137494,6,0,L|28:333,1,90,14|0,0:0|3:0,0:0:0:0:
182,262,137944,2,0,P|230:222|161:149,1,180,0|0,3:2|3:0,0:0:0:0:
120,151,138319,1,0,3:0:0:0:
316,46,138394,6,0,L|418:47,1,90,12|0,0:0|3:0,0:0:0:0:
255,205,138844,2,0,L|42:203,1,180,2|0,3:2|3:0,0:0:0:0:
121,140,139219,1,0,3:0:0:0:
316,27,139294,2,0,L|323:127,1,90,12|0,0:0|3:0,0:0:0:0:
177,216,139594,2,0,L|164:335,1,90,12|0,0:0|3:2,0:0:0:0:
402,350,139894,6,0,L|510:347,1,90,12|0,0:0|3:0,0:0:0:0:
348,266,140344,2,0,P|305:230|378:153,1,180,0|0,3:2|3:0,0:0:0:0:
419,150,140719,1,0,3:0:0:0:
251,96,140794,6,0,L|138:95,1,90,12|0,0:0|3:0,0:0:0:0:
17,236,141244,2,0,L|221:241,1,180,0|0,3:2|3:0,0:0:0:0:
247,238,141619,1,0,3:0:0:0:
105,181,141694,2,0,L|105:74,1,90,12|0,0:0|3:0,0:0:0:0:
240,36,141994,2,0,L|135:33,1,90,2|0,0:0|3:0,0:0:0:0:
390,267,142294,6,0,P|444:234|368:166,1,180,12|0,0:0|0:0,0:0:0:0:
297,165,142744,1,2,3:2:0:0:
439,311,142894,2,0,L|453:214,1,90,0|0,0:0|3:0,0:0:0:0:
401,209,143119,1,0,3:0:0:0:
222,213,143194,6,0,L|119:213,1,90,12|0,0:0|3:0,0:0:0:0:
279,122,143644,2,0,L|469:119,1,180,2|2,3:2|3:2,0:0:0:0:
409,189,144019,1,0,3:0:0:0:
233,321,144094,2,0,L|137:318,1,90,12|0,0:0|3:0,0:0:0:0:
289,231,144394,2,0,L|391:229,1,90,8|0,0:0|3:0,0:0:0:0:
83,216,144694,6,0,P|35:176|109:117,1,180,12|0,0:0|0:0,0:0:0:0:
250,56,145294,2,0,L|144:57,1,90,0|0,0:0|3:0,0:0:0:0:
205,119,145519,1,0,3:0:0:0:
381,117,145594,6,0,L|388:220,1,90,12|0,0:0|3:0,0:0:0:0:
245,303,146044,2,0,L|443:306,1,180,2|0,3:2|3:0,0:0:0:0:
379,243,146419,1,0,3:0:0:0:
212,237,146494,2,0,L|201:141,1,90,12|0,0:0|3:0,0:0:0:0:
345,73,146794,2,0,L|449:67,1,90,8|0,0:0|3:0,0:0:0:0:
204,200,147094,6,0,L|111:199,1,90,12|0,0:0|3:0,0:0:0:0:
258,132,147544,2,0,P|252:73|135:19,1,180,2|0,3:2|3:0,0:0:0:0:
102,16,147919,1,0,3:0:0:0:
279,12,147994,6,0,L|374:12,1,90,12|0,0:0|3:0,0:0:0:0:
217,169,148444,2,0,L|7:170,1,180,0|0,3:2|3:0,0:0:0:0:
304,320,148894,2,0,L|401:318,1,90,8|0,0:0|3:0,0:0:0:0:
249,243,149194,2,0,L|134:243,1,90,8|0,0:0|3:0,0:0:0:0:
458,248,149494,6,0,P|436:196|300:130,1,198.000006042481,4|8,3:2|0:0,0:0:0:0:
417,60,149944,1,8,0:0:0:0:
171,228,150094,1,10,0:0:0:0:
280,228,150244,1,8,0:0:0:0:
181,138,150394,1,8,0:0:0:0:
290,132,150544,1,8,0:0:0:0:
57,44,150694,5,10,0:0:0:0:
156,42,150844,1,8,0:0:0:0:
254,37,150994,1,8,0:0:0:0:
156,42,151144,1,8,0:0:0:0:
397,303,151294,1,10,0:0:0:0:
288,303,151444,1,8,0:0:0:0:
387,213,151594,1,8,0:0:0:0:
278,207,151744,1,8,0:0:0:0:
27,30,151894,6,0,L|224:34,1,198.000006042481,4|8,3:2|0:0,0:0:0:0:
170,100,152269,2,0,L|97:98,2,49.5000015106202,8|8|8,0:0|0:0|0:0,0:0:0:0:
358,251,152494,6,0,L|415:251,2,49.5000015106202,10|8|8,0:0|0:0|0:0,0:0:0:0:
312,235,152719,1,8,0:0:0:0:
288,192,152794,1,8,3:0:0:0:
300,145,152869,1,8,3:0:0:0:
339,118,152944,1,8,3:0:0:0:
387,124,153019,1,8,3:0:0:0:
178,102,153094,5,4,3:0:0:0:
124,33,153169,1,4,3:0:0:0:
70,100,153244,1,4,3:0:0:0:
124,101,153319,1,4,3:0:0:0:
178,102,153394,2,0,P|162:156|31:202,1,198.000006042481,4|8,3:2|0:0,0:0:0:0:
256,308,153794,5,8,0:0:0:0:
324,281,153894,1,8,3:0:0:0:
352,211,153994,1,8,3:0:0:0:
319,144,154097,1,4,3:0:0:0:
249,122,154201,1,4,3:0:0:0:
31,119,154304,5,4,3:2:0:0:
426,344,156694,6,0,L|223:328,1,198.000006042481,4|10,3:2|0:0,0:0:0:0:
307,271,157144,1,0,0:0:0:0:
162,270,157294,2,0,L|158:162,1,99.0000030212403,2|0,3:2|3:0,0:0:0:0:
398,53,157594,6,0,L|271:52,1,99.0000030212403,10|0,0:0|0:0,0:0:0:0:
63,244,157894,2,0,P|38:164|130:129,1,198.000006042481,0|8,3:2|0:0,0:0:0:0:
206,130,158344,1,0,0:0:0:0:
63,196,158494,2,0,L|161:203,2,99.0000030212403,0|0|8,3:2|3:2|0:0,0:0:0:0:
490,353,159094,6,0,L|485:247,1,99.0000030212403,2|0,3:2|0:0,0:0:0:0:
346,241,159394,2,0,L|212:226,1,99.0000030212403,10|0,0:0|0:0,0:0:0:0:
397,179,159694,2,0,L|407:62,1,99.0000030212403,2|0,3:2|3:0,0:0:0:0:
129,27,159994,6,0,P|67:56|137:131,1,198.000006042481,10|0,0:0|3:2,0:0:0:0:
211,132,160444,1,0,0:0:0:0:
65,192,160594,2,0,L|52:314,1,99.0000030212403,10|0,0:0|0:0,0:0:0:0:
198,350,160894,2,0,L|85:348,1,99.0000030212403,2|0,3:2|3:0,0:0:0:0:
236,252,161194,2,0,L|133:252,1,99.0000030212403,10|0,0:0|0:0,0:0:0:0:
385,149,161494,6,0,L|493:147,1,99.0000030212403,2|0,3:2|0:0,0:0:0:0:
345,218,161794,2,0,L|343:316,1,99.0000030212403,10|0,0:0|0:0,0:0:0:0:
487,350,162094,2,0,L|385:349,1,99.0000030212403,2|0,3:2|3:2,0:0:0:0:
130,343,162394,6,0,P|66:284|146:235,1,198.000006042481,10|0,0:0|3:0,0:0:0:0:
224,233,162844,1,0,3:0:0:0:
90,168,162994,1,8,0:0:0:0:
12,169,163144,1,0,0:0:0:0:
261,68,163294,5,2,3:2:0:0:
151,66,163444,1,0,3:2:0:0:
391,290,163594,1,8,0:0:0:0:
495,289,163744,1,10,0:0:0:0:
207,220,163894,6,0,P|143:172|226:127,1,198.000006042481,4|8,3:2|0:0,0:0:0:0:
301,121,164344,1,2,0:0:0:0:
441,27,164494,2,0,L|219:25,1,198.000006042481,2|8,3:2|0:0,0:0:0:0:
327,90,164944,1,2,0:0:0:0:
52,126,165094,6,0,P|46:189|165:240,1,198.000006042481,2|8,3:2|0:0,0:0:0:0:
231,245,165544,1,0,0:0:0:0:
92,344,165694,2,0,L|83:237,1,99.0000030212403,2|0,3:2|3:0,0:0:0:0:
221,187,165994,2,0,L|213:82,1,99.0000030212403,10|0,0:0|0:0,0:0:0:0:
444,36,166294,6,0,L|228:24,1,198.000006042481,2|10,3:2|0:0,0:0:0:0:
326,103,166744,1,0,0:0:0:0:
189,159,166894,2,0,L|182:270,1,99.0000030212403,2|0,3:2|3:2,0:0:0:0:
423,347,167194,6,0,P|476:303|404:215,1,198.000006042481,10|0,0:0|3:2,0:0:0:0:
334,220,167644,1,0,0:0:0:0:
195,118,167794,2,0,L|82:116,1,99.0000030212403,10|0,0:0|0:0,0:0:0:0:
237,31,168094,2,0,L|355:33,1,99.0000030212403,2|0,3:2|3:2,0:0:0:0:
76,175,168394,2,0,L|63:289,1,99.0000030212403,10|0,0:0|0:0,0:0:0:0:
312,342,168694,6,0,L|535:309,1,198.000006042481,4|10,3:2|0:0,0:0:0:0:
350,213,169294,2,0,L|231:211,2,99.0000030212403,2|0|8,3:2|3:2|0:0,0:0:0:0:
488,73,169744,6,0,L|292:107,1,198.000006042481,2|0,3:2|3:2,0:0:0:0:
153,173,170194,2,0,L|346:235,1,198.000006042481,8|0,0:0|3:2,0:0:0:0:
262,108,170644,1,0,3:2:0:0:
400,108,170794,2,0,L|407:214,1,99.0000030212403,10|0,0:0|0:0,0:0:0:0:
137,344,171094,6,0,L|30:342,1,99.0000030212403,14|0,0:0|3:0,0:0:0:0:
138,259,171394,1,0,3:2:0:0:
376,272,171544,2,0,L|372:159,1,99.0000030212403,8|2,0:0|3:2,0:0:0:0:
261,162,171844,1,0,3:2:0:0:
494,42,171994,2,0,L|390:43,1,99.0000030212403,10|0,0:0|0:0,0:0:0:0:
135,114,172294,5,8,0:0:0:0:
80,131,172369,1,8,0:0:0:0:
79,177,172444,1,8,3:0:0:0:
134,194,172519,1,8,3:0:0:0:
312,191,172594,1,4,3:0:0:0:
367,208,172669,1,4,3:0:0:0:
368,254,172744,1,8,0:0:0:0:
312,271,172819,1,8,0:0:0:0:
140,349,172894,5,8,0:0:0:0:
28,305,173044,1,8,0:0:0:0:
140,349,173194,1,8,0:0:0:0:
28,305,173344,1,8,0:0:0:0:
333,124,173494,5,4,3:2:0:0:
187,269,173794,2,0,L|75:266,1,90,2|2,0:0|0:0,0:0:0:0:
90,266,174094,1,2,0:0:0:0:
90,266,174244,1,0,0:0:0:0:
234,91,174394,5,2,0:0:0:0:
387,201,174694,2,0,L|490:201,1,90,2|2,0:0|0:0,0:0:0:0:
477,201,174994,1,2,0:0:0:0:
477,201,175144,1,0,0:0:0:0:
331,80,175294,5,2,0:0:0:0:
186,234,175594,2,0,L|283:235,1,90,2|0,0:0|3:0,0:0:0:0:
230,169,175819,1,0,3:0:0:0:
65,179,175894,6,0,P|72:133|195:77,1,180,8|2,0:0|0:0,0:0:0:0:
262,71,176344,1,8,3:0:0:0:
181,71,176494,1,2,0:0:0:0:
37,71,176644,2,0,L|33:143,1,45,0|0,3:0|3:0,0:0:0:0:
215,282,176794,6,0,L|328:276,2,90,12|0|2,0:0|3:0|0:0,0:0:0:0:
71,285,177244,2,0,L|63:176,1,90,0|2,3:0|0:0,0:0:0:0:
172,111,177544,2,0,L|240:109,1,45,0|0,3:0|3:0,0:0:0:0:
379,99,177694,5,12,0:0:0:0:
492,94,177844,1,12,0:0:0:0:
379,99,177994,1,12,0:0:0:0:
90,204,178144,5,12,0:0:0:0:
