osu file format v14

[General]
AudioFilename: audio.mp3
AudioLeadIn: 0
PreviewTime: 48609
Countdown: 0
SampleSet: Soft
StackLeniency: 0.7
Mode: 2
LetterboxInBreaks: 0
WidescreenStoryboard: 1

[Editor]
Bookmarks: 534,10134,19884,29484,39084,48684,58284,67734,77484,87084,96684,106284,115884,125484,135084,144684,149484,154284,156684,163884,171084,173484,175734,178134
DistanceSpacing: 1.4
BeatDivisor: 4
GridSize: 32
TimelineZoom: 2.6

[Metadata]
Title:Boku wa Boku de shika Nakute
TitleUnicode:僕は僕でしかなくて
Artist:SECONDWALL
ArtistUnicode:SECONDWALL
Creator:Nelly
Version:Cup
Source:
Tags:Aunn yukiya bashe mustacho -hex- -luminate wonjae paranoid grapes Beautiful Lie I'm only me swp yuka apg ryo yu-suke shohei japanese rock j-rock jrock
BeatmapID:2763889
BeatmapSetID:1334097

[Difficulty]
HPDrainRate:3
CircleSize:2.5
OverallDifficulty:6
ApproachRate:6
SliderMultiplier:1.2
SliderTickRate:1

[Events]
//Background and Video events
0,0,"background.jpg",0,0
//Break Periods
2,154504,155644
//Storyboard Layer 0 (Background)
//Storyboard Layer 1 (Fail)
//Storyboard Layer 2 (Pass)
//Storyboard Layer 3 (Foreground)
//Storyboard Layer 4 (Overlay)
//Storyboard Sound Samples

[TimingPoints]
694,300,4,2,1,75,1,0
19894,-100,4,2,1,60,0,0
29494,-100,4,2,1,70,0,0
39094,-100,4,2,1,65,0,0
43894,-100,4,2,1,75,0,0
47494,-100,4,2,1,75,0,0
48694,-100,4,2,1,95,0,1
67744,-100,4,2,1,75,0,0
77494,-100,4,2,1,65,0,0
87094,-100,4,2,1,70,0,0
96694,-100,4,2,1,65,0,0
101494,-100,4,2,1,75,0,0
105094,-100,4,2,1,75,0,0
106294,-100,4,2,1,95,0,1
125494,-100,4,2,1,65,0,0
144694,-100,4,2,1,70,0,0
149494,-100,4,2,1,75,0,0
149794,-100,4,2,1,55,0,0
150544,-100,4,2,1,65,0,0
151294,-100,4,2,1,75,0,0
153994,310.880829015544,4,2,1,75,1,0
154304,300,4,2,1,75,1,0
156694,300,4,2,1,95,1,1
156694,-100,4,2,1,95,0,1
173494,-100,4,2,1,75,0,0

[Colours]
Combo1 : 255,72,86
Combo2 : 45,160,41
Combo3 : 137,224,216
Combo4 : 255,64,121

[HitObjects]
126,336,544,6,0,P|80:305|129:214,1,180,4|10,3:0|0:0,0:0:0:0:
249,213,1294,2,0,L|251:90,1,120,0|8,3:0|0:0,0:0:0:0:
371,279,1894,6,0,L|373:156,1,120,0|8,3:0|0:0,0:0:0:0:
253,333,2494,2,0,L|251:210,1,120,2|8,3:2|0:0,0:0:0:0:
311,204,2944,5,4,3:2:0:0:
431,98,3244,1,2,3:2:0:0:
371,95,3394,1,10,0:0:0:0:
251,217,3694,2,0,L|370:216,1,120,2|8,3:2|0:0,0:0:0:0:
310,175,4144,5,2,3:2:0:0:
190,156,4444,1,0,3:0:0:0:
130,153,4594,1,10,0:0:0:0:
250,329,4894,2,0,L|253:208,1,120,2|8,3:2|0:0,0:0:0:0:
193,191,5344,5,4,3:2:0:0:
73,98,5644,1,0,3:2:0:0:
133,95,5794,1,10,0:0:0:0:
253,223,6094,2,0,L|134:222,1,120,2|8,3:2|0:0,0:0:0:0:
194,181,6544,5,2,3:2:0:0:
314,167,6844,1,2,3:2:0:0:
374,165,6994,1,8,0:0:0:0:
254,334,7294,2,0,L|251:213,1,120,2|8,3:2|0:0,0:0:0:0:
311,196,7744,5,4,3:2:0:0:
431,103,8044,1,0,3:0:0:0:
371,100,8194,1,10,0:0:0:0:
251,95,8494,1,8,0:0:0:0:
371,302,8794,1,8,0:0:0:0:
431,295,8944,6,0,L|433:167,1,120,2|0,3:0|3:0,0:0:0:0:
373,160,9394,1,10,0:0:0:0:
253,148,9694,2,0,L|193:151,2,60,10|10|2,3:0|0:0|0:3,0:0:0:0:
313,145,10144,6,0,P|352:159|313:257,1,180,4|10,3:2|0:0,0:0:0:0:
192,244,10894,2,0,L|189:123,1,120,2|10,3:2|0:0,0:0:0:0:
309,181,11494,6,0,L|312:60,1,120,2|8,3:2|0:0,0:0:0:0:
432,256,12094,2,0,L|435:135,1,120,2|10,3:2|0:0,0:0:0:0:
375,123,12544,5,4,3:2:0:0:
255,109,12844,1,0,3:0:0:0:
195,111,12994,1,10,0:0:0:0:
315,337,13294,2,0,L|318:216,1,120,2|10,3:2|0:0,0:0:0:0:
258,204,13744,5,2,3:2:0:0:
138,196,14044,1,0,3:0:0:0:
78,194,14194,1,10,0:0:0:0:
198,86,14494,2,0,L|318:83,1,120,2|8,3:2|0:0,0:0:0:0:
258,48,14944,5,4,3:2:0:0:
138,284,15244,1,0,3:0:0:0:
198,282,15394,1,10,0:0:0:0:
318,278,15694,2,0,L|438:275,1,120,0|8,3:2|0:0,0:0:0:0:
378,240,16144,5,2,3:2:0:0:
258,164,16444,1,0,3:2:0:0:
318,162,16594,1,10,0:0:0:0:
438,76,16894,2,0,L|318:73,1,120,0|8,3:2|0:0,0:0:0:0:
258,70,17344,5,4,3:2:0:0:
378,193,17644,1,0,3:0:0:0:
381,246,17794,1,10,0:0:0:0:
261,246,18094,2,0,L|258:125,1,120,8|8,0:0|0:0,0:0:0:0:
327,116,18544,6,0,P|358:127|328:236,1,180,4|10,3:2|0:0,0:0:0:0:
208,231,19294,2,0,L|204:111,1,120,8|4,0:0|3:0,0:0:0:0:
324,57,19894,6,0,L|328:177,1,120,4|8,3:2|0:0,0:0:0:0:
124,328,20794,1,2,0:0:0:0:
244,291,21094,6,0,L|246:171,1,120,2|8,0:0|0:0,0:0:0:0:
126,125,21694,2,0,L|67:128,2,60,2|0|10,3:2|3:0|0:0,0:0:0:0:
246,291,22294,6,0,L|126:289,1,120,2|8,3:2|0:0,0:0:0:0:
246,158,22894,1,0,3:0:0:0:
306,154,23044,1,0,3:0:0:0:
186,73,23344,1,10,0:0:0:0:
126,89,23494,6,0,L|124:209,1,120,2|8,0:0|0:0,0:0:0:0:
244,302,24094,1,2,3:2:0:0:
184,301,24244,1,0,3:0:0:0:
124,300,24394,1,8,0:0:0:0:
244,196,24694,6,0,L|364:194,1,120,2|8,3:2|0:0,0:0:0:0:
244,95,25294,1,0,3:0:0:0:
184,93,25444,1,0,3:0:0:0:
322,46,25744,1,8,0:0:0:0:
382,45,25894,6,0,L|384:165,1,120,0|8,0:0|0:0,0:0:0:0:
264,236,26494,2,0,L|205:233,2,60,0|0|8,3:0|3:0|0:0,0:0:0:0:
384,333,27094,6,0,L|264:331,1,120,2|8,3:0|0:0,0:0:0:0:
144,236,27694,1,0,3:2:0:0:
203,234,27844,1,0,3:0:0:0:
323,230,28144,1,10,0:0:0:0:
383,227,28294,6,0,L|385:106,1,120,0|10,0:0|0:0,0:0:0:0:
265,47,28894,1,2,3:2:0:0:
324,47,29044,1,0,3:0:0:0:
384,48,29194,1,10,0:0:0:0:
264,168,29494,5,4,3:2:0:0:
144,316,29794,2,0,L|142:196,1,120,10|2,0:0|3:2,0:0:0:0:
262,69,30394,1,10,0:0:0:0:
382,180,30694,6,0,L|262:182,1,120,2|10,3:2|0:0,0:0:0:0:
142,188,31294,2,0,L|81:187,2,60,2|2|10,3:2|3:2|0:0,0:0:0:0:
262,326,31894,6,0,L|264:205,1,120,0|10,3:2|0:0,0:0:0:0:
384,231,32494,2,0,L|386:110,1,120,2|8,3:2|0:0,0:0:0:0:
266,50,33094,6,0,L|385:48,1,120,2|10,0:0|0:0,0:0:0:0:
266,162,33694,2,0,L|206:161,2,60,2|0|10,3:2|3:0|0:0,0:0:0:0:
386,298,34294,5,2,3:2:0:0:
506,189,34594,2,0,L|386:187,1,120,10|2,0:0|3:2,0:0:0:0:
266,183,35194,1,8,0:0:0:0:
386,298,35494,6,0,L|388:174,1,120,2|10,0:0|0:0,0:0:0:0:
267,76,36094,1,2,3:2:0:0:
326,75,36244,1,0,3:2:0:0:
386,74,36394,1,8,0:0:0:0:
266,319,36694,6,0,L|264:198,1,120,0|10,3:2|0:0,0:0:0:0:
144,225,37294,2,0,L|142:104,1,120,2|10,3:2|0:0,0:0:0:0:
262,64,37894,6,0,L|382:62,1,120,2|10,0:0|0:0,0:0:0:0:
262,165,38494,2,0,L|201:164,2,60,8|8|8,3:2|0:0|3:2,0:0:0:0:
382,340,39094,6,0,P|453:255|381:171,1,240,4|8,3:2|0:0,0:0:0:0:
262,143,39994,1,2,0:0:0:0:
258,83,40144,1,4,3:2:0:0:
378,45,40444,6,0,L|497:43,1,120,10|0,0:0|3:0,0:0:0:0:
438,136,40894,1,8,0:0:0:0:
378,132,41044,1,2,3:2:0:0:
198,333,41494,6,0,P|126:248|198:164,1,240,4|8,3:2|0:0,0:0:0:0:
318,146,42394,1,2,0:0:0:0:
321,79,42544,1,4,3:2:0:0:
201,54,42844,6,0,L|80:56,1,120,8|2,0:0|3:2,0:0:0:0:
141,108,43294,1,8,0:0:0:0:
261,124,43594,1,8,0:0:0:0:
141,302,43894,6,0,L|139:183,1,120,2|10,3:2|0:0,0:0:0:0:
259,242,44494,2,0,L|261:123,1,120,2|8,3:2|0:0,0:0:0:0:
381,60,45094,6,0,L|262:58,1,120,2|8,3:2|0:0,0:0:0:0:
141,246,45694,2,0,L|260:244,1,120,2|8,3:2|0:0,0:0:0:0:
381,316,46294,5,2,3:2:0:0:
468,237,46594,1,8,0:0:0:0:
462,125,46894,1,10,0:0:0:0:
354,64,47194,1,10,0:0:0:0:
234,65,47494,6,0,L|230:185,1,120,4|8,3:2|0:0,0:0:0:0:
351,200,48094,1,10,3:2:0:0:
94,327,48694,6,0,L|91:206,1,120,4|10,3:2|0:0,0:0:0:0:
211,184,49294,1,2,3:2:0:0:
331,173,49594,6,0,L|450:175,2,120,10|0|10,0:0|3:2|0:0,0:0:0:0:
211,62,50494,2,0,L|330:59,1,120,2|10,3:2|0:0,0:0:0:0:
211,218,51094,5,2,3:2:0:0:
91,213,51394,2,0,L|88:92,1,120,10|2,0:0|3:2,0:0:0:0:
208,61,51994,1,10,0:0:0:0:
328,239,52294,6,0,L|331:118,1,120,4|8,3:2|0:0,0:0:0:0:
211,173,52894,2,0,L|152:175,2,60,2|0|10,3:2|3:0|0:0,0:0:0:0:
331,167,53494,6,0,L|452:170,2,120,2|10|2,3:2|0:0|3:2,0:0:0:0:
211,328,54394,6,0,P|162:306|211:168,1,240,10|10,0:0|0:0,0:0:0:0:
332,165,55294,2,0,L|335:46,1,120,2|10,3:2|0:0,0:0:0:0:
215,27,55894,6,0,L|94:25,1,120,2|10,3:2|0:0,0:0:0:0:
215,207,56494,2,0,L|217:88,1,120,2|10,3:2|0:0,0:0:0:0:
337,270,57094,6,0,L|339:151,1,120,2|8,3:2|0:0,0:0:0:0:
279,138,57544,1,8,0:0:0:0:
219,129,57694,1,2,3:2:0:0:
99,152,57994,1,10,0:0:0:0:
219,343,58294,6,0,L|221:224,1,120,4|8,3:2|0:0,0:0:0:0:
101,271,58894,2,0,L|99:152,1,120,2|8,3:2|0:0,0:0:0:0:
219,78,59494,6,0,L|340:76,1,120,2|8,3:2|0:0,0:0:0:0:
219,180,60094,2,0,L|158:179,2,60,2|0|10,3:2|3:0|0:0,0:0:0:0:
339,297,60694,5,2,3:2:0:0:
459,176,60994,2,0,L|339:174,1,120,10|2,0:0|3:2,0:0:0:0:
219,268,61594,6,0,P|170:246|219:108,1,240,10|10,0:0|0:0,0:0:0:0:
340,51,62494,1,2,3:2:0:0:
280,49,62644,1,0,3:2:0:0:
220,48,62794,1,10,0:0:0:0:
100,183,63094,6,0,L|97:63,1,120,4|10,3:2|0:0,0:0:0:0:
217,130,63694,1,2,3:2:0:0:
277,127,63844,1,0,3:2:0:0:
157,257,64144,1,10,0:0:0:0:
97,254,64294,6,0,L|94:134,1,120,0|8,0:0|0:0,0:0:0:0:
214,49,64894,1,0,3:2:0:0:
154,47,65044,1,0,3:2:0:0:
94,46,65194,1,10,0:0:0:0:
214,274,65494,6,0,L|217:154,1,120,2|10,3:2|0:0,0:0:0:0:
337,218,66094,2,0,L|340:98,1,120,2|10,3:2|0:0,0:0:0:0:
220,34,66694,6,0,L|99:36,2,120,0|8|8,3:2|0:0|0:0,0:0:0:0:
400,263,67744,6,0,P|435:212|363:143,1,180,4|10,3:2|0:0,0:0:0:0:
242,254,68494,2,0,L|238:135,1,120,2|10,3:2|0:0,0:0:0:0:
118,280,69094,6,0,L|114:161,1,120,2|8,3:2|0:0,0:0:0:0:
234,68,69694,2,0,L|354:66,1,120,2|10,3:2|0:0,0:0:0:0:
294,120,70144,5,4,3:2:0:0:
174,227,70444,1,0,3:0:0:0:
234,224,70594,1,10,0:0:0:0:
354,218,70894,2,0,L|474:216,1,120,2|10,3:2|0:0,0:0:0:0:
414,270,71344,5,2,3:2:0:0:
294,322,71644,1,0,3:0:0:0:
235,319,71794,1,10,0:0:0:0:
355,239,72094,2,0,L|357:119,1,120,2|8,3:2|0:0,0:0:0:0:
288,103,72544,5,4,3:2:0:0:
168,213,72844,1,0,3:0:0:0:
227,210,72994,1,10,0:0:0:0:
347,95,73294,2,0,L|227:93,1,120,0|8,3:2|0:0,0:0:0:0:
287,147,73744,5,2,3:2:0:0:
407,276,74044,1,0,3:2:0:0:
348,273,74194,1,10,0:0:0:0:
228,241,74494,2,0,L|226:121,1,120,0|8,3:2|0:0,0:0:0:0:
286,105,74944,5,4,3:2:0:0:
406,51,75244,1,0,3:0:0:0:
346,48,75394,1,10,0:0:0:0:
226,42,75694,2,0,L|103:38,1,120,8|8,0:0|0:0,0:0:0:0:
167,95,76144,5,4,3:2:0:0:
287,228,76444,1,0,3:2:0:0:
227,225,76594,1,10,0:0:0:0:
107,308,76894,2,0,L|103:188,1,120,8|4,0:0|3:0,0:0:0:0:
224,90,77494,6,0,L|104:86,1,120,4|8,3:2|0:0,0:0:0:0:
354,291,78394,1,2,3:2:0:0:
234,266,78694,6,0,L|230:146,1,120,2|8,0:0|0:0,0:0:0:0:
350,183,79294,1,2,3:2:0:0:
351,123,79444,1,2,3:2:0:0:
353,63,79594,1,8,0:0:0:0:
233,44,79894,6,0,L|114:40,1,120,2|10,3:2|0:0,0:0:0:0:
233,229,80494,1,0,3:0:0:0:
236,170,80644,1,0,3:0:0:0:
116,235,80944,1,10,0:0:0:0:
56,232,81094,6,0,L|53:110,1,120,2|8,0:0|0:0,0:0:0:0:
173,44,81694,1,2,3:2:0:0:
113,41,81844,1,0,3:0:0:0:
53,39,81994,1,8,0:0:0:0:
173,276,82294,6,0,L|177:157,1,120,2|10,3:2|0:0,0:0:0:0:
297,102,82894,1,0,3:2:0:0:
357,99,83044,1,0,3:2:0:0:
237,236,83344,1,10,0:0:0:0:
177,233,83494,6,0,L|173:114,1,120,2|8,0:0|0:0,0:0:0:0:
293,45,84094,2,0,L|352:43,2,60,2|0|8,3:2|3:0|0:0,0:0:0:0:
173,323,84694,6,0,L|292:319,1,120,2|10,3:2|0:0,0:0:0:0:
413,205,85294,1,0,3:0:0:0:
353,202,85444,1,0,3:0:0:0:
233,193,85744,1,8,0:0:0:0:
173,190,85894,6,0,L|169:71,1,120,2|8,0:0|0:0,0:0:0:0:
289,31,86494,2,0,L|348:29,2,60,2|2|8,3:2|3:2|0:0,0:0:0:0:
168,64,87094,5,4,3:2:0:0:
48,201,87394,2,0,L|170:196,2,120,10|2|10,0:0|3:2|0:0,0:0:0:0:
168,330,88294,6,0,L|174:209,1,120,2|10,3:2|0:0,0:0:0:0:
294,242,88894,2,0,L|354:243,2,60,2|2|10,3:2|3:2|0:0,0:0:0:0:
174,104,89494,6,0,L|299:99,1,120,0|10,3:2|0:0,0:0:0:0:
414,295,90094,2,0,L|420:174,1,120,2|8,3:2|0:0,0:0:0:0:
300,99,90694,6,0,L|175:94,1,120,2|10,0:0|0:0,0:0:0:0:
300,209,91294,2,0,L|362:206,2,60,2|0|10,3:2|3:0|0:0,0:0:0:0:
180,337,91894,6,0,L|174:216,1,120,2|10,3:2|0:0,0:0:0:0:
54,231,92494,2,0,L|48:110,1,120,2|8,3:2|0:0,0:0:0:0:
168,59,93094,6,0,L|289:53,1,120,2|10,0:0|0:0,0:0:0:0:
168,151,93694,2,0,L|107:148,2,60,2|0|8,3:2|3:2|0:0,0:0:0:0:
289,270,94294,5,0,3:2:0:0:
409,237,94594,2,0,L|412:116,1,120,10|2,0:0|3:2,0:0:0:0:
292,301,95194,6,0,P|244:279|294:140,1,240,10|10,0:0|0:0,0:0:0:0:
414,57,96094,1,8,3:2:0:0:
354,55,96244,1,8,0:0:0:0:
294,53,96394,1,8,3:0:0:0:
174,287,96694,6,0,P|126:265|176:126,1,240,4|8,3:2|0:0,0:0:0:0:
296,116,97594,1,0,0:0:0:0:
356,114,97744,1,4,3:2:0:0:
236,272,98044,6,0,L|117:267,1,120,8|0,0:0|3:2,0:0:0:0:
176,183,98494,1,8,0:0:0:0:
236,181,98644,1,2,3:2:0:0:
416,294,99094,6,0,P|436:255|331:122,1,240,4|8,3:2|0:0,0:0:0:0:
211,114,99994,1,2,0:0:0:0:
208,168,100144,1,4,3:2:0:0:
328,308,100444,6,0,L|333:181,1,120,8|0,0:0|3:0,0:0:0:0:
273,173,100894,1,8,0:0:0:0:
153,155,101194,1,8,0:0:0:0:
273,72,101494,6,0,L|392:71,1,120,4|10,3:2|0:0,0:0:0:0:
272,311,102094,2,0,L|267:184,1,120,2|8,3:2|0:0,0:0:0:0:
147,256,102694,6,0,L|142:129,1,120,2|8,3:2|0:0,0:0:0:0:
262,56,103294,2,0,L|143:55,1,120,2|10,3:2|0:0,0:0:0:0:
262,24,103894,5,10,0:0:0:0:
368,71,104194,1,8,3:2:0:0:
411,180,104494,1,10,0:0:0:0:
365,287,104794,1,10,0:0:0:0:
257,332,105094,6,0,L|134:329,2,120,8|8|8,0:0|0:0|3:0,0:0:0:0:
475,288,106294,6,0,L|479:169,1,120,4|10,3:2|0:0,0:0:0:0:
359,146,106894,1,2,3:2:0:0:
239,130,107194,6,0,P|167:211|239:293,1,240,10|10,0:0|0:0,0:0:0:0:
361,299,108094,2,0,L|240:296,1,120,2|10,3:2|0:0,0:0:0:0:
121,169,108694,6,0,L|242:166,2,120,2|10|2,3:2|0:0|3:2,0:0:0:0:
241,266,109594,1,10,0:0:0:0:
361,249,109894,6,0,L|363:130,1,120,4|8,3:2|0:0,0:0:0:0:
243,89,110494,1,2,3:2:0:0:
302,88,110644,1,0,3:0:0:0:
362,87,110794,1,10,0:0:0:0:
242,195,111094,6,0,L|121:192,2,120,2|10|2,3:2|0:0|3:2,0:0:0:0:
362,313,111994,6,0,P|434:230|361:149,1,240,10|10,0:0|0:0,0:0:0:0:
240,142,112894,2,0,L|121:140,1,120,2|10,3:2|0:0,0:0:0:0:
240,257,113494,6,0,L|359:255,2,120,2|10|2,3:2|0:0|3:2,0:0:0:0:
120,268,114394,1,10,0:0:0:0:
240,257,114694,6,0,L|244:137,1,120,2|8,3:2|0:0,0:0:0:0:
123,57,115294,2,0,L|243:53,1,120,2|10,3:2|0:0,0:0:0:0:
363,242,115894,6,0,L|367:122,1,120,4|8,3:2|0:0,0:0:0:0:
247,285,116494,2,0,L|251:165,1,120,2|8,3:2|0:0,0:0:0:0:
371,97,117094,6,0,L|491:93,1,120,2|8,3:2|0:0,0:0:0:0:
370,209,117694,2,0,L|310:207,2,60,2|0|10,3:2|3:0|0:0,0:0:0:0:
490,329,118294,6,0,L|494:209,1,120,2|10,3:2|0:0,0:0:0:0:
373,186,118894,1,2,3:2:0:0:
253,271,119194,6,0,P|286:160|393:115,1,240,10|10,0:0|0:0,0:0:0:0:
273,31,120094,1,2,3:2:0:0:
332,29,120244,1,0,3:2:0:0:
392,27,120394,1,10,0:0:0:0:
272,172,120694,5,4,3:2:0:0:
152,258,120994,2,0,L|150:139,1,120,8|0,0:0|3:0,0:0:0:0:
270,67,121594,1,0,0:0:0:0:
330,65,121744,1,10,0:0:0:0:
210,211,122044,1,0,3:0:0:0:
150,209,122194,6,0,L|148:90,1,120,8|0,0:0|3:2,0:0:0:0:
268,67,122794,1,8,0:0:0:0:
327,65,122944,1,8,0:0:0:0:
387,64,123094,6,0,L|389:183,1,120,4|10,3:2|0:0,0:0:0:0:
269,219,123694,2,0,L|150:217,1,120,2|8,0:0|0:0,0:0:0:0:
269,311,124294,5,4,3:2:0:0:
389,273,124594,1,8,0:0:0:0:
437,238,124744,1,8,0:0:0:0:
450,184,124894,1,8,0:0:0:0:
437,115,125044,1,8,0:0:0:0:
389,73,125194,1,8,0:0:0:0:
269,60,125494,6,0,P|214:120|268:181,1,180,4|4,3:2|3:2,0:0:0:0:
450,239,126394,1,12,0:0:0:0:
454,179,126544,1,0,3:0:0:0:
334,140,126844,6,0,L|214:137,1,120,2|0,3:2|3:0,0:0:0:0:
154,46,127294,2,0,L|274:43,1,120,8|8,0:0|3:0,0:0:0:0:
154,226,127894,5,12,0:0:0:0:
94,222,128044,1,0,3:0:0:0:
214,318,128344,2,0,L|334:315,1,120,4|0,3:2|3:0,0:0:0:0:
394,231,128794,1,12,0:0:0:0:
334,227,128944,1,0,3:0:0:0:
214,196,129244,6,0,L|211:75,1,120,2|0,3:2|3:0,0:0:0:0:
271,51,129694,2,0,L|149:47,1,120,10|8,0:0|3:0,0:0:0:0:
272,158,130294,5,12,0:0:0:0:
332,154,130444,1,0,3:0:0:0:
452,278,130744,2,0,L|455:152,1,120,2|0,3:2|3:2,0:0:0:0:
386,142,131194,1,12,0:0:0:0:
326,138,131344,1,0,3:0:0:0:
206,331,131644,6,0,L|203:205,1,120,2|0,3:2|3:0,0:0:0:0:
263,178,132094,2,0,L|266:52,1,120,10|12,0:0|3:0,0:0:0:0:
146,76,132694,5,12,0:0:0:0:
86,72,132844,1,0,3:0:0:0:
206,195,133144,2,0,L|325:192,1,120,2|0,3:2|3:0,0:0:0:0:
384,281,133594,1,12,0:0:0:0:
324,277,133744,1,0,3:0:0:0:
204,264,134044,6,0,L|201:144,1,120,2|0,3:2|3:0,0:0:0:0:
261,114,134494,2,0,L|321:117,2,60,12|8|12,0:0|3:0|3:0,0:0:0:0:
141,225,135094,5,12,0:0:0:0:
137,165,135244,1,0,3:0:0:0:
257,94,135544,2,0,L|376:90,1,120,2|0,3:2|3:0,0:0:0:0:
438,188,135994,1,12,0:0:0:0:
442,128,136144,1,0,3:0:0:0:
322,327,136444,6,0,L|319:206,1,120,0|0,3:2|3:0,0:0:0:0:
379,182,136894,2,0,L|257:178,1,120,12|8,0:0|0:0,0:0:0:0:
139,83,137494,5,14,0:0:0:0:
199,79,137644,1,0,3:0:0:0:
319,311,137944,2,0,L|322:190,1,120,0|0,3:2|3:0,0:0:0:0:
262,185,138394,1,12,0:0:0:0:
202,181,138544,1,0,3:0:0:0:
82,80,138844,6,0,L|204:76,1,120,2|0,3:2|3:0,0:0:0:0:
263,175,139294,2,0,L|141:171,1,120,12|12,0:0|0:0,0:0:0:0:
263,292,139894,5,12,0:0:0:0:
323,288,140044,1,0,3:0:0:0:
203,221,140344,2,0,L|200:102,1,120,0|0,3:2|3:0,0:0:0:0:
260,75,140794,1,12,0:0:0:0:
320,71,140944,1,0,3:0:0:0:
440,245,141244,6,0,L|318:249,1,120,0|0,3:2|3:0,0:0:0:0:
259,149,141694,2,0,L|381:153,1,120,12|2,0:0|0:0,0:0:0:0:
258,276,142294,5,12,0:0:0:0:
138,232,142594,2,0,L|135:113,1,120
255,63,143194,6,0,P|331:140|254:215,1,240,12|0,0:0|0:0,0:0:0:0:
134,318,144094,2,0,L|256:314,1,120,12|8,0:0|0:0,0:0:0:0:
375,300,144694,5,12,0:0:0:0:
379,240,144844,1,0,0:0:0:0:
259,202,145144,2,0,L|257:81,1,120,2|0,3:2|3:0,0:0:0:0:
317,67,145594,1,12,0:0:0:0:
437,236,145894,6,0,L|439:115,1,120
319,39,146494,2,0,L|438:37,1,120,12|8,0:0|0:0,0:0:0:0:
319,257,147094,6,0,P|211:212|178:101,1,240,12|0,0:0|0:0,0:0:0:0:
299,79,147994,1,12,0:0:0:0:
359,84,148144,6,0,L|361:203,1,120,0|0,3:0|3:2,0:0:0:0:
241,266,148744,1,0,3:0:0:0:
181,257,148894,2,0,L|179:138,1,120,8|8,0:0|0:0,0:0:0:0:
299,80,149494,5,4,3:2:0:0:
419,193,149794,2,0,L|300:191,2,120,8|10|8,0:0|0:0|0:0,0:0:0:0:
299,345,150694,6,0,L|297:226,1,120,10|8,0:0|0:0,0:0:0:0:
177,257,151294,2,0,L|175:138,1,120,10|8,0:0|0:0,0:0:0:0:
295,63,151894,5,4,3:2:0:0:
175,137,152194,2,0,L|56:135,2,120,8|10|8,0:0|0:0|3:0,0:0:0:0:
295,321,153094,6,0,L|297:202,1,120,4|4,3:0|3:2,0:0:0:0:
177,137,153694,1,8,0:0:0:0:
428,94,154304,5,4,3:2:0:0:
172,269,156694,6,0,L|51:266,2,120,4|10|2,3:2|0:0|3:2,0:0:0:0:
292,260,157594,1,10,0:0:0:0:
172,221,157894,6,0,L|170:99,1,120,0|8,3:2|0:0,0:0:0:0:
290,57,158494,1,0,3:2:0:0:
230,56,158644,1,0,3:2:0:0:
170,55,158794,1,8,0:0:0:0:
290,196,159094,5,2,3:2:0:0:
410,257,159394,2,0,L|412:135,1,120,10|2,0:0|3:2,0:0:0:0:
292,55,159994,6,0,P|220:138|293:219,1,240,10|10,0:0|0:0,0:0:0:0:
414,293,160894,2,0,L|295:295,1,120,2|10,3:2|0:0,0:0:0:0:
174,291,161494,6,0,L|169:169,1,120,2|10,3:2|0:0,0:0:0:0:
289,179,162094,2,0,L|294:57,1,120,2|10,3:2|0:0,0:0:0:0:
174,49,162694,5,0,3:0:0:0:
54,74,162994,2,0,L|49:193,1,120,8|2,0:0|3:2,0:0:0:0:
169,253,163594,1,8,0:0:0:0:
228,250,163744,1,10,0:0:0:0:
288,248,163894,6,0,L|292:128,1,120,4|8,3:2|0:0,0:0:0:0:
412,181,164494,2,0,L|416:61,1,120,2|8,3:2|0:0,0:0:0:0:
296,33,165094,6,0,L|416:29,1,120,2|8,3:2|0:0,0:0:0:0:
295,146,165694,2,0,L|234:144,2,60,2|0|10,3:2|3:0|0:0,0:0:0:0:
416,249,166294,5,2,3:2:0:0:
296,348,166594,2,0,L|292:228,1,120,10|2,0:0|3:2,0:0:0:0:
172,154,167194,6,0,L|53:152,2,120,10|0|10,0:0|3:2|0:0,0:0:0:0:
292,61,168094,1,2,3:2:0:0:
232,59,168244,1,0,3:2:0:0:
172,58,168394,1,10,0:0:0:0:
292,283,168694,6,0,L|295:163,1,120,4|10,3:2|0:0,0:0:0:0:
175,112,169294,2,0,L|113:110,2,60,2|0|8,3:2|3:2|0:0,0:0:0:0:
235,122,169744,6,0,P|290:182|235:243,1,180,2|8,3:2|0:0,0:0:0:0:
114,333,170494,2,0,L|233:331,1,120,0|10,3:2|0:0,0:0:0:0:
354,325,171094,6,0,P|411:267|354:209,1,180,14|8,0:0|0:0,0:0:0:0:
293,202,171694,2,0,L|234:204,2,60,2|0|10,3:2|3:2|0:0,0:0:0:0:
413,187,172294,6,0,L|416:67,1,120,8|4,0:0|3:0,0:0:0:0:
296,37,172894,1,8,0:0:0:0:
355,35,173044,1,8,0:0:0:0:
415,34,173194,1,8,0:0:0:0:
295,131,173494,5,4,3:2:0:0:
256,192,173794,12,8,175894,0:0:0:0:
205,268,176194,6,0,L|83:263,2,120,2|2|12,0:0|0:0|0:0,0:0:0:0:
325,272,177094,6,0,L|329:152,1,120,2|2,0:0|0:0,0:0:0:0:
209,77,177694,1,12,0:0:0:0:
167,116,177844,1,12,0:0:0:0:
176,173,177994,1,12,0:0:0:0:
228,198,178144,1,12,0:0:0:0:
