osu file format v14

[General]
AudioFilename: audio.mp3
AudioLeadIn: 0
PreviewTime: 154220
Countdown: 0
SampleSet: Soft
StackLeniency: 0.4
Mode: 0
LetterboxInBreaks: 0
WidescreenStoryboard: 1

[Editor]
Bookmarks: 135095
DistanceSpacing: 0.8
BeatDivisor: 4
GridSize: 8
TimelineZoom: 2

[Metadata]
Title:Boku wa Boku de shika Nakute
TitleUnicode:僕は僕でしかなくて
Artist:SECONDWALL
ArtistUnicode:SECONDWALL
Creator:-Aqua
Version:Seolv's Insane
Source:osu!
Tags:Japanese Rock J-rock Jrock Beautiful Lie Seolv Featured Artist FA Mappers' Guild MPG
BeatmapID:2819626
BeatmapSetID:1356447

[Difficulty]
HPDrainRate:4.7
CircleSize:4
OverallDifficulty:8
ApproachRate:9
SliderMultiplier:1.5
SliderTickRate:1

[Events]
//Background and Video events
0,0,"67020707_p0.jpg",0,0
//Break Periods
2,173695,175145
//Storyboard Layer 0 (Background)
//Storyboard Layer 1 (Fail)
//Storyboard Layer 2 (Pass)
//Storyboard Layer 3 (Foreground)
//Storyboard Layer 4 (Overlay)
//Storyboard Sound Samples

[TimingPoints]
-4105,300,4,2,1,60,1,0
545,-100,4,2,1,70,0,0
1220,-100,4,2,1,5,0,0
1295,-100,4,2,1,70,0,0
10820,-100,4,2,1,5,0,0
10895,-100,4,2,1,70,0,0
19895,-125,4,2,1,55,0,0
29420,-125,4,2,1,5,0,0
29495,-105.263157894737,4,2,1,65,0,0
29720,-105.263157894737,4,2,1,5,0,0
29795,-105.263157894737,4,2,1,65,0,0
31220,-105.263157894737,4,2,1,5,0,0
31295,-105.263157894737,4,2,1,65,0,0
36620,-105.263157894737,4,2,1,5,0,0
36695,-105.263157894737,4,2,1,65,0,0
37220,-105.263157894737,4,2,1,5,0,0
37295,-105.263157894737,4,2,1,65,0,0
38420,-105.263157894737,4,2,1,5,0,0
38495,-105.263157894737,4,2,1,65,0,0
39095,-125,4,2,1,55,0,0
42770,-125,4,2,1,5,0,0
42845,-125,4,2,1,55,0,0
43520,-125,4,2,1,5,0,0
43595,-125,4,2,1,55,0,0
43895,-105.263157894737,4,2,1,70,0,0
45020,-105.263157894737,4,2,1,5,0,0
45095,-105.263157894737,4,2,1,70,0,0
45620,-105.263157894737,4,2,1,5,0,0
45695,-105.263157894737,4,2,1,70,0,0
47495,-222.222222222221,4,2,1,70,0,0
47720,-222.222222222221,4,2,1,5,0,0
47795,-105.263157894737,4,2,1,70,0,0
48695,-86.9565217391304,4,2,1,85,0,1
49820,-86.9565217391304,4,2,1,5,0,1
49895,-86.9565217391304,4,2,1,85,0,1
51320,-86.9565217391304,4,2,1,5,0,1
51395,-86.9565217391304,4,2,1,85,0,1
54620,-86.9565217391304,4,2,1,5,0,1
54695,-86.9565217391304,4,2,1,85,0,1
55820,-86.9565217391304,4,2,1,5,0,1
55895,-86.9565217391304,4,2,1,85,0,1
59720,-86.9565217391304,4,2,1,5,0,1
59795,-86.9565217391304,4,2,1,85,0,1
60620,-86.9565217391304,4,2,1,5,0,1
60695,-86.9565217391304,4,2,1,85,0,1
63020,-86.9565217391304,4,2,1,5,0,1
63095,-100,4,2,1,75,0,0
64820,-100,4,2,1,5,0,0
64895,-100,4,2,1,75,0,0
65420,-100,4,2,1,5,0,0
65495,-86.9565217391304,4,2,1,85,0,1
66620,-86.9565217391304,4,2,1,5,0,1
66695,-86.9565217391304,4,2,1,85,0,1
67220,-86.9565217391304,4,2,1,5,0,1
67295,-86.9565217391304,4,2,1,85,0,1
67595,-250,4,2,1,85,0,1
67745,-100,4,2,1,70,0,0
68420,-100,4,2,1,5,0,0
68495,-100,4,2,1,70,0,0
77495,-117.647058823529,4,2,1,60,0,0
84620,-117.647058823529,4,2,1,5,0,0
84695,-117.647058823529,4,2,1,60,0,0
87095,-105.263157894737,4,2,1,65,0,0
88820,-105.263157894737,4,2,1,5,0,0
88895,-105.263157894737,4,2,1,65,0,0
94220,-105.263157894737,4,2,1,5,0,0
94295,-105.263157894737,4,2,1,65,0,0
94820,-105.263157894737,4,2,1,5,0,0
94895,-105.263157894737,4,2,1,65,0,0
96695,-125,4,2,1,55,0,0
100370,-125,4,2,1,5,0,0
100445,-125,4,2,1,55,0,0
101120,-125,4,2,1,5,0,0
101195,-125,4,2,1,55,0,0
101495,-105.263157894737,4,2,1,70,0,0
102620,-105.263157894737,4,2,1,5,0,0
102695,-105.263157894737,4,2,1,70,0,0
103220,-105.263157894737,4,2,1,5,0,0
103295,-105.263157894737,4,2,1,70,0,0
106295,-86.9565217391304,4,2,1,85,0,1
107420,-86.9565217391304,4,2,1,5,0,1
107495,-86.9565217391304,4,2,1,85,0,1
108920,-86.9565217391304,4,2,1,5,0,1
108995,-86.9565217391304,4,2,1,85,0,1
112220,-86.9565217391304,4,2,1,5,0,1
112295,-86.9565217391304,4,2,1,85,0,1
113420,-86.9565217391304,4,2,1,5,0,1
113495,-86.9565217391304,4,2,1,85,0,1
117320,-86.9565217391304,4,2,1,5,0,1
117395,-86.9565217391304,4,2,1,85,0,1
118220,-86.9565217391304,4,2,1,5,0,1
118295,-86.9565217391304,4,2,1,85,0,1
120620,-86.9565217391304,4,2,1,5,0,1
120695,-100,4,2,1,75,0,0
122420,-100,4,2,1,5,0,0
122495,-100,4,2,1,75,0,0
123095,-86.9565217391304,4,2,1,85,0,1
123770,-86.9565217391304,4,2,1,5,0,1
123845,-86.9565217391304,4,2,1,85,0,1
125495,-100,4,2,1,70,0,0
149420,-95.2380952380952,4,2,1,5,0,0
149495,-95.2380952380952,4,2,1,70,0,0
150395,-95.2380952380952,4,2,1,55,0,0
150695,-95.2380952380952,4,2,1,60,0,0
150995,-95.2380952380952,4,2,1,65,0,0
151295,-95.2380952380952,4,2,1,70,0,0
151595,-95.2380952380952,4,2,1,75,0,0
151895,-95.2380952380952,4,2,1,80,0,0
152195,-95.2380952380952,4,2,1,85,0,0
153395,-95.2380952380952,4,2,1,85,0,0
153620,-95.2380952380952,4,2,1,5,0,0
153695,-95.2380952380952,4,2,1,70,0,0
156695,-86.9565217391304,4,2,1,85,0,1
157820,-86.9565217391304,4,2,1,5,0,1
157895,-86.9565217391304,4,2,1,85,0,1
159320,-86.9565217391304,4,2,1,5,0,1
159395,-86.9565217391304,4,2,1,85,0,1
162620,-86.9565217391304,4,2,1,5,0,1
162695,-86.9565217391304,4,2,1,85,0,1
165320,-86.9565217391304,4,2,1,5,0,1
165395,-86.9565217391304,4,2,1,85,0,1
168695,-100,4,2,1,75,0,0
170420,-100,4,2,1,5,0,0
170495,-100,4,2,1,75,0,0
171095,-86.9565217391304,4,2,1,85,0,1
172220,-86.9565217391304,4,2,1,5,0,1
172295,-86.9565217391304,4,2,1,85,0,1
173495,-111.111111111111,4,2,1,60,0,0

[Colours]
Combo1 : 192,192,192
Combo2 : 255,124,62
Combo3 : 128,128,255

[HitObjects]
59,197,545,6,0,B|132:166|132:166|162:187|159:234,1,150,6|0,1:2|1:0,0:0:0:0:
230,369,995,2,0,P|296:349|301:273,1,150,8|0,0:0|1:2,0:0:0:0:
247,228,1445,1,2,1:2:0:0:
158,321,1595,6,0,P|106:299|50:293,1,112.5,8|0,0:0|0:0,0:0:0:0:
55,302,1895,1,0,1:0:0:0:
105,238,2045,1,2,0:2:0:0:
35,201,2195,2,0,P|21:166|16:128,1,75,10|0,0:0|0:0,0:0:0:0:
161,30,2495,5,0,1:0:0:0:
227,75,2645,1,0,1:0:0:0:
337,19,2795,1,10,0:0:0:0:
359,138,2945,6,0,B|306:114|306:114|293:76|293:76|228:47,1,150,6|0,1:2|1:0,0:0:0:0:
173,164,3395,2,0,P|230:173|243:242,1,112.5,10|0,0:0|0:0,0:0:0:0:
244,226,3695,2,0,L|233:310,1,75,0|2,1:0|1:2,0:0:0:0:
160,261,3995,1,8,0:0:0:0:
238,373,4145,6,0,B|289:375|303:338|296:337|313:294|360:293,1,150,6|0,1:2|1:0,0:0:0:0:
496,151,4595,2,0,L|475:273,1,112.5,10|0,0:0|0:0,0:0:0:0:
465,268,4895,2,0,P|455:231|431:204,1,75,0|0,1:0|1:0,0:0:0:0:
327,169,5195,1,8,0:0:0:0:
305,59,5345,6,0,B|343:71|351:95|351:95|332:193,1,150,6|0,1:2|1:0,0:0:0:0:
262,260,5795,2,0,P|218:267|185:281,1,75,10|0,0:0|0:0,0:0:0:0:
261,164,6095,2,0,P|305:171|338:185,1,75,0|2,1:0|1:2,0:0:0:0:
406,212,6395,1,8,0:0:0:0:
355,325,6545,6,0,B|363:280|346:256|344:263|308:234|340:159,1,150,6|0,1:2|1:0,0:0:0:0:
260,74,6995,2,0,P|216:81|183:95,1,75,10|0,0:0|0:0,0:0:0:0:
53,147,7295,2,0,P|97:154|130:168,1,75,2|0,1:2|1:0,0:0:0:0:
190,84,7595,1,8,0:0:0:0:
226,223,7745,6,0,L|210:334,1,112.5,6|0,1:2|0:0,0:0:0:0:
208,341,8045,1,0,1:0:0:0:
126,384,8195,2,0,L|112:310,1,75,8|2,0:0|1:2,0:0:0:0:
222,213,8495,1,8,0:0:0:0:
222,213,8570,2,0,L|296:223,1,75,8|0,0:0|0:0,0:0:0:0:
306,219,8795,1,8,0:0:0:0:
447,167,8945,6,0,P|420:186|445:260,1,112.5,6|0,1:2|0:0,0:0:0:0:
450,273,9245,2,2,L|499:254,1,37.5,2|2,1:2|0:0,0:0:0:0:
406,347,9395,2,0,P|380:321|337:314,2,75,8|0|2,0:0|1:0|1:2,0:0:0:0:
338,337,9845,1,10,0:0:0:0:
241,278,9995,1,8,0:0:0:0:
296,184,10145,6,0,B|323:208|314:249|314:249|240:277,1,150,6|0,1:2|1:0,0:0:0:0:
67,305,10595,2,0,P|136:300|156:367,1,150,8|0,0:0|1:2,0:0:0:0:
76,317,11045,1,2,1:2:0:0:
148,248,11195,6,0,P|131:211|121:129,1,112.5,8|0,0:0|0:0,0:0:0:0:
127,129,11495,1,2,0:0:0:0:
203,66,11645,1,0,1:0:0:0:
285,175,11795,2,0,P|250:161|212:156,1,75,8|2,0:0|0:0,0:0:0:0:
339,70,12095,5,0,1:0:0:0:
424,100,12245,1,0,1:0:0:0:
488,40,12395,1,10,0:0:0:0:
366,188,12545,6,0,B|337:173|337:173|302:116|355:63,1,150,6|0,1:2|1:0,0:0:0:0:
435,225,12995,2,0,P|379:231|327:252,1,112.5,10|0,0:0|0:0,0:0:0:0:
325,268,13295,2,0,P|290:254|252:249,1,75,0|2,1:0|1:2,0:0:0:0:
200,329,13595,1,8,0:0:0:0:
57,230,13745,6,0,B|15:181|15:181|58:102,1,150,6|0,1:2|1:0,0:0:0:0:
158,266,14195,2,0,L|47:243,1,112.5,10|0,0:0|0:0,0:0:0:0:
57,230,14495,2,0,L|130:244,1,75,0|0,1:0|1:0,0:0:0:0:
185,339,14795,1,8,0:0:0:0:
336,308,14945,6,0,P|338:225|269:216,1,150,6|0,1:2|1:0,0:0:0:0:
383,206,15395,2,0,P|417:219|455:224,1,75,10|0,0:0|0:0,0:0:0:0:
327,319,15695,2,0,P|289:324|254:337,1,75,0|2,1:0|1:2,0:0:0:0:
389,384,15995,1,8,0:0:0:0:
246,350,16145,6,0,L|209:204,1,150,6|0,1:2|1:0,0:0:0:0:
107,71,16595,2,0,P|100:115|86:148,1,75,10|0,0:0|0:0,0:0:0:0:
204,216,16895,2,0,P|197:172|183:139,1,75,2|0,1:2|1:0,0:0:0:0:
112,60,17195,1,8,0:0:0:0:
240,5,17345,6,0,L|374:25,1,112.5,6|0,1:2|0:0,0:0:0:0:
355,10,17645,1,0,1:0:0:0:
468,107,17795,2,0,P|481:141|486:179,1,75,8|2,0:0|1:2,0:0:0:0:
367,240,18095,2,0,L|381:152,1,75,8|0,0:0|1:0,0:0:0:0:
392,90,18395,1,8,0:0:0:0:
447,262,18545,6,0,L|286:300,1,150,6|2,1:2|1:2,0:0:0:0:
172,359,18995,2,0,P|216:366|249:380,1,75,8|0,0:0|1:0,0:0:0:0:
302,284,19295,1,8,1:2:0:0:
310,235,19370,1,8,0:0:0:0:
297,199,19445,1,8,0:0:0:0:
281,185,19520,1,8,0:0:0:0:
266,182,19595,2,0,L|250:230,3,37.5,8|8|4|4,3:0|3:0|3:0|3:0,0:0:0:0:
210,135,19895,5,6,1:2:0:0:
82,274,20195,2,0,L|197:306,1,120,8|0,0:0|1:0,0:0:0:0:
197,306,20645,1,0,1:0:0:0:
103,343,20795,6,0,P|94:304|71:286,1,60,2|8,0:0|0:0,0:0:0:0:
168,209,21095,2,0,P|166:143|204:96,2,120,2|10|0,0:0|0:0|1:0,0:0:0:0:
168,209,21845,1,0,0:0:0:0:
246,177,21995,1,10,0:0:0:0:
112,41,22295,6,0,B|56:20|56:20|18:67,2,120,2|8|0,1:2|0:0|1:0,0:0:0:0:
83,109,23045,1,0,1:0:0:0:
300,169,23345,5,10,0:0:0:0:
366,106,23495,2,0,P|435:116|471:172,1,120,2|8,0:0|0:0,0:0:0:0:
300,169,23945,5,2,0:0:0:0:
384,199,24095,2,0,P|409:263|379:322,1,120,2|8,1:2|0:0,0:0:0:0:
329,255,24545,1,2,0:0:0:0:
258,346,24695,6,0,P|289:350|316:334,1,60,2|0,1:2|0:0,0:0:0:0:
254,220,24995,2,0,P|199:239|139:252,1,120,10|0,0:0|1:0,0:0:0:0:
176,191,25445,1,0,1:0:0:0:
67,384,25745,6,0,L|43:278,1,90,8|0,0:0|0:0,0:0:0:0:
50,282,26045,1,0,1:0:0:0:
140,250,26195,2,0,L|154:131,1,120,8|0,0:0|1:0,0:0:0:0:
209,72,26645,1,0,1:0:0:0:
295,176,26795,1,10,0:0:0:0:
284,166,27095,6,0,B|210:180|243:216|182:227,2,120,2|10|2,1:2|0:0|1:2,0:0:0:0:
185,241,27845,1,0,1:0:0:0:
275,303,27995,2,0,L|288:244,1,60,2|8,0:0|0:0,0:0:0:0:
230,106,28295,5,0,0:0:0:0:
230,106,28445,1,0,1:0:0:0:
165,144,28595,2,0,P|224:148|282:165,1,120,10|2,0:0|1:2,0:0:0:0:
346,108,29045,1,0,1:0:0:0:
374,244,29195,2,0,L|358:185,1,60,10|0,0:2|0:0,0:0:0:0:
486,19,29495,6,0,L|468:141,1,106.87499714613,6|0,1:2|0:0,0:0:0:0:
476,134,29795,1,10,0:0:0:0:
375,81,29945,1,2,0:0:0:0:
290,206,30095,2,0,L|379:179,1,71.2499980974198,2|2,1:2|1:2,0:0:0:0:
253,93,30395,6,0,P|219:80|185:69,1,71.2499980974198,8|2,0:0|1:2,0:0:0:0:
124,178,30695,2,0,P|136:211|147:245,1,71.2499980974198,2|0,0:0|1:2,0:0:0:0:
264,309,30995,2,0,P|280:258|289:205,1,106.87499714613,8|0,0:0|0:2,0:0:0:0:
280,194,31295,1,2,1:2:0:0:
253,313,31445,1,0,1:0:0:0:
348,334,31595,2,0,P|381:345|415:357,1,71.2499980974198,10|0,0:0|0:0,0:0:0:0:
512,198,31895,6,0,L|390:216,1,106.87499714613,2|0,1:2|0:0,0:0:0:0:
400,228,32195,1,10,0:0:0:0:
442,136,32345,1,2,0:0:0:0:
381,61,32495,1,2,1:2:0:0:
296,80,32645,2,0,L|207:53,1,71.2499980974198,2|10,1:2|0:0,0:0:0:0:
143,215,32945,5,0,1:0:0:0:
187,307,33095,2,0,P|149:250|83:261,1,142.49999619484,2|8,0:0|0:0,0:0:0:0:
230,375,33545,1,0,0:0:0:0:
271,305,33695,2,0,P|304:317|338:328,1,71.2499980974198,2|0,1:2|1:0,0:0:0:0:
425,214,33995,1,10,0:0:0:0:
357,244,34145,1,0,0:0:0:0:
425,214,34295,6,0,L|409:108,1,106.87499714613,0|0,1:0|0:0,0:0:0:0:
412,98,34595,1,10,0:0:0:0:
319,48,34745,1,2,0:0:0:0:
259,110,34895,1,2,1:2:0:0:
183,87,35045,2,0,L|162:18,1,71.2499980974198,2|8,1:2|0:0,0:0:0:0:
259,110,35345,6,0,L|243:223,1,106.87499714613,2|0,1:2|0:0,0:0:0:0:
234,224,35645,2,0,P|177:214|143:208,1,71.2499980974198,2|8,1:2|0:0,0:0:0:0:
309,168,35945,1,2,0:0:0:0:
327,276,36095,2,0,P|339:312|353:348,1,71.2499980974198,2|2,1:2|1:2,0:0:0:0:
234,224,36395,1,8,0:0:0:0:
141,371,36695,6,0,P|110:358|69:356,1,71.2499980974198,2|0,1:2|0:0,0:0:0:0:
1,248,36995,2,0,P|50:234|66:186,1,106.87499714613,8|0,0:2|0:2,0:0:0:0:
68,172,37295,1,0,1:2:0:0:
146,216,37445,1,0,1:0:0:0:
223,108,37595,6,0,P|191:30|229:8,1,142.49999619484,10|0,0:0|0:0,0:0:0:0:
219,117,38045,1,0,1:0:0:0:
328,69,38195,2,0,P|361:80|395:92,1,71.2499980974198,10|0,0:0|0:0,0:0:0:0:
444,23,38495,5,8,0:0:0:0:
321,81,38645,1,8,0:0:0:0:
453,157,38795,1,8,0:0:0:0:
366,207,38945,1,8,0:0:0:0:
448,292,39095,6,0,B|405:234|333:251|333:251|359:259|367:287,1,180,6|0,1:2|1:0,0:0:0:0:
453,281,39695,1,8,0:0:0:0:
453,281,39995,1,0,0:0:0:0:
369,360,40145,6,0,P|309:368|251:384,2,120,2|8|0,1:2|0:0|1:0,0:0:0:0:
266,297,40895,1,8,0:0:0:0:
218,241,41045,2,0,L|239:122,1,120,0|0,1:0|1:0,0:0:0:0:
127,46,41495,6,0,B|55:42|32:97|32:97|45:131|10:161,1,180,6|0,1:2|1:0,0:0:0:0:
65,250,42095,2,0,P|128:264|152:287,1,90,8|0,0:0|0:0,0:0:0:0:
145,292,42395,1,0,0:0:0:0:
190,370,42545,6,0,L|254:334,1,60,2|0,1:2|0:0,0:0:0:0:
340,291,42845,2,0,L|287:261,1,60,8|0,0:0|1:2,0:0:0:0:
386,371,43145,1,0,1:0:0:0:
480,354,43295,2,0,L|498:246,1,90,8|0,0:0|0:0,0:0:0:0:
482,254,43595,2,0,L|428:266,1,30,8|8,0:0|0:0,0:0:0:0:
355,359,43745,2,0,L|384:365,1,30,8|8,0:0|0:0,0:0:0:0:
292,263,43895,6,0,P|234:298|141:320,1,142.49999619484,6|8,1:2|0:0,0:0:0:0:
163,303,44495,2,0,L|178:215,1,71.2499980974198,0|0,1:0|1:0,0:0:0:0:
225,86,44795,2,0,P|274:93|349:111,1,106.87499714613,8|0,0:0|0:0,0:0:0:0:
329,118,45095,1,2,1:2:0:0:
288,51,45245,1,0,1:0:0:0:
172,154,45395,6,0,P|133:115|147:48,1,106.87499714613,8|0,0:0|0:0,0:0:0:0:
143,58,45695,1,0,1:0:0:0:
181,159,45845,1,0,1:0:0:0:
101,229,45995,2,0,P|63:220|27:210,1,71.2499980974198,8|0,0:0|1:0,0:0:0:0:
181,324,46295,6,0,P|214:311|248:302,1,71.2499980974198,0|0,1:0|1:0,0:0:0:0:
340,247,46595,5,8,0:0:0:0:
190,333,46745,1,0,1:0:0:0:
255,200,46895,5,8,0:0:0:0:
316,367,47045,1,0,1:0:0:0:
255,200,47195,1,12,0:0:0:0:
504,361,47495,6,0,P|479:352|448:343,1,50.6249984550477,8|0,1:2|0:0,0:0:0:0:
442,351,47795,5,8,0:2:0:0:
410,331,47870,1,8,0:0:0:0:
393,298,47945,1,8,0:0:0:0:
396,260,48020,1,8,0:0:0:0:
417,230,48095,2,0,L|455:245,3,35.6249990487099,8|8|8|8,0:0|0:0|0:0|0:0,0:0:0:0:
364,173,48395,2,0,L|331:186,3,35.6249990487099,8|8|8|8,3:0|3:0|3:0|3:0,0:0:0:0:
282,254,48695,6,0,P|215:235|177:235,1,86.2500016450882,6|0,1:2|0:0,0:0:0:0:
46,87,48995,2,0,P|94:114|81:200,1,129.375002467632,8|0,0:0|0:0,0:0:0:0:
81,192,49295,1,0,1:2:0:0:
143,103,49445,1,0,1:0:0:0:
252,238,49595,6,0,P|229:298|213:361,1,129.375002467632,8|0,0:0|0:0,0:0:0:0:
207,373,49895,2,0,P|184:321|174:260,1,86.2500016450882,2|0,1:2|0:0,0:0:0:0:
354,182,50195,6,0,P|338:245|320:278,1,86.2500016450882,8|0,0:0|0:0,0:0:0:0:
244,122,50495,1,0,1:0:0:0:
244,122,50645,1,0,1:0:0:0:
353,56,50795,2,0,P|397:63|421:100,1,86.2500016450882,8|0,0:0|0:0,0:0:0:0:
246,204,51095,6,0,P|206:167|117:172,1,129.375002467632,2|0,1:2|0:0,0:0:0:0:
124,181,51395,2,0,P|78:210|40:201,1,86.2500016450882,8|0,0:0|0:0,0:0:0:0:
151,73,51695,1,0,1:0:0:0:
157,73,51845,1,0,1:0:0:0:
167,252,51995,6,0,L|148:392,1,129.375002467632,8|0,0:0|0:0,0:0:0:0:
134,372,52295,2,0,P|182:351|242:333,1,86.2500016450882,2|0,1:2|0:0,0:0:0:0:
102,179,52595,2,0,P|181:213|263:237,1,172.500003290176,8|0,0:0|1:0,0:0:0:0:
307,164,53045,1,0,1:0:0:0:
381,330,53195,2,0,P|415:298|408:238,1,86.2500016450882,8|0,0:0|0:0,0:0:0:0:
265,348,53495,6,0,P|222:353|181:367,1,86.2500016450882,6|0,1:2|0:0,0:0:0:0:
322,210,53795,2,0,P|349:258|435:245,1,129.375002467632,8|0,0:0|0:0,0:0:0:0:
416,255,54095,1,0,1:0:0:0:
315,201,54245,1,0,1:0:0:0:
464,56,54395,6,0,P|430:159|421:202,1,129.375002467632,8|0,0:0|0:0,0:0:0:0:
432,186,54695,2,0,P|413:147|402:105,1,86.2500016450882,2|0,1:2|0:0,0:0:0:0:
250,35,54995,6,0,P|187:51|154:69,1,86.2500016450882,8|0,0:0|0:0,0:0:0:0:
107,135,55295,1,0,1:0:0:0:
107,135,55445,1,0,1:0:0:0:
237,219,55595,2,0,P|197:191|199:135,1,86.2500016450882,8|0,0:0|0:0,0:0:0:0:
64,261,55895,6,0,L|30:407,1,129.375002467632,2|0,1:2|0:0,0:0:0:0:
34,384,56195,2,0,L|13:300,1,86.2500016450882,8|0,0:0|0:0,0:0:0:0:
126,203,56495,1,0,1:0:0:0:
132,203,56645,1,0,1:0:0:0:
242,346,56795,6,0,B|206:308|154:323|154:323|130:349,1,129.375002467632,8|0,0:0|0:0,0:0:0:0:
135,364,57095,2,0,L|195:287,1,86.2500016450882,2|0,1:2|1:0,0:0:0:0:
318,384,57395,5,8,0:0:0:0:
466,332,57545,1,8,0:0:0:0:
326,382,57695,2,0,P|317:307|380:300,1,129.375002467632,0|0,1:0|0:0,0:0:0:0:
365,300,57995,1,12,0:0:0:0:
320,222,58145,1,0,0:0:0:0:
452,140,58295,6,0,B|383:143|365:189|368:191|345:237|271:221,1,172.500003290176,6|8,1:2|0:0,0:0:0:0:
248,175,58745,1,0,0:0:0:0:
231,83,58895,2,0,L|322:127,1,86.2500016450882,0|0,1:0|1:0,0:0:0:0:
198,244,59195,2,0,L|120:281,1,86.2500016450882,8|0,0:0|0:0,0:0:0:0:
21,142,59495,6,0,L|47:15,1,129.375002467632,2|0,1:2|0:0,0:0:0:0:
40,9,59795,2,0,P|63:53|108:60,1,86.2500016450882,8|0,0:0|0:0,0:0:0:0:
194,11,60095,1,0,1:0:0:0:
194,11,60245,1,0,1:0:0:0:
242,161,60395,2,0,P|225:122|185:107,1,86.2500016450882,8|0,0:0|0:0,0:0:0:0:
32,244,60695,6,0,L|47:372,1,129.375002467632,2|0,1:2|0:0,0:0:0:0:
44,364,60995,2,0,L|158:350,1,86.2500016450882,8|0,0:0|0:0,0:0:0:0:
188,270,61295,1,0,1:0:0:0:
188,270,61445,1,0,1:0:0:0:
304,384,61595,2,0,P|386:312|455:319,1,172.500003290176,8|2,0:0|1:2,0:0:0:0:
444,122,62195,6,0,L|356:83,1,86.2500016450882,8|0,0:0|0:0,0:0:0:0:
290,150,62495,2,0,L|212:185,1,86.2500016450882,0|0,1:0|1:0,0:0:0:0:
357,326,62795,2,0,L|370:186,1,129.375002467632,8|0,0:0|0:0,0:0:0:0:
373,189,63095,6,0,P|409:196|445:208,1,75,6|0,1:2|0:0,0:0:0:0:
283,274,63395,2,0,P|246:281|210:293,1,75,8|0,0:0|0:0,0:0:0:0:
116,170,63695,1,0,1:0:0:0:
66,225,63845,2,0,L|91:334,1,112.5,0|0,1:0|0:0,0:0:0:0:
83,337,64145,6,0,B|126:308|164:339|154:342|176:365|237:338,1,150,8|0,0:0|1:0,0:0:0:0:
380,262,64595,2,0,B|390:230|366:201|366:201|282:211,1,150,8|0,0:0|1:0,0:0:0:0:
343,355,65045,1,0,1:0:0:0:
452,280,65195,2,0,L|370:259,1,75,8|0,0:0|0:0,0:0:0:0:
173,66,65495,6,0,L|194:203,1,129.375002467632,2|0,1:2|0:0,0:0:0:0:
202,203,65795,2,0,L|222:119,1,86.2500016450882,8|0,0:0|0:0,0:0:0:0:
252,283,66095,1,0,1:0:0:0:
252,283,66245,1,0,1:0:0:0:
393,169,66395,2,0,L|309:189,1,86.2500016450882,8|0,0:0|0:0,0:0:0:0:
158,318,66695,6,0,P|230:328|257:398,1,129.375002467632,2|0,1:2|0:0,0:0:0:0:
263,384,66995,2,0,L|388:353,1,129.375002467632,8|0,0:0|0:0,0:0:0:0:
408,341,67295,6,0,L|397:299,1,43.1250008225441,8|8,0:0|0:0,0:0:0:0:
327,199,67445,2,0,L|316:240,1,43.1250008225441,8|8,0:0|0:0,0:0:0:0:
457,140,67595,5,8,0:0:0:0:
457,140,67670,1,8,0:0:0:0:
457,140,67745,2,0,B|409:134|379:164|388:160|374:211|315:198,1,150,6|0,1:2|1:0,0:0:0:0:
186,249,68195,2,0,P|239:237|262:331,1,150,8|0,0:0|1:2,0:0:0:0:
213,259,68645,1,2,1:2:0:0:
111,165,68795,6,0,P|128:128|138:46,1,112.5,8|0,0:0|0:0,0:0:0:0:
129,52,69095,1,0,1:0:0:0:
208,150,69245,1,2,0:2:0:0:
117,185,69395,2,0,P|73:192|40:206,1,75,10|0,0:0|0:0,0:0:0:0:
132,359,69695,5,0,1:0:0:0:
98,291,69845,1,0,1:0:0:0:
205,220,69995,1,10,0:0:0:0:
317,287,70145,6,0,B|434:320|434:320|457:296,1,150,6|0,1:2|1:0,0:0:0:0:
406,89,70595,2,0,P|358:114|365:175,1,112.5,10|0,0:0|0:0,0:0:0:0:
371,177,70895,2,0,P|327:184|294:198,1,75,0|2,1:0|1:2,0:0:0:0:
410,101,71195,1,8,0:0:0:0:
285,35,71345,6,0,B|232:22|214:62|218:60|195:96|138:74,1,150,6|0,1:2|1:0,0:0:0:0:
34,152,71795,2,0,P|51:115|61:33,1,112.5,10|0,0:0|0:0,0:0:0:0:
52,37,72095,2,0,P|57:74|70:109,1,75,0|0,1:0|1:0,0:0:0:0:
167,148,72395,1,8,0:0:0:0:
142,299,72545,6,0,B|97:284|97:284|57:228|106:182,1,150,6|0,1:2|1:0,0:0:0:0:
274,315,72995,2,0,P|225:330|192:365,1,75,10|0,0:0|0:0,0:0:0:0:
317,237,73295,2,0,P|347:258|383:266,1,75,0|2,1:0|1:2,0:0:0:0:
237,236,73595,1,8,0:0:0:0:
335,364,73745,6,0,P|432:311|488:325,1,150,6|0,1:2|1:0,0:0:0:0:
498,171,74195,2,0,L|481:261,1,75,10|0,0:0|0:0,0:0:0:0:
364,126,74495,2,0,L|381:216,1,75,2|0,1:2|1:0,0:0:0:0:
454,88,74795,1,8,0:0:0:0:
305,41,74945,6,0,B|286:19|286:19|203:31,1,112.5,6|0,1:2|0:0,0:0:0:0:
192,45,75245,1,0,1:0:0:0:
97,108,75395,2,0,P|146:123|179:158,1,75,8|0,0:0|0:0,0:0:0:0:
247,233,75695,1,8,0:0:0:0:
250,207,75770,1,8,0:0:0:0:
254,181,75845,1,8,0:0:0:0:
257,155,75920,1,8,0:0:0:0:
261,129,75995,1,8,0:0:0:0:
152,234,76145,6,0,L|6:268,1,150,2|2,1:2|1:2,0:0:0:0:
85,350,76595,2,0,P|98:283|75:274,1,75,8|2,0:0|0:0,0:0:0:0:
222,180,76895,2,0,L|238:249,3,37.5,8|8|8|8,0:0|0:0|0:0|0:0,0:0:0:0:
267,242,77195,2,0,L|258:278,3,37.5,8|8|4|4,3:0|3:0|3:0|3:0,0:0:0:0:
239,310,77495,5,6,1:2:0:0:
340,369,77795,2,0,P|374:329|455:340,1,127.50000243187,10|0,0:2|1:0,0:0:0:0:
446,340,78245,1,0,1:0:0:0:
512,292,78395,6,0,P|476:259|441:257,1,63.7500012159348,2|8,0:0|0:0,0:0:0:0:
418,171,78695,2,0,P|355:198|348:260,2,127.50000243187,2|8|2,0:0|0:0|1:2,0:0:0:0:
486,146,79445,1,2,1:2:0:0:
475,69,79595,1,8,0:0:0:0:
288,14,79895,6,0,B|255:33|244:57|244:57|276:29|319:39,2,127.50000243187,2|10|0,1:2|0:2|1:0,0:0:0:0:
296,124,80645,1,0,1:0:0:0:
125,26,80945,5,8,0:0:0:0:
60,62,81095,2,0,P|129:72|165:128,1,127.50000243187,2|8,0:0|0:0,0:0:0:0:
183,211,81545,5,0,0:0:0:0:
204,289,81695,2,0,P|135:279|99:223,1,127.50000243187,2|8,1:2|0:0,0:0:0:0:
267,237,82145,1,0,1:0:0:0:
333,327,82295,6,0,P|329:358|345:385,1,63.7500012159348,2|2,1:2|0:2,0:0:0:0:
231,359,82595,2,0,P|252:298|266:236,1,127.50000243187,10|0,0:2|1:0,0:0:0:0:
231,169,83045,1,0,1:0:0:0:
282,106,83195,1,2,0:2:0:0:
374,90,83345,6,0,L|474:113,1,95.6250018239022,10|0,0:2|0:0,0:0:0:0:
475,104,83645,1,2,1:2:0:0:
384,195,83795,2,0,L|246:231,1,127.50000243187,8|2,0:0|1:2,0:0:0:0:
146,124,84245,1,2,1:2:0:0:
211,67,84395,1,8,0:0:0:0:
211,67,84695,6,0,B|208:121|208:121|215:138|215:138|212:198,2,127.50000243187,2|8|0,1:2|0:0|1:0,0:0:0:0:
274,18,85445,1,0,1:0:0:0:
349,118,85595,2,0,L|281:101,1,63.7500012159348,2|8,0:0|0:0,0:0:0:0:
117,77,85895,5,2,0:0:0:0:
117,77,86045,1,2,1:2:0:0:
37,116,86195,2,0,P|96:120|149:185,1,127.50000243187,8|2,0:0|1:2,0:0:0:0:
96,227,86645,1,0,1:0:0:0:
218,294,86795,2,0,L|210:255,3,31.8750006079674,8|8|8|8,0:0|0:0|0:0|0:0,0:0:0:0:
230,250,87095,6,0,L|212:372,1,106.87499714613,6|0,1:2|0:0,0:0:0:0:
224,365,87395,1,10,0:0:0:0:
330,280,87545,1,2,0:0:0:0:
393,365,87695,2,0,L|482:338,1,71.2499980974198,2|2,1:2|1:2,0:0:0:0:
353,212,87995,2,0,P|341:245|329:279,1,71.2499980974198,8|2,0:0|1:2,0:0:0:0:
430,267,88295,6,0,P|463:254|497:243,1,71.2499980974198,2|0,0:0|1:2,0:0:0:0:
333,130,88595,2,0,P|276:120|219:110,1,106.87499714613,8|0,0:0|0:2,0:0:0:0:
231,96,88895,1,2,1:2:0:0:
328,33,89045,1,0,1:0:0:0:
408,114,89195,2,0,P|420:150|434:186,1,71.2499980974198,10|0,0:0|0:0,0:0:0:0:
258,220,89495,6,0,L|136:202,1,106.87499714613,2|0,1:2|0:0,0:0:0:0:
143,214,89795,1,10,0:0:0:0:
86,136,89945,1,2,0:0:0:0:
144,62,90095,1,2,1:2:0:0:
236,95,90245,2,0,L|209:184,1,71.2499980974198,2|10,1:2|0:0,0:0:0:0:
292,310,90545,5,0,1:0:0:0:
239,243,90695,2,0,P|238:310|297:291,1,142.49999619484,2|8,0:0|0:0,0:0:0:0:
346,235,91145,1,0,0:0:0:0:
423,315,91295,2,0,P|435:348|446:382,1,71.2499980974198,2|0,1:2|1:0,0:0:0:0:
346,235,91595,1,10,0:0:0:0:
419,191,91745,1,0,0:0:0:0:
381,69,91895,6,0,L|259:51,1,106.87499714613,0|0,1:0|0:0,0:0:0:0:
282,60,92195,1,10,0:0:0:0:
165,12,92345,1,2,0:0:0:0:
101,101,92495,1,2,1:2:0:0:
25,83,92645,2,0,L|4:14,1,71.2499980974198,2|8,1:2|0:0,0:0:0:0:
198,106,92945,6,0,L|182:219,1,106.87499714613,2|0,1:2|0:0,0:0:0:0:
180,218,93245,2,0,P|123:208|89:202,1,71.2499980974198,2|8,1:2|0:0,0:0:0:0:
266,177,93545,1,2,0:0:0:0:
261,288,93695,2,0,P|297:300|333:314,1,71.2499980974198,2|2,1:2|1:2,0:0:0:0:
176,371,93995,1,8,0:0:0:0:
171,361,94295,6,0,P|135:373|99:387,1,71.2499980974198,2|0,1:2|0:0,0:0:0:0:
259,267,94595,2,0,P|312:275|331:326,1,106.87499714613,8|0,0:2|0:2,0:0:0:0:
324,342,94895,1,0,1:2:0:0:
365,265,95045,1,0,1:0:0:0:
498,384,95195,6,0,B|511:361|495:328|495:328|395:341,1,142.49999619484,10|0,0:0|0:0,0:0:0:0:
470,257,95645,1,0,1:0:0:0:
372,185,95795,2,0,P|384:151|395:117,1,71.2499980974198,10|0,0:0|1:0,0:0:0:0:
489,133,96095,5,8,0:0:0:0:
470,257,96245,1,8,0:0:0:0:
400,332,96395,1,8,3:0:0:0:
320,362,96545,1,4,3:0:0:0:
290,335,96695,6,0,B|268:310|268:310|346:266|404:336,1,180,6|0,1:2|1:0,0:0:0:0:
458,384,97295,1,8,0:0:0:0:
458,384,97595,1,0,0:0:0:0:
511,307,97745,6,0,P|502:247|486:189,2,120,2|8|0,1:2|0:0|1:0,0:0:0:0:
469,192,98495,1,8,0:0:0:0:
511,121,98645,2,0,P|463:88|393:106,1,120,0|0,1:0|1:0,0:0:0:0:
221,249,99095,6,0,B|268:233|304:268|304:268|309:216|358:197,1,180,6|0,1:2|1:0,0:0:0:0:
467,311,99695,2,0,P|404:297|380:274,1,90,8|0,0:0|0:0,0:0:0:0:
388,268,99995,1,0,0:0:0:0:
243,339,100145,6,0,L|190:368,1,60,2|0,1:2|0:0,0:0:0:0:
93,299,100445,2,0,L|40:269,1,60,8|0,0:0|1:2,0:0:0:0:
97,308,100745,1,0,1:0:0:0:
162,218,100895,2,0,P|184:183|175:113,1,90,12|0,0:0|0:0,0:0:0:0:
174,126,101195,2,0,L|120:138,1,30,8|8,0:0|0:0,0:0:0:0:
286,189,101345,2,0,L|315:183,1,30,8|8,0:0|0:0,0:0:0:0:
215,289,101495,6,0,L|58:257,1,142.49999619484,6|8,1:2|0:0,0:0:0:0:
75,260,102095,2,0,L|90:172,1,71.2499980974198,0|0,1:0|1:0,0:0:0:0:
56,338,102395,2,0,P|105:345|180:363,1,106.87499714613,8|0,0:0|0:0,0:0:0:0:
184,382,102695,1,2,1:2:0:0:
184,382,102845,1,0,1:0:0:0:
266,278,102995,6,0,P|227:239|241:172,1,106.87499714613,8|0,0:0|0:0,0:0:0:0:
250,166,103295,1,0,1:0:0:0:
250,166,103445,1,0,1:0:0:0:
352,112,103595,2,0,P|395:124|447:135,1,71.2499980974198,8|0,0:0|1:0,0:0:0:0:
273,275,103895,6,0,P|230:287|186:306,1,71.2499980974198,8|0,0:0|1:0,0:0:0:0:
197,304,104120,1,0,1:0:0:0:
192,315,104195,1,8,0:0:0:0:
261,268,104345,1,0,1:0:0:0:
178,208,104495,1,8,0:0:0:0:
268,147,104645,1,0,1:0:0:0:
267,160,104720,1,0,1:0:0:0:
266,172,104795,1,8,0:0:0:0:
30,13,105095,5,8,0:0:0:0:
38,47,105170,1,8,0:0:0:0:
46,82,105245,1,8,0:0:0:0:
54,116,105320,1,8,0:0:0:0:
58,153,105395,2,0,L|23:145,1,35.6249990487099,8|8,0:0|0:0,0:0:0:0:
124,102,105545,2,0,L|159:94,1,35.6249990487099,8|8,0:0|0:0,0:0:0:0:
200,165,105695,6,0,L|192:200,3,35.6249990487099,8|8|8|8,3:0|3:0|3:0|3:0,0:0:0:0:
165,236,105995,2,0,L|173:271,3,35.6249990487099,4|4|4|4,3:0|3:0|3:0|3:0,0:0:0:0:
222,334,106295,6,0,L|313:313,1,86.2500016450882,6|0,1:2|0:0,0:0:0:0:
415,174,106595,2,0,P|353:172|319:224,1,129.375002467632,8|0,0:0|0:0,0:0:0:0:
321,238,106895,1,0,1:2:0:0:
239,185,107045,1,0,1:0:0:0:
176,36,107195,6,0,P|243:53|308:77,1,129.375002467632,8|0,0:0|0:0,0:0:0:0:
309,70,107495,2,0,P|264:81|222:100,1,86.2500016450882,2|0,1:2|0:0,0:0:0:0:
66,121,107795,6,0,P|47:79|37:34,1,86.2500016450882,8|0,0:0|0:0,0:0:0:0:
151,169,108095,1,0,1:0:0:0:
151,169,108245,1,0,1:0:0:0:
66,263,108395,2,0,P|26:235|28:179,1,86.2500016450882,8|0,0:0|0:0,0:0:0:0:
172,300,108695,6,0,L|308:324,1,129.375002467632,2|0,1:2|0:0,0:0:0:0:
316,316,108995,2,0,P|326:262|300:231,1,86.2500016450882,8|0,0:0|0:0,0:0:0:0:
223,176,109295,1,0,1:0:0:0:
223,176,109445,1,0,1:0:0:0:
321,58,109595,6,0,B|360:68|361:91|361:91|336:175,1,129.375002467632,8|0,0:0|0:0,0:0:0:0:
332,153,109895,2,0,P|357:119|398:112,1,86.2500016450882,2|0,1:2|0:0,0:0:0:0:
488,291,110195,2,0,L|303:255,1,172.500003290176,8|0,0:0|1:0,0:0:0:0:
388,226,110645,1,0,1:0:0:0:
274,322,110795,2,0,P|245:292|244:250,1,86.2500016450882,8|0,0:0|0:0,0:0:0:0:
282,110,111095,6,0,P|215:91|177:91,1,86.2500016450882,6|0,1:2|0:0,0:0:0:0:
17,20,111395,2,0,P|71:48|73:110,1,129.375002467632,8|0,0:0|0:0,0:0:0:0:
67,119,111695,1,0,1:0:0:0:
126,195,111845,1,0,1:0:0:0:
37,307,111995,6,0,P|140:273|183:264,1,129.375002467632,8|0,0:0|0:0,0:0:0:0:
172,280,112295,2,0,P|224:303|285:313,1,86.2500016450882,2|0,1:2|0:0,0:0:0:0:
342,229,112595,6,0,P|326:166|308:133,1,86.2500016450882,8|0,0:0|0:0,0:0:0:0:
385,76,112895,1,0,1:0:0:0:
385,76,113045,1,0,1:0:0:0:
488,190,113195,2,0,P|450:164|391:174,1,86.2500016450882,8|0,0:0|0:0,0:0:0:0:
260,270,113495,6,0,P|343:276|358:325,1,129.375002467632,2|0,1:2|0:0,0:0:0:0:
354,329,113795,2,0,L|333:245,1,86.2500016450882,8|0,0:0|0:0,0:0:0:0:
248,143,114095,1,0,1:0:0:0:
248,143,114245,1,0,1:0:0:0:
158,284,114395,6,0,B|101:267|101:267|98:262|98:262|37:240,1,129.375002467632,8|0,0:0|0:0,0:0:0:0:
31,246,114695,2,0,L|112:216,1,86.2500016450882,2|0,1:2|1:0,0:0:0:0:
241,298,114995,1,8,0:0:0:0:
144,384,115145,1,8,0:0:0:0:
144,384,115220,1,0,1:0:0:0:
143,383,115295,2,0,P|116:328|158:284,1,129.375002467632,0|0,1:0|0:0,0:0:0:0:
165,290,115595,1,12,0:0:0:0:
245,220,115745,1,0,0:0:0:0:
298,344,115895,6,0,P|337:272|420:264,1,172.500003290176,6|8,1:2|0:0,0:0:0:0:
388,344,116345,1,0,0:0:0:0:
325,244,116495,2,0,L|230:215,1,86.2500016450882,0|0,1:0|1:0,0:0:0:0:
385,158,116795,2,0,L|463:121,1,86.2500016450882,8|0,0:0|0:0,0:0:0:0:
317,0,117095,6,0,L|290:126,1,129.375002467632,2|0,1:2|0:0,0:0:0:0:
282,135,117395,2,0,P|261:104|277:57,1,86.2500016450882,8|0,0:0|0:0,0:0:0:0:
385,158,117695,1,0,1:0:0:0:
385,158,117845,1,0,1:0:0:0:
325,244,117995,2,0,L|230:215,1,86.2500016450882,8|0,0:0|0:0,0:0:0:0:
66,111,118295,6,0,B|105:146|105:146|88:244,1,129.375002467632,2|0,1:2|0:0,0:0:0:0:
91,234,118595,2,0,L|5:217,1,86.2500016450882,8|0,0:0|0:0,0:0:0:0:
144,157,118895,1,0,1:0:0:0:
144,157,119045,1,0,1:0:0:0:
219,286,119195,2,0,P|140:262|83:322,1,172.500003290176,8|2,0:0|1:2,0:0:0:0:
256,364,119795,6,0,B|299:360|299:360|334:325,1,86.2500016450882,8|0,0:0|0:0,0:0:0:0:
396,238,120095,2,0,B|365:207|365:207|322:203,1,86.2500016450882,0|0,1:0|1:0,0:0:0:0:
460,377,120395,2,0,L|491:219,1,129.375002467632,8|0,0:0|0:0,0:0:0:0:
485,239,120695,6,0,P|448:246|412:258,1,75,6|0,1:2|0:0,0:0:0:0:
319,189,120995,2,0,P|282:181|246:169,1,75,8|0,0:0|0:0,0:0:0:0:
389,101,121295,1,0,1:0:0:0:
429,164,121445,2,0,L|458:40,1,112.5,0|0,1:0|0:0,0:0:0:0:
467,54,121745,6,0,L|301:88,1,150,8|0,0:0|1:0,0:0:0:0:
143,52,122195,2,0,P|212:65|226:134,1,150,8|0,0:0|1:0,0:0:0:0:
171,190,122645,1,0,1:0:0:0:
57,118,122795,1,8,0:0:0:0:
137,60,122945,1,8,0:0:0:0:
80,221,123095,6,0,L|101:358,1,129.375002467632,2|0,1:2|0:0,0:0:0:0:
96,366,123395,1,8,0:0:0:0:
175,277,123546,2,0,L|259:297,1,86.2500016450882,0|0,1:2|0:0,0:0:0:0:
282,378,123845,1,0,1:0:0:0:
373,314,123995,2,0,P|377:270|351:230,1,86.2500016450882,8|0,0:0|0:0,0:0:0:0:
195,149,124295,6,0,L|174:289,1,129.375002467632,6|0,1:2|0:0,0:0:0:0:
175,276,124595,1,8,0:0:0:0:
290,207,124745,1,8,0:0:0:0:
172,143,124895,5,8,0:0:0:0:
296,214,125045,1,8,0:0:0:0:
172,143,125195,1,8,0:0:0:0:
282,55,125345,5,0,1:0:0:0:
282,55,125420,1,0,1:0:0:0:
282,55,125495,1,14,1:2:0:0:
345,7,125645,2,0,L|489:46,1,150,2|2,1:2|1:2,0:0:0:0:
414,242,126245,6,0,L|404:207,1,37.5,0|0,1:0|1:0,0:0:0:0:
271,256,126395,1,14,1:2:0:0:
201,295,126545,2,0,P|212:358|301:371,2,150,2|2|0,1:2|1:2|1:0,0:0:0:0:
347,330,127295,5,8,0:0:0:0:
406,378,127445,1,0,1:0:0:0:
470,337,127595,2,0,L|490:260,1,75,8|0,3:0|1:0,0:0:0:0:
290,156,127895,5,14,1:2:0:0:
239,217,128045,2,0,L|85:193,1,150,2|2,1:2|1:2,0:0:0:0:
212,26,128645,5,0,1:0:0:0:
212,26,128720,1,0,1:0:0:0:
212,26,128795,1,14,1:2:0:0:
235,99,128945,2,0,B|199:81|224:43|224:43|313:20,1,150,2|2,1:2|1:2,0:0:0:0:
422,220,129545,6,0,L|426:182,2,37.5,0|0|8,1:0|1:0|0:0,0:0:0:0:
420,177,129845,1,0,1:0:0:0:
352,253,129995,2,0,L|365:328,1,75,8|4,3:0|3:0,0:0:0:0:
212,209,130295,5,14,1:2:0:0:
124,249,130445,2,0,P|195:246|236:305,2,150,2|2|0,1:2|1:2|1:0,0:0:0:0:
25,129,131195,1,14,1:2:0:0:
71,72,131345,2,0,P|49:197|52:242,2,150,2|2|0,1:2|1:2|1:0,0:0:0:0:
231,26,132095,5,10,0:0:0:0:
309,70,132245,1,0,1:0:0:0:
309,70,132320,1,0,1:0:0:0:
309,70,132395,2,0,L|210:34,1,75,8|0,3:0|1:0,0:0:0:0:
397,15,132695,5,14,1:2:0:0:
451,70,132845,2,0,L|474:218,2,150,2|2|0,1:2|1:2|1:0,0:0:0:0:
316,202,133595,1,14,1:2:0:0:
251,242,133745,2,0,P|323:239|371:293,1,150,2|2,1:2|1:2,0:0:0:0:
364,295,134345,5,2,1:2:0:0:
242,380,134495,1,8,0:2:0:0:
181,325,134645,2,0,L|141:315,2,37.5,0|0|0,1:0|1:0|1:0,0:0:0:0:
84,382,134945,5,0,1:0:0:0:
84,382,135020,1,0,1:0:0:0:
84,382,135095,1,14,1:2:0:0:
26,327,135245,2,0,P|10:256|58:202,1,150,2|2,1:2|1:2,0:0:0:0:
248,33,135845,6,0,L|237:68,1,37.5,0|0,1:0|1:0,0:0:0:0:
206,176,135995,1,14,1:2:0:0:
234,242,136145,2,0,P|245:179|334:166,1,150,2|0,1:2|1:0,0:0:0:0:
440,316,136745,6,0,L|493:304,2,37.5,0|0|14,1:0|1:0|1:2,0:0:0:0:
362,292,137045,1,0,1:0:0:0:
434,327,137195,2,0,L|335:291,1,75,12|0,0:0|1:0,0:0:0:0:
161,359,137495,5,14,1:2:0:0:
230,384,137645,2,0,B|199:353|199:353|206:230,1,150,2|2,1:2|1:2,0:0:0:0:
382,75,138245,5,0,1:0:0:0:
382,75,138320,1,0,1:0:0:0:
382,75,138395,1,14,1:2:0:0:
434,143,138545,2,0,B|389:145|371:109|377:109|367:76|306:78,1,150,2|2,1:2|1:2,0:0:0:0:
164,228,139145,6,0,L|218:197,2,37.5,0|0|14,1:0|1:0|1:2,0:0:0:0:
93,188,139445,1,0,1:0:0:0:
36,269,139595,2,0,P|29:307|61:339,1,75,14|0,1:2|1:0,0:0:0:0:
210,374,139895,5,14,1:2:0:0:
270,325,140045,2,0,B|332:338|332:338|347:358|347:358|406:375,1,150,2|2,1:2|1:2,0:0:0:0:
459,180,140645,5,0,1:0:0:0:
459,180,140720,1,0,1:0:0:0:
459,180,140795,1,14,1:2:0:0:
372,180,140945,2,0,P|435:191|448:280,1,150,2|2,1:2|1:2,0:0:0:0:
264,223,141545,6,0,L|252:177,1,37.5,0|0,1:0|1:0,0:0:0:0:
286,296,141695,1,14,1:2:0:0:
240,358,141845,1,0,1:0:0:0:
286,296,141995,2,0,L|356:270,1,75,2|0,0:0|1:0,0:0:0:0:
267,176,142295,6,0,P|194:175|156:114,1,150,14|0,1:2|0:0,0:0:0:0:
233,107,142745,1,2,1:2:0:0:
333,0,142895,2,0,L|321:74,1,75,0|0,0:0|1:0,0:0:0:0:
320,86,143120,1,0,1:0:0:0:
318,98,143195,1,14,1:2:0:0:
224,22,143345,6,0,L|54:49,1,150,2|2,1:2|1:2,0:0:0:0:
8,14,143795,2,0,L|0:88,1,75,0|0,0:2|1:2,0:0:0:0:
83,142,144020,1,0,1:0:0:0:
83,142,144095,2,0,L|90:216,1,75,14|0,1:2|1:0,0:0:0:0:
80,227,144320,2,0,L|33:218,1,37.5,0|0,1:0|1:0,0:0:0:0:
102,303,144545,1,0,1:0:0:0:
188,282,144695,5,14,1:2:0:0:
239,348,144845,2,0,P|304:341|383:387,1,150,2|2,1:2|1:2,0:0:0:0:
462,171,145445,6,0,L|477:220,1,37.5,0|0,1:0|1:0,0:0:0:0:
382,220,145595,2,0,P|369:143|430:83,1,150,14|2,1:2|0:0,0:0:0:0:
462,171,146045,1,0,1:2:0:0:
381,230,146195,2,0,L|297:201,1,75,2|0,0:0|1:0,0:0:0:0:
271,125,146420,5,0,1:0:0:0:
271,125,146495,2,0,L|172:161,1,75,14|0,1:2|1:0,0:0:0:0:
370,61,146795,2,0,L|352:134,1,75,8|0,0:0|1:0,0:0:0:0:
208,30,147095,5,14,1:2:0:0:
160,87,147245,2,0,P|94:45|11:63,1,150,0|0,1:0|1:0,0:0:0:0:
7,223,147845,5,0,1:0:0:0:
7,223,147920,1,0,1:0:0:0:
7,223,147995,1,14,1:2:0:0:
45,284,148145,2,0,B|24:219|50:177|50:177|93:161,2,150,2|0|0,1:2|1:0|1:0,0:0:0:0:
158,310,148895,2,0,L|228:284,1,75,8|0,0:0|1:0,0:0:0:0:
329,200,149195,2,0,P|262:193|235:143,1,112.5,14|0,1:2|0:0,0:0:0:0:
249,152,149495,5,6,1:2:0:0:
249,152,149795,2,0,L|261:71,1,78.7499975967408,0|0,1:0|1:0,0:0:0:0:
175,181,150095,2,0,L|153:96,1,78.7499975967408,0|0,1:0|1:0,0:0:0:0:
275,301,150395,2,0,L|291:210,1,78.7499975967408,8|8,1:2|1:2,0:0:0:0:
267,381,150695,5,0,1:0:0:0:
267,381,150845,1,8,0:0:0:0:
189,315,150995,5,8,0:0:0:0:
119,356,151145,1,8,0:0:0:0:
82,278,151295,5,8,0:0:0:0:
193,326,151445,1,8,0:0:0:0:
204,221,151595,5,8,0:0:0:0:
71,287,151745,1,8,0:0:0:0:
19,176,151895,6,0,L|47:62,1,118.124996395111,6|0,1:2|0:0,0:0:0:0:
53,51,152195,2,0,L|110:35,1,39.3749987983704,8|8,1:2|0:0,0:0:0:0:
146,96,152345,2,0,L|184:106,1,39.3749987983704,8|8,0:0|0:0,0:0:0:0:
234,28,152495,5,8,1:2:0:0:
279,28,152570,1,8,0:0:0:0:
315,55,152645,1,8,0:0:0:0:
326,99,152720,1,8,0:0:0:0:
308,140,152795,2,0,L|242:120,3,39.3749987983704,8|8|8|8,1:2|0:0|0:0|0:0,0:0:0:0:
375,190,153095,6,0,L|441:170,3,39.3749987983704,8|8|8|8,1:2|0:0|0:0|0:0,0:0:0:0:
329,262,153395,1,6,1:2:0:0:
329,262,153695,6,0,L|273:242,2,52.4999983978272,8|8|8,3:0|3:0|3:0,0:0:0:0:
284,330,153995,6,0,L|234:347,1,52.4999983978272,4|4,3:0|3:0,0:0:0:0:
184,320,154195,5,4,3:0:0:0:
150,337,154295,5,6,1:2:0:0:
438,384,156695,6,0,P|475:344|455:262,1,129.375002467632,6|0,1:2|0:0,0:0:0:0:
456,273,156995,2,0,P|427:227|436:189,1,86.2500016450882,8|0,0:0|0:0,0:0:0:0:
485,113,157295,1,0,1:2:0:0:
485,113,157445,1,0,1:0:0:0:
365,47,157595,6,0,L|225:28,1,129.375002467632,8|0,0:0|0:0,0:0:0:0:
232,41,157895,2,0,P|280:20|340:2,1,86.2500016450882,2|0,1:2|0:0,0:0:0:0:
218,196,158195,2,0,P|180:125|80:138,1,172.500003290176,8|0,0:0|1:0,0:0:0:0:
140,193,158645,1,0,1:0:0:0:
250,263,158795,2,0,P|282:235|291:193,1,86.2500016450882,8|0,0:0|0:0,0:0:0:0:
150,345,159095,6,0,P|107:350|66:364,1,86.2500016450882,2|0,1:2|0:0,0:0:0:0:
250,263,159395,2,0,P|277:311|363:298,1,129.375002467632,8|0,0:0|0:0,0:0:0:0:
346,306,159695,1,0,1:0:0:0:
422,252,159845,1,0,1:0:0:0:
303,95,159995,6,0,P|337:198|346:241,1,129.375002467632,8|0,0:0|0:0,0:0:0:0:
341,225,160295,2,0,P|338:174|356:145,1,86.2500016450882,2|0,1:2|0:0,0:0:0:0:
240,44,160595,6,0,P|177:60|144:78,1,86.2500016450882,8|0,0:0|0:0,0:0:0:0:
105,152,160895,1,0,1:0:0:0:
105,152,161045,1,0,1:0:0:0:
31,9,161195,2,0,P|71:37|69:93,1,86.2500016450882,8|0,0:0|0:0,0:0:0:0:
216,164,161495,6,0,B|178:200|178:200|197:290,1,129.375002467632,6|0,1:2|0:0,0:0:0:0:
184,264,161795,2,0,L|268:285,1,86.2500016450882,8|0,0:0|0:0,0:0:0:0:
324,210,162095,1,0,1:0:0:0:
324,210,162245,1,0,1:0:0:0:
482,288,162395,6,0,P|436:300|412:383,1,129.375002467632,8|0,0:0|0:0,0:0:0:0:
419,364,162695,2,0,L|399:281,1,86.2500016450882,2|0,1:2|1:0,0:0:0:0:
472,169,162995,1,8,0:0:0:0:
494,94,163145,1,0,1:0:0:0:
365,22,163295,2,0,L|279:9,1,86.2500016450882,0|0,1:2|1:0,0:0:0:0:
218,110,163595,1,8,0:0:0:0:
251,173,163745,1,8,0:0:0:0:
378,225,163895,6,0,P|370:142|299:102,1,172.500003290176,6|8,1:2|0:0,0:0:0:0:
370,79,164345,1,0,0:0:0:0:
422,175,164495,2,0,L|504:149,1,86.2500016450882,0|0,1:0|1:0,0:0:0:0:
311,269,164795,2,0,L|225:247,1,86.2500016450882,8|0,0:0|0:0,0:0:0:0:
393,381,165095,6,0,L|420:255,1,129.375002467632,2|0,1:2|0:0,0:0:0:0:
414,251,165395,2,0,P|400:290|422:326,1,86.2500016450882,8|0,0:0|0:0,0:0:0:0:
355,179,165695,1,0,1:0:0:0:
355,179,165845,1,0,1:0:0:0:
311,269,165995,2,0,L|225:247,1,86.2500016450882,8|0,0:0|0:0,0:0:0:0:
68,124,166295,6,0,B|110:101|110:101|198:124,1,129.375002467632,2|0,1:2|0:0,0:0:0:0:
200,122,166595,2,0,P|210:71|188:35,1,86.2500016450882,8|0,0:0|0:0,0:0:0:0:
118,186,166895,1,0,1:0:0:0:
118,186,167045,1,0,1:0:0:0:
98,278,167195,2,0,P|170:202|249:213,1,172.500003290176,8|2,0:0|1:2,0:0:0:0:
441,50,167795,6,0,L|347:23,1,86.2500016450882,8|0,0:0|0:0,0:0:0:0:
245,135,168095,2,0,L|336:111,1,86.2500016450882,0|0,1:0|1:0,0:0:0:0:
463,191,168395,2,0,P|392:198|356:258,1,129.375002467632,8|0,0:0|0:0,0:0:0:0:
347,247,168695,6,0,P|383:254|419:266,1,75,6|0,1:2|0:0,0:0:0:0:
287,348,168995,2,0,P|250:355|214:367,1,75,8|0,0:0|0:0,0:0:0:0:
143,295,169295,1,0,1:0:0:0:
143,295,169445,1,0,1:0:0:0:
205,210,169595,1,8,0:0:0:0:
121,177,169745,6,0,B|106:114|106:114|107:110|107:110|90:30,1,150,0|0,1:0|1:0,0:0:0:0:
197,5,170195,2,0,P|268:10|305:72,1,150,8|0,0:0|1:0,0:0:0:0:
295,158,170645,1,0,1:0:0:0:
425,107,170795,2,0,L|404:25,1,75,8|0,0:0|1:0,0:0:0:0:
295,158,171095,5,14,1:2:0:0:
228,198,171245,1,0,1:0:0:0:
266,266,171395,1,0,1:0:0:0:
383,266,171545,6,0,L|468:279,1,86.2500016450882,8|0,0:0|1:0,0:0:0:0:
295,158,171845,1,0,1:2:0:0:
189,263,171995,2,0,L|202:348,1,86.2500016450882,14|0,1:2|0:0,0:0:0:0:
56,141,172295,5,8,1:2:0:0:
102,132,172370,1,8,0:0:0:0:
145,144,172445,1,8,0:0:0:0:
175,183,172520,1,8,0:0:0:0:
181,235,172595,1,8,1:2:0:0:
168,240,172670,1,8,0:0:0:0:
157,244,172745,1,8,0:0:0:0:
147,247,172820,1,8,0:0:0:0:
138,250,172895,1,0,1:0:0:0:
224,123,173045,5,8,0:0:0:0:
299,146,173195,1,8,0:0:0:0:
374,174,173345,1,8,0:0:0:0:
481,31,173495,5,6,1:2:0:0:
248,258,175745,6,0,L|237:204,1,33.7499989700318,2|0,1:2|1:0,0:0:0:0:
307,298,175895,2,0,L|173:275,1,134.999995880127,10|2,0:0|0:0,0:0:0:0:
99,316,176345,2,0,P|120:362|121:387,1,67.4999979400635,8|2,3:0|0:0,0:0:0:0:
159,195,176645,6,0,L|106:217,2,33.7499989700318,2|0|10,1:2|1:0|0:0,0:0:0:0:
248,140,176945,2,0,L|158:113,1,67.4999979400635,0|2,1:0|0:0,0:0:0:0:
283,228,177245,2,0,P|323:189|383:190,1,101.249996910095,8|0,3:0|0:0,0:0:0:0:
375,200,177545,2,0,L|368:253,2,33.7499989700318,0|0|10,1:0|1:0|0:0,0:0:0:0:
281,44,177845,5,10,0:0:0:0:
164,74,177995,1,10,0:0:0:0:
47,104,178145,1,10,0:0:0:0:
