osu file format v14

[General]
AudioFilename: audio.mp3
AudioLeadIn: 0
PreviewTime: 71862
Countdown: 0
SampleSet: Soft
StackLeniency: 0.7
Mode: 0
LetterboxInBreaks: 0
WidescreenStoryboard: 0

[Editor]
DistanceSpacing: 0.3
BeatDivisor: 4
GridSize: 4
TimelineZoom: 2.1

[Metadata]
Title:Beautiful Lie
TitleUnicode:Beautiful Lie
Artist:SECONDWALL
ArtistUnicode:SECONDWALL
Creator:Cris-
Version:In This Night of Wavering Crescent Moon in Which I Settled My Aims
Source:osu!
Tags:Crissa Hazu- Featured Artist FA Mappers' Guild MG YUKA あぺじ APG SHOHEI リョウ. RYO YU-SUKE YUSUKE Japanese J-Rock JRock Rock J-Pop JPop Pop
BeatmapID:2770501
BeatmapSetID:1337432

[Difficulty]
HPDrainRate:5
CircleSize:4.5
OverallDifficulty:7.5
ApproachRate:8.8
SliderMultiplier:2.2
SliderTickRate:1

[Events]
//Background and Video events
0,0,"Beautiful Lie.jpg",0,0
//Break Periods
//Storyboard Layer 0 (Background)
//Storyboard Layer 1 (Fail)
//Storyboard Layer 2 (Pass)
//Storyboard Layer 3 (Foreground)
//Storyboard Layer 4 (Overlay)
//Storyboard Sound Samples

[TimingPoints]
315,476.190476190477,4,2,1,65,1,0
14600,-100,4,2,1,65,0,0
15553,-90.9090909090909,4,2,1,70,0,0
26981,-100,4,2,1,65,0,0
57457,-111.111111111111,4,2,1,60,0,0
68886,-90.9090909090909,4,2,1,70,0,0
71743,-111.111111111111,4,2,1,60,0,0
72695,-83.3333333333333,4,2,1,80,0,1
103172,-111.111111111111,4,2,1,60,0,0
106981,-125,4,2,1,60,0,0
110434,-125,4,2,1,5,0,0
110553,-125,4,2,1,60,0,0
110791,-100,4,2,1,65,0,0
122219,-111.111111111111,4,2,1,60,0,0
133648,-90.9090909090909,4,2,1,70,0,0
136505,-111.111111111111,4,2,1,60,0,0
137457,-83.3333333333333,4,2,1,80,0,1
167934,-90.9090909090909,4,2,1,70,0,0
182934,-250,4,2,1,70,0,0
183172,-166.666666666667,4,2,1,50,0,0
196505,-125,4,2,1,55,0,0
198410,-111.111111111111,4,2,1,60,0,0
209838,-100,4,2,1,65,0,0
213648,-125,4,2,1,55,0,0
215076,-111.111111111111,4,2,1,60,0,0
215553,-83.3333333333333,4,2,1,80,0,1
246029,-125,4,2,1,70,0,0
246981,-125,4,2,1,60,0,0
247934,-125,4,2,1,50,0,0
248886,-125,4,2,1,40,0,0
249838,-125,4,2,1,30,0,0
250791,-125,4,2,1,20,0,0
251743,-125,4,2,1,10,0,0
252695,-125,4,2,2,5,0,0

[Colours]
Combo1 : 205,154,135
Combo2 : 209,67,88
Combo3 : 185,122,91
Combo4 : 221,119,137

[HitObjects]
196,249,14600,5,10,0:0:0:0:
137,174,14838,1,8,0:3:0:0:
256,324,15076,5,10,0:0:0:0:
324,141,15315,1,8,0:0:0:0:
378,191,15434,1,8,0:0:0:0:
394,117,15553,6,0,P|438:79|494:93,1,121.000003692627,14|0,0:3|0:0,0:0:0:0:
460,157,15910,1,2,0:0:0:0:
460,157,16029,1,8,0:0:0:0:
274,32,16267,2,0,B|224:44|224:44|207:34|207:34|159:45,1,121.000003692627,2|8,0:0|0:3,0:0:0:0:
113,103,16624,1,2,0:0:0:0:
173,144,16743,2,0,P|185:171|182:200,1,60.5000018463135,0|0,0:0|0:0,0:0:0:0:
107,306,16981,2,0,P|164:292|208:330,1,121.000003692627,10|0,0:0|0:0,0:0:0:0:
150,366,17338,1,2,0:0:0:0:
150,366,17457,5,8,0:3:0:0:
1,207,17695,2,0,B|37:220|64:196|50:187|79:166|109:175,1,121.000003692627,2|8,0:0|0:0,0:0:0:0:
182,201,18053,1,2,0:0:0:0:
182,201,18172,1,0,0:0:0:0:
385,74,18410,2,0,P|373:130|361:192,1,121.000003692627,10|0,0:3|0:0,0:0:0:0:
414,249,18767,1,2,0:0:0:0:
414,249,18886,1,10,0:0:0:0:
178,113,19124,1,8,0:0:0:0:
244,80,19243,1,10,0:0:0:0:
239,153,19362,6,0,P|260:207|229:257,1,121.000003692627,10|0,0:3|0:0,0:0:0:0:
182,201,19719,1,2,0:0:0:0:
182,201,19838,1,8,0:0:0:0:
306,355,20076,2,0,B|343:364|367:337|352:329|379:306|410:311,1,121.000003692627,2|8,0:0|0:3,0:0:0:0:
451,373,20434,1,2,0:0:0:0:
504,321,20553,2,0,P|516:293|512:263,1,60.5000018463135,0|0,0:0|0:0,0:0:0:0:
407,196,20791,2,0,B|357:207|357:207|340:197|340:197|292:208,1,121.000003692627,10|0,0:0|0:0,0:0:0:0:
241,155,21148,1,2,0:0:0:0:
241,155,21267,5,8,0:3:0:0:
95,328,21505,2,0,P|62:279|83:224,1,121.000003692627,2|8,0:0|0:0,0:0:0:0:
204,322,21862,1,2,0:0:0:0:
204,322,21981,2,0,P|198:353|194:381,1,60.5000018463135,8|8,0:3|0:3,0:0:0:0:
142,271,22219,5,10,0:0:0:0:
168,245,22338,1,8,0:0:0:0:
203,236,22457,1,8,0:3:0:0:
237,247,22576,1,10,0:3:0:0:
305,275,22695,5,10,0:0:0:0:
323,276,22814,1,8,0:3:0:0:
340,271,22933,1,8,0:3:0:0:
354,260,23052,1,10,0:3:0:0:
399,200,23172,6,0,P|407:142|365:101,1,121.000003692627,14|0,0:3|0:0,0:0:0:0:
333,170,23529,1,2,0:0:0:0:
333,170,23648,1,8,0:0:0:0:
487,242,23886,2,0,P|475:298|463:360,1,121.000003692627,2|8,0:0|0:3,0:0:0:0:
393,384,24243,1,2,0:0:0:0:
339,334,24362,2,0,P|344:304|351:274,1,60.5000018463135,0|0,0:0|0:0,0:0:0:0:
275,371,24600,2,0,B|238:380|214:353|229:345|202:322|171:327,1,121.000003692627,10|0,0:0|0:0,0:0:0:0:
105,361,24957,1,2,0:0:0:0:
105,361,25076,5,8,0:3:0:0:
211,203,25315,2,0,P|155:191|93:179,1,121.000003692627,10|8,0:0|0:3,0:0:0:0:
36,232,25672,1,10,0:0:0:0:
36,232,25791,1,0,0:0:0:0:
273,165,26029,6,0,P|288:221|253:267,1,121.000003692627,10|8,0:0|0:0,0:0:0:0:
211,203,26386,1,10,0:0:0:0:
202,149,26505,1,10,0:3:0:0:
214,114,26624,1,8,0:3:0:0:
230,96,26743,1,8,0:3:0:0:
246,88,26862,1,8,0:3:0:0:
256,85,26981,6,0,P|308:70|361:54,1,110,14|0,0:3|0:0,0:0:0:0:
432,87,27338,1,2,0:0:0:0:
432,87,27457,2,0,P|420:112|422:138,1,55,8|0,0:0|0:0,0:0:0:0:
357,221,27695,2,0,P|349:171|299:151,1,110,2|8,0:0|0:3,0:0:0:0:
462,247,28172,1,2,0:0:0:0:
315,353,28410,2,0,P|367:368|420:384,1,110,8|2,0:0|0:0,0:0:0:0:
252,268,28886,6,0,P|200:283|147:299,1,110,10|0,0:3|0:0,0:0:0:0:
118,311,29243,1,2,0:0:0:0:
118,311,29362,1,8,0:0:0:0:
315,353,29600,2,0,B|348:361|370:336|356:329|381:308|409:313,1,110,2|8,0:0|0:3,0:0:0:0:
410,313,30076,1,2,0:0:0:0:
213,366,30315,1,8,0:0:0:0:
273,165,30553,1,2,0:0:0:0:
213,366,30791,6,0,P|161:351|108:335,1,110,10|0,0:3|0:0,0:0:0:0:
80,262,31148,1,2,0:0:0:0:
80,262,31267,2,0,P|53:269|27:277,1,55,8|0,0:0|0:0,0:0:0:0:
102,179,31505,2,0,P|150:193|164:245,1,110,2|8,0:0|0:3,0:0:0:0:
29,99,31982,1,2,0:0:0:0:
204,35,32220,2,0,P|151:19|98:3,1,110,8|2,0:0|0:0,0:0:0:0:
15,207,32695,6,0,P|48:168|101:178,1,110,10|0,0:3|0:0,0:0:0:0:
123,208,33053,1,2,0:0:0:0:
123,208,33172,1,8,0:0:0:0:
280,143,33410,2,0,B|247:151|225:126|239:119|214:98|184:103,1,110,2|8,0:0|0:3,0:0:0:0:
184,103,33886,1,2,0:0:0:0:
379,47,34125,1,8,0:0:0:0:
322,257,34363,1,10,0:0:0:0:
331,226,34481,1,8,0:0:0:0:
340,195,34600,6,0,P|392:210|445:226,1,110,14|2,0:3|0:0,0:0:0:0:
512,165,34957,1,2,0:0:0:0:
512,165,35076,2,0,P|515:138|501:114,1,55,8|2,0:0|0:0,0:0:0:0:
379,47,35315,2,0,P|326:62|273:78,1,110,2|8,0:0|0:3,0:0:0:0:
89,138,35791,1,2,0:0:0:0:
232,254,36029,2,0,P|266:214|250:164,1,110,10|2,0:0|0:0,0:0:0:0:
128,305,36505,6,0,P|180:320|233:336,1,110,10|0,0:3|0:0,0:0:0:0:
268,348,36862,1,2,0:0:0:0:
268,348,36981,1,8,0:0:0:0:
415,200,37219,2,0,P|430:252|446:305,1,110,2|8,0:0|0:3,0:0:0:0:
446,305,37695,1,2,0:0:0:0:
293,189,37934,1,8,0:0:0:0:
343,377,38172,2,0,P|335:351|327:325,1,55,10|0,0:0|0:0,0:0:0:0:
262,275,38410,6,0,B|229:267|207:292|221:299|196:320|168:315,1,110,10|2,0:3|0:0,0:0:0:0:
92,274,38767,1,2,0:0:0:0:
92,274,38886,2,0,P|89:247|103:223,1,55,8|2,0:0|0:0,0:0:0:0:
97,361,39124,2,0,P|44:361|16:316,1,110,2|8,0:0|0:3,0:0:0:0:
184,218,39600,1,2,0:0:0:0:
26,104,39838,2,0,P|78:89|131:73,1,110,8|2,0:0|0:0,0:0:0:0:
13,206,40315,6,0,P|53:240|103:223,1,110,10|2,0:3|0:0,0:0:0:0:
173,145,40672,1,2,0:0:0:0:
173,145,40791,2,0,P|199:141|223:155,1,55,8|2,0:0|0:0,0:0:0:0:
328,79,41029,2,0,P|343:131|359:184,1,110,2|8,0:0|0:3,0:0:0:0:
359,184,41505,1,2,0:0:0:0:
304,0,41743,1,10,0:0:0:0:
182,176,41981,1,10,0:0:0:0:
173,145,42099,1,8,0:0:0:0:
164,114,42219,6,0,P|111:129|58:145,1,110,14|2,0:3|0:0,0:0:0:0:
7,221,42576,1,2,0:0:0:0:
7,221,42695,2,0,P|33:229|59:237,1,55,8|2,0:0|0:0,0:0:0:0:
135,346,42934,2,0,P|169:306|152:257,1,110,2|8,0:0|0:3,0:0:0:0:
30,350,43410,1,2,0:0:0:0:
212,211,43648,2,0,B|245:203|267:228|253:235|278:256|306:251,1,110,8|2,0:0|0:0,0:0:0:0:
164,65,44124,6,0,P|149:118|133:171,1,110,10|0,0:3|0:0,0:0:0:0:
128,205,44481,1,2,0:0:0:0:
128,205,44600,1,8,0:0:0:0:
287,105,44838,2,0,P|337:87|377:121,1,110,2|8,0:0|0:3,0:0:0:0:
376,120,45315,1,2,0:0:0:0:
164,65,45553,1,8,0:0:0:0:
377,9,45791,1,10,0:0:0:0:
164,65,46029,6,0,P|146:114|180:154,1,110,10|2,0:3|0:0,0:0:0:0:
264,203,46386,1,2,0:0:0:0:
264,203,46505,2,0,P|272:177|280:151,1,55,8|2,0:0|0:0,0:0:0:0:
188,268,46743,2,0,P|240:282|293:298,1,110,2|8,0:0|0:3,0:0:0:0:
203,384,47219,1,2,0:0:0:0:
351,242,47457,2,0,P|386:281|368:330,1,110,8|2,0:0|0:0,0:0:0:0:
280,150,47934,6,0,P|263:100|297:61,1,110,10|2,0:3|0:0,0:0:0:0:
357,118,48291,1,2,0:0:0:0:
357,118,48410,2,0,P|383:110|409:102,1,55,8|2,0:0|0:0,0:0:0:0:
311,245,48648,2,0,P|258:230|205:214,1,110,2|8,0:0|0:3,0:0:0:0:
205,214,49124,1,2,0:0:0:0:
421,174,49362,1,8,0:0:0:0:
271,51,49600,1,10,0:0:0:0:
276,83,49719,1,8,0:0:0:0:
281,115,49838,6,0,B|314:123|336:98|322:91|347:70|375:75,1,110,14|2,0:3|0:0,0:0:0:0:
468,99,50195,1,2,0:0:0:0:
468,99,50315,2,0,P|476:73|484:47,1,55,8|2,0:0|0:0,0:0:0:0:
421,174,50553,2,0,P|435:226|451:279,1,110,2|8,0:0|0:3,0:0:0:0:
316,380,51029,1,2,0:0:0:0:
225,205,51267,2,0,B|258:197|280:222|266:229|291:250|320:244,1,110,8|2,0:0|0:0,0:0:0:0:
153,331,51743,6,0,P|139:279|123:226,1,110,10|0,0:3|0:0,0:0:0:0:
116,197,52100,1,2,0:0:0:0:
116,197,52219,1,8,0:0:0:0:
256,99,52457,2,0,P|241:151|225:204,1,110,2|8,0:0|0:3,0:0:0:0:
224,204,52933,1,2,0:0:0:0:
275,23,53172,1,8,0:0:0:0:
94,122,53410,1,10,0:0:0:0:
275,23,53648,6,0,B|308:15|330:40|316:47|341:68|370:62,1,110,10|2,0:3|0:0,0:0:0:0:
455,69,54005,1,2,0:0:0:0:
455,69,54124,2,0,P|459:43|446:19,1,55,8|2,0:0|0:0,0:0:0:0:
407,140,54362,2,0,P|389:189|424:229,1,110,2|8,0:0|0:3,0:0:0:0:
317,345,54838,1,2,0:0:0:0:
480,170,55076,2,0,P|514:209|497:259,1,110,8|2,0:0|0:0,0:0:0:0:
314,126,55553,6,0,P|262:141|209:157,1,110,10|10,0:3|0:0,0:0:0:0:
131,117,55910,1,2,0:0:0:0:
131,117,56029,1,8,0:0:0:0:
118,157,56148,1,10,0:0:0:0:
129,198,56267,1,10,0:0:0:0:
256,57,56505,5,10,0:3:0:0:
27,4,56743,1,10,0:0:0:0:
14,44,56862,1,8,0:0:0:0:
25,85,56981,1,10,0:3:0:0:
38,102,57100,1,8,0:3:0:0:
44,123,57219,1,10,0:3:0:0:
42,144,57338,1,8,0:3:0:0:
39,153,57457,6,0,P|110:166|185:180,1,148.49999546814,14|10,0:3|0:3,0:0:0:0:
348,297,58172,2,0,P|300:305|250:315,1,98.9999969787599,10|8,0:3|0:0,0:0:0:0:
242,327,58529,1,10,0:3:0:0:
309,175,58767,1,8,0:0:0:0:
317,186,58886,2,0,P|365:195|414:204,1,98.9999969787599,10|8,0:3|0:3,0:0:0:0:
422,215,59243,1,2,0:0:0:0:
255,107,59600,5,10,0:3:0:0:
359,27,59838,1,2,0:0:0:0:
348,35,59957,2,0,P|343:58|339:83,1,49.4999984893799,8|2,0:3|0:0,0:0:0:0:
205,0,60315,1,10,0:0:0:0:
246,156,60553,2,0,P|250:131|255:107,1,49.4999984893799,10|0,0:0|0:0,0:0:0:0:
266,99,60791,1,2,0:0:0:0:
137,244,61029,1,10,0:0:0:0:
127,213,61148,1,8,0:0:0:0:
118,184,61267,6,0,P|49:165|0:217,1,148.49999546814,14|10,0:3|0:3,0:0:0:0:
185,307,61981,2,0,P|216:272|261:284,1,98.9999969787599,10|8,0:3|0:0,0:0:0:0:
271,296,62338,1,10,0:3:0:0:
104,267,62695,6,0,P|85:335|137:384,1,148.49999546814,14|2,0:3|0:0,0:0:0:0:
198,198,63410,5,10,0:3:0:0:
81,151,63648,1,10,0:0:0:0:
74,164,63767,2,0,P|49:161|29:147,1,49.4999984893799,10|0,0:3|0:0,0:0:0:0:
85,63,64005,1,8,0:0:0:0:
107,82,64124,2,0,P|152:94|184:60,1,98.9999969787599,14|10,0:3|0:0,0:0:0:0:
240,0,64481,1,8,0:0:0:0:
250,8,64600,2,0,P|265:28|266:53,1,49.4999984893799,10|8,0:3|0:3,0:0:0:0:
348,66,64838,2,0,P|344:91|328:109,1,49.4999984893799,10|8,0:3|0:3,0:0:0:0:
372,180,65076,6,0,B|344:212|298:199|308:179|264:165|237:196,1,148.49999546814,14|10,0:3|0:3,0:0:0:0:
246,208,65553,1,8,0:0:0:0:
409,258,65791,2,0,B|413:300|370:323|363:302|322:323|325:365,1,148.49999546814,10|10,0:3|0:3,0:0:0:0:
340,367,66268,1,8,0:3:0:0:
455,186,66505,1,10,0:0:0:0:
466,194,66623,1,8,0:3:0:0:
329,98,66862,1,2,0:0:0:0:
342,104,66981,6,0,P|389:90|437:77,1,98.9999969787599,8|10,0:3|0:3,0:0:0:0:
443,90,67338,1,8,0:3:0:0:
448,103,67457,1,10,0:0:0:0:
255,22,67695,1,10,0:3:0:0:
206,141,67934,1,2,0:0:0:0:
336,0,68172,2,0,P|361:4|385:9,1,49.4999984893799,10|0,0:3|0:0,0:0:0:0:
393,20,68410,1,10,0:0:0:0:
182,61,68648,1,10,0:0:0:0:
175,33,68767,1,8,0:0:0:0:
167,4,68886,6,0,P|111:-8|72:33,1,121.000003692627,14|8,0:3|0:0,0:0:0:0:
116,108,69243,2,0,P|114:137|95:161,1,60.5000018463135,10|0,0:3|0:0,0:0:0:0:
32,109,69481,1,8,0:3:0:0:
32,109,69600,1,14,0:0:0:0:
255,22,69838,1,2,0:0:0:0:
296,98,70076,1,10,0:3:0:0:
71,35,70315,1,14,0:0:0:0:
170,235,70553,1,10,0:0:0:0:
170,235,70672,1,8,0:0:0:0:
170,235,70791,6,0,P|177:206|186:177,1,60.5000018463135,10|8,0:3|0:3,0:0:0:0:
296,98,71029,2,0,P|303:126|312:155,1,60.5000018463135,2|0,0:0|0:0,0:0:0:0:
212,48,71267,1,10,0:0:0:0:
234,22,71386,1,8,0:0:0:0:
271,1,71505,1,8,0:0:0:0:
313,0,71624,1,8,0:0:0:0:
352,18,71743,5,8,0:0:0:0:
143,0,71981,1,2,0:0:0:0:
143,0,72219,2,0,P|108:31|120:76,1,98.9999969787599,2|2,0:0|0:0,0:0:0:0:
345,163,72695,6,0,B|297:137|244:178|275:200|224:243|175:218,1,197.99999395752,14|2,0:3|0:0,0:0:0:0:
196,137,73172,1,8,0:0:0:0:
341,299,73410,2,0,P|342:266|322:241,1,65.9999979858399,2|0,0:0|0:0,0:0:0:0:
226,341,73648,2,0,B|285:358|285:358|290:368|290:368|347:384,1,131.99999597168,8|2,0:3|0:0,0:0:0:0:
137,314,74124,1,8,0:0:0:0:
259,191,74362,2,0,P|238:216|240:248,1,65.9999979858399,2|0,0:0|0:0,0:0:0:0:
332,147,74600,6,0,P|289:100|228:113,1,131.99999597168,8|2,0:3|0:0,0:0:0:0:
32,9,75076,1,8,0:0:0:0:
3,92,75195,2,0,P|12:123|21:155,1,65.9999979858399,2|0,0:0|0:0,0:0:0:0:
177,0,75553,1,10,0:3:0:0:
228,113,75791,1,2,0:0:0:0:
14,0,76029,1,10,0:0:0:0:
246,122,76267,1,10,0:0:0:0:
193,186,76386,1,8,0:0:0:0:
276,200,76505,6,0,B|342:174|342:174|359:125|359:125|429:100,1,197.99999395752,10|2,0:3|0:0,0:0:0:0:
425,189,76981,1,8,0:0:0:0:
256,47,77219,2,0,B|205:10|154:45|153:64|173:77|188:67,1,131.99999597168,2|8,0:0|0:3,0:0:0:0:
330,20,77576,1,0,0:0:0:0:
330,20,77695,2,0,B|380:56|432:21|433:3|413:-10|397:0,1,131.99999597168,2|8,0:0|0:0,0:0:0:0:
252,144,78172,2,0,P|245:176|261:203,1,65.9999979858399,2|0,0:0|0:0,0:0:0:0:
334,272,78410,5,8,0:3:0:0:
306,300,78529,1,10,0:0:0:0:
267,308,78648,1,8,0:3:0:0:
228,297,78767,1,8,0:3:0:0:
163,266,78886,5,10,0:0:0:0:
131,258,79005,1,8,0:3:0:0:
101,267,79124,1,8,0:3:0:0:
78,289,79243,1,8,0:3:0:0:
25,342,79362,5,10,0:3:0:0:
7,323,79481,1,8,0:3:0:0:
0,299,79600,1,10,0:3:0:0:
6,274,79719,1,8,0:3:0:0:
14,249,79838,6,0,P|18:217|-1:190,1,65.9999979858399,10|8,0:3|0:3,0:0:0:0:
89,194,80076,2,0,P|108:167|105:135,1,65.9999979858399,10|8,0:3|0:3,0:0:0:0:
131,258,80315,6,0,B|164:272|200:245|179:230|214:205|245:214,1,131.99999597168,14|0,0:3|0:0,0:0:0:0:
315,264,80672,2,0,P|333:237|329:205,1,65.9999979858399,2|8,0:0|0:0,0:0:0:0:
256,375,81029,2,0,P|192:357|129:338,1,131.99999597168,2|8,0:0|0:3,0:0:0:0:
65,379,81386,1,0,0:0:0:0:
65,379,81505,1,2,0:0:0:0:
244,288,81743,1,8,0:0:0:0:
92,162,81981,2,0,P|83:193|74:224,1,65.9999979858399,2|0,0:0|0:0,0:0:0:0:
208,129,82219,6,0,B|175:143|139:116|160:101|125:76|94:85,1,131.99999597168,10|0,0:3|0:0,0:0:0:0:
24,121,82576,2,0,P|15:89|6:58,1,65.9999979858399,2|8,0:0|0:0,0:0:0:0:
181,255,82934,2,0,P|223:208|284:221,1,131.99999597168,2|8,0:0|0:3,0:0:0:0:
92,162,83410,1,2,0:0:0:0:
307,91,83648,1,10,0:0:0:0:
72,169,83886,1,10,0:0:0:0:
106,90,84005,1,8,0:0:0:0:
140,11,84124,5,8,0:3:0:0:
181,255,84362,2,0,P|117:273|54:292,1,131.99999597168,2|8,0:0|0:0,0:0:0:0:
106,90,84838,2,0,P|153:136|201:181,1,131.99999597168,2|8,0:0|0:3,0:0:0:0:
3,239,85315,2,0,P|19:174|34:110,1,131.99999597168,2|8,0:0|0:0,0:0:0:0:
181,255,85791,2,0,P|163:282|167:314,1,65.9999979858399,2|0,0:0|0:0,0:0:0:0:
201,181,86029,5,10,0:3:0:0:
55,292,86267,1,10,0:0:0:0:
258,133,86505,1,8,0:3:0:0:
276,161,86624,1,10,0:0:0:0:
273,196,86743,1,8,0:3:0:0:
35,110,86981,5,10,0:3:0:0:
306,50,87219,1,10,0:0:0:0:
271,29,87338,1,8,0:0:0:0:
231,30,87457,1,10,0:3:0:0:
200,46,87576,1,8,0:3:0:0:
182,65,87695,1,8,0:3:0:0:
174,83,87814,1,8,0:3:0:0:
170,95,87934,6,0,P|64:74|140:-1,1,263.99999194336,14|8,0:3|0:0,0:0:0:0:
193,177,88648,1,2,0:0:0:0:
355,137,88886,2,0,P|310:94|251:116,1,131.99999597168,8|0,0:3|0:0,0:0:0:0:
86,299,89362,1,10,0:0:0:0:
21,106,89600,1,10,0:3:0:0:
86,299,89838,6,0,P|64:237|43:174,1,131.99999597168,8|0,0:3|0:0,0:0:0:0:
173,316,90315,1,8,0:0:0:0:
0,287,90553,1,2,0:0:0:0:
175,147,90791,2,0,P|225:185|213:247,1,131.99999597168,10|2,0:3|0:0,0:0:0:0:
147,67,91267,1,10,0:0:0:0:
0,287,91505,1,8,0:0:0:0:
64,341,91624,1,8,0:0:0:0:
80,257,91743,6,0,B|142:212|214:262|168:308|243:363|302:325,1,263.99999194336,10|8,0:3|0:0,0:0:0:0:
366,186,92457,2,0,P|343:207|349:239,1,65.9999979858399,2|0,0:0|0:0,0:0:0:0:
294,144,92695,2,0,P|248:187|267:247,1,131.99999597168,8|0,0:3|0:0,0:0:0:0:
438,134,93172,1,10,0:0:0:0:
252,46,93410,1,10,0:3:0:0:
438,134,93648,6,0,P|465:75|493:14,1,131.99999597168,8|0,0:3|0:0,0:0:0:0:
407,199,94124,1,8,0:0:0:0:
345,32,94362,1,2,0:0:0:0:
432,269,94600,1,10,0:3:0:0:
512,108,94838,1,10,0:0:0:0:
265,193,95076,5,10,0:3:0:0:
237,165,95195,1,8,0:0:0:0:
229,126,95314,1,8,0:0:0:0:
240,87,95433,1,8,0:0:0:0:
280,27,95553,6,0,B|249:1|206:15|206:15|180:44|180:44|141:59|104:31,1,197.99999395752,14|10,0:3|0:3,0:0:0:0:
41,92,96029,1,8,0:0:0:0:
157,204,96267,1,10,0:3:0:0:
41,92,96505,2,0,P|-4:134|13:195,1,131.99999597168,8|0,0:3|0:0,0:0:0:0:
240,87,96981,1,10,0:0:0:0:
25,0,97219,1,10,0:3:0:0:
240,87,97457,6,0,P|179:63|117:38,1,131.99999597168,8|0,0:3|0:0,0:0:0:0:
157,204,97934,1,8,0:0:0:0:
281,19,98172,1,2,0:0:0:0:
146,222,98410,1,10,0:3:0:0:
325,122,98648,1,2,0:0:0:0:
117,38,98886,1,10,0:0:0:0:
344,129,99124,1,10,0:0:0:0:
291,193,99243,1,8,0:0:0:0:
374,207,99362,6,0,P|435:183|497:158,1,131.99999597168,8|2,0:3|0:0,0:0:0:0:
321,271,99838,1,8,0:0:0:0:
358,55,100076,1,2,0:0:0:0:
460,247,100315,1,10,0:3:0:0:
349,39,100553,1,10,0:0:0:0:
469,263,100791,1,10,0:3:0:0:
405,316,100910,1,8,0:0:0:0:
483,346,101029,1,10,0:0:0:0:
291,193,101267,6,0,B|232:210|232:210|227:220|227:220|170:236,1,131.99999597168,8|10,0:3|0:0,0:0:0:0:
101,309,101624,1,8,0:0:0:0:
101,309,101743,5,8,0:0:0:0:
73,281,101862,1,8,0:0:0:0:
65,242,101981,1,10,0:3:0:0:
76,203,102100,1,8,0:3:0:0:
104,133,102219,5,10,0:0:0:0:
112,101,102338,1,8,0:3:0:0:
103,71,102457,1,8,0:3:0:0:
81,48,102576,1,8,0:3:0:0:
8,32,102695,5,10,0:0:0:0:
2,57,102814,1,8,0:3:0:0:
9,81,102933,1,8,0:3:0:0:
27,100,103052,1,8,0:3:0:0:
81,48,103172,6,0,P|126:30|172:11,1,98.9999969787599,14|0,0:3|0:0,0:0:0:0:
104,133,103648,2,0,P|151:143|200:154,1,98.9999969787599,10|0,0:3|0:0,0:0:0:0:
75,216,104124,2,0,P|108:251|143:287,1,98.9999969787599,10|0,0:3|0:0,0:0:0:0:
4,268,104600,2,0,P|12:316|20:365,1,98.9999969787599,10|0,0:3|0:0,0:0:0:0:
20,365,105076,5,10,0:3:0:0:
237,255,105553,2,0,P|282:241|318:271,1,98.9999969787599,8|2,0:3|0:0,0:0:0:0:
218,353,106029,2,0,P|254:383|299:370,1,98.9999969787599,8|2,0:3|0:0,0:0:0:0:
144,287,106505,1,8,0:3:0:0:
298,169,106743,1,2,0:0:0:0:
163,77,106981,6,0,B|129:126|69:113|61:90|73:72|91:78,1,132,14|2,0:3|0:0,0:0:0:0:
203,172,107576,1,2,0:0:0:0:
203,172,107695,2,0,B|221:252|172:298|136:283|129:251|154:236,1,176,2|2,0:0|0:0,0:0:0:0:
387,125,108648,1,2,0:0:0:0:
312,61,108886,6,0,P|275:67|292:103,1,88,2|0,0:0|0:0,0:0:0:0:
328,51,109243,2,0,P|340:15|301:12,1,88,2|0,0:0|0:0,0:0:0:0:
327,70,109600,1,2,0:0:0:0:
68,3,110315,2,0,P|74:25|80:45,1,44,8|0,0:3|0:0,0:0:0:0:
141,119,110553,1,10,0:0:0:0:
150,88,110671,1,8,0:0:0:0:
159,57,110791,6,0,B|192:65|214:40|200:33|225:12|254:18,1,110,14|2,0:3|0:0,0:0:0:0:
289,30,111148,1,2,0:0:0:0:
289,30,111267,1,8,0:0:0:0:
180,178,111505,2,0,P|128:163|75:147,1,110,2|8,0:0|0:3,0:0:0:0:
74,146,111981,1,2,0:0:0:0:
260,95,112220,1,8,0:0:0:0:
203,285,112458,1,2,0:0:0:0:
260,95,112695,6,0,P|311:84|346:123,1,110,10|0,0:3|0:0,0:0:0:0:
353,160,113053,1,2,0:0:0:0:
353,160,113172,1,8,0:0:0:0:
189,39,113410,2,0,P|137:28|102:67,1,110,2|8,0:0|0:3,0:0:0:0:
102,66,113886,1,2,0:0:0:0:
288,15,114125,1,8,0:0:0:0:
231,205,114363,1,10,0:0:0:0:
294,0,114600,6,0,B|327:-8|349:17|335:24|360:45|389:39,1,110,10|2,0:3|0:0,0:0:0:0:
477,50,114957,1,2,0:0:0:0:
477,50,115076,2,0,P|480:23|466:0,1,55,8|2,0:0|0:0,0:0:0:0:
423,120,115315,2,0,P|412:171|451:206,1,110,2|8,0:0|0:3,0:0:0:0:
390,39,115791,1,2,0:0:0:0:
256,192,116029,2,0,P|203:176|150:160,1,110,8|2,0:0|0:0,0:0:0:0:
295,304,116505,6,0,P|347:288|400:272,1,110,10|2,0:3|0:0,0:0:0:0:
452,206,116862,1,2,0:0:0:0:
452,206,116981,2,0,P|426:198|400:190,1,55,8|2,0:0|0:0,0:0:0:0:
282,121,117219,2,0,B|315:129|337:104|323:97|348:76|377:82,1,110,2|8,0:0|0:3,0:0:0:0:
189,160,117696,1,2,0:0:0:0:
295,304,117934,2,0,P|306:252|267:218,1,110,8|2,0:0|0:0,0:0:0:0:
101,328,118410,6,0,P|153:343|206:359,1,110,10|0,0:3|0:0,0:0:0:0:
241,372,118767,1,2,0:0:0:0:
241,372,118886,1,8,0:0:0:0:
95,246,119124,2,0,B|62:238|40:263|54:270|29:291|0:285,1,110,2|8,0:0|0:3,0:0:0:0:
0,284,119600,1,2,0:0:0:0:
177,209,119839,1,8,0:0:0:0:
33,87,120077,1,2,0:0:0:0:
177,209,120315,6,0,B|210:217|232:192|218:185|243:164|272:170,1,110,10|2,0:3|0:0,0:0:0:0:
348,214,120672,1,2,0:0:0:0:
348,214,120791,2,0,P|362:190|359:163,1,55,8|2,0:0|0:0,0:0:0:0:
271,257,121029,1,2,0:0:0:0:
222,72,121267,5,10,0:3:0:0:
443,122,121505,1,10,0:3:0:0:
456,162,121624,1,8,0:3:0:0:
445,203,121743,1,10,0:3:0:0:
432,220,121862,1,8,0:3:0:0:
426,241,121981,1,8,0:3:0:0:
428,262,122100,1,8,0:3:0:0:
431,271,122219,6,0,P|362:251|313:302,1,148.49999546814,14|10,0:3|0:3,0:0:0:0:
162,186,122934,2,0,P|207:173|238:208,1,98.9999969787599,10|8,0:3|0:0,0:0:0:0:
231,221,123291,1,10,0:3:0:0:
143,340,123529,1,8,0:0:0:0:
134,352,123648,2,0,P|103:316|57:329,1,98.9999969787599,2|8,0:0|0:3,0:0:0:0:
49,342,124005,1,2,0:0:0:0:
238,300,124362,5,10,0:3:0:0:
133,185,124600,2,0,P|119:205|116:229,1,49.4999984893799,2|8,0:0|0:3,0:0:0:0:
119,243,124838,1,2,0:0:0:0:
246,147,125076,1,10,0:0:0:0:
133,35,125315,2,0,P|108:37|88:51,1,49.4999984893799,10|0,0:0|0:0,0:0:0:0:
81,64,125553,1,2,0:0:0:0:
256,0,125791,1,10,0:0:0:0:
266,31,125910,1,8,0:0:0:0:
276,62,126029,6,0,B|337:48|337:48|358:60|358:60|417:47,1,148.49999546814,14|10,0:3|0:3,0:0:0:0:
246,147,126743,2,0,B|205:138|205:138|191:146|191:146|152:137,1,98.9999969787599,10|8,0:3|0:0,0:0:0:0:
142,149,127100,1,10,0:3:0:0:
319,275,127457,6,0,B|332:213|332:213|320:192|320:192|333:133,1,148.49999546814,14|2,0:3|0:0,0:0:0:0:
181,298,128172,5,10,0:3:0:0:
90,205,128410,2,0,B|69:210|69:210|62:207|62:207|42:213,1,49.4999984893799,10|0,0:0|0:0,0:0:0:0:
87,123,128648,1,10,0:0:0:0:
115,129,128767,1,8,0:0:0:0:
144,136,128886,1,10,0:3:0:0:
172,142,129005,2,0,B|178:122|178:122|174:114|174:114|180:95,1,49.4999984893799,8|10,0:0|0:3,0:0:0:0:
244,154,129243,1,8,0:0:0:0:
257,147,129362,2,0,B|275:137|275:137|278:129|278:129|296:120,1,49.4999984893799,10|8,0:0|0:3,0:0:0:0:
254,226,129600,2,0,B|273:232|273:232|281:228|281:228|300:234,1,49.4999984893799,10|8,0:3|0:3,0:0:0:0:
192,263,129838,6,0,B|249:356|249:356|212:344,1,148.49999546814,14|10,0:3|0:3,0:0:0:0:
197,339,130315,1,8,0:0:0:0:
138,206,130553,2,0,B|45:263|45:263|57:226,1,148.49999546814,10|2,0:3|0:0,0:0:0:0:
62,211,131030,1,8,0:3:0:0:
244,154,131267,1,10,0:0:0:0:
257,147,131386,1,8,0:3:0:0:
117,69,131624,1,2,0:0:0:0:
108,56,131743,6,0,P|62:48|30:83,1,98.9999969787599,8|10,0:3|0:3,0:0:0:0:
33,98,132100,1,8,0:3:0:0:
38,111,132219,1,10,0:0:0:0:
203,15,132457,1,10,0:3:0:0:
143,199,132696,1,2,0:0:0:0:
29,83,132934,2,0,P|9:85|20:103,1,49.4999984893799,10|0,0:3|0:0,0:0:0:0:
77,26,133172,1,10,0:0:0:0:
143,199,133410,1,8,0:0:0:0:
136,227,133529,1,8,0:0:0:0:
128,256,133648,6,0,P|70:245|8:233,1,121.000003692627,14|8,0:3|0:0,0:0:0:0:
0,328,134005,2,0,P|28:322|58:317,1,60.5000018463135,10|0,0:3|0:0,0:0:0:0:
218,179,134362,1,14,0:3:0:0:
96,84,134600,1,2,0:0:0:0:
77,107,134719,2,0,P|79:121|82:135,2,30.2500009231568,8|8|10,0:3|0:3|0:3,0:0:0:0:
147,27,134957,2,0,P|174:34|203:42,1,60.5000018463135,8|10,0:3|0:3,0:0:0:0:
98,221,135315,1,10,0:3:0:0:
98,221,135434,1,8,0:3:0:0:
98,221,135553,6,0,B|72:203|72:203|44:209,1,60.5000018463135,14|8,0:3|0:3,0:0:0:0:
179,275,135791,2,0,B|207:281|207:281|233:263,1,60.5000018463135,10|8,0:3|0:3,0:0:0:0:
128,361,136029,1,10,0:0:0:0:
102,339,136148,1,8,0:0:0:0:
81,302,136267,1,8,0:0:0:0:
80,260,136386,1,8,0:0:0:0:
98,221,136505,5,8,0:0:0:0:
302,338,136743,1,2,0:0:0:0:
302,338,136981,2,0,P|256:325|225:360,1,98.9999969787599,2|2,0:0|0:0,0:0:0:0:
395,191,137457,6,0,P|417:270|337:251,1,197.99999395752,14|2,0:3|0:0,0:0:0:0:
313,170,137934,1,8,0:0:0:0:
486,306,138172,2,0,P|505:280|504:248,1,65.9999979858399,2|0,0:0|0:0,0:0:0:0:
377,333,138410,2,0,B|412:324|440:352|424:360|450:391|490:381,1,131.99999597168,8|2,0:3|0:0,0:0:0:0:
286,301,138886,1,8,0:0:0:0:
415,156,139124,2,0,P|424:187|433:219,1,65.9999979858399,2|0,0:0|0:0,0:0:0:0:
433,75,139362,6,0,B|421:62|398:66|398:66|353:100|353:100|332:103|318:91,1,131.99999597168,8|2,0:3|0:0,0:0:0:0:
140,12,139838,1,8,0:0:0:0:
91,85,139957,2,0,P|89:117|109:142,1,65.9999979858399,2|0,0:0|0:0,0:0:0:0:
264,14,140315,1,8,0:3:0:0:
234,140,140553,1,2,0:0:0:0:
26,8,140791,1,10,0:0:0:0:
253,152,141029,1,10,0:0:0:0:
194,211,141148,1,8,0:0:0:0:
276,232,141267,6,0,B|321:262|377:225|348:201|403:162|450:192,1,197.99999395752,10|2,0:3|0:0,0:0:0:0:
422,271,141744,1,8,0:0:0:0:
255,73,141981,2,0,B|224:80|205:65|205:65|192:89|166:96|166:96|181:98|193:107,1,131.99999597168,2|8,0:0|0:3,0:0:0:0:
327,40,142338,1,0,0:0:0:0:
327,40,142457,2,0,B|357:32|376:47|376:47|389:24|415:16|415:16|401:15|389:6,1,131.99999597168,2|8,0:0|0:0,0:0:0:0:
276,232,142934,2,0,P|245:223|213:214,1,65.9999979858399,2|0,0:0|0:0,0:0:0:0:
337,168,143172,5,10,0:3:0:0:
125,249,143410,1,10,0:0:0:0:
289,349,143648,5,8,0:3:0:0:
328,338,143767,1,8,0:0:0:0:
367,327,143886,1,8,0:3:0:0:
154,384,144124,5,8,0:3:0:0:
226,179,144362,1,10,0:0:0:0:
261,196,144481,1,8,0:0:0:0:
276,232,144600,6,0,P|280:264|261:291,1,65.9999979858399,10|8,0:3|0:3,0:0:0:0:
348,218,144838,2,0,P|373:237|379:270,1,65.9999979858399,10|8,0:3|0:3,0:0:0:0:
372,149,145077,6,0,B|403:165|441:142|422:125|459:103|489:115,1,131.99999597168,14|0,0:3|0:0,0:0:0:0:
383,78,145434,2,0,P|379:45|399:19,1,65.9999979858399,2|8,0:0|0:0,0:0:0:0:
276,232,145791,2,0,P|212:214|149:195,1,131.99999597168,2|8,0:0|0:3,0:0:0:0:
85,236,146148,1,0,0:0:0:0:
85,236,146267,1,2,0:0:0:0:
256,131,146505,1,8,0:0:0:0:
62,74,146743,2,0,P|42:99|45:132,1,65.9999979858399,2|0,0:0|0:0,0:0:0:0:
168,33,146981,6,0,B|138:45|101:23|120:6|82:-17|51:-1,1,131.99999597168,10|0,0:3|0:0,0:0:0:0:
120,120,147338,2,0,P|151:111|183:102,1,65.9999979858399,2|8,0:0|0:0,0:0:0:0:
58,298,147695,2,0,P|11:256|24:194,1,131.99999597168,2|8,0:0|0:3,0:0:0:0:
96,367,148172,1,2,0:0:0:0:
221,175,148410,1,8,0:0:0:0:
85,382,148648,1,10,0:0:0:0:
58,298,148767,1,8,0:0:0:0:
144,314,148886,6,0,P|208:332|271:351,1,131.99999597168,10|0,0:3|0:0,0:0:0:0:
117,230,149362,1,8,0:0:0:0:
254,106,149600,2,0,P|300:147|287:209,1,131.99999597168,2|8,0:0|0:3,0:0:0:0:
183,59,150076,2,0,P|224:12|286:25,1,131.99999597168,2|8,0:0|0:0,0:0:0:0:
178,146,150553,2,0,P|145:149|119:131,1,65.9999979858399,2|0,0:0|0:0,0:0:0:0:
254,106,150791,5,10,0:3:0:0:
82,29,151029,1,10,0:0:0:0:
327,138,151267,1,8,0:3:0:0:
345,110,151386,1,10,0:0:0:0:
342,75,151505,1,10,0:3:0:0:
280,251,151743,5,10,0:0:0:0:
203,39,151981,1,10,0:3:0:0:
231,21,152100,1,8,0:3:0:0:
266,24,152219,1,10,0:3:0:0:
119,132,152457,1,8,0:3:0:0:
96,117,152576,1,8,0:3:0:0:
69,118,152695,6,0,B|-17:141|-31:252|37:287|100:251|90:201,1,263.99999194336,14|8,0:3|0:0,0:0:0:0:
20,58,153410,1,2,0:0:0:0:
194,84,153648,2,0,P|156:33|94:44,1,131.99999597168,8|0,0:3|0:0,0:0:0:0:
0,240,154124,1,10,0:0:0:0:
193,175,154362,1,2,0:0:0:0:
0,240,154600,6,0,P|62:218|125:197,1,131.99999597168,8|0,0:3|0:0,0:0:0:0:
93,317,155077,1,8,0:0:0:0:
27,122,155315,1,2,0:0:0:0:
261,208,155553,2,0,P|272:146|223:109,1,131.99999597168,10|2,0:3|0:0,0:0:0:0:
293,294,156029,1,10,0:0:0:0:
81,249,156267,1,8,0:0:0:0:
144,195,156386,1,8,0:0:0:0:
159,278,156505,6,0,B|248:242|248:242|274:175|274:175|364:143,1,263.99999194336,10|8,0:3|0:0,0:0:0:0:
163,33,157219,2,0,P|132:24|100:15,1,65.9999979858399,2|0,0:0|0:0,0:0:0:0:
209,139,157457,2,0,B|197:109|219:72|236:91|259:53|243:22,1,131.99999597168,8|0,0:3|0:0,0:0:0:0:
95,173,157934,1,10,0:0:0:0:
293,227,158172,1,10,0:3:0:0:
74,167,158410,5,8,0:3:0:0:
313,232,158648,1,10,0:0:0:0:
83,316,158886,1,8,0:3:0:0:
72,277,159005,1,8,0:0:0:0:
61,238,159124,1,10,0:0:0:0:
102,384,159362,5,10,0:0:0:0:
244,190,159600,1,10,0:0:0:0:
272,162,159719,1,8,0:0:0:0:
311,153,159838,1,10,0:3:0:0:
344,160,159957,1,8,0:3:0:0:
367,174,160076,1,8,0:3:0:0:
380,189,160195,1,8,0:3:0:0:
386,200,160315,6,0,B|420:249|380:304|353:277|318:322|336:371,1,197.99999395752,14|2,0:3|0:0,0:0:0:0:
416,354,160791,1,8,0:0:0:0:
313,232,161029,1,2,0:0:0:0:
512,146,161267,2,0,P|450:124|387:103,1,131.99999597168,8|0,0:3|0:0,0:0:0:0:
226,17,161743,1,10,0:0:0:0:
313,232,161981,1,10,0:3:0:0:
226,17,162219,6,0,P|250:78|275:140,1,131.99999597168,8|0,0:3|0:0,0:0:0:0:
190,306,162696,1,8,0:0:0:0:
5,182,162934,1,2,0:0:0:0:
208,317,163172,1,10,0:3:0:0:
108,138,163410,1,2,0:0:0:0:
24,346,163648,1,10,0:0:0:0:
115,119,163886,1,10,0:0:0:0:
189,160,164005,1,8,0:0:0:0:
125,213,164124,6,0,B|95:227|57:207|75:189|35:169|5:187,1,131.99999597168,8|2,0:3|0:0,0:0:0:0:
195,69,164600,1,8,0:0:0:0:
142,286,164838,1,2,0:0:0:0:
19,99,165076,1,10,0:3:0:0:
95,24,165315,1,2,0:0:0:0:
42,244,165553,1,10,0:0:0:0:
195,69,165791,6,0,B|224:54|262:74|244:92|284:112|314:94,1,131.99999597168,10|8,0:0|0:3,0:0:0:0:
95,24,166267,1,10,0:0:0:0:
192,226,166505,5,10,0:0:0:0:
214,193,166624,1,8,0:0:0:0:
209,153,166743,1,10,0:0:0:0:
153,318,166981,5,10,0:0:0:0:
27,136,167219,1,8,0:0:0:0:
66,125,167338,1,8,0:0:0:0:
104,115,167457,6,0,P|95:84|86:52,1,65.9999979858399,10|8,0:3|0:3,0:0:0:0:
209,153,167696,1,8,0:3:0:0:
215,134,167815,1,8,0:3:0:0:
221,116,167934,6,0,P|237:59|254:0,1,121.000003692627,14|2,0:3|0:0,0:0:0:0:
254,0,168410,1,8,0:0:0:0:
353,161,168648,2,0,B|432:139|445:37|382:5|325:37|332:82,1,242.000007385254,2|2,0:0|0:0,0:0:0:0:
379,245,169362,2,0,P|437:228|495:211,1,121.000003692627,8|2,0:0|0:0,0:0:0:0:
295,224,169838,6,0,B|243:271|172:234|209:187|135:145|86:186,1,242.000007385254,8|10,0:3|0:0,0:0:0:0:
251,153,170553,1,0,0:0:0:0:
124,262,170791,2,0,P|109:355|186:299,1,242.000007385254,10|8,0:3|0:0,0:0:0:0:
14,222,171505,1,10,0:0:0:0:
14,222,171624,1,8,0:0:0:0:
14,222,171743,6,0,P|-4:166|30:121,1,121.000003692627,10|2,0:3|0:0,0:0:0:0:
31,120,172219,1,8,0:0:0:0:
209,79,172457,2,0,B|157:126|86:89|123:42|49:0|-1:41,1,242.000007385254,2|2,0:0|0:0,0:0:0:0:
86,186,173172,2,0,P|142:204|187:170,1,121.000003692627,8|2,0:0|0:0,0:0:0:0:
44,298,173648,5,10,0:3:0:0:
188,169,173886,1,8,0:0:0:0:
29,311,174124,2,0,P|87:328|145:345,1,121.000003692627,10|0,0:0|0:0,0:0:0:0:
14,222,174600,1,10,0:0:0:0:
188,169,174838,1,8,0:3:0:0:
193,186,174957,1,8,0:3:0:0:
198,203,175076,1,10,0:3:0:0:
69,114,175315,1,8,0:3:0:0:
74,97,175434,1,8,0:3:0:0:
79,80,175553,5,14,0:3:0:0:
153,21,175791,1,2,0:0:0:0:
241,113,176029,1,10,0:0:0:0:
315,54,176267,1,0,0:0:0:0:
87,90,176505,1,10,0:3:0:0:
161,31,176743,1,0,0:0:0:0:
249,123,176981,1,10,0:0:0:0:
323,64,177219,6,0,B|377:79|377:79|381:88|381:88|433:103,1,121.000003692627,2|8,0:0|0:3,0:0:0:0:
249,123,177695,1,2,0:0:0:0:
361,237,177934,2,0,P|377:212|375:183,1,60.5000018463135,10|0,0:0|0:0,0:0:0:0:
336,307,178172,2,0,B|360:326|397:317|385:297|422:288|448:310,1,121.000003692627,2|8,0:0|0:3,0:0:0:0:
448,310,178648,1,2,0:0:0:0:
234,253,178886,1,10,0:0:0:0:
389,96,179124,1,8,0:0:0:0:
223,264,179362,5,12,0:3:0:0:
133,173,179600,1,2,0:0:0:0:
273,62,179838,2,0,P|331:79|389:96,1,121.000003692627,10|0,0:0|0:0,0:0:0:0:
194,38,180315,5,10,0:3:0:0:
302,238,180553,1,10,0:0:0:0:
185,21,180791,1,8,0:3:0:0:
153,39,180910,1,8,0:0:0:0:
122,56,181029,1,10,0:0:0:0:
90,74,181148,1,8,0:0:0:0:
59,91,181267,5,10,0:3:0:0:
259,160,181505,1,8,0:0:0:0:
42,84,181743,1,10,0:3:0:0:
276,167,181981,1,10,0:0:0:0:
294,135,182100,1,8,0:0:0:0:
311,104,182219,5,8,0:3:0:0:
180,196,182457,1,8,0:3:0:0:
170,180,182576,1,8,0:3:0:0:
160,166,182695,1,10,0:3:0:0:
255,267,182934,2,0,P|260:259|268:250,1,22,10|8,0:3|0:3,0:0:0:0:
281,235,183172,6,0,B|339:200|398:237|353:290|430:343|532:332|574:217|550:145|464:112|420:131|393:151,1,461.999985900879,14|0,0:3|0:0,0:0:0:0:
442,213,185076,5,8,0:3:0:0:
442,213,185315,1,0,0:0:0:0:
410,279,185791,1,0,0:0:0:0:
378,345,186267,1,0,0:0:0:0:
261,186,186743,1,10,0:3:0:0:
311,119,186981,6,0,B|241:65|149:119|215:187|108:263|-11:215|-37:111|17:65|73:59|97:99,1,461.999985900879,14|0,0:3|0:0,0:0:0:0:
164,58,188886,5,8,0:3:0:0:
164,58,189124,1,0,0:0:0:0:
208,123,189600,1,0,0:0:0:0:
274,82,190076,1,0,0:0:0:0:
102,185,190553,1,10,0:3:0:0:
147,264,190791,6,0,P|22:142|192:173,1,461.999985900879,14|0,0:3|0:0,0:0:0:0:
106,188,192695,5,8,0:3:0:0:
106,188,192934,1,0,0:0:0:0:
138,122,193410,1,0,0:0:0:0:
170,56,193886,1,0,0:0:0:0:
287,215,194362,1,10,0:3:0:0:
255,293,194600,6,0,B|319:331|387:274|337:233|406:169|467:202,1,263.99999194336,14|8,0:3|0:3,0:0:0:0:
468,202,196505,5,10,0:3:0:0:
468,202,196981,5,10,0:3:0:0:
468,202,197457,5,8,0:3:0:0:
357,87,197934,5,8,0:0:0:0:
429,19,198172,1,8,0:0:0:0:
462,33,198291,1,8,0:0:0:0:
494,48,198410,6,0,P|524:101|460:111,1,148.49999546814,14|2,0:3|0:0,0:0:0:0:
459,110,198886,1,8,0:0:0:0:
361,195,199124,2,0,P|407:186|439:222,1,98.9999969787599,2|8,0:0|0:3,0:0:0:0:
294,144,199600,2,0,P|247:135|215:171,1,98.9999969787599,2|8,0:0|0:0,0:0:0:0:
357,87,200076,1,2,0:0:0:0:
357,87,200195,1,2,0:0:0:0:
357,87,200315,6,0,B|397:104|429:71|408:53|446:20|479:31,1,148.49999546814,8|2,0:3|0:0,0:0:0:0:
479,31,200791,1,8,0:0:0:0:
294,144,201029,1,2,0:0:0:0:
439,222,201267,1,8,0:3:0:0:
444,208,201386,1,2,0:0:0:0:
449,194,201505,1,0,0:0:0:0:
395,342,201743,1,10,0:0:0:0:
294,144,201981,1,10,0:0:0:0:
403,357,202219,6,0,P|448:339|494:321,1,98.9999969787599,10|0,0:3|0:0,0:0:0:0:
495,321,202576,1,2,0:0:0:0:
495,321,202695,1,8,0:0:0:0:
324,260,202934,2,0,P|278:242|232:224,1,98.9999969787599,2|8,0:0|0:3,0:0:0:0:
403,163,203410,2,0,P|448:145|494:127,1,98.9999969787599,2|8,0:0|0:0,0:0:0:0:
324,66,203886,1,2,0:0:0:0:
324,66,204005,1,2,0:0:0:0:
324,66,204124,6,0,P|256:46|214:100,1,148.49999546814,8|2,0:3|0:0,0:0:0:0:
213,100,204600,1,8,0:0:0:0:
394,17,204838,2,0,P|440:7|472:42,1,98.9999969787599,2|8,0:0|0:3,0:0:0:0:
472,42,205315,1,2,0:0:0:0:
250,0,205553,1,8,0:0:0:0:
321,213,205791,1,10,0:0:0:0:
327,179,205910,1,8,0:0:0:0:
333,145,206029,6,0,P|295:116|251:133,1,98.9999969787599,14|0,0:3|0:0,0:0:0:0:
251,133,206386,1,2,0:0:0:0:
251,133,206505,1,8,0:0:0:0:
121,50,206743,2,0,P|75:68|29:86,1,98.9999969787599,2|8,0:0|0:3,0:0:0:0:
169,182,207219,2,0,P|123:200|77:218,1,98.9999969787599,2|8,0:0|0:0,0:0:0:0:
114,31,207695,6,0,P|68:49|22:67,1,98.9999969787599,2|8,0:0|0:3,0:0:0:0:
176,201,208172,2,0,P|130:219|84:237,1,98.9999969787599,2|8,0:0|0:0,0:0:0:0:
253,107,208648,2,0,P|299:125|345:143,2,98.9999969787599,2|8|0,0:0|0:3|0:0,0:0:0:0:
55,31,209362,1,10,0:0:0:0:
84,237,209600,1,10,0:0:0:0:
96,204,209719,1,8,0:0:0:0:
108,172,209838,6,0,P|72:133|21:143,1,110,10|2,0:3|0:0,0:0:0:0:
198,41,210315,1,10,0:0:0:0:
5,152,210553,1,14,0:0:0:0:
177,237,210791,1,10,0:3:0:0:
183,222,210910,1,8,0:0:0:0:
190,207,211029,1,10,0:0:0:0:
123,384,211267,1,10,0:3:0:0:
29,221,211505,1,10,0:0:0:0:
271,307,211743,5,10,0:3:0:0:
255,313,211862,2,0,L|238:319,1,18.3333333333333,8|0,0:0|0:0,0:0:0:0:
224,325,211981,2,0,P|198:315|173:305,1,55,10|8,0:3|0:3,0:0:0:0:
283,220,212219,2,0,P|308:229|333:239,1,55,10|8,0:0|0:3,0:0:0:0:
169,138,212457,1,8,0:3:0:0:
192,169,212576,1,10,0:0:0:0:
190,207,212695,6,0,P|167:221|141:218,1,55,8|10,0:3|0:0,0:0:0:0:
248,106,212934,1,8,0:3:0:0:
284,118,213053,1,8,0:3:0:0:
321,128,213172,2,0,P|335:105|332:79,1,55,10|8,0:3|0:3,0:0:0:0:
385,177,213410,2,0,P|409:165|419:140,1,55,8|8,0:3|0:3,0:0:0:0:
335,240,213648,5,14,0:3:0:0:
256,192,213767,12,10,215076,0:0:0:0:
41,315,215553,6,0,B|72:341|115:327|115:327|141:298|141:298|180:283|217:311,1,197.99999395752,14|2,0:3|0:0,0:0:0:0:
176,384,216029,1,8,0:0:0:0:
97,183,216267,2,0,P|77:208|78:240,1,65.9999979858399,2|0,0:0|0:0,0:0:0:0:
213,148,216505,2,0,B|180:162|144:135|165:120|130:95|99:104,1,131.99999597168,8|2,0:3|0:0,0:0:0:0:
307,183,216982,1,8,0:0:0:0:
179,5,217219,2,0,P|148:14|117:23,1,65.9999979858399,2|0,0:0|0:0,0:0:0:0:
213,148,217457,6,0,B|230:89|230:89|240:84|240:84|256:27,1,131.99999597168,8|2,0:3|0:0,0:0:0:0:
184,232,217934,1,8,0:0:0:0:
127,167,218053,2,0,P|96:176|64:185,1,65.9999979858399,2|0,0:0|0:0,0:0:0:0:
299,129,218410,1,10,0:3:0:0:
270,213,218648,1,2,0:0:0:0:
116,23,218887,1,8,0:0:0:0:
282,228,219124,1,10,0:0:0:0:
229,292,219243,1,8,0:0:0:0:
312,306,219362,6,0,B|378:280|378:280|395:231|395:231|465:206,1,197.99999395752,10|2,0:3|0:0,0:0:0:0:
461,295,219838,1,8,0:0:0:0:
299,129,220077,2,0,B|248:92|197:127|196:146|216:159|231:149,1,131.99999597168,2|8,0:0|0:3,0:0:0:0:
373,102,220434,1,0,0:0:0:0:
373,102,220553,2,0,B|423:138|475:103|476:85|456:72|440:82,1,131.99999597168,2|8,0:0|0:0,0:0:0:0:
303,246,221029,2,0,P|296:277|311:304,1,65.9999979858399,2|0,0:0|0:0,0:0:0:0:
413,205,221267,6,0,B|382:221|344:198|363:181|326:159|296:171,1,131.99999597168,8|2,0:3|0:0,0:0:0:0:
502,228,221744,1,8,0:0:0:0:
390,26,221982,1,2,0:0:0:0:
509,245,222220,5,10,0:3:0:0:
295,171,222457,1,10,0:0:0:0:
260,188,222576,1,8,0:0:0:0:
245,224,222695,6,0,P|241:256|260:283,1,65.9999979858399,10|8,0:3|0:3,0:0:0:0:
173,210,222933,2,0,P|148:229|142:262,1,65.9999979858399,10|8,0:3|0:3,0:0:0:0:
149,141,223172,6,0,B|118:157|80:134|99:117|62:95|32:107,1,131.99999597168,14|0,0:3|0:0,0:0:0:0:
138,70,223529,2,0,P|142:37|122:11,1,65.9999979858399,2|8,0:0|0:0,0:0:0:0:
245,224,223886,2,0,P|309:206|372:187,1,131.99999597168,2|8,0:0|0:3,0:0:0:0:
436,228,224243,1,0,0:0:0:0:
436,228,224362,1,2,0:0:0:0:
254,147,224600,1,8,0:0:0:0:
462,82,224838,2,0,P|482:107|479:140,1,65.9999979858399,2|0,0:0|0:0,0:0:0:0:
391,36,225076,6,0,P|432:-10|494:3,1,131.99999597168,10|0,0:3|0:0,0:0:0:0:
388,121,225434,2,0,P|357:112|325:103,1,65.9999979858399,2|8,0:0|0:0,0:0:0:0:
512,211,225791,2,0,B|479:197|443:224|464:239|429:264|398:255,1,131.99999597168,2|8,0:0|0:3,0:0:0:0:
247,153,226268,1,2,0:0:0:0:
462,82,226506,1,8,0:0:0:0:
227,160,226744,1,10,0:0:0:0:
261,81,226863,1,8,0:0:0:0:
295,2,226982,5,8,0:3:0:0:
331,233,227219,2,0,B|286:281|286:281|221:272,1,131.99999597168,2|8,0:0|0:0,0:0:0:0:
261,81,227695,2,0,B|325:94|325:94|349:156,1,131.99999597168,2|8,0:0|0:3,0:0:0:0:
166,216,228172,2,0,B|146:153|146:153|187:102,1,131.99999597168,2|8,0:0|0:0,0:0:0:0:
331,233,228648,2,0,P|322:264|313:296,1,65.9999979858399,2|0,0:0|0:0,0:0:0:0:
350,156,228886,5,10,0:3:0:0:
496,267,229124,1,10,0:0:0:0:
293,108,229362,1,8,0:3:0:0:
275,136,229481,1,10,0:0:0:0:
278,171,229600,1,8,0:3:0:0:
512,84,229838,5,10,0:3:0:0:
256,12,230076,1,10,0:0:0:0:
224,21,230195,1,8,0:0:0:0:
192,31,230314,1,10,0:3:0:0:
350,156,230553,1,8,0:3:0:0:
358,131,230672,1,8,0:3:0:0:
365,105,230791,6,0,P|386:0|461:76,1,263.99999194336,14|8,0:3|0:0,0:0:0:0:
283,126,231506,1,2,0:0:0:0:
364,290,231743,2,0,P|385:231|343:186,1,131.99999597168,8|0,0:3|0:0,0:0:0:0:
225,343,232219,1,10,0:0:0:0:
160,150,232458,1,10,0:3:0:0:
225,343,232696,6,0,P|203:281|182:218,1,131.99999597168,8|0,0:3|0:0,0:0:0:0:
311,355,233173,1,8,0:0:0:0:
139,331,233411,1,2,0:0:0:0:
342,185,233648,2,0,B|373:169|411:192|392:209|429:231|459:219,1,131.99999597168,10|2,0:3|0:0,0:0:0:0:
240,152,234125,1,8,0:0:0:0:
480,65,234363,1,8,0:0:0:0:
417,11,234482,1,8,0:0:0:0:
402,94,234601,6,0,B|340:137|268:89|314:43|239:-12|180:26,1,263.99999194336,10|8,0:3|0:0,0:0:0:0:
47,218,235315,2,0,P|50:185|32:159,1,65.9999979858399,2|0,0:0|0:0,0:0:0:0:
150,192,235553,2,0,P|132:166|135:134,1,65.9999979858399,8|0,0:3|0:0,0:0:0:0:
115,270,235791,1,0,0:0:0:0:
63,54,236029,1,10,0:0:0:0:
275,121,236268,1,10,0:3:0:0:
63,54,236505,6,0,P|122:27|183:-1,1,131.99999597168,8|0,0:3|0:0,0:0:0:0:
70,171,236981,1,8,0:0:0:0:
237,233,237219,1,2,0:0:0:0:
0,146,237457,1,10,0:3:0:0:
192,69,237695,5,10,0:0:0:0:
158,90,237814,1,8,0:0:0:0:
141,126,237933,1,10,0:3:0:0:
141,159,238052,1,8,0:3:0:0:
149,185,238171,1,8,0:3:0:0:
161,201,238290,1,8,0:3:0:0:
169,211,238410,6,0,B|206:247|269:222|242:181|302:150|342:180,1,197.99999395752,14|2,0:3|0:0,0:0:0:0:
314,258,238887,1,8,0:0:0:0:
205,69,239125,1,2,0:0:0:0:
314,258,239363,2,0,P|375:271|414:222,1,131.99999597168,8|0,0:3|0:0,0:0:0:0:
202,147,239839,1,10,0:0:0:0:
417,60,240077,1,10,0:3:0:0:
202,147,240315,6,0,P|263:123|325:98,1,131.99999597168,8|0,0:3|0:0,0:0:0:0:
285,264,240792,1,8,0:0:0:0:
161,79,241030,1,2,0:0:0:0:
296,282,241268,1,10,0:3:0:0:
117,182,241505,1,2,0:0:0:0:
325,98,241743,1,10,0:0:0:0:
98,189,241981,1,10,0:0:0:0:
151,253,242100,1,8,0:0:0:0:
68,267,242219,6,0,P|11:272|14:212,1,131.99999597168,10|2,0:3|0:0,0:0:0:0:
213,308,242695,1,8,0:0:0:0:
161,79,242933,1,2,0:0:0:0:
68,267,243172,1,10,0:3:0:0:
169,65,243410,1,10,0:3:0:0:
59,284,243648,1,10,0:3:0:0:
87,312,243767,1,8,0:0:0:0:
126,320,243886,1,10,0:0:0:0:
165,309,244005,1,8,0:0:0:0:
225,269,244124,6,0,P|284:248|329:290,1,131.99999597168,10|10,0:3|0:0,0:0:0:0:
91,167,244601,5,8,0:0:0:0:
125,186,244720,1,8,0:0:0:0:
166,187,244839,1,10,0:3:0:0:
201,169,244958,1,8,0:3:0:0:
221,134,245077,5,10,0:3:0:0:
61,18,245315,1,8,0:3:0:0:
61,18,245434,1,8,0:3:0:0:
61,18,245553,6,0,P|39:80|18:143,1,131.99999597168,10|8,0:3|0:3,0:0:0:0:
12,171,245910,1,8,0:3:0:0:
12,171,246029,5,14,0:3:0:0:
256,192,246148,12,0,252695,0:0:0:0:
