osu file format v14

[General]
AudioFilename: audio.mp3
AudioLeadIn: 0
PreviewTime: 53509
Countdown: 0
SampleSet: Normal
StackLeniency: 0.7
Mode: 1
LetterboxInBreaks: 0
WidescreenStoryboard: 1

[Editor]
Bookmarks: 176,21509,32175,42842,53509,64175,74842,85509,96175,106842,117509
DistanceSpacing: 2.7
BeatDivisor: 4
GridSize: 32
TimelineZoom: 2.700007

[Metadata]
Title:do u care, if i stare?
TitleUnicode:do u care, if i stare?
Artist:SEBii
ArtistUnicode:SEBii
Creator:Tsukani
Version:oni
Source:
Tags:english pop hyperpop electronic hip hop hip-hop rap vvblue lou blackwinterwells featured artist fa you anime cryceptio
BeatmapID:3990412
BeatmapSetID:1920437

[Difficulty]
HPDrainRate:5.5
CircleSize:5
OverallDifficulty:5.5
ApproachRate:5
SliderMultiplier:1.4
SliderTickRate:1

[Events]
//Background and Video events
0,0,"bg.jpg",0,0
//Break Periods
//Storyboard Layer 0 (Background)
//Storyboard Layer 1 (Fail)
//Storyboard Layer 2 (Pass)
//Storyboard Layer 3 (Foreground)
//Storyboard Layer 4 (Overlay)
//Storyboard Sound Samples

[TimingPoints]
-5157,333.333333333333,4,1,0,50,1,8
-5157,-20,4,1,0,50,0,0
176,-200,4,1,0,50,0,0
8507,-181.78845,4,1,0,50,0,0
8840,-166.65833,4,1,0,50,0,0
9173,-153.85326,4,1,0,50,0,0
9507,-142.8449,4,1,0,50,0,0
9673,-137.9396,4,1,0,50,0,0
9840,-133.33333,4,1,0,50,0,0
10007,-129.02477,4,1,0,50,0,0
10173,-125.00938,4,1,0,50,0,0
10257,-123.07124,4,1,0,50,0,0
10340,-121.21433,4,1,0,50,0,0
10507,-117.64291,4,1,0,50,0,0
10673,-114.2955,4,1,0,50,0,0
10840,-111.114815,4,1,0,50,0,0
11175,-125,4,1,0,60,0,0
20175,-150.27834,4,1,0,60,0,0
20461,-166.66666,4,1,0,50,0,0
21461,-90.9090909090909,4,1,0,70,0,0
21842,-100,4,1,0,70,0,0
50840,-100,4,1,0,70,0,0
51173,-102.48835,4,1,0,70,0,0
51507,-105.111755,4,1,0,70,0,0
51673,-106.4662,4,1,0,70,0,0
51840,-107.8645,4,1,0,70,0,0
51923,-108.695652173913,4,1,0,70,0,0
52007,-109.30002,4,1,0,70,0,0
52173,-110.76532,4,1,0,70,0,0
52340,-112.359550561798,4,1,0,70,0,0
52507,-113.835915,4,1,0,70,0,0
52836,-100,4,1,0,70,0,0
53171,-88.90361,4,1,0,70,0,0
53461,-80,4,1,0,90,0,0
53509,-80,4,1,0,90,0,1
63509,-86.95652,4,1,0,90,0,0
63840,-92.32481,4,1,0,90,0,0
64007,-95.27454,4,1,0,90,0,0
64176,-80,4,1,0,90,0,1
74176,-86.95652,4,1,0,90,0,1
74506,-93.530075,4,1,0,90,0,1
74673,-97.21567,4,1,0,90,0,1
74793,-100,4,1,0,70,0,1
74842,-100,4,1,0,70,0,0
84173,-100,4,1,0,70,0,0
84340,-103.35814,4,1,0,70,0,0
84507,-106.949646,4,1,0,70,0,0
84840,-114.91169,4,1,0,70,0,0
85173,-124.154594,4,1,0,70,0,0
85460,-133.333333333333,4,1,0,50,0,0
90841,-133.32224,4,1,0,50,0,0
91507,-126.312454,4,1,0,50,0,0
92173,-120.003006,4,1,0,50,0,0
92840,-114.28571,4,1,0,50,0,0
93508,-109.08099,4,1,0,50,0,0
93840,-106.666664,4,1,0,50,0,0
94173,-104.3501,4,1,0,50,0,0
94507,-102.12548,4,1,0,50,0,0
94673,-101.05476,4,1,0,50,0,0
94840,-100,4,1,0,50,0,0
95509,-160,4,1,0,50,0,0
96128,-80,4,1,0,90,0,0
96176,-80,4,1,0,90,0,1
105176,-80,4,1,0,90,0,0
105507,-100,4,1,0,70,0,0
106793,-80,4,1,0,90,0,0
106842,-80,4,1,0,90,0,1
115842,-80,4,1,0,90,0,0
116092,-85.40025,4,1,0,80,0,0
116259,-89.43298,4,1,0,75,0,0
116425,-93.83759,4,1,0,70,0,0
116759,-104.15918,4,1,0,60,0,0
117092,-116.988716,4,1,0,50,0,0
117425,-133.42271,4,1,0,35,0,0
118843,-142.10693,4,1,0,35,0,0
120176,-151.43619,4,1,0,35,0,0
120422,-153.88286,4,1,0,50,0,0
120840,-157.60373,4,1,0,50,0,0
121173,-161.40298,4,1,0,50,0,0
121510,-165.29385,4,1,0,50,0,0
121840,-169.29065,4,1,0,50,0,0
122173,-173.37167,4,1,0,50,0,0
122506,-177.55106,4,1,0,50,0,0
122756,-181.8442,4,1,0,35,0,0
124176,-200,4,1,0,35,0,0
125510,-222.222222222222,4,1,0,35,0,0

[HitObjects]
256,192,3176,5,2,0:0:0:0:
256,192,3509,1,0,0:0:0:0:
256,192,3842,1,2,0:0:0:0:
256,192,4509,1,2,0:0:0:0:
256,192,4842,1,2,0:0:0:0:
256,192,5176,1,0,0:0:0:0:
256,192,8176,1,2,0:0:0:0:
256,192,8509,1,2,0:0:0:0:
256,192,8842,1,2,0:0:0:0:
256,192,9176,1,2,0:0:0:0:
256,192,9509,1,2,0:0:0:0:
256,192,9676,1,2,0:0:0:0:
256,192,9842,1,2,0:0:0:0:
256,192,10009,1,2,0:0:0:0:
256,192,10176,1,0,0:0:0:0:
256,192,10259,1,0,0:0:0:0:
256,192,10342,1,2,0:0:0:0:
256,192,10509,1,2,0:0:0:0:
256,192,10676,1,0,0:0:0:0:
256,192,10842,1,6,0:0:0:0:
256,192,11176,1,2,0:0:0:0:
256,192,11342,1,0,0:0:0:0:
256,192,11509,1,2,0:0:0:0:
256,192,12176,1,2,0:0:0:0:
256,192,12842,1,2,0:0:0:0:
256,192,13176,1,0,0:0:0:0:
256,192,13509,1,2,0:0:0:0:
256,192,14176,1,0,0:0:0:0:
256,192,14842,1,2,0:0:0:0:
256,192,15509,1,0,0:0:0:0:
256,192,15842,1,2,0:0:0:0:
256,192,16176,1,2,0:0:0:0:
256,192,16509,1,0,0:0:0:0:
256,192,16676,1,0,0:0:0:0:
256,192,16842,1,2,0:0:0:0:
256,192,17176,1,2,0:0:0:0:
256,192,17509,1,2,0:0:0:0:
256,192,17842,1,0,0:0:0:0:
256,192,18009,1,2,0:0:0:0:
256,192,18176,1,2,0:0:0:0:
256,192,18509,1,0,0:0:0:0:
256,192,18842,1,2,0:0:0:0:
256,192,19176,1,2,0:0:0:0:
256,192,19509,1,2,0:0:0:0:
256,192,19676,1,0,0:0:0:0:
256,192,20509,12,0,21342,0:0:0:0:
256,192,21509,5,6,0:0:0:0:
256,192,21842,1,0,0:0:0:0:
256,192,22176,1,2,0:0:0:0:
256,192,22342,1,0,0:0:0:0:
256,192,22509,1,2,0:0:0:0:
256,192,22592,1,2,0:0:0:0:
256,192,22676,1,0,0:0:0:0:
256,192,22842,1,2,0:0:0:0:
256,192,23009,1,2,0:0:0:0:
256,192,23176,1,0,0:0:0:0:
256,192,23342,1,2,0:0:0:0:
256,192,23509,1,2,0:0:0:0:
256,192,23592,1,2,0:0:0:0:
256,192,23676,1,0,0:0:0:0:
256,192,23759,1,0,0:0:0:0:
256,192,23842,1,2,0:0:0:0:
256,192,24009,1,0,0:0:0:0:
256,192,24176,1,2,0:0:0:0:
256,192,24509,1,2,0:0:0:0:
256,192,24592,1,2,0:0:0:0:
256,192,24676,1,0,0:0:0:0:
256,192,24842,1,2,0:0:0:0:
256,192,25009,1,0,0:0:0:0:
256,192,25176,1,2,0:0:0:0:
256,192,25259,1,0,0:0:0:0:
256,192,25342,1,2,0:0:0:0:
256,192,25426,1,0,0:0:0:0:
256,192,25509,1,2,0:0:0:0:
256,192,25676,1,2,0:0:0:0:
256,192,25842,1,2,0:0:0:0:
256,192,25926,1,2,0:0:0:0:
256,192,26009,1,0,0:0:0:0:
256,192,26176,1,2,0:0:0:0:
256,192,26342,1,0,0:0:0:0:
256,192,26426,1,0,0:0:0:0:
256,192,26509,1,2,0:0:0:0:
256,192,26676,1,0,0:0:0:0:
256,192,26842,1,2,0:0:0:0:
256,192,27176,1,2,0:0:0:0:
256,192,27259,1,2,0:0:0:0:
256,192,27342,1,2,0:0:0:0:
256,192,27509,1,0,0:0:0:0:
256,192,27676,1,2,0:0:0:0:
256,192,27842,1,2,0:0:0:0:
256,192,27926,1,2,0:0:0:0:
256,192,28009,1,0,0:0:0:0:
256,192,28176,1,2,0:0:0:0:
256,192,28259,1,2,0:0:0:0:
256,192,28342,1,0,0:0:0:0:
256,192,28426,1,0,0:0:0:0:
256,192,28509,1,2,0:0:0:0:
256,192,28676,1,2,0:0:0:0:
256,192,28842,1,0,0:0:0:0:
256,192,29009,1,2,0:0:0:0:
256,192,29092,1,2,0:0:0:0:
256,192,29176,1,0,0:0:0:0:
256,192,29342,1,0,0:0:0:0:
256,192,29509,1,2,0:0:0:0:
256,192,29842,1,2,0:0:0:0:
256,192,30009,1,2,0:0:0:0:
256,192,30176,1,0,0:0:0:0:
256,192,30259,1,0,0:0:0:0:
256,192,30342,1,2,0:0:0:0:
256,192,30509,1,2,0:0:0:0:
256,192,30676,1,2,0:0:0:0:
256,192,30759,1,2,0:0:0:0:
256,192,30842,1,0,0:0:0:0:
256,192,31009,1,2,0:0:0:0:
256,192,31176,1,0,0:0:0:0:
256,192,31259,1,2,0:0:0:0:
256,192,31509,1,2,0:0:0:0:
256,192,31676,1,2,0:0:0:0:
256,192,31842,1,0,0:0:0:0:
256,192,32176,1,6,0:0:0:0:
256,192,32509,1,2,0:0:0:0:
256,192,32676,1,0,0:0:0:0:
256,192,32842,1,2,0:0:0:0:
256,192,33092,1,0,0:0:0:0:
256,192,33176,1,2,0:0:0:0:
256,192,33342,1,2,0:0:0:0:
256,192,33509,1,2,0:0:0:0:
256,192,33592,1,2,0:0:0:0:
256,192,33676,1,0,0:0:0:0:
256,192,33759,1,0,0:0:0:0:
256,192,33842,1,2,0:0:0:0:
256,192,34009,1,0,0:0:0:0:
256,192,34176,1,2,0:0:0:0:
256,192,34426,1,0,0:0:0:0:
256,192,34509,1,2,0:0:0:0:
256,192,34676,1,0,0:0:0:0:
256,192,34842,1,2,0:0:0:0:
256,192,35176,1,2,0:0:0:0:
256,192,35342,1,0,0:0:0:0:
256,192,35509,1,2,0:0:0:0:
256,192,35676,1,2,0:0:0:0:
256,192,35759,1,2,0:0:0:0:
256,192,35842,1,0,0:0:0:0:
256,192,36009,1,0,0:0:0:0:
256,192,36176,1,2,0:0:0:0:
256,192,36342,1,2,0:0:0:0:
256,192,36426,1,2,0:0:0:0:
256,192,36509,1,0,0:0:0:0:
256,192,36592,1,0,0:0:0:0:
256,192,36676,1,2,0:0:0:0:
256,192,36842,1,2,0:0:0:0:
256,192,37009,1,0,0:0:0:0:
256,192,37092,1,0,0:0:0:0:
256,192,37176,1,2,0:0:0:0:
256,192,37509,1,2,0:0:0:0:
256,192,37842,1,2,0:0:0:0:
256,192,37926,1,0,0:0:0:0:
256,192,38009,1,2,0:0:0:0:
256,192,38092,1,0,0:0:0:0:
256,192,38176,1,2,0:0:0:0:
256,192,38342,1,0,0:0:0:0:
256,192,38509,1,2,0:0:0:0:
256,192,38592,1,2,0:0:0:0:
256,192,38676,1,0,0:0:0:0:
256,192,38842,1,2,0:0:0:0:
256,192,39009,1,0,0:0:0:0:
256,192,39176,1,2,0:0:0:0:
256,192,39342,1,2,0:0:0:0:
256,192,39426,1,0,0:0:0:0:
256,192,39509,1,2,0:0:0:0:
256,192,39676,1,2,0:0:0:0:
256,192,39842,1,2,0:0:0:0:
256,192,39926,1,2,0:0:0:0:
256,192,40009,1,0,0:0:0:0:
256,192,40176,1,2,0:0:0:0:
256,192,40509,1,2,0:0:0:0:
256,192,40592,1,0,0:0:0:0:
256,192,40676,1,2,0:0:0:0:
256,192,40842,1,2,0:0:0:0:
256,192,41009,1,0,0:0:0:0:
256,192,41176,1,2,0:0:0:0:
256,192,41259,1,2,0:0:0:0:
256,192,41342,1,0,0:0:0:0:
256,192,41509,1,0,0:0:0:0:
256,192,41676,1,2,0:0:0:0:
256,192,41842,1,2,0:0:0:0:
256,192,41926,1,0,0:0:0:0:
256,192,42176,1,2,0:0:0:0:
256,192,42509,1,2,0:0:0:0:
256,192,42676,1,0,0:0:0:0:
256,192,42842,1,6,0:0:0:0:
256,192,43176,1,2,0:0:0:0:
256,192,43342,1,0,0:0:0:0:
256,192,43509,1,2,0:0:0:0:
256,192,43592,1,2,0:0:0:0:
256,192,43676,1,0,0:0:0:0:
256,192,43759,1,0,0:0:0:0:
256,192,43842,1,2,0:0:0:0:
256,192,44009,1,2,0:0:0:0:
256,192,44176,1,0,0:0:0:0:
256,192,44342,1,0,0:0:0:0:
256,192,44509,1,2,0:0:0:0:
256,192,44676,1,0,0:0:0:0:
256,192,44842,1,2,0:0:0:0:
256,192,45176,1,0,0:0:0:0:
256,192,45509,1,2,0:0:0:0:
256,192,45676,1,0,0:0:0:0:
256,192,45842,1,2,0:0:0:0:
256,192,46009,1,2,0:0:0:0:
256,192,46176,1,2,0:0:0:0:
256,192,46259,1,0,0:0:0:0:
256,192,46342,1,0,0:0:0:0:
256,192,46426,1,2,0:0:0:0:
256,192,46509,1,2,0:0:0:0:
256,192,46676,1,0,0:0:0:0:
256,192,46842,1,2,0:0:0:0:
256,192,47009,1,0,0:0:0:0:
256,192,47176,1,2,0:0:0:0:
256,192,47342,1,0,0:0:0:0:
256,192,47509,1,2,0:0:0:0:
256,192,47842,1,0,0:0:0:0:
256,192,48176,1,6,0:0:0:0:
256,192,48509,1,2,0:0:0:0:
256,192,48592,1,0,0:0:0:0:
256,192,48676,1,2,0:0:0:0:
256,192,48759,1,0,0:0:0:0:
256,192,48842,1,2,0:0:0:0:
256,192,49009,1,0,0:0:0:0:
256,192,49176,1,2,0:0:0:0:
256,192,49342,1,2,0:0:0:0:
256,192,49509,1,0,0:0:0:0:
256,192,49676,1,0,0:0:0:0:
256,192,49842,1,2,0:0:0:0:
256,192,50009,1,0,0:0:0:0:
256,192,50176,1,2,0:0:0:0:
256,192,50509,1,0,0:0:0:0:
256,192,50842,1,2,0:0:0:0:
256,192,51176,1,0,0:0:0:0:
256,192,51342,1,2,0:0:0:0:
256,192,51509,1,2,0:0:0:0:
256,192,51676,1,0,0:0:0:0:
256,192,51842,1,2,0:0:0:0:
256,192,51926,1,2,0:0:0:0:
256,192,52009,1,2,0:0:0:0:
256,192,52176,1,2,0:0:0:0:
256,192,52342,1,0,0:0:0:0:
256,192,52509,1,2,0:0:0:0:
256,192,52842,1,0,0:0:0:0:
256,192,53176,1,2,0:0:0:0:
256,192,53509,1,4,0:0:0:0:
256,192,54176,1,2,0:0:0:0:
256,192,54342,1,0,0:0:0:0:
256,192,54509,1,6,0:0:0:0:
256,192,54842,1,2,0:0:0:0:
256,192,55009,1,2,0:0:0:0:
256,192,55092,1,0,0:0:0:0:
256,192,55176,1,2,0:0:0:0:
256,192,55509,1,4,0:0:0:0:
256,192,55842,1,0,0:0:0:0:
256,192,56009,1,0,0:0:0:0:
256,192,56176,1,4,0:0:0:0:
256,192,56676,1,2,0:0:0:0:
256,192,56842,1,0,0:0:0:0:
256,192,57009,1,2,0:0:0:0:
256,192,57176,1,4,0:0:0:0:
256,192,57509,1,0,0:0:0:0:
256,192,57592,1,0,0:0:0:0:
256,192,57676,1,0,0:0:0:0:
256,192,57842,1,2,0:0:0:0:
256,192,58009,1,2,0:0:0:0:
256,192,58176,1,4,0:0:0:0:
256,192,58509,1,2,0:0:0:0:
256,192,58592,1,2,0:0:0:0:
256,192,58676,1,0,0:0:0:0:
256,192,58842,1,4,0:0:0:0:
256,192,59176,1,2,0:0:0:0:
256,192,59509,1,2,0:0:0:0:
256,192,59676,1,2,0:0:0:0:
256,192,59842,1,4,0:0:0:0:
256,192,60176,1,2,0:0:0:0:
256,192,60342,1,2,0:0:0:0:
256,192,60426,1,2,0:0:0:0:
256,192,60509,1,0,0:0:0:0:
256,192,60842,1,6,0:0:0:0:
256,192,61176,1,0,0:0:0:0:
256,192,61342,1,2,0:0:0:0:
256,192,61509,1,4,0:0:0:0:
256,192,61842,1,2,0:0:0:0:
256,192,62176,1,0,0:0:0:0:
256,192,62509,1,6,0:0:0:0:
256,192,62842,1,2,0:0:0:0:
256,192,63009,1,2,0:0:0:0:
256,192,63176,1,0,0:0:0:0:
256,192,63509,1,6,0:0:0:0:
256,192,63842,1,0,0:0:0:0:
256,192,64009,1,2,0:0:0:0:
256,192,64176,1,4,0:0:0:0:
256,192,64842,1,2,0:0:0:0:
256,192,65009,1,0,0:0:0:0:
256,192,65176,1,6,0:0:0:0:
256,192,65509,1,2,0:0:0:0:
256,192,65676,1,2,0:0:0:0:
256,192,65759,1,0,0:0:0:0:
256,192,65842,1,2,0:0:0:0:
256,192,66176,1,4,0:0:0:0:
256,192,66509,1,0,0:0:0:0:
256,192,66676,1,0,0:0:0:0:
256,192,66842,1,4,0:0:0:0:
256,192,67342,1,2,0:0:0:0:
256,192,67509,1,0,0:0:0:0:
256,192,67676,1,2,0:0:0:0:
256,192,67842,1,4,0:0:0:0:
256,192,68176,1,0,0:0:0:0:
256,192,68259,1,0,0:0:0:0:
256,192,68342,1,0,0:0:0:0:
256,192,68509,1,2,0:0:0:0:
256,192,68676,1,2,0:0:0:0:
256,192,68842,1,4,0:0:0:0:
256,192,69176,1,2,0:0:0:0:
256,192,69259,1,2,0:0:0:0:
256,192,69342,1,0,0:0:0:0:
256,192,69509,1,4,0:0:0:0:
256,192,69842,1,2,0:0:0:0:
256,192,70176,1,2,0:0:0:0:
256,192,70342,1,2,0:0:0:0:
256,192,70509,1,4,0:0:0:0:
256,192,70842,1,2,0:0:0:0:
256,192,71009,1,2,0:0:0:0:
256,192,71092,1,2,0:0:0:0:
256,192,71176,1,0,0:0:0:0:
256,192,71509,1,6,0:0:0:0:
256,192,71842,1,0,0:0:0:0:
256,192,72009,1,2,0:0:0:0:
256,192,72176,1,4,0:0:0:0:
256,192,72509,1,2,0:0:0:0:
256,192,72842,1,0,0:0:0:0:
256,192,73176,1,6,0:0:0:0:
256,192,73509,1,2,0:0:0:0:
256,192,73676,1,2,0:0:0:0:
256,192,73842,1,0,0:0:0:0:
256,192,74176,1,6,0:0:0:0:
256,192,74509,1,0,0:0:0:0:
256,192,74676,1,2,0:0:0:0:
256,192,74842,1,4,0:0:0:0:
256,192,75176,1,2,0:0:0:0:
256,192,75259,1,2,0:0:0:0:
256,192,75342,1,0,0:0:0:0:
256,192,75509,1,2,0:0:0:0:
256,192,75676,1,2,0:0:0:0:
256,192,75842,1,0,0:0:0:0:
256,192,76176,1,2,0:0:0:0:
256,192,76342,1,0,0:0:0:0:
256,192,76426,1,0,0:0:0:0:
256,192,76509,1,2,0:0:0:0:
256,192,76842,1,2,0:0:0:0:
256,192,77509,1,6,0:0:0:0:
256,192,77676,1,0,0:0:0:0:
256,192,77842,1,0,0:0:0:0:
256,192,77926,1,2,0:0:0:0:
256,192,78009,1,2,0:0:0:0:
256,192,78176,1,0,0:0:0:0:
256,192,78342,1,2,0:0:0:0:
256,192,78509,1,0,0:0:0:0:
256,192,78842,1,2,0:0:0:0:
256,192,78926,1,0,0:0:0:0:
256,192,79009,1,2,0:0:0:0:
256,192,79176,1,2,0:0:0:0:
256,192,79342,1,0,0:0:0:0:
256,192,79426,1,0,0:0:0:0:
256,192,79509,1,2,0:0:0:0:
256,192,80176,1,6,0:0:0:0:
256,192,80342,1,2,0:0:0:0:
256,192,80426,1,2,0:0:0:0:
256,192,80509,1,0,0:0:0:0:
256,192,80676,1,0,0:0:0:0:
256,192,80842,1,2,0:0:0:0:
256,192,81176,1,2,0:0:0:0:
256,192,81259,1,2,0:0:0:0:
256,192,81342,1,0,0:0:0:0:
256,192,81509,1,2,0:0:0:0:
256,192,81676,1,2,0:0:0:0:
256,192,81759,1,0,0:0:0:0:
256,192,81842,1,2,0:0:0:0:
256,192,82176,1,0,0:0:0:0:
256,192,82342,1,0,0:0:0:0:
256,192,82509,1,2,0:0:0:0:
256,192,82676,1,2,0:0:0:0:
256,192,82842,1,4,0:0:0:0:
256,192,83176,1,2,0:0:0:0:
256,192,83342,1,0,0:0:0:0:
256,192,83509,1,2,0:0:0:0:
256,192,83676,1,2,0:0:0:0:
256,192,83759,1,2,0:0:0:0:
256,192,83842,1,0,0:0:0:0:
256,192,84176,1,2,0:0:0:0:
256,192,84342,1,2,0:0:0:0:
256,192,84509,1,0,0:0:0:0:
256,192,84842,1,2,0:0:0:0:
256,192,85176,1,0,0:0:0:0:
256,192,85509,1,0,0:0:0:0:
256,192,86842,1,2,0:0:0:0:
256,192,88176,1,0,0:0:0:0:
256,192,89509,1,2,0:0:0:0:
256,192,90842,1,0,0:0:0:0:
256,192,91509,1,2,0:0:0:0:
256,192,92176,1,2,0:0:0:0:
256,192,92842,1,0,0:0:0:0:
256,192,93509,1,2,0:0:0:0:
256,192,93842,1,0,0:0:0:0:
256,192,94176,1,2,0:0:0:0:
256,192,94509,1,2,0:0:0:0:
256,192,94676,1,2,0:0:0:0:
256,192,94842,1,0,0:0:0:0:
256,192,95509,1,2,0:0:0:0:
256,192,96176,1,4,0:0:0:0:
256,192,96509,1,2,0:0:0:0:
256,192,96676,1,0,0:0:0:0:
256,192,96842,1,2,0:0:0:0:
256,192,96926,1,2,0:0:0:0:
256,192,97009,1,0,0:0:0:0:
256,192,97176,1,6,0:0:0:0:
256,192,97509,1,2,0:0:0:0:
256,192,97676,1,2,0:0:0:0:
256,192,97759,1,2,0:0:0:0:
256,192,97842,1,0,0:0:0:0:
256,192,98176,1,4,0:0:0:0:
256,192,98509,1,0,0:0:0:0:
256,192,98842,1,6,0:0:0:0:
256,192,99176,1,0,0:0:0:0:
256,192,99509,1,2,0:0:0:0:
256,192,99592,1,2,0:0:0:0:
256,192,99676,1,0,0:0:0:0:
256,192,99842,1,6,0:0:0:0:
256,192,100176,1,2,0:0:0:0:
256,192,100259,1,0,0:0:0:0:
256,192,100342,1,2,0:0:0:0:
256,192,100426,1,0,0:0:0:0:
256,192,100509,1,2,0:0:0:0:
256,192,100842,1,6,0:0:0:0:
256,192,101176,1,2,0:0:0:0:
256,192,101342,1,2,0:0:0:0:
256,192,101509,1,4,0:0:0:0:
256,192,101842,1,0,0:0:0:0:
256,192,102176,1,2,0:0:0:0:
256,192,102259,1,0,0:0:0:0:
256,192,102342,1,0,0:0:0:0:
256,192,102509,1,4,0:0:0:0:
256,192,102842,1,2,0:0:0:0:
256,192,103009,1,2,0:0:0:0:
256,192,103092,1,2,0:0:0:0:
256,192,103176,1,0,0:0:0:0:
256,192,103509,1,4,0:0:0:0:
256,192,103842,1,2,0:0:0:0:
256,192,104176,1,6,0:0:0:0:
256,192,104509,1,0,0:0:0:0:
256,192,104676,1,0,0:0:0:0:
256,192,104842,1,2,0:0:0:0:
256,192,105176,1,6,0:0:0:0:
256,192,106842,1,4,0:0:0:0:
256,192,107176,1,2,0:0:0:0:
256,192,107342,1,0,0:0:0:0:
256,192,107509,1,2,0:0:0:0:
256,192,107592,1,2,0:0:0:0:
256,192,107676,1,0,0:0:0:0:
256,192,107842,1,6,0:0:0:0:
256,192,108176,1,2,0:0:0:0:
256,192,108342,1,2,0:0:0:0:
256,192,108426,1,2,0:0:0:0:
256,192,108509,1,0,0:0:0:0:
256,192,108842,1,4,0:0:0:0:
256,192,109176,1,0,0:0:0:0:
256,192,109509,1,6,0:0:0:0:
256,192,109842,1,0,0:0:0:0:
256,192,110176,1,2,0:0:0:0:
256,192,110259,1,2,0:0:0:0:
256,192,110342,1,0,0:0:0:0:
256,192,110509,1,6,0:0:0:0:
256,192,110842,1,2,0:0:0:0:
256,192,110926,1,0,0:0:0:0:
256,192,111009,1,2,0:0:0:0:
256,192,111092,1,0,0:0:0:0:
256,192,111176,1,2,0:0:0:0:
256,192,111509,1,6,0:0:0:0:
256,192,111842,1,2,0:0:0:0:
256,192,112009,1,2,0:0:0:0:
256,192,112176,1,4,0:0:0:0:
256,192,112509,1,0,0:0:0:0:
256,192,112842,1,2,0:0:0:0:
256,192,112926,1,0,0:0:0:0:
256,192,113009,1,0,0:0:0:0:
256,192,113176,1,4,0:0:0:0:
256,192,113509,1,2,0:0:0:0:
256,192,113676,1,2,0:0:0:0:
256,192,113759,1,2,0:0:0:0:
256,192,113842,1,0,0:0:0:0:
256,192,114176,1,4,0:0:0:0:
256,192,114509,1,2,0:0:0:0:
256,192,114842,1,6,0:0:0:0:
256,192,115176,1,0,0:0:0:0:
256,192,115342,1,0,0:0:0:0:
256,192,115509,1,2,0:0:0:0:
256,192,115842,1,6,0:0:0:0:
256,192,116176,1,2,0:0:0:0:
256,192,116342,1,2,0:0:0:0:
256,192,116509,1,0,0:0:0:0:
256,192,116842,1,2,0:0:0:0:
256,192,117176,1,0,0:0:0:0:
256,192,117509,12,0,120176,0:0:0:0:
256,192,120509,5,2,0:0:0:0:
256,192,120842,1,0,0:0:0:0:
256,192,121176,1,2,0:0:0:0:
256,192,121842,1,2,0:0:0:0:
256,192,122176,1,2,0:0:0:0:
256,192,122509,1,0,0:0:0:0:
256,192,122842,12,0,125509,0:0:0:0:
