osu file format v14

[General]
AudioFilename: audio.mp3
AudioLeadIn: 0
PreviewTime: 53509
Countdown: 0
SampleSet: Normal
StackLeniency: 0.7
Mode: 1
LetterboxInBreaks: 0
WidescreenStoryboard: 1

[Editor]
Bookmarks: 176,21509,32175,42842,53509,64175,74842,85509,96175,106842,117509
DistanceSpacing: 2.6
BeatDivisor: 4
GridSize: 16
TimelineZoom: 1.800007

[Metadata]
Title:do u care, if i stare?
TitleUnicode:do u care, if i stare?
Artist:SEBii
ArtistUnicode:SEBii
Creator:Tsukani
Version:cry's muzukashii
Source:
Tags:english pop hyperpop electronic hip hop hip-hop rap vvblue lou blackwinterwells featured artist fa you anime cryceptio
BeatmapID:4105248
BeatmapSetID:1920437

[Difficulty]
HPDrainRate:6
CircleSize:5
OverallDifficulty:5
ApproachRate:5
SliderMultiplier:1.4
SliderTickRate:1

[Events]
//Background and Video events
0,0,"bg.jpg",0,0
//Break Periods
//Storyboard Layer 0 (Background)
//Storyboard Layer 1 (Fail)
//Storyboard Layer 2 (Pass)
//Storyboard Layer 3 (Foreground)
//Storyboard Layer 4 (Overlay)
//Storyboard Sound Samples

[TimingPoints]
-5157,333.333333333333,4,1,0,50,1,8
-5157,-20,4,1,0,50,0,0
176,-117.647058823529,4,1,0,50,0,0
11461,-117.647058823529,4,1,0,60,0,0
20461,-117.647058823529,4,1,0,50,0,0
21461,-117.647058823529,4,1,0,70,0,0
52174,-117.647058823529,4,1,0,70,0,0
52175,-117.647058823529,4,1,0,70,0,0
52508,-115.433021531479,4,1,0,70,0,0
52841,-109.786412930884,4,1,0,70,0,0
53460,-100,4,1,0,90,0,0
53509,-100,4,1,0,90,0,1
63509,-100,4,1,0,90,0,0
64176,-100,4,1,0,90,0,1
72174,-100,4,1,0,90,0,1
72175,-100,4,1,0,90,0,1
72674,-101.72759750301,4,1,0,90,0,1
72841,-102.534304281895,4,1,0,90,0,1
73174,-104.370025747303,4,1,0,90,0,1
73508,-106.487078874776,4,1,0,90,0,1
73674,-107.638021935662,4,1,0,90,0,1
73841,-108.861891815132,4,1,0,90,0,1
74174,-111.503151663853,4,1,0,90,0,1
74508,-114.43136113281,4,1,0,90,0,1
74674,-115.996035087167,4,1,0,90,0,1
74842,-117.647058823529,4,1,0,70,0,0
82841,-117.647058823529,4,1,0,70,0,0
83174,-119.052322395108,4,1,0,70,0,0
83341,-120.050691415836,4,1,0,70,0,0
83508,-121.175817469609,4,1,0,70,0,0
83674,-122.405695421462,4,1,0,70,0,0
83841,-123.747760093632,4,1,0,70,0,0
84174,-126.724922159676,4,1,0,70,0,0
84341,-128.367593591083,4,1,0,70,0,0
84508,-130.111549644744,4,1,0,70,0,0
84841,-133.901278757832,4,1,0,70,0,0
85174,-138.131510000705,4,1,0,70,0,0
85460,-142.857142857143,4,1,0,50,0,0
94841,-142.857142857143,4,1,0,50,0,0
95508,-125.143617091491,4,1,0,50,0,0
96127,-100,4,1,0,90,0,0
96176,-100,4,1,0,90,0,1
105176,-100,4,1,0,90,0,0
105507,-100,4,1,0,70,0,0
106793,-100,4,1,0,90,0,0
106842,-100,4,1,0,90,0,1
114841,-100,4,1,0,90,0,1
115174,-101.013487054507,4,1,0,90,0,1
115341,-101.73131869404,4,1,0,90,0,1
115508,-102.538108745985,4,1,0,90,0,1
115841,-104.373736025072,4,1,0,90,0,1
116174,-106.483711989888,4,1,0,90,0,1
116341,-107.641142030338,4,1,0,90,0,1
116508,-108.864714572711,4,1,0,90,0,1
116841,-111.505237852802,4,1,0,90,0,1
117174,-114.423312581464,4,1,0,90,0,1
117424,-117.647058823529,4,1,0,35,0,1
117509,-117.647058823529,4,1,0,35,0,0
120421,-117.647058823529,4,1,0,50,0,0
122755,-117.647058823529,4,1,0,35,0,0

[HitObjects]
448,64,3176,5,8,0:0:0:0:
192,160,3509,1,0,0:0:0:0:
448,64,3842,1,8,0:0:0:0:
448,64,4509,1,8,0:0:0:0:
448,64,4842,1,8,0:0:0:0:
192,160,5176,1,0,0:0:0:0:
448,64,8176,1,8,0:0:0:0:
448,64,8509,1,8,0:0:0:0:
448,64,8842,1,8,0:0:0:0:
448,64,9176,1,8,0:0:0:0:
448,64,9509,1,8,0:0:0:0:
448,64,9676,1,8,0:0:0:0:
448,64,9842,1,8,0:0:0:0:
192,160,10176,1,0,0:0:0:0:
192,160,10259,1,0,0:0:0:0:
192,160,10342,1,0,0:0:0:0:
448,64,10509,1,8,0:0:0:0:
192,160,10676,1,0,0:0:0:0:
448,320,10842,1,12,0:0:0:0:
192,160,11176,1,0,0:0:0:0:
448,64,11509,1,8,0:0:0:0:
448,64,12176,1,8,0:0:0:0:
192,160,12842,1,0,0:0:0:0:
448,64,13509,1,8,0:0:0:0:
192,160,14176,1,0,0:0:0:0:
448,64,14842,1,8,0:0:0:0:
192,160,15509,1,0,0:0:0:0:
448,64,15842,1,8,0:0:0:0:
448,64,16176,1,8,0:0:0:0:
192,160,16509,1,0,0:0:0:0:
448,64,16842,1,8,0:0:0:0:
448,64,17176,1,8,0:0:0:0:
448,64,17509,1,8,0:0:0:0:
192,160,17842,1,0,0:0:0:0:
192,160,18009,1,0,0:0:0:0:
448,64,18176,1,8,0:0:0:0:
192,160,18509,1,0,0:0:0:0:
448,64,18842,1,8,0:0:0:0:
448,64,19176,1,8,0:0:0:0:
448,64,19509,1,8,0:0:0:0:
192,160,19676,1,0,0:0:0:0:
448,320,21509,1,12,0:0:0:0:
192,160,21842,1,0,0:0:0:0:
448,64,22176,1,8,0:0:0:0:
192,160,22342,1,0,0:0:0:0:
448,64,22509,1,8,0:0:0:0:
448,64,22592,1,8,0:0:0:0:
448,64,22676,1,8,0:0:0:0:
64,64,22842,1,0,0:0:0:0:
192,160,23176,1,0,0:0:0:0:
448,64,23342,1,8,0:0:0:0:
448,64,23509,1,8,0:0:0:0:
448,64,23676,1,8,0:0:0:0:
64,64,23842,1,0,0:0:0:0:
448,320,24176,1,8,0:0:0:0:
448,64,24509,1,8,0:0:0:0:
64,64,24842,1,0,0:0:0:0:
448,64,25176,1,8,0:0:0:0:
448,64,25259,1,8,0:0:0:0:
448,64,25342,1,8,0:0:0:0:
192,160,25509,1,0,0:0:0:0:
448,64,25842,1,8,0:0:0:0:
192,160,26009,1,0,0:0:0:0:
448,64,26176,1,8,0:0:0:0:
192,160,26342,1,0,0:0:0:0:
192,160,26509,1,0,0:0:0:0:
448,64,26676,1,8,0:0:0:0:
448,320,26842,1,8,0:0:0:0:
448,64,27176,1,8,0:0:0:0:
192,160,27509,1,0,0:0:0:0:
448,64,27842,1,8,0:0:0:0:
448,64,28176,1,8,0:0:0:0:
192,160,28342,1,0,0:0:0:0:
448,64,28509,1,8,0:0:0:0:
192,160,28842,1,0,0:0:0:0:
448,64,29009,1,8,0:0:0:0:
448,64,29176,1,8,0:0:0:0:
192,160,29342,1,0,0:0:0:0:
448,320,29509,1,8,0:0:0:0:
448,64,29842,1,8,0:0:0:0:
448,64,30009,1,8,0:0:0:0:
192,160,30176,1,0,0:0:0:0:
192,160,30342,1,0,0:0:0:0:
448,64,30509,1,8,0:0:0:0:
192,160,31176,1,0,0:0:0:0:
448,64,31509,1,8,0:0:0:0:
192,160,31676,1,0,0:0:0:0:
448,64,31842,1,8,0:0:0:0:
448,320,32176,1,12,0:0:0:0:
192,160,32509,1,0,0:0:0:0:
448,64,32676,1,8,0:0:0:0:
448,64,32759,1,8,0:0:0:0:
448,64,32842,1,8,0:0:0:0:
192,160,33176,1,0,0:0:0:0:
448,64,33509,1,8,0:0:0:0:
448,64,33842,1,8,0:0:0:0:
192,160,34009,1,0,0:0:0:0:
192,160,34092,1,0,0:0:0:0:
192,160,34176,1,0,0:0:0:0:
192,160,34509,1,0,0:0:0:0:
64,64,34676,1,0,0:0:0:0:
448,320,34842,1,8,0:0:0:0:
448,64,35176,1,8,0:0:0:0:
192,160,35342,1,0,0:0:0:0:
448,64,35509,1,8,0:0:0:0:
448,64,35676,1,8,0:0:0:0:
448,64,35842,1,8,0:0:0:0:
192,160,36009,1,0,0:0:0:0:
448,64,36176,1,8,0:0:0:0:
192,160,36509,1,0,0:0:0:0:
448,64,36842,1,8,0:0:0:0:
192,160,37009,1,0,0:0:0:0:
192,160,37176,1,0,0:0:0:0:
448,320,37509,1,8,0:0:0:0:
448,64,37842,1,8,0:0:0:0:
448,64,38176,1,8,0:0:0:0:
192,160,38342,1,0,0:0:0:0:
448,64,38509,1,8,0:0:0:0:
448,64,38592,1,8,0:0:0:0:
448,64,38676,1,8,0:0:0:0:
64,64,38842,1,0,0:0:0:0:
192,160,39009,1,0,0:0:0:0:
448,64,39176,1,8,0:0:0:0:
448,64,39342,1,8,0:0:0:0:
192,160,39509,1,0,0:0:0:0:
448,64,39842,1,8,0:0:0:0:
192,160,40009,1,0,0:0:0:0:
448,320,40176,1,8,0:0:0:0:
192,160,40509,1,0,0:0:0:0:
448,64,40676,1,8,0:0:0:0:
448,64,40842,1,8,0:0:0:0:
448,64,41176,1,8,0:0:0:0:
192,160,41842,1,0,0:0:0:0:
448,64,42176,1,8,0:0:0:0:
448,64,42509,1,8,0:0:0:0:
64,64,42676,1,0,0:0:0:0:
448,320,42842,1,12,0:0:0:0:
448,64,43176,1,8,0:0:0:0:
192,160,43342,1,0,0:0:0:0:
448,64,43509,1,8,0:0:0:0:
448,64,43676,1,8,0:0:0:0:
64,64,43842,1,0,0:0:0:0:
448,64,44009,1,8,0:0:0:0:
192,160,44176,1,0,0:0:0:0:
192,160,44342,1,0,0:0:0:0:
448,64,44509,1,8,0:0:0:0:
448,64,44842,1,8,0:0:0:0:
192,160,45176,1,0,0:0:0:0:
448,64,45509,1,8,0:0:0:0:
192,160,45676,1,0,0:0:0:0:
448,64,45842,1,8,0:0:0:0:
448,64,46009,1,8,0:0:0:0:
192,160,46176,1,0,0:0:0:0:
192,160,46342,1,0,0:0:0:0:
448,64,46509,1,8,0:0:0:0:
192,160,46676,1,0,0:0:0:0:
448,64,46842,1,8,0:0:0:0:
192,160,47009,1,0,0:0:0:0:
448,64,47176,1,8,0:0:0:0:
448,64,47509,1,8,0:0:0:0:
192,160,47842,1,0,0:0:0:0:
448,320,48176,1,12,0:0:0:0:
194,165,48342,1,0,0:0:0:0:
192,160,48509,1,0,0:0:0:0:
192,160,48676,1,0,0:0:0:0:
448,64,48842,1,8,0:0:0:0:
192,160,49009,1,0,0:0:0:0:
448,64,49176,1,8,0:0:0:0:
448,64,49342,1,8,0:0:0:0:
192,160,49509,1,0,0:0:0:0:
192,160,49676,1,0,0:0:0:0:
448,64,49842,1,8,0:0:0:0:
448,64,50176,1,8,0:0:0:0:
192,160,50509,1,0,0:0:0:0:
448,64,50842,1,8,0:0:0:0:
192,160,51009,1,0,0:0:0:0:
448,64,51176,1,8,0:0:0:0:
448,64,51509,1,8,0:0:0:0:
192,160,52176,1,0,0:0:0:0:
448,64,52842,1,8,0:0:0:0:
64,320,53509,1,4,0:0:0:0:
448,64,54176,1,8,0:0:0:0:
64,64,54342,1,0,0:0:0:0:
448,320,54509,1,12,0:0:0:0:
203,167,54842,1,0,0:0:0:0:
448,64,55009,1,8,0:0:0:0:
448,64,55092,1,8,0:0:0:0:
448,64,55176,1,8,0:0:0:0:
64,320,55509,1,4,0:0:0:0:
203,167,55842,1,0,0:0:0:0:
64,320,56176,1,4,0:0:0:0:
448,64,56676,1,8,0:0:0:0:
203,167,56842,1,0,0:0:0:0:
448,64,57009,1,8,0:0:0:0:
64,320,57176,1,4,0:0:0:0:
203,162,57509,1,0,0:0:0:0:
203,162,57592,1,0,0:0:0:0:
203,162,57676,1,0,0:0:0:0:
448,64,57842,1,8,0:0:0:0:
448,64,58009,1,8,0:0:0:0:
64,320,58176,1,4,0:0:0:0:
448,64,58509,1,8,0:0:0:0:
203,162,58676,1,0,0:0:0:0:
64,320,58842,1,4,0:0:0:0:
448,64,59176,1,8,0:0:0:0:
448,64,59509,1,8,0:0:0:0:
448,64,59676,1,8,0:0:0:0:
64,320,59842,1,4,0:0:0:0:
192,160,60176,1,0,0:0:0:0:
448,64,60342,1,8,0:0:0:0:
448,64,60426,1,8,0:0:0:0:
448,64,60509,1,8,0:0:0:0:
448,320,60842,1,12,0:0:0:0:
192,160,61176,1,0,0:0:0:0:
448,64,61342,1,8,0:0:0:0:
64,320,61509,1,4,0:0:0:0:
192,160,62009,1,0,0:0:0:0:
448,64,62176,1,8,0:0:0:0:
64,320,62509,1,4,0:0:0:0:
448,64,62842,1,8,0:0:0:0:
448,64,63009,1,8,0:0:0:0:
192,160,63176,1,0,0:0:0:0:
448,320,63509,1,12,0:0:0:0:
192,160,63842,1,0,0:0:0:0:
448,64,64009,1,8,0:0:0:0:
64,320,64176,1,4,0:0:0:0:
448,64,64842,1,8,0:0:0:0:
192,160,65009,1,0,0:0:0:0:
448,320,65176,1,12,0:0:0:0:
192,160,65509,1,0,0:0:0:0:
448,64,65676,1,8,0:0:0:0:
448,64,65759,1,8,0:0:0:0:
448,64,65842,1,8,0:0:0:0:
64,320,66176,1,4,0:0:0:0:
192,160,66509,1,0,0:0:0:0:
64,320,66842,1,4,0:0:0:0:
448,64,67342,1,8,0:0:0:0:
192,160,67509,1,0,0:0:0:0:
448,64,67676,1,8,0:0:0:0:
64,320,67842,1,4,0:0:0:0:
192,160,68176,1,0,0:0:0:0:
192,160,68259,1,0,0:0:0:0:
192,160,68342,1,0,0:0:0:0:
448,64,68509,1,8,0:0:0:0:
448,64,68676,1,8,0:0:0:0:
64,320,68842,1,4,0:0:0:0:
448,64,69176,1,8,0:0:0:0:
192,160,69342,1,0,0:0:0:0:
64,320,69509,1,4,0:0:0:0:
448,64,69842,1,8,0:0:0:0:
448,64,70176,1,8,0:0:0:0:
448,64,70342,1,8,0:0:0:0:
64,320,70509,1,4,0:0:0:0:
192,160,70842,1,0,0:0:0:0:
448,64,71009,1,8,0:0:0:0:
448,64,71092,1,8,0:0:0:0:
448,64,71176,1,8,0:0:0:0:
448,320,71509,1,12,0:0:0:0:
192,160,71842,1,0,0:0:0:0:
448,64,72009,1,8,0:0:0:0:
64,320,72176,1,4,0:0:0:0:
192,160,72676,1,0,0:0:0:0:
448,64,72842,1,8,0:0:0:0:
64,320,73176,1,4,0:0:0:0:
448,64,73509,1,8,0:0:0:0:
448,64,73676,1,8,0:0:0:0:
192,160,73842,1,0,0:0:0:0:
448,320,74176,1,12,0:0:0:0:
192,160,74509,1,0,0:0:0:0:
448,64,74676,1,8,0:0:0:0:
64,320,74842,1,4,0:0:0:0:
448,64,75176,1,8,0:0:0:0:
448,64,75342,1,8,0:0:0:0:
64,64,75509,1,0,0:0:0:0:
448,64,75676,1,8,0:0:0:0:
192,160,75842,1,0,0:0:0:0:
448,64,76176,1,8,0:0:0:0:
192,160,76342,1,0,0:0:0:0:
192,160,76426,1,0,0:0:0:0:
192,160,76509,1,0,0:0:0:0:
192,160,76676,1,0,0:0:0:0:
448,64,76842,1,8,0:0:0:0:
448,320,77509,1,12,0:0:0:0:
448,64,77842,1,8,0:0:0:0:
448,64,78009,1,8,0:0:0:0:
192,160,78176,1,0,0:0:0:0:
448,64,78342,1,8,0:0:0:0:
192,160,78509,1,0,0:0:0:0:
64,64,78842,1,0,0:0:0:0:
192,160,78926,1,0,0:0:0:0:
192,160,79009,1,0,0:0:0:0:
448,64,79176,1,8,0:0:0:0:
64,64,79342,1,0,0:0:0:0:
448,64,79509,1,8,0:0:0:0:
448,320,80176,1,4,0:0:0:0:
448,64,80342,1,8,0:0:0:0:
448,64,80509,1,8,0:0:0:0:
192,160,80676,1,0,0:0:0:0:
448,64,80842,1,8,0:0:0:0:
448,64,81176,1,8,0:0:0:0:
448,64,81509,1,0,0:0:0:0:
448,64,81676,1,8,0:0:0:0:
448,64,81759,1,8,0:0:0:0:
448,64,81842,1,8,0:0:0:0:
192,160,82176,1,0,0:0:0:0:
448,64,82509,1,8,0:0:0:0:
448,64,82676,1,8,0:0:0:0:
64,320,82842,1,4,0:0:0:0:
448,64,83176,1,8,0:0:0:0:
192,160,83342,1,0,0:0:0:0:
448,64,83509,1,8,0:0:0:0:
192,160,83676,1,0,0:0:0:0:
192,160,83842,1,0,0:0:0:0:
448,64,84176,1,8,0:0:0:0:
448,64,84342,1,8,0:0:0:0:
192,160,84509,1,0,0:0:0:0:
448,64,84842,1,8,0:0:0:0:
192,160,85176,1,0,0:0:0:0:
64,320,85509,1,0,0:0:0:0:
448,64,86842,1,8,0:0:0:0:
192,160,88176,1,0,0:0:0:0:
448,64,89509,1,8,0:0:0:0:
192,160,90842,1,0,0:0:0:0:
448,64,91509,1,8,0:0:0:0:
448,64,92176,1,8,0:0:0:0:
192,160,92842,1,0,0:0:0:0:
448,64,93509,1,8,0:0:0:0:
192,160,93842,1,0,0:0:0:0:
448,64,94176,1,8,0:0:0:0:
448,64,94509,1,8,0:0:0:0:
192,160,94842,1,0,0:0:0:0:
448,64,95509,1,8,0:0:0:0:
64,320,96176,1,4,0:0:0:0:
448,64,96509,1,8,0:0:0:0:
64,64,96676,1,0,0:0:0:0:
448,64,96842,1,8,0:0:0:0:
64,64,97009,1,0,0:0:0:0:
448,320,97176,1,12,0:0:0:0:
192,160,97509,1,0,0:0:0:0:
448,64,97676,1,8,0:0:0:0:
448,64,97759,1,8,0:0:0:0:
448,64,97842,1,8,0:0:0:0:
64,320,98176,1,4,0:0:0:0:
192,160,98509,1,0,0:0:0:0:
448,320,98842,1,12,0:0:0:0:
64,64,99342,1,0,0:0:0:0:
448,64,99509,1,8,0:0:0:0:
64,64,99676,1,0,0:0:0:0:
448,320,99842,1,12,0:0:0:0:
192,160,100176,1,0,0:0:0:0:
192,160,100259,1,0,0:0:0:0:
192,160,100342,1,0,0:0:0:0:
448,64,100509,1,8,0:0:0:0:
448,320,100842,1,12,0:0:0:0:
448,64,101176,1,8,0:0:0:0:
448,64,101342,1,8,0:0:0:0:
64,320,101509,1,4,0:0:0:0:
64,64,101842,1,0,0:0:0:0:
448,64,102176,1,8,0:0:0:0:
64,64,102342,1,0,0:0:0:0:
64,320,102509,1,4,0:0:0:0:
192,160,102842,1,0,0:0:0:0:
448,64,103009,1,8,0:0:0:0:
448,64,103092,1,8,0:0:0:0:
448,64,103176,1,8,0:0:0:0:
64,320,103509,1,4,0:0:0:0:
448,320,103842,1,8,0:0:0:0:
448,320,104176,1,12,0:0:0:0:
64,64,104509,1,0,0:0:0:0:
448,64,104842,1,8,0:0:0:0:
448,320,105176,1,12,0:0:0:0:
192,160,106842,1,4,0:0:0:0:
448,64,107176,1,8,0:0:0:0:
64,64,107342,1,0,0:0:0:0:
448,64,107509,1,8,0:0:0:0:
64,64,107676,1,0,0:0:0:0:
448,320,107842,1,12,0:0:0:0:
192,160,108176,1,0,0:0:0:0:
448,64,108342,1,8,0:0:0:0:
448,64,108426,1,8,0:0:0:0:
448,64,108509,1,8,0:0:0:0:
64,320,108842,1,4,0:0:0:0:
192,160,109176,1,0,0:0:0:0:
448,320,109509,1,12,0:0:0:0:
64,64,110009,1,0,0:0:0:0:
448,64,110176,1,8,0:0:0:0:
64,64,110342,1,0,0:0:0:0:
448,320,110509,1,12,0:0:0:0:
192,160,110842,1,0,0:0:0:0:
192,160,110926,1,0,0:0:0:0:
192,160,111009,1,0,0:0:0:0:
448,64,111176,1,8,0:0:0:0:
448,320,111509,1,12,0:0:0:0:
448,64,111842,1,8,0:0:0:0:
448,64,112009,1,8,0:0:0:0:
64,320,112176,1,4,0:0:0:0:
64,64,112509,1,0,0:0:0:0:
448,64,112842,1,8,0:0:0:0:
64,64,113009,1,0,0:0:0:0:
64,320,113176,1,4,0:0:0:0:
192,160,113509,1,0,0:0:0:0:
448,64,113676,1,8,0:0:0:0:
448,64,113759,1,8,0:0:0:0:
448,64,113842,1,8,0:0:0:0:
64,320,114176,1,4,0:0:0:0:
448,320,114509,1,8,0:0:0:0:
448,320,114842,1,12,0:0:0:0:
64,64,115176,1,0,0:0:0:0:
64,64,115342,1,0,0:0:0:0:
448,64,115509,1,8,0:0:0:0:
448,320,115842,1,12,0:0:0:0:
448,64,116176,1,8,0:0:0:0:
448,64,116342,1,8,0:0:0:0:
192,160,116509,1,0,0:0:0:0:
448,64,116842,1,8,0:0:0:0:
192,160,117176,1,0,0:0:0:0:
256,192,117509,12,0,120176,0:0:0:0:
448,64,120509,5,8,0:0:0:0:
192,160,120842,1,0,0:0:0:0:
448,64,121176,1,8,0:0:0:0:
448,64,121842,1,8,0:0:0:0:
448,64,122176,1,8,0:0:0:0:
192,160,122509,1,0,0:0:0:0:
256,192,122842,12,0,125509,0:0:0:0:
