osu file format v14

[General]
AudioFilename: audio.mp3
AudioLeadIn: 0
PreviewTime: 53509
Countdown: 0
SampleSet: Normal
StackLeniency: 0.7
Mode: 1
LetterboxInBreaks: 0
WidescreenStoryboard: 1

[Editor]
Bookmarks: 176,21509,32175,42842,53509,64175,74842,85509,96175,106842,117509
DistanceSpacing: 2.6
BeatDivisor: 4
GridSize: 32
TimelineZoom: 1.000007

[Metadata]
Title:do u care, if i stare?
TitleUnicode:do u care, if i stare?
Artist:SEBii
ArtistUnicode:SEBii
Creator:Tsukani
Version:anime's kantan
Source:
Tags:english pop hyperpop electronic hip hop hip-hop rap vvblue lou blackwinterwells featured artist fa you anime cryceptio
BeatmapID:3990321
BeatmapSetID:1920437

[Difficulty]
HPDrainRate:8
CircleSize:5
OverallDifficulty:3
ApproachRate:5
SliderMultiplier:1.4
SliderTickRate:1

[Events]
//Background and Video events
0,0,"bg.jpg",0,0
//Break Periods
//Storyboard Layer 0 (Background)
//Storyboard Layer 1 (Fail)
//Storyboard Layer 2 (Pass)
//Storyboard Layer 3 (Foreground)
//Storyboard Layer 4 (Overlay)
//Storyboard Sound Samples

[TimingPoints]
-5157,333.333333333333,4,1,0,50,1,8
-5157,-20,4,1,0,50,0,0
176,-100,4,1,0,50,0,0
11461,-100,4,1,0,60,0,0
20461,-100,4,1,0,50,0,0
21461,-100,4,1,0,70,0,0
53460,-100,4,1,0,90,0,0
53509,-100,4,1,0,90,0,1
63509,-100,4,1,0,90,0,0
64176,-100,4,1,0,90,0,1
74793,-100,4,1,0,70,0,1
74842,-100,4,1,0,70,0,0
85460,-100,4,1,0,50,0,0
96127,-100,4,1,0,90,0,0
96176,-100,4,1,0,90,0,1
105176,-100,4,1,0,90,0,0
105507,-100,4,1,0,70,0,0
106793,-100,4,1,0,90,0,0
106842,-100,4,1,0,90,0,1
115842,-100,4,1,0,90,0,0
116757,-100,4,1,0,60,0,0
117424,-100,4,1,0,35,0,0
120421,-100,4,1,0,50,0,0
122755,-100,4,1,0,35,0,0

[HitObjects]
256,192,3176,5,2,0:0:0:0:
256,192,3842,1,0,0:0:0:0:
256,192,4509,1,2,0:0:0:0:
256,192,4842,1,2,0:0:0:0:
256,192,5176,1,0,0:0:0:0:
256,192,8176,1,2,0:0:0:0:
256,192,8842,1,2,0:0:0:0:
256,192,9509,1,2,0:0:0:0:
256,192,10509,1,0,0:0:0:0:
256,192,10842,1,6,0:0:0:0:
256,192,12176,1,2,0:0:0:0:
256,192,13509,1,2,0:0:0:0:
256,192,14176,1,0,0:0:0:0:
256,192,14842,1,2,0:0:0:0:
256,192,16176,1,0,0:0:0:0:
256,192,16842,1,2,0:0:0:0:
256,192,17176,1,2,0:0:0:0:
256,192,17509,1,2,0:0:0:0:
256,192,18842,1,2,0:0:0:0:
256,192,19509,1,0,0:0:0:0:
256,192,21509,1,6,0:0:0:0:
256,192,22176,1,2,0:0:0:0:
256,192,22842,1,0,0:0:0:0:
256,192,23176,1,0,0:0:0:0:
256,192,23509,1,2,0:0:0:0:
256,192,24509,1,0,0:0:0:0:
256,192,24842,1,0,0:0:0:0:
256,192,25176,1,2,0:0:0:0:
256,192,25842,1,2,0:0:0:0:
256,192,26176,1,2,0:0:0:0:
256,192,26509,1,0,0:0:0:0:
256,192,26842,1,6,0:0:0:0:
256,192,27842,1,2,0:0:0:0:
256,192,28509,1,2,0:0:0:0:
256,192,28842,1,2,0:0:0:0:
256,192,29176,1,0,0:0:0:0:
256,192,29842,1,2,0:0:0:0:
256,192,30176,1,0,0:0:0:0:
256,192,30509,1,2,0:0:0:0:
256,192,31176,1,0,0:0:0:0:
256,192,31509,1,2,0:0:0:0:
256,192,32176,1,6,0:0:0:0:
256,192,32842,1,2,0:0:0:0:
256,192,33176,1,0,0:0:0:0:
256,192,33842,1,2,0:0:0:0:
256,192,34176,1,2,0:0:0:0:
256,192,35176,1,2,0:0:0:0:
256,192,35842,1,0,0:0:0:0:
256,192,36509,1,2,0:0:0:0:
256,192,36842,1,2,0:0:0:0:
256,192,37176,1,0,0:0:0:0:
256,192,37509,1,6,0:0:0:0:
256,192,38176,1,2,0:0:0:0:
256,192,38509,1,0,0:0:0:0:
256,192,39176,1,0,0:0:0:0:
256,192,39509,1,2,0:0:0:0:
256,192,40509,1,0,0:0:0:0:
256,192,41176,1,2,0:0:0:0:
256,192,41842,1,2,0:0:0:0:
256,192,42509,1,0,0:0:0:0:
256,192,42842,1,6,0:0:0:0:
256,192,43509,1,0,0:0:0:0:
256,192,43842,1,2,0:0:0:0:
256,192,44176,1,0,0:0:0:0:
256,192,44509,1,0,0:0:0:0:
256,192,45509,1,2,0:0:0:0:
256,192,46176,1,0,0:0:0:0:
256,192,46509,1,2,0:0:0:0:
256,192,46842,1,0,0:0:0:0:
256,192,47509,1,2,0:0:0:0:
256,192,48176,1,6,0:0:0:0:
256,192,48842,1,2,0:0:0:0:
256,192,49176,1,2,0:0:0:0:
256,192,49509,1,0,0:0:0:0:
256,192,49842,1,0,0:0:0:0:
256,192,50842,1,2,0:0:0:0:
256,192,51509,1,0,0:0:0:0:
256,192,52176,1,2,0:0:0:0:
256,192,53509,1,4,0:0:0:0:
256,192,54176,1,2,0:0:0:0:
256,192,54509,1,2,0:0:0:0:
256,192,55176,1,0,0:0:0:0:
256,192,55509,1,2,0:0:0:0:
256,192,55842,1,2,0:0:0:0:
256,192,56176,1,0,0:0:0:0:
256,192,56842,1,2,0:0:0:0:
256,192,57176,1,0,0:0:0:0:
256,192,58176,1,2,0:0:0:0:
256,192,58509,1,0,0:0:0:0:
256,192,59176,1,0,0:0:0:0:
256,192,59509,1,2,0:0:0:0:
256,192,59842,1,2,0:0:0:0:
256,192,60509,1,2,0:0:0:0:
256,192,60842,1,2,0:0:0:0:
256,192,61176,1,0,0:0:0:0:
256,192,61842,1,0,0:0:0:0:
256,192,62176,1,2,0:0:0:0:
256,192,62509,1,0,0:0:0:0:
256,192,63509,1,2,0:0:0:0:
256,192,64176,1,4,0:0:0:0:
256,192,64842,1,2,0:0:0:0:
256,192,65176,1,2,0:0:0:0:
256,192,65842,1,0,0:0:0:0:
256,192,66176,1,2,0:0:0:0:
256,192,66509,1,2,0:0:0:0:
256,192,66842,1,0,0:0:0:0:
256,192,67509,1,2,0:0:0:0:
256,192,67842,1,0,0:0:0:0:
256,192,68842,1,2,0:0:0:0:
256,192,69176,1,0,0:0:0:0:
256,192,69842,1,0,0:0:0:0:
256,192,70176,1,2,0:0:0:0:
256,192,70509,1,2,0:0:0:0:
256,192,71176,1,2,0:0:0:0:
256,192,71509,1,2,0:0:0:0:
256,192,71842,1,0,0:0:0:0:
256,192,72509,1,0,0:0:0:0:
256,192,72842,1,2,0:0:0:0:
256,192,73176,1,0,0:0:0:0:
256,192,74176,1,2,0:0:0:0:
256,192,74842,1,4,0:0:0:0:
256,192,75509,1,2,0:0:0:0:
256,192,76176,1,2,0:0:0:0:
256,192,76509,1,2,0:0:0:0:
256,192,77509,1,6,0:0:0:0:
256,192,78176,1,2,0:0:0:0:
256,192,78509,1,0,0:0:0:0:
256,192,78842,1,2,0:0:0:0:
256,192,79176,1,0,0:0:0:0:
256,192,80176,1,6,0:0:0:0:
256,192,81176,1,2,0:0:0:0:
256,192,81509,1,2,0:0:0:0:
256,192,82176,1,2,0:0:0:0:
256,192,82509,1,2,0:0:0:0:
256,192,82842,1,4,0:0:0:0:
256,192,83509,1,2,0:0:0:0:
256,192,83842,1,0,0:0:0:0:
256,192,84842,1,0,0:0:0:0:
256,192,85509,1,0,0:0:0:0:
256,192,86842,1,2,0:0:0:0:
256,192,88176,1,0,0:0:0:0:
256,192,89509,1,2,0:0:0:0:
256,192,90842,1,0,0:0:0:0:
256,192,91509,1,2,0:0:0:0:
256,192,92176,1,0,0:0:0:0:
256,192,92842,1,0,0:0:0:0:
256,192,93509,1,2,0:0:0:0:
256,192,93842,1,0,0:0:0:0:
256,192,94176,1,2,0:0:0:0:
256,192,94842,1,0,0:0:0:0:
256,192,96176,1,4,0:0:0:0:
256,192,96842,1,0,0:0:0:0:
256,192,97176,1,6,0:0:0:0:
256,192,97842,1,0,0:0:0:0:
256,192,98176,1,2,0:0:0:0:
256,192,98842,1,6,0:0:0:0:
256,192,99509,1,0,0:0:0:0:
256,192,99842,1,6,0:0:0:0:
256,192,100842,1,0,0:0:0:0:
256,192,101176,1,2,0:0:0:0:
256,192,101509,1,4,0:0:0:0:
256,192,102176,1,2,0:0:0:0:
256,192,102509,1,4,0:0:0:0:
256,192,103176,1,0,0:0:0:0:
256,192,103509,1,2,0:0:0:0:
256,192,104176,1,6,0:0:0:0:
256,192,104842,1,0,0:0:0:0:
256,192,105176,1,6,0:0:0:0:
256,192,106842,1,4,0:0:0:0:
256,192,107509,1,0,0:0:0:0:
256,192,107842,1,6,0:0:0:0:
256,192,108509,1,0,0:0:0:0:
256,192,108842,1,2,0:0:0:0:
256,192,109509,1,6,0:0:0:0:
256,192,110176,1,0,0:0:0:0:
256,192,110509,1,6,0:0:0:0:
256,192,111509,1,0,0:0:0:0:
256,192,111842,1,2,0:0:0:0:
256,192,112176,1,4,0:0:0:0:
256,192,112842,1,2,0:0:0:0:
256,192,113176,1,4,0:0:0:0:
256,192,113842,1,0,0:0:0:0:
256,192,114176,1,2,0:0:0:0:
256,192,114842,1,6,0:0:0:0:
256,192,115509,1,0,0:0:0:0:
256,192,115842,1,6,0:0:0:0:
256,192,116842,1,2,0:0:0:0:
256,192,117509,12,2,119842,0:0:0:0:
256,192,120509,5,2,0:0:0:0:
256,192,121176,1,0,0:0:0:0:
256,192,121842,1,2,0:0:0:0:
256,192,122176,1,2,0:0:0:0:
256,192,122509,1,0,0:0:0:0:
256,192,122842,12,2,124842,0:0:0:0:
256,192,125509,5,0,0:0:0:0:
