osu file format v14

[General]
AudioFilename: audio.mp3
AudioLeadIn: 0
PreviewTime: 53509
Countdown: 0
SampleSet: Normal
StackLeniency: 0.7
Mode: 1
LetterboxInBreaks: 0
WidescreenStoryboard: 0

[Editor]
Bookmarks: 176,21509,32175,42842,53509,64175,74842,85509,96175,106842,117509
DistanceSpacing: 2.6
BeatDivisor: 4
GridSize: 32
TimelineZoom: 2.900006

[Metadata]
Title:do u care, if i stare?
TitleUnicode:do u care, if i stare?
Artist:SEBii
ArtistUnicode:SEBii
Creator:Tsukani
Version:._.
Source:
Tags:english pop hyperpop electronic hip hop hip-hop rap vvblue lou blackwinterwells featured artist fa you anime cryceptio
BeatmapID:3963615
BeatmapSetID:1920437

[Difficulty]
HPDrainRate:6
CircleSize:5
OverallDifficulty:6
ApproachRate:5
SliderMultiplier:1.4
SliderTickRate:1

[Events]
//Background and Video events
0,0,"bg.jpg",0,0
//Break Periods
//Storyboard Layer 0 (Background)
//Storyboard Layer 1 (Fail)
//Storyboard Layer 2 (Pass)
//Storyboard Layer 3 (Foreground)
//Storyboard Layer 4 (Overlay)
//Storyboard Sound Samples

[TimingPoints]
-5157,333.333333333333,4,1,0,50,1,8
-5157,-20,4,1,0,50,0,0
176,-200,4,1,0,50,0,0
3173,-179.27039,4,1,0,50,0,0
3507,-177.09898,4,1,0,50,0,0
3840,-174.96027,4,1,0,50,0,0
4173,-172.413793103448,4,1,0,50,0,0
4507,-170.75378,4,1,0,50,0,0
4840,-168.69168,4,1,0,50,0,0
5173,-166.6545,4,1,0,50,0,0
5509,-200,4,1,0,50,0,0
8173,-200,4,1,0,50,0,0
8507,-186.58333,4,1,0,50,0,0
8840,-174.10287,4,1,0,50,0,0
9173,-162.45724,4,1,0,50,0,0
9507,-151.55905,4,1,0,50,0,0
9673,-146.4177,4,1,0,50,0,0
9840,-141.42136,4,1,0,50,0,0
10007,-136.59552,4,1,0,50,0,0
10173,-131.96176,4,1,0,50,0,0
10257,-129.67722,4,1,0,50,0,0
10340,-127.45872,4,1,0,50,0,0
10507,-123.10933,4,1,0,50,0,0
10673,-118.93308,4,1,0,50,0,0
10840,-100,4,1,0,50,0,0
11007,-103.092783505155,4,1,0,50,0,0
11090,-105.263157894737,4,1,0,50,0,0
11173,-106.382978723404,4,1,0,50,0,0
11340,-111.111111111111,4,1,0,50,0,0
11461,-120.481927710843,4,1,0,60,0,0
12175,-125,4,1,0,60,0,0
19673,-125,4,1,0,60,0,0
20175,-150.27834,4,1,0,60,0,0
20461,-400,4,1,0,50,0,0
21461,-90.9090909090909,4,1,0,70,0,0
21842,-125,4,1,0,70,0,0
24175,-105.263157894737,4,1,0,70,0,0
24342,-117.647058823529,4,1,0,70,0,0
26842,-100,4,1,0,70,0,0
27009,-111.111111111111,4,1,0,70,0,0
29509,-95.2380952380952,4,1,0,70,0,0
29675,-105.263157894737,4,1,0,70,0,0
32175,-80,4,1,0,70,0,0
32340,-99.997604,4,1,0,70,0,0
32423,-99.79882,4,1,0,70,0,0
32507,-99.59848,4,1,0,70,0,0
32673,-99.20488,4,1,0,70,0,0
32840,-98.812035,4,1,0,70,0,0
32923,-98.61796,4,1,0,70,0,0
33090,-98.22974,4,1,0,70,0,0
33173,-98.037926,4,1,0,70,0,0
33340,-97.65426,4,1,0,70,0,0
33507,-97.27357,4,1,0,70,0,0
33590,-97.08548,4,1,0,70,0,0
33673,-96.89811,4,1,0,70,0,0
33757,-96.70922,4,1,0,70,0,0
33840,-96.523285,4,1,0,70,0,0
34007,-96.15136,4,1,0,70,0,0
34173,-95.7845,4,1,0,70,0,0
34257,-95.59991,4,1,0,70,0,0
34423,-95.23722,4,1,0,70,0,0
34507,-95.05475,4,1,0,70,0,0
34673,-94.69618,4,1,0,70,0,0
34757,-94.515755,4,1,0,70,0,0
34840,-82.6446280991736,4,1,0,70,0,0
35007,-93.98286,4,1,0,70,0,0
35173,-93.63232,4,1,0,70,0,0
35340,-93.282295,4,1,0,70,0,0
35507,-92.93488,4,1,0,70,0,0
35590,-92.763176,4,1,0,70,0,0
35673,-92.5921,4,1,0,70,0,0
35757,-92.41961,4,1,0,70,0,0
35840,-92.249794,4,1,0,70,0,0
36007,-91.91,4,1,0,70,0,0
36090,-91.74207,4,1,0,70,0,0
36173,-91.57474,4,1,0,70,0,0
36340,-91.23991,4,1,0,70,0,0
36423,-91.07439,4,1,0,70,0,0
36507,-90.9075,4,1,0,70,0,0
36590,-90.7432,4,1,0,70,0,0
36673,-90.57949,4,1,0,70,0,0
36840,-90.25188,4,1,0,70,0,0
36923,-90.089935,4,1,0,70,0,0
37007,-89.92663,4,1,0,70,0,0
37090,-89.765854,4,1,0,70,0,0
37173,-89.605644,4,1,0,70,0,0
37507,-78.7401574803149,4,1,0,70,0,0
37673,-88.65251,4,1,0,70,0,0
37840,-88.33867,4,1,0,70,0,0
37923,-88.18351,4,1,0,70,0,0
38007,-88.02704,4,1,0,70,0,0
38090,-87.87297,4,1,0,70,0,0
38173,-87.719444,4,1,0,70,0,0
38340,-87.41216,4,1,0,70,0,0
38507,-87.107025,4,1,0,70,0,0
38590,-86.956154,4,1,0,70,0,0
38673,-86.80582,4,1,0,70,0,0
38757,-86.65419,4,1,0,70,0,0
38840,-86.5049,4,1,0,70,0,0
38923,-86.356094,4,1,0,70,0,0
39007,-86.20604,4,1,0,70,0,0
39173,-85.91102,4,1,0,70,0,0
39340,-85.61626,4,1,0,70,0,0
39423,-85.470505,4,1,0,70,0,0
39507,-85.32351,4,1,0,70,0,0
39673,-85.03448,4,1,0,70,0,0
39840,-84.74569,4,1,0,70,0,0
39923,-84.6029,4,1,0,70,0,0
40007,-84.458855,4,1,0,70,0,0
40090,-84.31702,4,1,0,70,0,0
40173,-74.6268656716418,4,1,0,70,0,0
40340,-83.892654,4,1,0,70,0,0
40507,-83.61156,4,1,0,70,0,0
40590,-83.47255,4,1,0,70,0,0
40673,-83.334,4,1,0,70,0,0
40840,-83.056625,4,1,0,70,0,0
41007,-82.78109,4,1,0,70,0,0
41173,-82.50901,4,1,0,70,0,0
41257,-82.37201,4,1,0,70,0,0
41340,-82.23708,4,1,0,70,0,0
41423,-82.10261,4,1,0,70,0,0
41507,-81.96696,4,1,0,70,0,0
41673,-81.70019,4,1,0,70,0,0
41840,-81.43357,4,1,0,70,0,0
41923,-81.301704,4,1,0,70,0,0
42007,-81.168686,4,1,0,70,0,0
42173,-80.907074,4,1,0,70,0,0
42257,-80.775345,4,1,0,70,0,0
42340,-80.64559,4,1,0,70,0,0
42423,-80.516266,4,1,0,70,0,0
42507,-80.3858,4,1,0,70,0,0
42842,-66.6666666666667,4,1,0,70,0,0
43007,-80,4,1,0,70,0,0
43173,-80.889244,4,1,0,70,0,0
43257,-81.3468,4,1,0,70,0,0
43340,-81.80402,4,1,0,70,0,0
43507,-82.73973,4,1,0,70,0,0
43673,-83.69129,4,1,0,70,0,0
43840,-84.67092,4,1,0,70,0,0
43923,-85.16639,4,1,0,70,0,0
44007,-85.67376,4,1,0,70,0,0
44090,-86.18106,4,1,0,70,0,0
44173,-86.69441,4,1,0,70,0,0
44340,-87.746056,4,1,0,70,0,0
44507,-88.82353,4,1,0,70,0,0
44590,-89.36894,4,1,0,70,0,0
44673,-89.9211,4,1,0,70,0,0
44840,-91.052986,4,1,0,70,0,0
45007,-92.213745,4,1,0,70,0,0
45173,-93.397255,4,1,0,70,0,0
45257,-94.00778,4,1,0,70,0,0
45340,-94.61894,4,1,0,70,0,0
45423,-95.2381,4,1,0,70,0,0
45507,-86.95652,4,1,0,70,0,0
45673,-87.9394,4,1,0,70,0,0
45840,-88.950874,4,1,0,70,0,0
45923,-89.46229,4,1,0,70,0,0
46007,-89.98589,4,1,0,70,0,0
46173,-91.03886,4,1,0,70,0,0
46257,-91.58113,4,1,0,70,0,0
46340,-92.12334,4,1,0,70,0,0
46507,-93.23395,4,1,0,70,0,0
46590,-93.79595,4,1,0,70,0,0
46673,-94.36478,4,1,0,70,0,0
46757,-94.947525,4,1,0,70,0,0
46840,-95.53045,4,1,0,70,0,0
47007,-96.72528,4,1,0,70,0,0
47173,-97.94294,4,1,0,70,0,0
47257,-98.57086,4,1,0,70,0,0
47340,-99.199265,4,1,0,70,0,0
47507,-100.48824,4,1,0,70,0,0
47590,-101.14141,4,1,0,70,0,0
47673,-101.80314,4,1,0,70,0,0
47757,-102.481705,4,1,0,70,0,0
47840,-103.16113,4,1,0,70,0,0
48007,-104.55585,4,1,0,70,0,0
48090,-105.26316,4,1,0,70,0,0
48173,-80,4,1,0,70,0,0
48340,-103.85017,4,1,0,70,0,0
48507,-102.474625,4,1,0,70,0,0
48590,-101.80443,4,1,0,70,0,0
48673,-101.14295,4,1,0,70,0,0
48757,-100.482185,4,1,0,70,0,0
48840,-99.83772,4,1,0,70,0,0
49007,-98.56575,4,1,0,70,0,0
49173,-97.33314,4,1,0,70,0,0
49257,-96.72106,4,1,0,70,0,0
49340,-96.1238,4,1,0,70,0,0
49507,-94.94415,4,1,0,70,0,0
49590,-94.36856,4,1,0,70,0,0
49673,-93.79991,4,1,0,70,0,0
49757,-93.231346,4,1,0,70,0,0
49840,-92.67628,4,1,0,70,0,0
50007,-91.57924,4,1,0,70,0,0
50173,-90.51423,4,1,0,70,0,0
50257,-89.98467,4,1,0,70,0,0
50340,-89.46749,4,1,0,70,0,0
50507,-88.44469,4,1,0,70,0,0
50590,-87.94501,4,1,0,70,0,0
50673,-87.45093,4,1,0,70,0,0
50757,-86.95652,4,1,0,70,0,0
50840,-95.25623,4,1,0,70,0,0
51007,-96.79605,4,1,0,70,0,0
51173,-98.376785,4,1,0,70,0,0
51340,-100.020004,4,1,0,70,0,0
51507,-101.71905,4,1,0,70,0,0
51590,-102.585144,4,1,0,70,0,0
51673,-103.46612,4,1,0,70,0,0
51757,-104.37324,4,1,0,70,0,0
51840,-105.285324,4,1,0,70,0,0
51923,-106.213486,4,1,0,70,0,0
52007,-107.16965,4,1,0,70,0,0
52090,-108.131485,4,1,0,70,0,0
52173,-109.11074,4,1,0,70,0,0
52340,-111.13581,4,1,0,70,0,0
52507,-113.23746,4,1,0,70,0,0
52590,-114.31184,4,1,0,70,0,0
52673,-115.40681,4,1,0,70,0,0
52840,-100,4,1,0,70,0,0
53174,-86.9565217391304,4,1,0,70,0,0
53460,-66.6666666666667,4,1,0,90,0,0
53509,-66.6666666666667,4,1,0,90,0,1
53588,-101.89957,4,1,0,90,0,1
53671,-103.73655,4,1,0,90,0,1
53754,-105.60665,4,1,0,90,0,1
53838,-107.53363,4,1,0,90,0,1
53921,-109.47219,4,1,0,90,0,1
54004,-111.4457,4,1,0,90,0,1
54088,-113.4792,4,1,0,90,0,1
54171,-115.52495,4,1,0,90,0,1
54254,-117.60757,4,1,0,90,0,1
54338,-119.75351,4,1,0,90,0,1
54421,-121.91237,4,1,0,90,0,1
54504,-80,4,1,0,90,0,1
54588,-101.89957,4,1,0,90,0,1
54671,-103.73655,4,1,0,90,0,1
54754,-105.60665,4,1,0,90,0,1
54838,-107.53363,4,1,0,90,0,1
54921,-109.47219,4,1,0,90,0,1
55004,-111.4457,4,1,0,90,0,1
55088,-113.4792,4,1,0,90,0,1
55171,-115.52495,4,1,0,90,0,1
55254,-117.60757,4,1,0,90,0,1
55338,-119.75351,4,1,0,90,0,1
55421,-121.91237,4,1,0,90,0,1
55504,-80,4,1,0,90,0,1
55588,-101.89957,4,1,0,90,0,1
55671,-103.73655,4,1,0,90,0,1
55754,-105.60665,4,1,0,90,0,1
55838,-107.53363,4,1,0,90,0,1
55921,-109.47219,4,1,0,90,0,1
56004,-111.4457,4,1,0,90,0,1
56088,-113.4792,4,1,0,90,0,1
56171,-80,4,1,0,90,0,1
56255,-101.89957,4,1,0,90,0,1
56338,-103.73655,4,1,0,90,0,1
56421,-105.60665,4,1,0,90,0,1
56504,-107.53363,4,1,0,90,0,1
56588,-109.47219,4,1,0,90,0,1
56671,-111.4457,4,1,0,90,0,1
56755,-113.4792,4,1,0,90,0,1
56838,-115.52495,4,1,0,90,0,1
56921,-117.60757,4,1,0,90,0,1
57004,-119.75351,4,1,0,90,0,1
57088,-121.91237,4,1,0,90,0,1
57171,-80,4,1,0,90,0,1
57255,-101.89957,4,1,0,90,0,1
57338,-103.73655,4,1,0,90,0,1
57421,-105.60665,4,1,0,90,0,1
57504,-107.53363,4,1,0,90,0,1
57588,-109.47219,4,1,0,90,0,1
57671,-111.4457,4,1,0,90,0,1
57754,-113.4792,4,1,0,90,0,1
57838,-115.52495,4,1,0,90,0,1
57921,-117.60757,4,1,0,90,0,1
58004,-119.75351,4,1,0,90,0,1
58088,-121.91237,4,1,0,90,0,1
58171,-80,4,1,0,90,0,1
58255,-101.89957,4,1,0,90,0,1
58338,-103.73655,4,1,0,90,0,1
58421,-105.60665,4,1,0,90,0,1
58504,-107.53363,4,1,0,90,0,1
58588,-109.47219,4,1,0,90,0,1
58671,-111.4457,4,1,0,90,0,1
58755,-113.4792,4,1,0,90,0,1
58838,-80,4,1,0,90,0,1
58922,-101.89957,4,1,0,90,0,1
59004,-103.73655,4,1,0,90,0,1
59088,-105.60665,4,1,0,90,0,1
59171,-107.53363,4,1,0,90,0,1
59255,-109.47219,4,1,0,90,0,1
59338,-111.4457,4,1,0,90,0,1
59422,-113.4792,4,1,0,90,0,1
59504,-115.52495,4,1,0,90,0,1
59588,-117.60757,4,1,0,90,0,1
59671,-119.75351,4,1,0,90,0,1
59755,-121.91237,4,1,0,90,0,1
59838,-80,4,1,0,90,0,1
59922,-101.89957,4,1,0,90,0,1
60005,-103.73655,4,1,0,90,0,1
60088,-105.60665,4,1,0,90,0,1
60171,-107.53363,4,1,0,90,0,1
60255,-109.47219,4,1,0,90,0,1
60338,-111.4457,4,1,0,90,0,1
60421,-113.4792,4,1,0,90,0,1
60504,-115.52495,4,1,0,90,0,1
60588,-117.60757,4,1,0,90,0,1
60671,-119.75351,4,1,0,90,0,1
60755,-121.91237,4,1,0,90,0,1
60838,-80,4,1,0,90,0,1
60922,-101.89957,4,1,0,90,0,1
61004,-103.73655,4,1,0,90,0,1
61088,-105.60665,4,1,0,90,0,1
61171,-107.53363,4,1,0,90,0,1
61254,-109.47219,4,1,0,90,0,1
61338,-111.4457,4,1,0,90,0,1
61422,-113.4792,4,1,0,90,0,1
61504,-80,4,1,0,90,0,1
61588,-101.89957,4,1,0,90,0,1
61671,-103.73655,4,1,0,90,0,1
61754,-105.60665,4,1,0,90,0,1
61838,-107.53363,4,1,0,90,0,1
61921,-109.47219,4,1,0,90,0,1
62004,-111.4457,4,1,0,90,0,1
62088,-113.4792,4,1,0,90,0,1
62171,-115.52495,4,1,0,90,0,1
62254,-117.60757,4,1,0,90,0,1
62338,-119.75351,4,1,0,90,0,1
62421,-121.91237,4,1,0,90,0,1
62504,-80,4,1,0,90,0,1
62588,-101.89957,4,1,0,90,0,1
62671,-103.73655,4,1,0,90,0,1
62754,-105.60665,4,1,0,90,0,1
62838,-136.997254057716,4,1,0,90,0,1
63004,-143.41071505321,4,1,0,90,0,1
63171,-150.237252066162,4,1,0,90,0,1
63509,-80,4,1,0,90,0,0
63673,-90.9090909090909,4,1,0,90,0,0
63841,-88.004425,4,1,0,90,0,0
63920,-85.26189,4,1,0,90,0,0
64003,-82.6048,4,1,0,90,0,0
64176,-74.0740740740741,4,1,0,90,0,1
64255,-113.43909,4,1,0,90,0,1
64338,-115.759346,4,1,0,90,0,1
64421,-118.127075,4,1,0,90,0,1
64505,-120.57263,4,1,0,90,0,1
64588,-123.03879,4,1,0,90,0,1
64671,-125.5554,4,1,0,90,0,1
64755,-128.15474,4,1,0,90,0,1
64838,-130.776,4,1,0,90,0,1
64921,-133.45085,4,1,0,90,0,1
65005,-136.21367,4,1,0,90,0,1
65088,-138.99976,4,1,0,90,0,1
65171,-74.0740740740741,4,1,0,90,0,1
65255,-113.43909,4,1,0,90,0,1
65338,-115.759346,4,1,0,90,0,1
65421,-118.127075,4,1,0,90,0,1
65504,-120.57263,4,1,0,90,0,1
65588,-123.03879,4,1,0,90,0,1
65671,-125.5554,4,1,0,90,0,1
65754,-128.15474,4,1,0,90,0,1
65838,-130.776,4,1,0,90,0,1
65921,-133.45085,4,1,0,90,0,1
66005,-136.21367,4,1,0,90,0,1
66088,-138.99976,4,1,0,90,0,1
66171,-74.0740740740741,4,1,0,90,0,1
66255,-113.43909,4,1,0,90,0,1
66338,-115.759346,4,1,0,90,0,1
66421,-118.127075,4,1,0,90,0,1
66505,-120.57263,4,1,0,90,0,1
66588,-123.03879,4,1,0,90,0,1
66671,-125.5554,4,1,0,90,0,1
66755,-128.15474,4,1,0,90,0,1
66838,-74.0740740740741,4,1,0,90,0,1
66922,-113.43909,4,1,0,90,0,1
67005,-115.759346,4,1,0,90,0,1
67088,-118.127075,4,1,0,90,0,1
67171,-120.57263,4,1,0,90,0,1
67255,-123.03879,4,1,0,90,0,1
67338,-125.5554,4,1,0,90,0,1
67422,-128.15474,4,1,0,90,0,1
67505,-130.776,4,1,0,90,0,1
67588,-133.45085,4,1,0,90,0,1
67671,-136.21367,4,1,0,90,0,1
67755,-138.99976,4,1,0,90,0,1
67838,-74.0740740740741,4,1,0,90,0,1
67922,-113.43909,4,1,0,90,0,1
68005,-115.759346,4,1,0,90,0,1
68088,-118.127075,4,1,0,90,0,1
68171,-120.57263,4,1,0,90,0,1
68255,-123.03879,4,1,0,90,0,1
68338,-125.5554,4,1,0,90,0,1
68421,-128.15474,4,1,0,90,0,1
68504,-130.776,4,1,0,90,0,1
68588,-133.45085,4,1,0,90,0,1
68671,-136.21367,4,1,0,90,0,1
68755,-138.99976,4,1,0,90,0,1
68838,-74.0740740740741,4,1,0,90,0,1
68922,-113.43909,4,1,0,90,0,1
69005,-115.759346,4,1,0,90,0,1
69088,-118.127075,4,1,0,90,0,1
69171,-120.57263,4,1,0,90,0,1
69255,-123.03879,4,1,0,90,0,1
69338,-125.5554,4,1,0,90,0,1
69422,-128.15474,4,1,0,90,0,1
69504,-74.0740740740741,4,1,0,90,0,1
69588,-113.43909,4,1,0,90,0,1
69671,-115.759346,4,1,0,90,0,1
69754,-118.127075,4,1,0,90,0,1
69838,-120.57263,4,1,0,90,0,1
69921,-123.03879,4,1,0,90,0,1
70004,-125.5554,4,1,0,90,0,1
70088,-128.15474,4,1,0,90,0,1
70171,-130.776,4,1,0,90,0,1
70254,-133.45085,4,1,0,90,0,1
70338,-136.21367,4,1,0,90,0,1
70421,-138.99976,4,1,0,90,0,1
70504,-74.0740740740741,4,1,0,90,0,1
70588,-113.43909,4,1,0,90,0,1
70671,-115.759346,4,1,0,90,0,1
70754,-118.127075,4,1,0,90,0,1
70838,-120.57263,4,1,0,90,0,1
70921,-123.03879,4,1,0,90,0,1
71004,-125.5554,4,1,0,90,0,1
71088,-128.15474,4,1,0,90,0,1
71171,-130.776,4,1,0,90,0,1
71254,-133.45085,4,1,0,90,0,1
71338,-136.21367,4,1,0,90,0,1
71421,-138.99976,4,1,0,90,0,1
71504,-74.0740740740741,4,1,0,90,0,1
71588,-113.43909,4,1,0,90,0,1
71671,-115.759346,4,1,0,90,0,1
71754,-118.127075,4,1,0,90,0,1
71838,-120.57263,4,1,0,90,0,1
71921,-123.03879,4,1,0,90,0,1
72004,-125.5554,4,1,0,90,0,1
72088,-128.15474,4,1,0,90,0,1
72171,-74.0740740740741,4,1,0,90,0,1
72255,-113.43909,4,1,0,90,0,1
72338,-115.759346,4,1,0,90,0,1
72421,-118.127075,4,1,0,90,0,1
72505,-120.57263,4,1,0,90,0,1
72588,-123.03879,4,1,0,90,0,1
72671,-125.5554,4,1,0,90,0,1
72755,-128.15474,4,1,0,90,0,1
72838,-130.776,4,1,0,90,0,1
72921,-133.45085,4,1,0,90,0,1
73005,-136.21367,4,1,0,90,0,1
73088,-138.99976,4,1,0,90,0,1
73171,-74.0740740740741,4,1,0,90,0,1
73255,-113.43909,4,1,0,90,0,1
73338,-115.759346,4,1,0,90,0,1
73421,-118.127075,4,1,0,90,0,1
73504,-137.103567745452,4,1,0,90,0,1
73671,-143.583024013185,4,1,0,90,0,1
73838,-150.451437143935,4,1,0,90,0,1
74176,-74.0740740740741,4,1,0,90,0,1
74340,-100,4,1,0,90,0,1
74507,-96.1538461538461,4,1,0,90,0,1
74587,-93.4579439252336,4,1,0,90,0,1
74670,-90.0900900900901,4,1,0,90,0,1
74793,-71.4285714285714,4,1,0,70,0,1
74842,-71.4285714285714,4,1,0,70,0,0
75172,-102.91854,4,1,0,70,0,0
75255,-103.65915,4,1,0,70,0,0
75339,-104.414116,4,1,0,70,0,0
75505,-105.922264,4,1,0,70,0,0
75672,-107.46149,4,1,0,70,0,0
75839,-109.02306,4,1,0,70,0,0
76005,-110.59779,4,1,0,70,0,0
76089,-111.40328,4,1,0,70,0,0
76172,-112.20495,4,1,0,70,0,0
76255,-113.01238,4,1,0,70,0,0
76339,-113.835464,4,1,0,70,0,0
76505,-115.4797,4,1,0,70,0,0
76671,-117.647058823529,4,1,0,70,0,0
76755,-117.647058823529,4,1,0,70,0,0
76839,-118.86028,4,1,0,70,0,0
77172,-122.32928,4,1,0,70,0,0
77505,-76.9230769230769,4,1,0,70,0,0
77672,-112.93123,4,1,0,70,0,0
77839,-114.78117,4,1,0,70,0,0
77922,-115.71184,4,1,0,70,0,0
78005,-116.65006,4,1,0,70,0,0
78172,-118.56091,4,1,0,70,0,0
78339,-120.50306,4,1,0,70,0,0
78505,-122.465126,4,1,0,70,0,0
78672,-124.47123,4,1,0,70,0,0
78755,-125.480484,4,1,0,70,0,0
78839,-126.51021,4,1,0,70,0,0
78922,-127.53597,4,1,0,70,0,0
79005,-128.57008,4,1,0,70,0,0
79172,-130.6762,4,1,0,70,0,0
79339,-132.8168,4,1,0,70,0,0
79422,-133.89372,4,1,0,70,0,0
79505,-134.97935,4,1,0,70,0,0
79839,-139.4378,4,1,0,70,0,0
80172,-83.3333333333333,4,1,0,70,0,0
80339,-127.37322,4,1,0,70,0,0
80422,-128.55524,4,1,0,70,0,0
80505,-129.7482,4,1,0,70,0,0
80588,-131.578947368421,4,1,0,70,0,0
80672,-132.18214,4,1,0,70,0,0
80839,-134.66176,4,1,0,70,0,0
81005,-137.1726,4,1,0,70,0,0
81172,-139.74583,4,1,0,70,0,0
81255,-141.04265,4,1,0,70,0,0
81339,-142.36734,4,1,0,70,0,0
81505,-145.02187,4,1,0,70,0,0
81672,-147.74234,4,1,0,70,0,0
81755,-149.11336,4,1,0,70,0,0
81838,-151.91058,4,1,0,70,0,0
82005,-153.32028,4,1,0,70,0,0
82088,-156.25,4,1,0,70,0,0
82172,-156.19641,4,1,0,70,0,0
82338,-158.730158730159,4,1,0,70,0,0
82505,-162.09354,4,1,0,70,0,0
82672,-165.13426,4,1,0,70,0,0
82839,-90.9090909090909,4,1,0,70,0,0
83172,-129.72304,4,1,0,70,0,0
83339,-132.15842,4,1,0,70,0,0
83505,-134.62453,4,1,0,70,0,0
83672,-137.15193,4,1,0,70,0,0
83755,-138.42567,4,1,0,70,0,0
83839,-139.72678,4,1,0,70,0,0
84005,-142.33412,4,1,0,70,0,0
84172,-145.00626,4,1,0,70,0,0
84339,-147.72856,4,1,0,70,0,0
84505,-150.4852,4,1,0,70,0,0
84839,-156.18857,4,1,0,70,0,0
85172,-162.09004,4,1,0,70,0,0
85460,-166.666666666667,4,1,0,50,0,0
86841,-200,4,1,0,50,0,0
88176,-166.666666666667,4,1,0,50,0,0
88177,-200,4,1,0,50,0,0
90842,-153.846153846154,4,1,0,50,0,0
90843,-181.818181818182,4,1,0,50,0,0
91505,-171.79243,4,1,0,50,0,0
92172,-163.29933,4,1,0,50,0,0
92839,-155.22609,4,1,0,50,0,0
93509,-128.205128205128,4,1,0,50,0,0
93510,-147.5632,4,1,0,50,0,0
93839,-143.86388,4,1,0,50,0,0
94172,-140.26793,4,1,0,50,0,0
94505,-136.76189,4,1,0,50,0,0
94672,-135.03674,4,1,0,50,0,0
94839,-133.33334,4,1,0,50,0,0
95507,-160,4,1,0,50,0,0
96127,-76.9230769230769,4,1,0,90,0,0
96176,-76.9230769230769,4,1,0,90,0,1
96255,-92.05384,4,1,0,90,0,1
96339,-93.227066,4,1,0,90,0,1
96422,-94.401,4,1,0,90,0,1
96505,-95.58974,4,1,0,90,0,1
96589,-96.808014,4,1,0,90,0,1
96672,-98.027054,4,1,0,90,0,1
96755,-99.26144,4,1,0,90,0,1
96839,-100.52651,4,1,0,90,0,1
96922,-101.792366,4,1,0,90,0,1
97005,-103.07417,4,1,0,90,0,1
97089,-104.38785,4,1,0,90,0,1
97174,-76.9230769230769,4,1,0,90,0,1
97255,-92.05384,4,1,0,90,0,1
97339,-93.227066,4,1,0,90,0,1
97422,-94.401,4,1,0,90,0,1
97505,-95.58974,4,1,0,90,0,1
97589,-96.808014,4,1,0,90,0,1
97672,-98.027054,4,1,0,90,0,1
97755,-99.26144,4,1,0,90,0,1
97839,-100.52651,4,1,0,90,0,1
97922,-101.792366,4,1,0,90,0,1
98005,-103.07417,4,1,0,90,0,1
98089,-104.38785,4,1,0,90,0,1
98174,-76.9230769230769,4,1,0,90,0,1
98341,-90.9090909090909,4,1,0,90,0,1
98424,-86.9565217391304,4,1,0,90,0,1
98507,-68.9655172413793,4,1,0,90,0,1
98674,-76.9230769230769,4,1,0,90,0,1
98841,-62.5,4,1,0,90,0,1
98924,-72.13415,4,1,0,90,0,1
99007,-72.82985,4,1,0,90,0,1
99091,-73.54076,4,1,0,90,0,1
99174,-74.250015,4,1,0,90,0,1
99257,-74.966125,4,1,0,90,0,1
99341,-75.69788,4,1,0,90,0,1
99424,-76.42795,4,1,0,90,0,1
99507,-77.16506,4,1,0,90,0,1
99591,-77.91829,4,1,0,90,0,1
99674,-78.66977,4,1,0,90,0,1
99757,-79.4285,4,1,0,90,0,1
99841,-62.5,4,1,0,90,0,1
99924,-72.13415,4,1,0,90,0,1
100007,-72.82985,4,1,0,90,0,1
100091,-73.54076,4,1,0,90,0,1
100174,-74.250015,4,1,0,90,0,1
100257,-74.966125,4,1,0,90,0,1
100341,-75.69788,4,1,0,90,0,1
100424,-76.42795,4,1,0,90,0,1
100507,-77.16506,4,1,0,90,0,1
100591,-77.91829,4,1,0,90,0,1
100674,-78.66977,4,1,0,90,0,1
100757,-79.4285,4,1,0,90,0,1
100839,-69.04252,4,1,0,90,0,1
101007,-76.9230769230769,4,1,0,90,0,1
101172,-83.13819,4,1,0,90,0,1
101339,-91.25647,4,1,0,90,0,1
101505,-76.9230769230769,4,1,0,90,0,1
101588,-92.05384,4,1,0,90,0,1
101672,-93.227066,4,1,0,90,0,1
101755,-94.401,4,1,0,90,0,1
101838,-95.58974,4,1,0,90,0,1
101922,-96.808014,4,1,0,90,0,1
102005,-98.027054,4,1,0,90,0,1
102088,-99.26144,4,1,0,90,0,1
102172,-100.52651,4,1,0,90,0,1
102255,-101.792366,4,1,0,90,0,1
102338,-103.07417,4,1,0,90,0,1
102422,-104.38785,4,1,0,90,0,1
102507,-76.9230769230769,4,1,0,90,0,1
102588,-92.05384,4,1,0,90,0,1
102672,-93.227066,4,1,0,90,0,1
102755,-94.401,4,1,0,90,0,1
102838,-95.58974,4,1,0,90,0,1
102922,-96.808014,4,1,0,90,0,1
103005,-98.027054,4,1,0,90,0,1
103088,-99.26144,4,1,0,90,0,1
103172,-100.52651,4,1,0,90,0,1
103255,-101.792366,4,1,0,90,0,1
103338,-103.07417,4,1,0,90,0,1
103422,-104.38785,4,1,0,90,0,1
103507,-76.9230769230769,4,1,0,90,0,1
103673,-72.7272727272727,4,1,0,90,0,1
103840,-68.9655172413793,4,1,0,90,0,1
104007,-76.9230769230769,4,1,0,90,0,1
104091,-74.0740740740741,4,1,0,90,0,1
104174,-62.5,4,1,0,90,0,1
104257,-72.13415,4,1,0,90,0,1
104340,-72.82985,4,1,0,90,0,1
104424,-73.54076,4,1,0,90,0,1
104507,-74.250015,4,1,0,90,0,1
104590,-74.966125,4,1,0,90,0,1
104674,-75.69788,4,1,0,90,0,1
104757,-76.42795,4,1,0,90,0,1
104840,-77.16506,4,1,0,90,0,1
104924,-77.91829,4,1,0,90,0,1
105007,-78.66977,4,1,0,90,0,1
105090,-79.4285,4,1,0,90,0,1
105176,-62.5,4,1,0,90,0,0
105507,-100,4,1,0,70,0,0
106793,-71.4285714285714,4,1,0,90,0,0
106842,-71.4285714285714,4,1,0,90,0,1
106922,-84.294232233092,4,1,0,90,0,1
107006,-85.2769464820402,4,1,0,90,0,1
107089,-86.2581448664613,4,1,0,90,0,1
107172,-87.2495757399116,4,1,0,90,0,1
107256,-88.2634086953345,4,1,0,90,0,1
107339,-89.275627265191,4,1,0,90,0,1
107422,-90.2983006481155,4,1,0,90,0,1
107506,-91.344014966073,4,1,0,90,0,1
107589,-92.3879753946306,4,1,0,90,0,1
107672,-93.4426467442351,4,1,0,90,0,1
107756,-94.5210054601745,4,1,0,90,0,1
107841,-71.4285714285714,4,1,0,90,0,1
107922,-84.294232233092,4,1,0,90,0,1
108006,-85.2769464820402,4,1,0,90,0,1
108089,-86.2581448664613,4,1,0,90,0,1
108172,-87.2495757399116,4,1,0,90,0,1
108256,-88.2634086953345,4,1,0,90,0,1
108339,-89.275627265191,4,1,0,90,0,1
108422,-90.2983006481155,4,1,0,90,0,1
108506,-91.344014966073,4,1,0,90,0,1
108589,-92.3879753946306,4,1,0,90,0,1
108672,-93.4426467442351,4,1,0,90,0,1
108756,-94.5210054601745,4,1,0,90,0,1
108841,-71.4285714285714,4,1,0,90,0,1
109007,-83.3333333333333,4,1,0,90,0,1
109091,-80,4,1,0,90,0,1
109174,-64.5161290322581,4,1,0,90,0,1
109341,-71.4285714285714,4,1,0,90,0,1
109507,-55.5555555555556,4,1,0,90,0,1
109591,-63.0395423870434,4,1,0,90,0,1
109674,-63.5702294494602,4,1,0,90,0,1
109758,-64.1111888891732,4,1,0,90,0,1
109841,-64.649554253821,4,1,0,90,0,1
109924,-65.1917754285089,4,1,0,90,0,1
110007,-65.7444491544765,4,1,0,90,0,1
110091,-66.2944518911688,4,1,0,90,0,1
110174,-66.8483466410804,4,1,0,90,0,1
110257,-67.4128949959345,4,1,0,90,0,1
110341,-67.9746671404658,4,1,0,90,0,1
110424,-68.5403807372264,4,1,0,90,0,1
110507,-55.5555555555556,4,1,0,90,0,1
110591,-63.0395423870434,4,1,0,90,0,1
110674,-63.5702294494602,4,1,0,90,0,1
110758,-64.1111888891732,4,1,0,90,0,1
110841,-64.649554253821,4,1,0,90,0,1
110924,-65.1917754285089,4,1,0,90,0,1
111007,-65.7444491544765,4,1,0,90,0,1
111091,-66.2944518911688,4,1,0,90,0,1
111174,-66.8483466410804,4,1,0,90,0,1
111258,-67.4128949959345,4,1,0,90,0,1
111341,-67.9746671404658,4,1,0,90,0,1
111424,-68.5403807372264,4,1,0,90,0,1
111507,-60.6060606060606,4,1,0,90,0,1
111673,-71.4285714285714,4,1,0,90,0,1
111841,-76.9230769230769,4,1,0,90,0,1
112007,-83.3333333333333,4,1,0,90,0,1
112172,-71.4285714285714,4,1,0,90,0,1
112255,-84.294232233092,4,1,0,90,0,1
112339,-85.2769464820402,4,1,0,90,0,1
112422,-86.2581448664613,4,1,0,90,0,1
112505,-87.2495757399116,4,1,0,90,0,1
112589,-88.2634086953345,4,1,0,90,0,1
112672,-89.275627265191,4,1,0,90,0,1
112755,-90.2983006481155,4,1,0,90,0,1
112839,-91.344014966073,4,1,0,90,0,1
112922,-92.3879753946306,4,1,0,90,0,1
113005,-93.4426467442351,4,1,0,90,0,1
113089,-94.5210054601745,4,1,0,90,0,1
113174,-71.4285714285714,4,1,0,90,0,1
113255,-84.294232233092,4,1,0,90,0,1
113339,-85.2769464820402,4,1,0,90,0,1
113422,-86.2581448664613,4,1,0,90,0,1
113505,-87.2495757399116,4,1,0,90,0,1
113589,-88.2634086953345,4,1,0,90,0,1
113672,-89.275627265191,4,1,0,90,0,1
113755,-90.2983006481155,4,1,0,90,0,1
113839,-91.344014966073,4,1,0,90,0,1
113922,-92.3879753946306,4,1,0,90,0,1
114005,-93.4426467442351,4,1,0,90,0,1
114089,-94.5210054601745,4,1,0,90,0,1
114174,-71.4285714285714,4,1,0,90,0,1
114507,-64.5161290322581,4,1,0,90,0,1
114674,-71.4285714285714,4,1,0,90,0,1
114757,-68.9655172413793,4,1,0,90,0,1
114841,-55.5555555555556,4,1,0,90,0,1
114924,-63.0395423870434,4,1,0,90,0,1
115007,-63.5702294494602,4,1,0,90,0,1
115091,-64.1111888891732,4,1,0,90,0,1
115174,-64.649554253821,4,1,0,90,0,1
115257,-65.1917754285089,4,1,0,90,0,1
115341,-65.7444491544765,4,1,0,90,0,1
115424,-66.2944518911688,4,1,0,90,0,1
115507,-66.8483466410804,4,1,0,90,0,1
115591,-67.4128949959345,4,1,0,90,0,1
115674,-67.9746671404658,4,1,0,90,0,1
115757,-68.5403807372264,4,1,0,90,0,1
115842,-55.5555555555556,4,1,0,90,0,0
116091,-90.96136,4,1,0,80,0,0
116257,-95.43339,4,1,0,75,0,0
116424,-100.09651,4,1,0,70,0,0
116757,-110.18076,4,1,0,60,0,0
117091,-121.24609,4,1,0,50,0,0
117424,-133.333333333333,4,1,0,35,0,0
117510,-117.647058823529,4,1,0,35,0,0
118842,-142.857142857143,4,1,0,35,0,0
120175,-153.846153846154,4,1,0,35,0,0
120421,-166.666666666667,4,1,0,50,0,0
120838,-171.80888,4,1,0,50,0,0
121171,-177.10976,4,1,0,50,0,0
121507,-182.62416,4,1,0,50,0,0
121838,-188.22438,4,1,0,50,0,0
122171,-194.03174,4,1,0,50,0,0
122505,-200.03651,4,1,0,50,0,0
122755,-208.333333333333,4,1,0,35,0,0
122843,-172.413793103448,4,1,0,35,0,0
124175,-232.558139534884,4,1,0,35,0,0
125509,-66.6666666666667,4,1,0,35,0,0

[HitObjects]
256,192,3176,5,2,0:0:0:0:
256,192,3509,1,0,0:0:0:0:
256,192,3842,1,2,0:0:0:0:
256,192,4509,1,2,0:0:0:0:
256,192,4842,1,2,0:0:0:0:
256,192,5176,1,0,0:0:0:0:
256,192,8176,1,2,0:0:0:0:
256,192,8509,1,2,0:0:0:0:
256,192,8842,1,2,0:0:0:0:
256,192,9176,1,2,0:0:0:0:
256,192,9509,1,2,0:0:0:0:
256,192,9676,1,2,0:0:0:0:
256,192,9842,1,2,0:0:0:0:
256,192,10009,1,2,0:0:0:0:
256,192,10176,1,0,0:0:0:0:
256,192,10259,1,0,0:0:0:0:
256,192,10342,1,2,0:0:0:0:
256,192,10509,1,2,0:0:0:0:
256,192,10676,1,0,0:0:0:0:
256,192,10842,1,6,0:0:0:0:
256,192,11009,1,0,0:0:0:0:
256,192,11092,1,0,0:0:0:0:
256,192,11176,1,2,0:0:0:0:
256,192,11342,1,0,0:0:0:0:
256,192,11509,1,2,0:0:0:0:
256,192,12176,1,2,0:0:0:0:
256,192,12842,1,2,0:0:0:0:
256,192,13176,1,0,0:0:0:0:
256,192,13509,1,2,0:0:0:0:
256,192,14176,1,0,0:0:0:0:
256,192,14842,1,2,0:0:0:0:
256,192,15509,1,0,0:0:0:0:
256,192,15842,1,2,0:0:0:0:
256,192,16176,1,2,0:0:0:0:
256,192,16509,1,0,0:0:0:0:
256,192,16676,1,0,0:0:0:0:
256,192,16842,1,2,0:0:0:0:
256,192,17176,1,2,0:0:0:0:
256,192,17509,1,2,0:0:0:0:
256,192,17842,1,2,0:0:0:0:
256,192,17926,1,0,0:0:0:0:
256,192,18176,1,2,0:0:0:0:
256,192,18509,1,0,0:0:0:0:
256,192,18676,1,0,0:0:0:0:
256,192,18842,1,2,0:0:0:0:
256,192,19176,1,2,0:0:0:0:
256,192,19509,1,2,0:0:0:0:
256,192,19676,1,0,0:0:0:0:
256,192,20509,12,0,21342,0:0:0:0:
256,192,21509,5,6,0:0:0:0:
256,192,21842,1,0,0:0:0:0:
256,192,22176,1,2,0:0:0:0:
256,192,22342,1,0,0:0:0:0:
256,192,22509,1,2,0:0:0:0:
256,192,22592,1,2,0:0:0:0:
256,192,22676,1,0,0:0:0:0:
256,192,22842,1,2,0:0:0:0:
256,192,22926,1,0,0:0:0:0:
256,192,23009,1,2,0:0:0:0:
256,192,23092,1,2,0:0:0:0:
256,192,23176,1,0,0:0:0:0:
256,192,23342,1,2,0:0:0:0:
256,192,23509,1,2,0:0:0:0:
256,192,23592,1,2,0:0:0:0:
256,192,23676,1,0,0:0:0:0:
256,192,23759,1,0,0:0:0:0:
256,192,23842,1,2,0:0:0:0:
256,192,23926,1,0,0:0:0:0:
256,192,24009,1,2,0:0:0:0:
256,192,24176,1,6,0:0:0:0:
256,192,24342,1,0,0:0:0:0:
256,192,24509,1,2,0:0:0:0:
256,192,24592,1,2,0:0:0:0:
256,192,24676,1,0,0:0:0:0:
256,192,24842,1,2,0:0:0:0:
256,192,24926,1,0,0:0:0:0:
256,192,25009,1,2,0:0:0:0:
256,192,25092,1,2,0:0:0:0:
256,192,25176,1,0,0:0:0:0:
256,192,25259,1,2,0:0:0:0:
256,192,25342,1,2,0:0:0:0:
256,192,25426,1,2,0:0:0:0:
256,192,25509,1,0,0:0:0:0:
256,192,25676,1,2,0:0:0:0:
256,192,25842,1,2,0:0:0:0:
256,192,25926,1,2,0:0:0:0:
256,192,26009,1,0,0:0:0:0:
256,192,26176,1,2,0:0:0:0:
256,192,26342,1,0,0:0:0:0:
256,192,26509,1,2,0:0:0:0:
256,192,26592,1,2,0:0:0:0:
256,192,26676,1,0,0:0:0:0:
256,192,26759,1,0,0:0:0:0:
256,192,26842,1,6,0:0:0:0:
256,192,27009,1,2,0:0:0:0:
256,192,27176,1,2,0:0:0:0:
256,192,27259,1,0,0:0:0:0:
256,192,27342,1,2,0:0:0:0:
256,192,27426,1,0,0:0:0:0:
256,192,27509,1,2,0:0:0:0:
256,192,27676,1,0,0:0:0:0:
256,192,27842,1,2,0:0:0:0:
256,192,27926,1,2,0:0:0:0:
256,192,28009,1,2,0:0:0:0:
256,192,28176,1,2,0:0:0:0:
256,192,28259,1,2,0:0:0:0:
256,192,28342,1,0,0:0:0:0:
256,192,28426,1,0,0:0:0:0:
256,192,28509,1,2,0:0:0:0:
256,192,28592,1,0,0:0:0:0:
256,192,28676,1,2,0:0:0:0:
256,192,28842,1,0,0:0:0:0:
256,192,29009,1,2,0:0:0:0:
256,192,29092,1,2,0:0:0:0:
256,192,29176,1,0,0:0:0:0:
256,192,29342,1,0,0:0:0:0:
256,192,29426,1,0,0:0:0:0:
256,192,29509,1,6,0:0:0:0:
256,192,29676,1,0,0:0:0:0:
256,192,29842,1,2,0:0:0:0:
256,192,29926,1,0,0:0:0:0:
256,192,30009,1,2,0:0:0:0:
256,192,30176,1,0,0:0:0:0:
256,192,30342,1,2,0:0:0:0:
256,192,30509,1,0,0:0:0:0:
256,192,30592,1,2,0:0:0:0:
256,192,30676,1,2,0:0:0:0:
256,192,30759,1,0,0:0:0:0:
256,192,30842,1,0,0:0:0:0:
256,192,31009,1,2,0:0:0:0:
256,192,31176,1,0,0:0:0:0:
256,192,31259,1,2,0:0:0:0:
256,192,31426,1,2,0:0:0:0:
256,192,31509,1,0,0:0:0:0:
256,192,31676,1,0,0:0:0:0:
256,192,31842,1,2,0:0:0:0:
256,192,32176,1,6,0:0:0:0:
256,192,32342,1,0,0:0:0:0:
256,192,32426,1,0,0:0:0:0:
256,192,32509,1,2,0:0:0:0:
256,192,32676,1,0,0:0:0:0:
256,192,32842,1,2,0:0:0:0:
256,192,32926,1,2,0:0:0:0:
256,192,33092,1,0,0:0:0:0:
256,192,33176,1,2,0:0:0:0:
256,192,33342,1,2,0:0:0:0:
256,192,33509,1,2,0:0:0:0:
256,192,33592,1,2,0:0:0:0:
256,192,33676,1,0,0:0:0:0:
256,192,33759,1,0,0:0:0:0:
256,192,33842,1,2,0:0:0:0:
256,192,34009,1,2,0:0:0:0:
256,192,34176,1,2,0:0:0:0:
256,192,34259,1,0,0:0:0:0:
256,192,34426,1,0,0:0:0:0:
256,192,34509,1,2,0:0:0:0:
256,192,34676,1,0,0:0:0:0:
256,192,34759,1,0,0:0:0:0:
256,192,34842,1,6,0:0:0:0:
256,192,35009,1,0,0:0:0:0:
256,192,35176,1,2,0:0:0:0:
256,192,35342,1,0,0:0:0:0:
256,192,35509,1,2,0:0:0:0:
256,192,35592,1,0,0:0:0:0:
256,192,35676,1,2,0:0:0:0:
256,192,35759,1,2,0:0:0:0:
256,192,35842,1,0,0:0:0:0:
256,192,36009,1,0,0:0:0:0:
256,192,36092,1,2,0:0:0:0:
256,192,36176,1,2,0:0:0:0:
256,192,36342,1,2,0:0:0:0:
256,192,36426,1,0,0:0:0:0:
256,192,36509,1,2,0:0:0:0:
256,192,36592,1,2,0:0:0:0:
256,192,36676,1,0,0:0:0:0:
256,192,36842,1,2,0:0:0:0:
256,192,36926,1,2,0:0:0:0:
256,192,37009,1,2,0:0:0:0:
256,192,37092,1,0,0:0:0:0:
256,192,37176,1,2,0:0:0:0:
256,192,37509,1,6,0:0:0:0:
256,192,37676,1,0,0:0:0:0:
256,192,37842,1,2,0:0:0:0:
256,192,37926,1,0,0:0:0:0:
256,192,38009,1,2,0:0:0:0:
256,192,38092,1,0,0:0:0:0:
256,192,38176,1,2,0:0:0:0:
256,192,38342,1,0,0:0:0:0:
256,192,38509,1,2,0:0:0:0:
256,192,38592,1,2,0:0:0:0:
256,192,38676,1,0,0:0:0:0:
256,192,38759,1,0,0:0:0:0:
256,192,38842,1,2,0:0:0:0:
256,192,38926,1,0,0:0:0:0:
256,192,39009,1,2,0:0:0:0:
256,192,39176,1,2,0:0:0:0:
256,192,39342,1,2,0:0:0:0:
256,192,39426,1,0,0:0:0:0:
256,192,39509,1,2,0:0:0:0:
256,192,39676,1,2,0:0:0:0:
256,192,39842,1,2,0:0:0:0:
256,192,39926,1,2,0:0:0:0:
256,192,40009,1,0,0:0:0:0:
256,192,40092,1,0,0:0:0:0:
256,192,40176,1,6,0:0:0:0:
256,192,40342,1,0,0:0:0:0:
256,192,40509,1,2,0:0:0:0:
256,192,40592,1,0,0:0:0:0:
256,192,40676,1,2,0:0:0:0:
256,192,40842,1,2,0:0:0:0:
256,192,41009,1,0,0:0:0:0:
256,192,41176,1,2,0:0:0:0:
256,192,41259,1,0,0:0:0:0:
256,192,41342,1,2,0:0:0:0:
256,192,41426,1,2,0:0:0:0:
256,192,41509,1,0,0:0:0:0:
256,192,41676,1,0,0:0:0:0:
256,192,41842,1,2,0:0:0:0:
256,192,41926,1,2,0:0:0:0:
256,192,42009,1,0,0:0:0:0:
256,192,42176,1,2,0:0:0:0:
256,192,42259,1,2,0:0:0:0:
256,192,42342,1,0,0:0:0:0:
256,192,42426,1,0,0:0:0:0:
256,192,42509,1,2,0:0:0:0:
256,192,42842,1,6,0:0:0:0:
256,192,43009,1,0,0:0:0:0:
256,192,43176,1,2,0:0:0:0:
256,192,43259,1,2,0:0:0:0:
256,192,43342,1,0,0:0:0:0:
256,192,43509,1,2,0:0:0:0:
256,192,43676,1,0,0:0:0:0:
256,192,43842,1,0,0:0:0:0:
256,192,43926,1,2,0:0:0:0:
256,192,44009,1,2,0:0:0:0:
256,192,44092,1,0,0:0:0:0:
256,192,44176,1,2,0:0:0:0:
256,192,44342,1,0,0:0:0:0:
256,192,44509,1,2,0:0:0:0:
256,192,44592,1,0,0:0:0:0:
256,192,44676,1,2,0:0:0:0:
256,192,44842,1,2,0:0:0:0:
256,192,45009,1,0,0:0:0:0:
256,192,45176,1,2,0:0:0:0:
256,192,45259,1,2,0:0:0:0:
256,192,45342,1,0,0:0:0:0:
256,192,45509,1,2,0:0:0:0:
256,192,45676,1,0,0:0:0:0:
256,192,45842,1,0,0:0:0:0:
256,192,45926,1,2,0:0:0:0:
256,192,46009,1,2,0:0:0:0:
256,192,46176,1,2,0:0:0:0:
256,192,46259,1,0,0:0:0:0:
256,192,46342,1,0,0:0:0:0:
256,192,46509,1,2,0:0:0:0:
256,192,46592,1,0,0:0:0:0:
256,192,46676,1,2,0:0:0:0:
256,192,46759,1,0,0:0:0:0:
256,192,46842,1,2,0:0:0:0:
256,192,47009,1,0,0:0:0:0:
256,192,47176,1,2,0:0:0:0:
256,192,47259,1,2,0:0:0:0:
256,192,47342,1,0,0:0:0:0:
256,192,47509,1,2,0:0:0:0:
256,192,47592,1,2,0:0:0:0:
256,192,47676,1,0,0:0:0:0:
256,192,47759,1,0,0:0:0:0:
256,192,47842,1,2,0:0:0:0:
256,192,48009,1,0,0:0:0:0:
256,192,48092,1,0,0:0:0:0:
256,192,48176,1,6,0:0:0:0:
256,192,48342,1,0,0:0:0:0:
256,192,48509,1,2,0:0:0:0:
256,192,48592,1,0,0:0:0:0:
256,192,48676,1,2,0:0:0:0:
256,192,48759,1,0,0:0:0:0:
256,192,48842,1,2,0:0:0:0:
256,192,49009,1,0,0:0:0:0:
256,192,49176,1,2,0:0:0:0:
256,192,49259,1,2,0:0:0:0:
256,192,49342,1,0,0:0:0:0:
256,192,49509,1,2,0:0:0:0:
256,192,49592,1,0,0:0:0:0:
256,192,49676,1,2,0:0:0:0:
256,192,49759,1,2,0:0:0:0:
256,192,49842,1,0,0:0:0:0:
256,192,50009,1,0,0:0:0:0:
256,192,50176,1,2,0:0:0:0:
256,192,50259,1,0,0:0:0:0:
256,192,50342,1,0,0:0:0:0:
256,192,50509,1,2,0:0:0:0:
256,192,50592,1,0,0:0:0:0:
256,192,50676,1,2,0:0:0:0:
256,192,50842,1,2,0:0:0:0:
256,192,51009,1,0,0:0:0:0:
256,192,51176,1,2,0:0:0:0:
256,192,51342,1,0,0:0:0:0:
256,192,51509,1,2,0:0:0:0:
256,192,51592,1,2,0:0:0:0:
256,192,51676,1,0,0:0:0:0:
256,192,51759,1,0,0:0:0:0:
256,192,51842,1,2,0:0:0:0:
256,192,51926,1,0,0:0:0:0:
256,192,52009,1,2,0:0:0:0:
256,192,52092,1,2,0:0:0:0:
256,192,52176,1,0,0:0:0:0:
256,192,52342,1,2,0:0:0:0:
256,192,52509,1,0,0:0:0:0:
256,192,52592,1,0,0:0:0:0:
256,192,52676,1,2,0:0:0:0:
256,192,52842,1,0,0:0:0:0:
256,192,53176,1,2,0:0:0:0:
256,192,53509,1,4,0:0:0:0:
256,192,54176,1,2,0:0:0:0:
256,192,54342,1,0,0:0:0:0:
256,192,54509,1,6,0:0:0:0:
256,192,54676,1,0,0:0:0:0:
256,192,54759,1,0,0:0:0:0:
256,192,54842,1,2,0:0:0:0:
256,192,55009,1,2,0:0:0:0:
256,192,55092,1,0,0:0:0:0:
256,192,55176,1,2,0:0:0:0:
256,192,55509,1,4,0:0:0:0:
256,192,55676,1,2,0:0:0:0:
256,192,55842,1,0,0:0:0:0:
256,192,56009,1,0,0:0:0:0:
256,192,56176,1,4,0:0:0:0:
256,192,56509,1,0,0:0:0:0:
256,192,56676,1,2,0:0:0:0:
256,192,56842,1,0,0:0:0:0:
256,192,57009,1,2,0:0:0:0:
256,192,57176,1,4,0:0:0:0:
256,192,57509,1,2,0:0:0:0:
256,192,57592,1,0,0:0:0:0:
256,192,57676,1,2,0:0:0:0:
256,192,57759,1,2,0:0:0:0:
256,192,57842,1,0,0:0:0:0:
256,192,58009,1,2,0:0:0:0:
256,192,58176,1,4,0:0:0:0:
256,192,58342,1,2,0:0:0:0:
256,192,58509,1,2,0:0:0:0:
256,192,58592,1,2,0:0:0:0:
256,192,58676,1,0,0:0:0:0:
256,192,58842,1,4,0:0:0:0:
256,192,59009,1,2,0:0:0:0:
256,192,59176,1,0,0:0:0:0:
256,192,59509,1,2,0:0:0:0:
256,192,59676,1,2,0:0:0:0:
256,192,59842,1,4,0:0:0:0:
256,192,60176,1,2,0:0:0:0:
256,192,60342,1,2,0:0:0:0:
256,192,60426,1,2,0:0:0:0:
256,192,60509,1,0,0:0:0:0:
256,192,60676,1,0,0:0:0:0:
256,192,60842,1,6,0:0:0:0:
256,192,61009,1,0,0:0:0:0:
256,192,61176,1,0,0:0:0:0:
256,192,61259,1,0,0:0:0:0:
256,192,61342,1,2,0:0:0:0:
256,192,61509,1,4,0:0:0:0:
256,192,61842,1,2,0:0:0:0:
256,192,62009,1,0,0:0:0:0:
256,192,62176,1,2,0:0:0:0:
256,192,62509,1,4,0:0:0:0:
256,192,62842,1,2,0:0:0:0:
256,192,63009,1,2,0:0:0:0:
256,192,63176,1,0,0:0:0:0:
256,192,63509,1,6,0:0:0:0:
256,192,63676,1,0,0:0:0:0:
256,192,63842,1,0,0:0:0:0:
256,192,63926,1,0,0:0:0:0:
256,192,64009,1,2,0:0:0:0:
256,192,64176,1,4,0:0:0:0:
256,192,64509,1,2,0:0:0:0:
256,192,64842,1,2,0:0:0:0:
256,192,65009,1,0,0:0:0:0:
256,192,65176,1,6,0:0:0:0:
256,192,65342,1,0,0:0:0:0:
256,192,65426,1,0,0:0:0:0:
256,192,65509,1,2,0:0:0:0:
256,192,65676,1,2,0:0:0:0:
256,192,65759,1,0,0:0:0:0:
256,192,65842,1,2,0:0:0:0:
256,192,66176,1,4,0:0:0:0:
256,192,66342,1,2,0:0:0:0:
256,192,66509,1,0,0:0:0:0:
256,192,66676,1,0,0:0:0:0:
256,192,66842,1,4,0:0:0:0:
256,192,67176,1,0,0:0:0:0:
256,192,67342,1,2,0:0:0:0:
256,192,67509,1,0,0:0:0:0:
256,192,67676,1,2,0:0:0:0:
256,192,67842,1,4,0:0:0:0:
256,192,68176,1,2,0:0:0:0:
256,192,68259,1,0,0:0:0:0:
256,192,68342,1,2,0:0:0:0:
256,192,68426,1,2,0:0:0:0:
256,192,68509,1,0,0:0:0:0:
256,192,68676,1,2,0:0:0:0:
256,192,68842,1,4,0:0:0:0:
256,192,69009,1,2,0:0:0:0:
256,192,69176,1,2,0:0:0:0:
256,192,69259,1,2,0:0:0:0:
256,192,69342,1,0,0:0:0:0:
256,192,69509,1,4,0:0:0:0:
256,192,69676,1,2,0:0:0:0:
256,192,69842,1,0,0:0:0:0:
256,192,70176,1,2,0:0:0:0:
256,192,70342,1,2,0:0:0:0:
256,192,70509,1,4,0:0:0:0:
256,192,70842,1,2,0:0:0:0:
256,192,71009,1,2,0:0:0:0:
256,192,71092,1,2,0:0:0:0:
256,192,71176,1,0,0:0:0:0:
256,192,71342,1,0,0:0:0:0:
256,192,71509,1,6,0:0:0:0:
256,192,71676,1,0,0:0:0:0:
256,192,71842,1,0,0:0:0:0:
256,192,71926,1,0,0:0:0:0:
256,192,72009,1,2,0:0:0:0:
256,192,72176,1,4,0:0:0:0:
256,192,72509,1,2,0:0:0:0:
256,192,72676,1,0,0:0:0:0:
256,192,72842,1,2,0:0:0:0:
256,192,73176,1,4,0:0:0:0:
256,192,73509,1,2,0:0:0:0:
256,192,73676,1,2,0:0:0:0:
256,192,73842,1,0,0:0:0:0:
256,192,74176,1,6,0:0:0:0:
256,192,74342,1,0,0:0:0:0:
256,192,74509,1,0,0:0:0:0:
256,192,74592,1,0,0:0:0:0:
256,192,74676,1,2,0:0:0:0:
256,192,74842,1,4,0:0:0:0:
256,192,75176,1,2,0:0:0:0:
256,192,75259,1,2,0:0:0:0:
256,192,75342,1,0,0:0:0:0:
256,192,75509,1,2,0:0:0:0:
256,192,75676,1,2,0:0:0:0:
256,192,75842,1,0,0:0:0:0:
256,192,76009,1,0,0:0:0:0:
256,192,76092,1,0,0:0:0:0:
256,192,76176,1,2,0:0:0:0:
256,192,76259,1,2,0:0:0:0:
256,192,76342,1,0,0:0:0:0:
256,192,76509,1,2,0:0:0:0:
256,192,76676,1,2,0:0:0:0:
256,192,76759,1,2,0:0:0:0:
256,192,76842,1,0,0:0:0:0:
256,192,77176,1,0,0:0:0:0:
256,192,77509,1,6,0:0:0:0:
256,192,77676,1,0,0:0:0:0:
256,192,77842,1,0,0:0:0:0:
256,192,77926,1,2,0:0:0:0:
256,192,78009,1,2,0:0:0:0:
256,192,78176,1,0,0:0:0:0:
256,192,78342,1,2,0:0:0:0:
256,192,78509,1,0,0:0:0:0:
256,192,78676,1,0,0:0:0:0:
256,192,78759,1,0,0:0:0:0:
256,192,78842,1,2,0:0:0:0:
256,192,78926,1,0,0:0:0:0:
256,192,79009,1,2,0:0:0:0:
256,192,79176,1,2,0:0:0:0:
256,192,79342,1,0,0:0:0:0:
256,192,79426,1,0,0:0:0:0:
256,192,79509,1,2,0:0:0:0:
256,192,79842,1,0,0:0:0:0:
256,192,80176,1,6,0:0:0:0:
256,192,80342,1,2,0:0:0:0:
256,192,80426,1,2,0:0:0:0:
256,192,80509,1,0,0:0:0:0:
256,192,80592,1,0,0:0:0:0:
256,192,80676,1,2,0:0:0:0:
256,192,80842,1,2,0:0:0:0:
256,192,81009,1,2,0:0:0:0:
256,192,81176,1,2,0:0:0:0:
256,192,81259,1,2,0:0:0:0:
256,192,81342,1,0,0:0:0:0:
256,192,81509,1,2,0:0:0:0:
256,192,81676,1,2,0:0:0:0:
256,192,81759,1,0,0:0:0:0:
256,192,81842,1,2,0:0:0:0:
256,192,82009,1,2,0:0:0:0:
256,192,82092,1,2,0:0:0:0:
256,192,82176,1,0,0:0:0:0:
256,192,82342,1,0,0:0:0:0:
256,192,82509,1,2,0:0:0:0:
256,192,82676,1,2,0:0:0:0:
256,192,82842,1,4,0:0:0:0:
256,192,83176,1,2,0:0:0:0:
256,192,83342,1,0,0:0:0:0:
256,192,83509,1,2,0:0:0:0:
256,192,83676,1,2,0:0:0:0:
256,192,83759,1,2,0:0:0:0:
256,192,83842,1,0,0:0:0:0:
256,192,84009,1,0,0:0:0:0:
256,192,84176,1,2,0:0:0:0:
256,192,84342,1,2,0:0:0:0:
256,192,84509,1,0,0:0:0:0:
256,192,84842,1,2,0:0:0:0:
256,192,85176,1,0,0:0:0:0:
256,192,85509,1,0,0:0:0:0:
256,192,86842,1,2,0:0:0:0:
256,192,88177,1,0,0:0:0:0:
256,192,89509,1,2,0:0:0:0:
256,192,90843,1,0,0:0:0:0:
256,192,91509,1,2,0:0:0:0:
256,192,92176,1,2,0:0:0:0:
256,192,92842,1,0,0:0:0:0:
256,192,93510,1,2,0:0:0:0:
256,192,93842,1,0,0:0:0:0:
256,192,94176,1,2,0:0:0:0:
256,192,94509,1,2,0:0:0:0:
256,192,94676,1,2,0:0:0:0:
256,192,94842,1,0,0:0:0:0:
256,192,95509,1,2,0:0:0:0:
256,192,96176,1,4,0:0:0:0:
256,192,96509,1,2,0:0:0:0:
256,192,96676,1,0,0:0:0:0:
256,192,96842,1,2,0:0:0:0:
256,192,96926,1,2,0:0:0:0:
256,192,97009,1,0,0:0:0:0:
256,192,97176,1,6,0:0:0:0:
256,192,97342,1,0,0:0:0:0:
256,192,97509,1,2,0:0:0:0:
256,192,97676,1,2,0:0:0:0:
256,192,97759,1,2,0:0:0:0:
256,192,97842,1,0,0:0:0:0:
256,192,98176,1,4,0:0:0:0:
256,192,98342,1,0,0:0:0:0:
256,192,98426,1,0,0:0:0:0:
256,192,98509,1,6,0:0:0:0:
256,192,98676,1,0,0:0:0:0:
256,192,98842,1,6,0:0:0:0:
256,192,99176,1,0,0:0:0:0:
256,192,99342,1,2,0:0:0:0:
256,192,99509,1,2,0:0:0:0:
256,192,99592,1,2,0:0:0:0:
256,192,99676,1,0,0:0:0:0:
256,192,99842,1,6,0:0:0:0:
256,192,100176,1,2,0:0:0:0:
256,192,100259,1,0,0:0:0:0:
256,192,100342,1,2,0:0:0:0:
256,192,100426,1,0,0:0:0:0:
256,192,100509,1,2,0:0:0:0:
256,192,100676,1,0,0:0:0:0:
256,192,100842,1,6,0:0:0:0:
256,192,101009,1,0,0:0:0:0:
256,192,101176,1,2,0:0:0:0:
256,192,101342,1,2,0:0:0:0:
256,192,101509,1,4,0:0:0:0:
256,192,101842,1,0,0:0:0:0:
256,192,102176,1,2,0:0:0:0:
256,192,102259,1,0,0:0:0:0:
256,192,102342,1,0,0:0:0:0:
256,192,102509,1,4,0:0:0:0:
256,192,102842,1,2,0:0:0:0:
256,192,103009,1,2,0:0:0:0:
256,192,103092,1,2,0:0:0:0:
256,192,103176,1,0,0:0:0:0:
256,192,103509,1,4,0:0:0:0:
256,192,103676,1,2,0:0:0:0:
256,192,103842,1,6,0:0:0:0:
256,192,104009,1,0,0:0:0:0:
256,192,104092,1,0,0:0:0:0:
256,192,104176,1,6,0:0:0:0:
256,192,104509,1,2,0:0:0:0:
256,192,104676,1,0,0:0:0:0:
256,192,104842,1,2,0:0:0:0:
256,192,104926,1,2,0:0:0:0:
256,192,105009,1,0,0:0:0:0:
256,192,105176,1,6,0:0:0:0:
256,192,106842,1,4,0:0:0:0:
256,192,107176,1,2,0:0:0:0:
256,192,107342,1,0,0:0:0:0:
256,192,107509,1,2,0:0:0:0:
256,192,107592,1,2,0:0:0:0:
256,192,107676,1,0,0:0:0:0:
256,192,107842,1,6,0:0:0:0:
256,192,108009,1,0,0:0:0:0:
256,192,108176,1,2,0:0:0:0:
256,192,108342,1,2,0:0:0:0:
256,192,108426,1,2,0:0:0:0:
256,192,108509,1,0,0:0:0:0:
256,192,108842,1,4,0:0:0:0:
256,192,109009,1,0,0:0:0:0:
256,192,109092,1,0,0:0:0:0:
256,192,109176,1,6,0:0:0:0:
256,192,109342,1,0,0:0:0:0:
256,192,109509,1,6,0:0:0:0:
256,192,109842,1,0,0:0:0:0:
256,192,110009,1,2,0:0:0:0:
256,192,110176,1,2,0:0:0:0:
256,192,110259,1,2,0:0:0:0:
256,192,110342,1,0,0:0:0:0:
256,192,110509,1,6,0:0:0:0:
256,192,110842,1,2,0:0:0:0:
256,192,110926,1,0,0:0:0:0:
256,192,111009,1,2,0:0:0:0:
256,192,111092,1,0,0:0:0:0:
256,192,111176,1,2,0:0:0:0:
256,192,111342,1,0,0:0:0:0:
256,192,111509,1,6,0:0:0:0:
256,192,111676,1,0,0:0:0:0:
256,192,111842,1,2,0:0:0:0:
256,192,112009,1,2,0:0:0:0:
256,192,112176,1,4,0:0:0:0:
256,192,112509,1,0,0:0:0:0:
256,192,112842,1,2,0:0:0:0:
256,192,112926,1,0,0:0:0:0:
256,192,113009,1,0,0:0:0:0:
256,192,113176,1,4,0:0:0:0:
256,192,113509,1,2,0:0:0:0:
256,192,113676,1,2,0:0:0:0:
256,192,113759,1,2,0:0:0:0:
256,192,113842,1,0,0:0:0:0:
256,192,114176,1,4,0:0:0:0:
256,192,114509,1,6,0:0:0:0:
256,192,114676,1,0,0:0:0:0:
256,192,114759,1,0,0:0:0:0:
256,192,114842,1,6,0:0:0:0:
256,192,115176,1,2,0:0:0:0:
256,192,115342,1,0,0:0:0:0:
256,192,115509,1,2,0:0:0:0:
256,192,115592,1,2,0:0:0:0:
256,192,115676,1,0,0:0:0:0:
256,192,115842,1,6,0:0:0:0:
256,192,116176,1,2,0:0:0:0:
256,192,116342,1,2,0:0:0:0:
256,192,116509,1,0,0:0:0:0:
256,192,116842,1,2,0:0:0:0:
256,192,117176,1,0,0:0:0:0:
256,192,117510,12,0,120176,0:0:0:0:
256,192,120509,5,2,0:0:0:0:
256,192,120842,1,0,0:0:0:0:
256,192,121176,1,2,0:0:0:0:
256,192,121842,1,2,0:0:0:0:
256,192,122176,1,2,0:0:0:0:
256,192,122509,1,0,0:0:0:0:
256,192,122843,12,0,125509,0:0:0:0:
