osu file format v14

[General]
AudioFilename: audio.mp3
AudioLeadIn: 0
PreviewTime: 95986
Countdown: 0
SampleSet: Soft
StackLeniency: 0.4
Mode: 0
LetterboxInBreaks: 0
WidescreenStoryboard: 1

[Editor]
Bookmarks: 10694,21361,32027,42694,53361,64027,74694,85361,96027,106694,117361,121361
DistanceSpacing: 1
BeatDivisor: 4
GridSize: 4
TimelineZoom: 2.699999

[Metadata]
Title:do u care, if i stare?
TitleUnicode:do u care, if i stare?
Artist:SEBii
ArtistUnicode:SEBii
Creator:Chompy
Version:normal
Source:
Tags:fa featured artist mg mpg mappers mappers' guild english electronic hip hop hip-hop rap hyperpop vvblue xootynator wafer goopert kami no kotoba lou blackwinterwells
BeatmapID:3197424
BeatmapSetID:1564825

[Difficulty]
HPDrainRate:3.5
CircleSize:2.5
OverallDifficulty:4.5
ApproachRate:6
SliderMultiplier:1.1
SliderTickRate:1

[Events]
//Background and Video events
0,0,"do u care.jpg",0,0
//Break Periods
2,10894,20236
//Storyboard Layer 0 (Background)
//Storyboard Layer 1 (Fail)
//Storyboard Layer 2 (Pass)
//Storyboard Layer 3 (Foreground)
//Storyboard Layer 4 (Overlay)
//Storyboard Sound Samples

[TimingPoints]
28,333.333333333333,4,2,1,43,1,0
28,-100,4,2,1,43,0,0
21361,-100,4,2,1,55,0,0
32027,-100,4,2,1,65,0,0
52694,-100,4,2,2,65,0,0
53361,-90.9090909090909,4,2,2,65,0,0
84027,-90.9090909090909,4,2,2,50,0,0
85361,-100,4,2,2,40,0,0
94694,-100,4,2,1,40,0,0
96027,-90.9090909090909,4,2,2,75,0,0
105694,-90.9090909090909,4,2,2,60,0,0
106694,-90.9090909090909,4,2,2,75,0,0
117361,-100,4,2,2,35,0,0

[Colours]
Combo1 : 220,194,252
Combo2 : 252,67,71
Combo3 : 163,197,252

[HitObjects]
116,355,361,6,0,P|61:353|12:328,2,110,0|2|2,0:0|0:2|0:2,0:0:0:0:
206,292,1361,1,2,0:2:0:0:
313,315,1694,2,0,B|347:312|376:325|376:325|406:323|418:309,2,110,0|2|2,0:0|0:2|0:2,0:0:0:0:
354,98,3027,6,0,P|380:51|433:41,2,110,2|2|2,0:2|0:2|0:2,0:0:0:0:
268,167,4027,1,2,0:2:0:0:
157,167,4361,2,0,P|103:153|49:146,2,110,2|2|2,0:2|0:2|0:2,0:0:0:0:
216,259,5361,6,0,B|223:286|223:286|217:312,1,55,2|0,0:2|0:0,0:0:0:0:
176,349,5694,2,0,P|148:346|121:345,1,55,2|2,0:2|0:2,0:0:0:0:
71,368,6027,1,2,0:2:0:0:
10,276,6361,1,2,0:2:0:0:
31,168,6694,6,0,P|50:148|60:123,1,55,2|2,0:2|0:2,0:0:0:0:
74,70,7027,2,0,B|31:57|31:57|5:30,2,82.5,2|2|2,0:2|0:2|0:2,0:0:0:0:
125,49,7694,1,2,0:2:0:0:
225,93,8027,5,2,0:2:0:0:
331,64,8361,1,2,0:2:0:0:
426,119,8694,2,0,P|415:170|455:204,1,110,2|2,0:2|0:2,0:0:0:0:
402,301,9361,6,0,P|374:306|348:314,1,55,2|2,0:2|0:2,0:0:0:0:
301,285,9694,2,0,P|275:275|248:270,1,55,2|2,0:2|0:2,0:0:0:0:
202,299,10027,2,0,B|201:328|201:328|213:351,2,55,2|2|2,0:2|0:2|0:2,0:0:0:0:
147,203,10694,5,6,0:2:0:0:
147,203,21361,5,2,0:2:0:0:
147,203,21527,2,0,B|93:218|93:218|43:196,2,110,2|2|2,0:2|0:2|0:2,0:0:0:0:
219,120,22527,2,0,B|188:73|188:73|193:18,2,110,2|2|2,0:2|0:2|0:2,0:0:0:0:
333,134,23527,1,2,0:2:0:0:
333,134,23694,2,0,B|350:112|350:112|377:106,1,55,2|0,0:2|0:0,0:0:0:0:
425,131,24027,5,2,0:2:0:0:
488,221,24361,1,2,0:2:0:0:
422,309,24694,1,2,0:2:0:0:
317,273,25027,1,2,0:2:0:0:
217,320,25361,6,0,L|224:379,2,55,2|0|2,0:2|0:2|0:2,0:0:0:0:
111,287,26027,2,0,L|56:293,1,55,2|2,0:2|0:2,0:0:0:0:
11,261,26361,2,0,B|-2:236|-2:236|2:209,1,55,2|0,0:2|0:0,0:0:0:0:
42,172,26694,5,2,0:2:0:0:
42,172,26860,2,0,B|57:118|57:118|35:68,2,110,2|2|2,0:2|0:2|0:2,0:0:0:0:
147,204,27861,2,0,B|161:149|161:149|206:118,2,110,2|2|2,0:2|0:2|0:2,0:0:0:0:
207,303,28861,1,2,0:2:0:0:
207,303,29027,2,0,L|280:296,1,55,2|2,0:2|0:2,0:0:0:0:
307,266,29361,5,2,0:2:0:0:
416,272,29694,1,2,0:2:0:0:
474,179,30027,1,2,0:2:0:0:
440,73,30361,2,0,B|418:59|418:59|388:58,1,55,2|0,0:2|0:0,0:0:0:0:
338,80,30694,6,0,L|269:71,1,55,2|2,0:2|0:2,0:0:0:0:
245,33,31027,1,2,0:2:0:0:
139,63,31361,2,0,P|114:50|87:48,2,55,2|2|2,0:2|0:2|0:2,0:0:0:0:
178,167,32027,6,0,L|183:221,1,55,4|0,0:2|0:0,0:0:0:0:
140,256,32361,1,2,0:2:0:0:
140,256,32527,2,0,B|89:231|89:231|36:244,1,110,2|0,0:2|0:0,0:0:0:0:
13,294,33027,1,10,0:2:0:0:
110,346,33361,6,0,B|146:360|183:342|183:342|215:352,1,110,2|10,0:2|0:2,0:0:0:0:
315,305,34027,2,0,P|326:280|324:252,1,55,2|0,0:2|0:0,0:0:0:0:
284,214,34361,2,0,P|272:189|274:161,1,55,10|2,0:2|0:2,0:0:0:0:
296,112,34694,5,0,0:0:0:0:
208,45,35027,1,10,0:2:0:0:
109,93,35361,2,0,B|85:82|85:82|57:88,1,55,2|2,0:2|0:2,0:0:0:0:
26,134,35694,2,0,L|36:207,1,55,10|0,0:2|0:0,0:0:0:0:
65,233,36027,5,0,0:0:0:0:
172,209,36361,1,10,0:2:0:0:
264,269,36694,2,0,L|271:332,2,55,2|2|8,0:2|0:2|0:2,0:0:0:0:
267,158,37361,6,0,P|282:135|308:121,1,55,2|2,0:2|0:2,0:0:0:0:
360,133,37694,2,0,B|410:140|419:111|467:117,1,110,10|2,0:2|0:2,0:0:0:0:
496,223,38361,1,10,0:2:0:0:
434,314,38694,6,0,P|409:302|381:302,1,55,2|2,0:2|0:2,0:0:0:0:
345,343,39027,1,10,0:2:0:0:
235,331,39361,2,0,L|168:322,1,55,2|2,0:2|0:2,0:0:0:0:
132,350,39694,2,0,L|65:341,1,55,10|0,0:2|0:0,0:0:0:0:
13,253,40194,5,2,0:2:0:0:
12,253,40361,2,0,P|30:232|39:206,1,55,10|2,0:2|0:2,0:0:0:0:
28,152,40694,2,0,B|0:106|21:65|21:65|40:66,1,110,2|10,0:2|0:2,0:0:0:0:
147,88,41361,6,0,B|176:85|176:85|196:70,1,55,2|2,0:2|0:2,0:0:0:0:
232,27,41694,2,0,L|291:34,1,55,10|0,0:2|0:0,0:0:0:0:
329,68,42027,2,0,L|314:187,1,110,2|10,0:2|0:2,0:0:0:0:
265,275,42694,6,0,B|260:302|260:302|268:327,1,55,4|2,0:2|0:2,0:0:0:0:
311,362,43027,2,0,L|370:354,1,55,10|2,0:2|0:2,0:0:0:0:
420,345,43361,1,2,0:2:0:0:
484,256,43694,1,10,0:2:0:0:
425,163,44027,5,2,0:2:0:0:
454,56,44361,1,10,0:2:0:0:
346,33,44694,2,0,B|319:43|319:43|282:30|238:36,1,110,2|2,0:2|0:2,0:0:0:0:
145,94,45361,6,0,B|141:123|141:123|150:147,1,55,2|2,0:2|0:2,0:0:0:0:
203,160,45694,2,0,P|255:174|305:199,1,110,10|2,0:2|0:2,0:0:0:0:
272,304,46361,2,0,P|245:311|223:328,1,55,10|2,0:2|0:2,0:0:0:0:
179,360,46694,6,0,L|114:353,1,55,2|0,0:2|0:0,0:0:0:0:
69,347,47027,1,10,0:2:0:0:
37,241,47361,2,0,L|47:128,1,110,2|2,0:2|0:2,0:0:0:0:
34,83,47861,1,2,0:2:0:0:
34,83,48027,5,2,0:2:0:0:
128,26,48361,1,8,0:2:0:0:
210,98,48694,2,0,P|237:97|263:89,1,55,2|2,0:2|0:2,0:0:0:0:
303,51,49027,2,0,P|330:51|356:59,1,55,10|2,0:2|0:2,0:0:0:0:
401,91,49361,5,2,0:2:0:0:
344,184,49694,1,8,0:2:0:0:
354,293,50027,2,0,B|304:300|295:271|247:277,1,110,2|2,0:2|0:2,0:0:0:0:
209,318,50527,1,0,0:0:0:0:
209,318,50694,5,2,0:2:0:0:
106,358,51027,1,2,0:2:0:0:
36,272,51361,2,0,B|41:227|19:190|19:190|26:166,1,110,2|2,0:2|0:2,0:0:0:0:
109,93,52027,6,0,P|136:93|162:101,1,55,2|2,0:2|0:2,0:0:0:0:
206,135,52361,2,0,P|233:135|259:127,1,55,2|2,0:2|0:2,0:0:0:0:
305,96,52694,1,2,0:2:0:0:
493,247,53361,6,0,B|458:231|412:248|387:284,1,121.000003692627,0|2,3:2|0:2,0:0:0:0:
295,362,54027,1,10,0:2:0:0:
234,256,54361,2,0,P|215:198|207:138,1,121.000003692627,2|2,3:2|0:2,0:0:0:0:
222,83,54861,1,2,0:2:0:0:
222,83,55027,1,2,0:2:0:0:
110,34,55361,5,10,0:2:0:0:
27,121,55694,1,2,3:2:0:0:
27,121,55861,1,0,3:2:0:0:
40,179,56027,6,0,B|37:204|15:225|15:225|9:260|31:289,1,121.000003692627,0|2,3:2|0:2,0:0:0:0:
83,329,56527,1,0,0:0:0:0:
83,329,56694,2,0,P|110:316|139:313,1,60.5000018463135,10|0,0:2|0:0,0:0:0:0:
191,346,57027,1,2,3:2:0:0:
296,285,57361,6,0,P|322:298|352:300,1,60.5000018463135,2|2,0:2|0:2,0:0:0:0:
403,265,57694,2,0,L|413:194,1,60.5000018463135,2|2,0:2|0:2,0:0:0:0:
420,145,58027,1,10,0:2:0:0:
276,45,58527,5,0,3:2:0:0:
276,45,58694,2,0,B|219:36|220:75|158:63,1,121.000003692627,0|2,3:2|0:2,0:0:0:0:
48,14,59361,1,10,0:2:0:0:
8,128,59694,6,0,B|40:112|75:124|75:124|90:146|116:153,1,121.000003692627,2|2,3:2|0:2,0:0:0:0:
177,179,60194,1,2,0:2:0:0:
177,179,60361,1,2,0:2:0:0:
296,196,60694,6,0,P|325:193|351:178,1,60.5000018463135,10|2,0:2|0:2,0:0:0:0:
404,146,61027,2,0,P|433:152|455:172,1,60.5000018463135,2|2,3:2|0:2,0:0:0:0:
481,227,61361,6,0,P|436:268|399:315,1,121.000003692627,0|2,3:2|0:2,0:0:0:0:
351,350,61861,1,2,0:2:0:0:
351,350,62027,1,10,0:2:0:0:
243,294,62361,1,2,3:2:0:0:
130,337,62694,6,0,P|111:359|83:369,2,60.5000018463135,2|2|2,0:2|0:2|0:2,0:0:0:0:
146,216,63361,2,0,L|136:139,1,60.5000018463135,10|2,0:2|0:2,0:0:0:0:
167,102,63694,2,0,L|243:92,1,60.5000018463135,2|8,0:2|0:2,0:0:0:0:
261,43,64027,6,0,B|308:37|308:37|333:46|333:46|389:39,1,121.000003692627,0|2,3:2|0:2,0:0:0:0:
471,118,64694,1,10,0:2:0:0:
392,210,65027,2,0,P|334:225|286:262,1,121.000003692627,2|2,3:2|0:2,0:0:0:0:
279,326,65527,1,2,0:2:0:0:
279,326,65694,1,2,0:2:0:0:
163,361,66027,6,0,P|132:359|105:347,1,60.5000018463135,10|2,0:2|0:2,0:0:0:0:
87,289,66361,1,2,3:2:0:0:
39,177,66694,6,0,B|68:183|68:183|101:150|149:146,1,121.000003692627,0|2,3:2|0:2,0:0:0:0:
207,179,67194,1,2,0:2:0:0:
207,179,67361,2,0,P|231:196|259:204,1,60.5000018463135,10|0,0:2|0:0,0:0:0:0:
319,190,67694,1,2,3:2:0:0:
425,132,68027,6,0,P|438:106|440:76,1,60.5000018463135,2|2,0:2|0:2,0:0:0:0:
389,41,68360,2,0,L|318:31,1,60.5000018463135,2|2,0:2|0:2,0:0:0:0:
269,22,68693,1,10,0:2:0:0:
138,149,69194,5,0,3:2:0:0:
138,149,69361,2,0,B|174:145|197:164|197:164|201:197|226:212,1,121.000003692627,0|2,3:2|0:2,0:0:0:0:
343,184,70027,1,10,0:2:0:0:
338,305,70361,6,0,B|288:289|288:289|257:312|223:308,1,121.000003692627,2|2,3:2|0:2,0:0:0:0:
184,354,70861,1,2,0:2:0:0:
184,354,71027,1,2,0:2:0:0:
70,311,71361,6,0,P|47:291|35:263,1,60.5000018463135,10|2,0:2|0:2,0:0:0:0:
1,213,71694,2,0,L|12:126,1,60.5000018463135,2|0,3:2|0:0,0:0:0:0:
50,109,72027,6,0,P|110:110|167:91,1,121.000003692627,0|2,3:2|0:2,0:0:0:0:
200,39,72527,1,2,0:2:0:0:
200,39,72694,1,10,0:2:0:0:
317,67,73027,1,2,3:2:0:0:
379,170,73361,6,0,L|462:159,2,60.5000018463135,2|2|2,0:2|0:2|0:2,0:0:0:0:
298,260,74027,2,0,P|273:277|243:282,1,60.5000018463135,10|0,0:2|0:0,0:0:0:0:
144,348,74527,1,0,3:2:0:0:
144,348,74694,6,0,P|126:323|121:293,1,60.5000018463135,0|2,3:2|0:2,0:0:0:0:
89,242,75027,2,0,P|107:217|112:187,1,60.5000018463135,2|2,0:2|0:2,0:0:0:0:
81,135,75361,1,10,0:2:0:0:
170,53,75694,6,0,B|217:59|217:59|242:50|242:50|298:57,1,121.000003692627,0|2,3:2|0:2,0:0:0:0:
323,105,76194,1,2,0:2:0:0:
323,105,76361,1,2,0:2:0:0:
442,84,76694,1,2,0:2:0:0:
442,84,77361,6,0,L|450:153,1,60.5000018463135,2|0,3:2|0:0,0:0:0:0:
492,187,77694,2,0,L|483:256,1,60.5000018463135,2|2,0:2|0:2,0:0:0:0:
474,306,78027,1,10,0:2:0:0:
359,345,78361,6,0,B|330:351|330:351|297:318|249:314,1,121.000003692627,2|2,3:2|0:2,0:0:0:0:
198,345,78861,1,2,0:2:0:0:
198,345,79027,1,2,0:2:0:0:
129,244,79361,1,2,0:2:0:0:
129,244,80027,6,0,P|145:220|171:204,1,60.5000018463135,2|0,3:2|0:0,0:0:0:0:
232,212,80361,1,2,0:2:0:0:
349,185,80694,2,0,P|366:161|374:132,1,60.5000018463135,10|2,0:2|0:2,0:0:0:0:
352,75,81027,6,0,B|295:84|296:45|234:57,1,121.000003692627,2|2,3:2|0:2,0:0:0:0:
188,28,81527,1,2,0:2:0:0:
188,28,81694,1,2,0:2:0:0:
82,81,82027,5,10,0:2:0:0:
82,81,82194,1,2,0:2:0:0:
35,119,82361,2,0,P|28:148|36:177,1,60.5000018463135,2|2,0:2|0:2,0:0:0:0:
72,226,82694,5,2,3:2:0:0:
162,306,83027,2,0,L|152:381,2,60.5000018463135,2|2|10,0:2|0:2|0:2,0:0:0:0:
272,256,83694,6,0,B|316:234|360:243|360:243|381:222,1,121.000003692627,2|2,3:2|0:2,0:0:0:0:
432,187,84194,1,2,0:2:0:0:
432,187,84361,1,2,0:2:0:0:
413,67,84694,2,0,L|287:51,1,121.000003692627,2|2,0:2|0:2,0:0:0:0:
186,81,85361,6,0,L|115:72,1,55,2|2,0:2|0:2,0:0:0:0:
29,115,85861,1,2,0:2:0:0:
29,115,86027,2,0,L|20:185,1,55,2|2,0:2|0:2,0:0:0:0:
51,216,86361,1,2,0:2:0:0:
138,282,86694,6,0,P|163:270|191:269,1,55,2|2,0:2|0:2,0:0:0:0:
298,309,87194,1,2,0:2:0:0:
298,309,87361,2,0,L|289:380,2,55,2|2|2,0:2|0:2|0:2,0:0:0:0:
386,244,88027,6,0,L|393:189,1,55,2|2,0:2|0:2,0:0:0:0:
359,90,88527,1,2,0:2:0:0:
359,90,88694,2,0,P|333:78|305:77,1,55,2|2,0:2|0:2,0:0:0:0:
258,102,89027,1,2,0:2:0:0:
157,55,89361,5,2,0:2:0:0:
78,132,89694,1,2,0:2:0:0:
128,229,90027,2,0,L|119:299,1,55,2|2,0:2|0:2,0:0:0:0:
151,330,90361,1,2,0:2:0:0:
259,349,90694,6,0,L|314:356,1,55,2|0,0:2|0:0,0:0:0:0:
422,326,91194,1,2,0:2:0:0:
422,326,91361,2,0,P|434:300|435:272,1,55,2|2,0:2|0:2,0:0:0:0:
410,225,91694,1,2,0:2:0:0:
481,141,92027,6,0,L|474:86,1,55,2|2,0:2|0:2,0:0:0:0:
387,28,92527,1,2,0:2:0:0:
387,28,92694,2,0,L|332:35,1,55,2|2,0:2|0:2,0:0:0:0:
278,46,93027,1,2,0:2:0:0:
203,126,93361,6,0,P|204:154|217:179,1,55,2|2,0:2|0:2,0:0:0:0:
316,236,93861,1,0,0:0:0:0:
316,236,94027,2,0,L|309:291,1,55,2|2,0:2|0:2,0:0:0:0:
271,331,94361,1,2,0:2:0:0:
165,361,94694,5,2,0:2:0:0:
98,273,95027,1,2,0:2:0:0:
156,179,95361,1,2,0:2:0:0:
75,104,95694,2,0,P|59:81|55:54,1,55,2|0,0:2|0:0,0:0:0:0:
104,19,96027,6,0,P|166:35|248:51,1,121.000003692627,0|2,3:2|0:2,0:0:0:0:
340,25,96694,1,10,0:2:0:0:
443,87,97027,2,0,B|461:102|460:132|460:132|436:158|437:197,1,121.000003692627,2|2,3:2|0:2,0:0:0:0:
384,225,97527,1,2,0:2:0:0:
384,225,97694,1,2,0:2:0:0:
272,178,98027,6,0,P|253:154|225:142,1,60.5000018463135,10|2,0:2|0:2,0:0:0:0:
171,170,98361,2,0,P|142:180|113:177,1,60.5000018463135,2|0,3:2|0:0,0:0:0:0:
69,219,98694,6,0,P|117:259|155:302,1,121.000003692627,0|2,3:2|0:2,0:0:0:0:
217,326,99194,1,2,0:2:0:0:
217,326,99361,2,0,P|240:307|269:302,1,60.5000018463135,10|0,0:2|0:0,0:0:0:0:
319,338,99694,1,2,3:2:0:0:
432,295,100027,6,0,L|439:228,1,60.5000018463135,2|2,0:2|0:2,0:0:0:0:
482,192,100361,2,0,L|490:125,1,60.5000018463135,2|2,0:2|0:2,0:0:0:0:
456,80,100694,1,10,0:2:0:0:
283,43,101194,5,0,3:2:0:0:
283,43,101361,2,0,B|248:34|216:54|216:54|207:78|183:91,1,121.000003692627,0|2,3:2|0:2,0:0:0:0:
66,58,102027,1,10,0:2:0:0:
68,179,102361,6,0,B|118:165|118:165|148:190|182:188,1,121.000003692627,2|2,3:2|0:2,0:0:0:0:
230,223,102861,1,2,0:2:0:0:
230,223,103027,1,2,0:2:0:0:
336,165,103361,6,0,P|353:141|387:125,1,60.5000018463135,10|2,0:2|0:2,0:0:0:0:
435,149,103694,1,2,3:2:0:0:
484,259,104027,5,0,3:2:0:0:
374,308,104361,2,0,L|381:369,2,60.5000018463135,2|2|10,0:2|0:2|0:2,0:0:0:0:
271,244,105027,2,0,B|214:235|215:274|153:262,1,121.000003692627,2|0,3:2|0:0,0:0:0:0:
153,262,106694,6,0,B|121:211|145:166|145:166|166:167,1,121.000003692627,0|2,3:2|0:2,0:0:0:0:
261,93,107361,1,10,0:2:0:0:
164,23,107694,2,0,B|116:28|116:28|94:43|94:43|38:50,1,121.000003692627,2|2,3:2|0:2,0:0:0:0:
16,102,108194,1,2,0:2:0:0:
16,102,108361,1,2,0:2:0:0:
35,221,108694,6,0,P|23:248|26:278,1,60.5000018463135,10|2,0:2|0:2,0:0:0:0:
65,324,109027,1,2,3:2:0:0:
183,298,109361,6,0,B|232:297|267:324|267:324|295:315,1,121.000003692627,0|2,3:2|0:2,0:0:0:0:
357,296,109861,1,2,0:2:0:0:
357,296,110027,2,0,P|371:269|374:239,1,60.5000018463135,10|0,0:2|0:0,0:0:0:0:
341,187,110361,1,2,3:2:0:0:
247,110,110694,6,0,P|244:79|253:50,1,60.5000018463135,2|2,0:2|0:2,0:0:0:0:
307,25,111027,2,0,L|374:33,1,60.5000018463135,2|2,0:2|0:2,0:0:0:0:
427,40,111361,1,10,0:2:0:0:
497,207,111861,5,0,3:2:0:0:
497,207,112027,2,0,B|447:193|447:193|417:218|383:216,1,121.000003692627,0|2,3:2|0:2,0:0:0:0:
266,183,112694,1,10,0:2:0:0:
268,303,113027,6,0,B|211:312|212:273|150:285,1,121.000003692627,2|2,3:2|0:2,0:0:0:0:
109,329,113527,1,2,0:2:0:0:
109,329,113694,1,2,0:2:0:0:
19,247,114027,6,0,L|11:186,1,60.5000018463135,10|2,0:2|0:2,0:0:0:0:
33,130,114360,2,0,P|59:116|89:116,1,60.5000018463135,2|0,3:2|0:0,0:0:0:0:
147,134,114694,6,0,P|195:98|247:68,1,121.000003692627,0|2,3:2|0:2,0:0:0:0:
311,63,115194,1,2,0:2:0:0:
311,63,115361,1,10,0:2:0:0:
326,182,115694,1,2,3:2:0:0:
411,267,116027,6,0,L|475:274,2,60.5000018463135,2|2|2,0:2|0:2|0:2,0:0:0:0:
321,348,116694,2,0,L|180:330,1,121.000003692627,2|2,0:2|0:2,0:0:0:0:
92,311,117361,5,2,0:2:0:0:
134,209,117694,1,2,0:2:0:0:
85,110,118027,2,0,B|47:129|47:129|6:120,2,82.5,2|2|2,0:2|0:2|0:2,0:0:0:0:
111,61,118694,5,2,0:2:0:0:
214,22,119027,1,2,0:2:0:0:
310,76,119361,2,0,B|348:57|348:57|365:19,2,82.5,2|2|2,0:2|0:2|0:2,0:0:0:0:
287,126,120027,5,2,0:2:0:0:
369,198,120360,1,2,0:2:0:0:
422,294,120694,2,0,B|463:282|463:282|501:299,2,82.5,2|2|2,0:2|0:2|0:2,0:0:0:0:
381,332,121361,6,0,B|355:338|355:338|328:331,1,55,2|2,0:2|0:2,0:0:0:0:
274,317,121694,1,2,0:2:0:0:
166,293,122027,2,0,B|143:328|143:328|149:369,2,82.5,2|2|2,0:2|0:2|0:2,0:0:0:0:
158,238,122694,5,2,0:2:0:0:
70,171,123027,1,2,0:2:0:0:
88,62,123361,2,0,B|50:42|50:42|9:51,2,82.5,2|2|2,0:2|0:2|0:2,0:0:0:0:
142,53,124027,5,2,0:2:0:0:
217,133,124361,1,2,0:2:0:0:
323,107,124694,2,0,B|311:66|311:66|328:28,2,82.5,2|2|2,0:2|0:2|0:2,0:0:0:0:
370,134,125361,5,2,0:2:0:0:
