osu file format v14

[General]
AudioFilename: audio.mp3
AudioLeadIn: 0
PreviewTime: 95986
Countdown: 0
SampleSet: Soft
StackLeniency: 0.5
Mode: 0
LetterboxInBreaks: 0
WidescreenStoryboard: 1

[Editor]
Bookmarks: 10694,21361,32027,42694,53361,64027,74694,85361,96027,106694,117361,121361
DistanceSpacing: 1.3
BeatDivisor: 4
GridSize: 4
TimelineZoom: 2.699999

[Metadata]
Title:do u care, if i stare?
TitleUnicode:do u care, if i stare?
Artist:SEBii
ArtistUnicode:SEBii
Creator:Chompy
Version:hard
Source:
Tags:fa featured artist mg mpg mappers mappers' guild english electronic hip hop hip-hop rap hyperpop vvblue xootynator wafer goopert kami no kotoba lou blackwinterwells
BeatmapID:3213923
BeatmapSetID:1564825

[Difficulty]
HPDrainRate:4
CircleSize:3.5
OverallDifficulty:6.4
ApproachRate:8
SliderMultiplier:1.4
SliderTickRate:1

[Events]
//Background and Video events
0,0,"do u care.jpg",0,0
//Break Periods
2,10894,20611
//Storyboard Layer 0 (Background)
//Storyboard Layer 1 (Fail)
//Storyboard Layer 2 (Pass)
//Storyboard Layer 3 (Foreground)
//Storyboard Layer 4 (Overlay)
//Storyboard Sound Samples

[TimingPoints]
28,333.333333333333,4,2,1,43,1,0
28,-100,4,2,1,43,0,0
21361,-100,4,2,1,55,0,0
32027,-100,4,2,1,65,0,0
52694,-100,4,2,2,65,0,0
53361,-83.3333333333333,4,2,2,65,0,0
84027,-83.3333333333333,4,2,2,50,0,0
85361,-100,4,2,2,40,0,0
94694,-100,4,2,1,40,0,0
96027,-83.3333333333333,4,2,2,75,0,0
105694,-83.3333333333333,4,2,2,60,0,0
106694,-83.3333333333333,4,2,2,75,0,0
117361,-100,4,2,2,35,0,0

[Colours]
Combo1 : 220,194,252
Combo2 : 252,67,71
Combo3 : 163,197,252

[HitObjects]
493,28,28,5,2,0:2:0:0:
493,28,194,1,2,0:2:0:0:
418,67,361,2,0,P|349:51|279:49,2,140,0|2|2,0:0|0:2|0:2,0:0:0:0:
417,219,1361,5,2,0:2:0:0:
417,219,1527,1,2,0:2:0:0:
372,290,1694,2,0,P|438:298|492:255,2,140,0|2|2,0:0|0:2|0:2,0:0:0:0:
252,171,2694,5,0,0:0:0:0:
101,233,3027,2,0,B|107:288|107:288|122:306|122:306|129:367,2,140,2|2|2,0:2|0:2|0:2,0:0:0:0:
89,65,4027,5,2,0:2:0:0:
89,65,4111,1,2,0:2:0:0:
89,65,4193,1,2,0:2:0:0:
134,136,4360,2,0,P|68:144|14:101,2,140,2|2|2,0:2|0:2|0:2,0:0:0:0:
301,69,5361,6,0,B|334:58|334:58|368:62,1,70,2|0,0:2|0:0,0:0:0:0:
452,72,5694,2,0,P|457:55|467:41,2,35,2|2|2,0:2|0:2|0:2,0:0:0:0:
474,170,6027,2,0,P|441:185|413:204,1,70,2|2,0:2|0:2,0:0:0:0:
345,254,6361,1,2,0:2:0:0:
214,340,6694,5,2,0:2:0:0:
214,340,6861,1,2,0:2:0:0:
139,301,7027,2,0,P|90:315|46:289,1,105,0|2,0:0|0:2,0:0:0:0:
28,250,7361,2,0,P|51:224|60:190,1,70,2|2,0:2|0:2,0:0:0:0:
95,82,7694,2,0,P|90:65|80:51,2,35,2|0|0,0:2|0:0|0:0,0:0:0:0:
173,112,8027,6,0,B|208:125|241:109|234:95|268:76|305:89,1,140,2|2,0:2|0:2,0:0:0:0:
463,147,8694,2,0,B|476:184|457:218|443:211|427:244|440:279,1,140,2|2,0:2|0:2,0:0:0:0:
283,341,9361,6,0,P|254:321|219:317,1,70,2|2,0:2|0:2,0:0:0:0:
136,303,9694,2,0,P|107:322|72:326,1,70,2|2,0:2|0:2,0:0:0:0:
25,257,10027,1,2,0:2:0:0:
25,249,10111,1,2,0:2:0:0:
26,242,10194,1,2,0:2:0:0:
67,168,10361,2,0,P|81:177|98:182,2,35,2|0|0,0:2|0:0|0:0,0:0:0:0:
17,76,10694,5,6,0:2:0:0:
17,76,21361,6,0,P|48:61|82:67,1,70,2|2,0:2|0:2,0:0:0:0:
160,98,21694,2,0,P|194:94|219:71,1,70,2|2,0:2|0:2,0:0:0:0:
297,38,22027,2,0,L|365:46,2,70,2|0|2,0:2|0:0|0:2,0:0:0:0:
408,164,22694,6,0,L|476:172,2,70,2|2|2,0:2|0:2|0:2,0:0:0:0:
329,184,23194,1,2,0:2:0:0:
329,183,23361,2,0,P|308:210|308:245,1,70,2|2,0:2|0:2,0:0:0:0:
326,327,23694,2,0,B|293:338|258:324|265:310|231:291|194:304,1,140,2|2,0:2|0:2,0:0:0:0:
34,359,24361,6,0,P|13:332|13:297,1,70,2|2,0:2|0:2,0:0:0:0:
74,240,24694,2,0,P|95:213|95:178,1,70,2|0,0:2|0:0,0:0:0:0:
54,104,25027,2,0,B|76:86|76:86|133:97|181:62,1,140,2|2,0:2|0:2,0:0:0:0:
353,77,25694,5,2,0:2:0:0:
353,77,25861,1,2,0:2:0:0:
299,141,26027,2,0,P|272:120|237:120,2,70,2|2|2,0:2|0:2|0:2,0:0:0:0:
458,194,26694,6,0,L|446:276,1,70,2|0,0:2|0:0,0:0:0:0:
454,347,27027,2,0,P|470:351|485:360,2,35,2|0|0,0:2|0:0|0:0,0:0:0:0:
334,318,27361,2,0,P|307:339|273:345,1,70,2|2,0:2|0:2,0:0:0:0:
200,304,27694,1,2,0:2:0:0:
96,171,28027,6,0,L|0:181,2,70,2|2|2,0:2|0:2|0:2,0:0:0:0:
211,48,28694,1,2,0:2:0:0:
289,78,28861,1,2,0:2:0:0:
301,77,28944,1,2,0:2:0:0:
313,75,29027,2,0,L|364:68,2,35,2|2|2,0:2|0:2|0:2,0:0:0:0:
242,160,29361,6,0,P|262:187|295:199,1,70,2|2,0:2|0:2,0:0:0:0:
378,191,29694,2,0,P|407:173|442:173,1,70,2|0,0:2|0:0,0:0:0:0:
499,242,30027,1,2,0:2:0:0:
499,242,30194,1,2,0:2:0:0:
456,314,30361,2,0,L|460:349,2,35,2|0|0,0:2|0:0|0:0,0:0:0:0:
360,334,30694,5,2,0:2:0:0:
348,335,30777,1,2,0:2:0:0:
336,336,30861,1,2,0:2:0:0:
260,300,31027,2,0,L|175:309,1,70,2|0,0:2|0:0,0:0:0:0:
83,354,31361,5,2,0:2:0:0:
19,299,31527,1,2,0:2:0:0:
44,218,31694,1,2,0:2:0:0:
95,60,32027,5,4,0:2:0:0:
95,60,32194,1,0,0:0:0:0:
164,106,32361,2,0,P|193:87|227:83,1,70,2|2,0:2|0:2,0:0:0:0:
287,142,32694,2,0,B|281:197|281:197|266:215|266:215|259:276,1,140,2|10,0:2|0:2,0:0:0:0:
410,348,33361,6,0,P|445:349|475:331,1,70,2|2,0:2|0:2,0:0:0:0:
474,248,33694,2,0,P|453:215|438:182,1,70,10|0,0:2|0:0,0:0:0:0:
469,110,34027,1,2,0:2:0:0:
469,110,34194,1,0,0:0:0:0:
401,50,34361,2,0,P|362:58|328:71,1,70,10|2,0:2|0:2,0:0:0:0:
169,105,34861,6,0,P|154:73|126:52,2,70,2|10|2,0:2|0:2|0:2,0:0:0:0:
129,179,35361,1,2,0:2:0:0:
122,187,35444,1,2,0:2:0:0:
119,197,35527,1,2,0:2:0:0:
161,269,35694,2,0,P|195:264|228:274,1,70,10|0,0:2|0:0,0:0:0:0:
298,321,36027,5,2,0:2:0:0:
310,320,36110,1,2,0:2:0:0:
322,319,36194,1,2,0:2:0:0:
399,350,36360,2,0,L|484:341,1,70,10|2,0:2|0:2,0:0:0:0:
492,230,36694,5,2,0:2:0:0:
427,174,36860,1,2,0:2:0:0:
453,95,37027,1,8,0:2:0:0:
290,52,37361,6,0,B|257:63|257:63|223:59,1,70,2|2,0:2|0:2,0:0:0:0:
143,45,37694,1,10,0:2:0:0:
143,45,37861,1,2,0:2:0:0:
62,66,38027,2,0,P|48:98|54:132,1,70,2|0,0:2|0:0,0:0:0:0:
37,215,38361,2,0,B|70:226|105:212|98:198|132:179|169:192,1,140,10|2,0:2|0:2,0:0:0:0:
210,265,38861,5,2,0:2:0:0:
220,264,38944,1,2,0:2:0:0:
230,264,39027,2,0,P|255:240|264:205,1,70,10|0,0:2|0:0,0:0:0:0:
312,137,39361,2,0,P|343:123|377:130,1,70,2|2,0:2|0:2,0:0:0:0:
445,180,39694,2,0,B|455:210|455:210|417:250|407:305,1,140,10|0,0:2|0:0,0:0:0:0:
339,353,40194,5,2,0:2:0:0:
339,353,40361,2,0,P|307:337|273:338,1,70,10|2,0:2|0:2,0:0:0:0:
190,356,40694,2,0,B|135:350|135:350|117:335|117:335|56:328,1,140,2|10,0:2|0:2,0:0:0:0:
14,173,41361,5,2,0:2:0:0:
22,167,41444,1,2,0:2:0:0:
26,157,41527,1,2,0:2:0:0:
33,72,41694,2,0,P|63:55|97:59,1,70,10|0,0:2|0:0,0:0:0:0:
178,36,42027,2,0,P|239:69|306:90,1,140,2|10,0:2|0:2,0:0:0:0:
474,85,42694,5,4,0:2:0:0:
502,164,42860,1,2,0:2:0:0:
440,222,43027,1,10,0:2:0:0:
440,222,43194,1,2,0:2:0:0:
359,195,43361,2,0,P|329:176|295:174,1,70,2|2,0:2|0:2,0:0:0:0:
212,186,43694,1,10,0:2:0:0:
46,245,44027,6,0,L|55:325,1,70,2|2,0:2|0:2,0:0:0:0:
130,350,44361,1,10,0:2:0:0:
130,350,44527,1,2,0:2:0:0:
203,309,44694,2,0,B|236:298|271:312|264:326|298:345|335:332,1,140,2|2,0:2|0:2,0:0:0:0:
413,184,45361,5,2,0:2:0:0:
413,184,45527,1,2,0:2:0:0:
487,144,45694,2,0,P|434:100|366:108,1,140,10|2,0:2|0:2,0:0:0:0:
202,70,46361,6,0,P|213:58|222:43,2,35,8|0|2,0:2|0:0|0:2,0:0:0:0:
189,153,46694,1,2,0:2:0:0:
197,159,46777,1,2,0:2:0:0:
201,169,46860,1,2,0:2:0:0:
172,248,47027,2,0,L|83:258,1,70,10|2,0:2|0:2,0:0:0:0:
16,275,47361,2,0,B|22:220|22:220|37:202|37:202|44:141,1,140,2|2,0:2|0:2,0:0:0:0:
25,63,47861,5,2,0:2:0:0:
25,63,48027,2,0,P|59:59|90:74,1,70,2|2,0:2|0:2,0:0:0:0:
169,43,48361,1,8,0:2:0:0:
300,185,48694,2,0,L|377:175,1,70,2|2,0:2|0:2,0:0:0:0:
453,207,49027,1,10,0:2:0:0:
453,207,49194,1,2,0:2:0:0:
429,319,49361,5,2,0:2:0:0:
429,319,49527,1,2,0:2:0:0:
353,355,49694,2,0,P|319:361|286:349,1,70,8|2,0:2|0:2,0:0:0:0:
298,265,50027,2,0,B|265:254|230:268|237:282|203:301|166:288,1,140,2|2,0:2|0:2,0:0:0:0:
16,209,50694,6,0,P|49:203|74:178,1,70,2|2,0:2|0:2,0:0:0:0:
132,118,51027,2,0,P|112:89|113:55,1,70,2|0,0:2|0:0,0:0:0:0:
229,58,51361,5,2,0:2:0:0:
308,86,51527,1,2,0:2:0:0:
366,24,51694,1,2,0:2:0:0:
453,167,52027,6,0,P|468:160|485:157,2,35,2|0|2,0:2|0:0|0:2,0:0:0:0:
402,235,52361,1,2,0:2:0:0:
402,235,52527,1,2,0:2:0:0:
216,333,53361,6,0,P|162:300|101:286,1,125.999996154785,0|0,3:2|0:0,0:0:0:0:
56,252,53694,2,0,P|94:236|116:201,1,83.9999974365235,2|0,0:2|0:0,0:0:0:0:
84,105,54027,1,10,0:2:0:0:
244,66,54361,2,0,B|274:55|305:68|299:81|330:98|364:86,1,125.999996154785,2|0,3:2|0:0,0:0:0:0:
405,58,54694,5,2,0:2:0:0:
473,132,54861,1,2,0:2:0:0:
465,138,54944,1,2,0:2:0:0:
461,148,55027,1,2,0:2:0:0:
376,308,55361,2,0,P|341:284|300:281,1,83.9999974365235,10|2,0:2|0:2,0:0:0:0:
207,306,55694,1,2,3:2:0:0:
207,306,55861,1,0,3:2:0:0:
198,183,56027,6,0,P|232:98|249:44,1,125.999996154785,0|0,3:2|0:0,0:0:0:0:
203,32,56361,2,0,P|161:28|122:44,1,83.9999974365235,2|0,0:2|0:0,0:0:0:0:
66,128,56694,1,10,0:2:0:0:
66,128,56861,1,0,0:0:0:0:
113,216,57027,2,0,P|134:251|172:268,1,83.9999974365235,2|0,3:2|0:0,0:0:0:0:
252,330,57361,5,2,0:2:0:0:
263,325,57444,1,2,0:2:0:0:
275,325,57527,1,2,0:2:0:0:
362,274,57694,2,0,P|368:232|377:191,1,83.9999974365235,2|2,0:2|0:2,0:0:0:0:
428,104,58027,2,0,P|459:130|500:133,2,83.9999974365235,10|0|2,0:2|0:0|0:2,0:0:0:0:
319,39,58527,1,0,3:2:0:0:
319,39,58694,6,0,P|273:47|177:73,1,125.999996154785,0|0,3:2|0:0,0:0:0:0:
150,88,59027,2,0,P|122:57|81:50,1,83.9999974365235,2|0,0:2|0:0,0:0:0:0:
15,127,59361,2,0,P|21:164|25:220,1,83.9999974365235,10|0,0:2|0:0,0:0:0:0:
80,296,59694,2,0,B|108:296|108:296|144:265|198:260,1,125.999996154785,2|0,3:2|0:0,0:0:0:0:
240,288,60028,5,2,0:2:0:0:
299,206,60194,1,2,0:2:0:0:
304,195,60277,1,2,0:2:0:0:
304,183,60360,1,2,0:2:0:0:
208,47,60694,1,10,0:2:0:0:
208,47,60861,1,2,0:2:0:0:
299,25,61027,2,0,P|343:29|392:37,1,83.9999974365235,2|2,3:2|0:2,0:0:0:0:
488,99,61361,6,0,P|461:155|441:215,1,125.999996154785,0|0,3:2|0:0,0:0:0:0:
413,257,61694,2,0,P|453:270|483:299,2,83.9999974365235,2|2|10,0:2|0:2|0:2,0:0:0:0:
209,278,62361,2,0,B|179:289|148:276|154:263|123:246|89:258,1,125.999996154785,2|0,3:2|0:0,0:0:0:0:
42,241,62694,6,0,P|29:281|21:322,2,83.9999974365235,2|2|2,0:2|0:2|0:2,0:0:0:0:
263,175,63361,2,0,P|303:174|337:149,1,83.9999974365235,10|2,0:2|0:2,0:0:0:0:
367,54,63694,1,2,0:2:0:0:
367,54,63861,1,8,0:2:0:0:
270,84,64027,6,0,P|209:65|148:53,1,125.999996154785,0|0,3:2|0:0,0:0:0:0:
104,26,64361,2,0,P|66:42|47:79,1,83.9999974365235,2|0,0:2|0:0,0:0:0:0:
65,177,64694,1,10,0:2:0:0:
199,326,65027,2,0,P|244:284|306:291,1,125.999996154785,2|0,3:2|0:0,0:0:0:0:
336,331,65361,5,2,0:2:0:0:
423,281,65527,1,2,0:2:0:0:
426,268,65610,1,2,0:2:0:0:
424,256,65693,1,2,0:2:0:0:
271,142,66027,5,10,0:2:0:0:
271,142,66194,1,2,0:2:0:0:
179,148,66361,2,0,P|142:128|124:90,1,83.9999974365235,2|2,3:2|0:2,0:0:0:0:
213,64,66694,6,0,B|239:57|251:36|251:36|301:32|319:65,1,125.999996154785,0|0,3:2|0:0,0:0:0:0:
370,90,67027,2,0,P|361:127|353:173,1,83.9999974365235,2|2,0:2|0:2,0:0:0:0:
293,255,67361,1,10,0:2:0:0:
293,255,67527,1,0,0:0:0:0:
193,271,67694,2,0,P|158:247|117:245,1,83.9999974365235,2|0,3:2|0:0,0:0:0:0:
12,252,68027,5,2,0:2:0:0:
21,262,68110,1,2,0:2:0:0:
25,273,68193,1,2,0:2:0:0:
54,368,68361,2,0,P|88:344|127:329,1,83.9999974365235,2|2,0:2|0:2,0:0:0:0:
227,347,68694,2,0,P|261:366|305:366,2,83.9999974365235,10|2|2,0:2|0:2|0:2,0:0:0:0:
286,274,69194,1,0,3:2:0:0:
286,274,69361,6,0,P|294:213|309:147,1,125.999996154785,0|0,3:2|0:0,0:0:0:0:
266,121,69694,2,0,P|229:108|200:75,1,83.9999974365235,2|0,0:2|0:0,0:0:0:0:
285,26,70027,2,0,P|326:20|368:16,1,83.9999974365235,10|0,0:2|0:0,0:0:0:0:
465,46,70361,2,0,B|459:74|459:74|423:104|416:159,1,125.999996154785,2|0,3:2|0:0,0:0:0:0:
441,202,70694,5,2,0:2:0:0:
364,267,70861,1,2,0:2:0:0:
350,267,70944,1,2,0:2:0:0:
339,271,71027,1,2,0:2:0:0:
155,349,71361,1,10,0:2:0:0:
155,349,71527,1,2,0:2:0:0:
67,298,71694,2,0,P|64:256|57:214,1,83.9999974365235,2|0,3:2|0:0,0:0:0:0:
92,124,72027,6,0,B|118:128|132:148|132:148|182:148|197:113,1,125.999996154785,0|0,3:2|0:0,0:0:0:0:
246,102,72361,2,0,P|249:60|256:18,2,83.9999974365235,2|2|10,0:2|0:2|0:2,0:0:0:0:
289,298,73027,2,0,B|319:309|350:296|344:283|375:266|409:278,1,125.999996154785,2|0,3:2|0:0,0:0:0:0:
455,298,73361,6,0,P|471:347|501:367,2,83.9999974365235,2|2|2,0:2|0:2|0:2,0:0:0:0:
475,99,74027,2,0,P|462:59|429:34,1,83.9999974365235,10|0,0:2|0:0,0:0:0:0:
340,31,74361,1,2,0:2:0:0:
340,31,74527,1,0,3:2:0:0:
385,112,74694,6,0,P|319:128|207:141,1,167.999994873047,0|2,3:2|0:2,0:0:0:0:
187,109,75111,1,0,0:0:0:0:
187,109,75194,1,2,0:2:0:0:
86,150,75361,2,0,P|45:150|18:181,1,83.9999974365235,10|2,0:2|0:2,0:0:0:0:
42,279,75694,2,0,P|103:284|173:298,1,125.999996154785,0|0,3:2|0:0,0:0:0:0:
208,324,76027,5,2,0:2:0:0:
296,275,76194,1,2,0:2:0:0:
297,265,76278,1,2,0:2:0:0:
300,256,76361,1,2,0:2:0:0:
256,54,76694,5,2,0:2:0:0:
256,54,77361,6,0,P|299:31|336:41,1,83.9999974365235,2|0,3:2|0:0,0:0:0:0:
412,83,77694,2,0,P|416:125|422:166,1,83.9999974365235,2|2,0:2|0:2,0:0:0:0:
485,240,78027,1,10,0:2:0:0:
485,240,78194,1,2,0:2:0:0:
503,330,78361,2,0,P|461:333|425:313,1,83.9999974365235,2|0,3:2|0:0,0:0:0:0:
323,275,78694,6,0,P|282:285|241:294,1,83.9999974365235,2|2,0:2|0:2,0:0:0:0:
195,288,78944,1,2,0:2:0:0:
195,287,79027,2,0,P|162:262|120:257,1,83.9999974365235,2|2,0:2|0:2,0:0:0:0:
32,311,79361,5,2,0:2:0:0:
32,311,80027,6,0,P|13:267|18:230,1,83.9999974365235,2|0,3:2|0:0,0:0:0:0:
60,133,80361,2,0,P|99:140|130:114,1,83.9999974365235,2|2,0:2|0:2,0:0:0:0:
175,31,80694,2,0,P|221:51|258:73,1,83.9999974365235,10|2,0:2|0:2,0:0:0:0:
330,113,81027,1,2,3:2:0:0:
199,243,81361,6,0,P|201:284|206:326,1,83.9999974365235,2|2,0:2|0:2,0:0:0:0:
249,355,81611,1,2,0:2:0:0:
249,355,81694,1,2,0:2:0:0:
432,317,82027,5,10,0:2:0:0:
432,317,82194,1,2,0:2:0:0:
494,259,82361,1,2,0:2:0:0:
466,180,82527,1,2,0:2:0:0:
373,120,82694,6,0,B|343:109|312:122|318:135|287:152|253:140,1,125.999996154785,2|0,3:2|0:0,0:0:0:0:
202,142,83027,2,0,P|206:100|218:60,2,83.9999974365235,2|2|10,0:2|0:2|0:2,0:0:0:0:
224,342,83694,2,0,B|208:341|192:346|192:346|159:314|106:311,1,125.999996154785,2|0,3:2|0:0,0:0:0:0:
61,290,84027,2,0,P|51:330|20:357,2,83.9999974365235,2|2|2,0:2|0:2|0:2,0:0:0:0:
20,102,84694,6,0,B|55:80|50:28|50:28|70:75|112:77,1,167.999994873047,2|2,0:2|0:2,0:0:0:0:
249,118,85361,6,0,P|276:96|310:91,1,70,2|2,0:2|0:2,0:0:0:0:
471,153,85861,1,2,0:2:0:0:
471,153,86027,2,0,P|471:185|465:230,1,70,2|2,0:2|0:2,0:0:0:0:
413,289,86361,1,2,0:2:0:0:
413,289,86527,1,2,0:2:0:0:
329,301,86694,6,0,P|307:273|275:262,1,70,2|2,0:2|0:2,0:0:0:0:
115,342,87194,1,2,0:2:0:0:
115,342,87277,1,2,0:2:0:0:
115,342,87361,2,0,P|81:351|46:354,2,70,2|2|2,0:2|0:2|0:2,0:0:0:0:
115,250,87861,1,2,0:0:0:0:
45,191,88027,6,0,P|25:162|31:129,1,70,2|2,0:2|0:2,0:0:0:0:
186,32,88527,1,2,0:2:0:0:
185,31,88694,2,0,P|218:40|253:44,1,70,2|2,0:2|0:2,0:0:0:0:
335,84,89027,2,0,P|360:60|394:58,1,70,2|2,0:2|0:2,0:0:0:0:
465,121,89361,6,0,P|457:153|447:203,1,70,2|2,0:2|0:2,0:0:0:0:
488,272,89694,1,2,0:2:0:0:
399,340,89861,6,0,P|367:329|318:316,1,70,2|2,0:2|0:2,0:0:0:0:
243,336,90194,1,2,0:2:0:0:
243,336,90361,2,0,P|215:314|210:280,1,70,2|0,0:2|0:0,0:0:0:0:
247,181,90694,6,0,P|281:179|316:174,1,70,2|0,0:2|0:0,0:0:0:0:
495,141,91194,1,2,0:2:0:0:
464,55,91361,2,0,P|437:33|403:29,1,70,2|2,0:2|0:2,0:0:0:0:
366,54,91611,1,0,0:0:0:0:
366,54,91694,1,2,0:2:0:0:
287,107,91861,1,2,0:0:0:0:
222,42,92027,6,0,P|187:44|152:50,1,70,2|2,0:2|0:2,0:0:0:0:
18,179,92527,1,2,0:2:0:0:
18,179,92611,1,0,0:0:0:0:
17,178,92694,2,0,P|41:203|46:237,1,70,2|2,0:2|0:2,0:0:0:0:
26,325,93027,1,2,0:2:0:0:
124,343,93194,1,0,0:0:0:0:
124,343,93277,1,0,0:0:0:0:
124,343,93361,6,0,P|161:345|219:355,1,70,2|2,0:2|0:2,0:0:0:0:
386,325,93861,1,0,0:0:0:0:
386,325,94027,2,0,P|352:315|334:287,1,70,2|2,0:2|0:2,0:0:0:0:
354,205,94361,2,0,P|352:170|373:143,1,70,2|2,0:2|0:2,0:0:0:0:
438,58,94694,6,0,P|470:71|503:80,2,70,2|2|2,0:2|0:0|0:2,0:0:0:0:
356,30,95194,1,2,0:2:0:0:
356,30,95361,2,0,P|321:32|286:39,1,70,2|2,0:2|0:2,0:0:0:0:
203,75,95694,1,2,0:2:0:0:
19,46,96027,6,0,P|38:105|50:167,1,125.999996154785,0|0,3:2|0:0,0:0:0:0:
86,209,96361,2,0,P|48:228|29:264,1,83.9999974365235,2|0,0:2|0:0,0:0:0:0:
122,303,96694,2,0,B|138:313|157:319|157:319|194:301|242:305,1,125.999996154785,10|0,0:2|0:0,0:0:0:0:
281,273,97027,2,0,B|338:299|397:319,1,125.999996154785,2|0,3:2|0:0,0:0:0:0:
446,303,97361,5,2,0:2:0:0:
479,213,97527,1,2,0:2:0:0:
487,204,97610,1,2,0:2:0:0:
495,194,97694,2,0,P|493:152|467:120,1,83.9999974365235,2|0,0:2|0:0,0:0:0:0:
390,48,98027,5,10,0:2:0:0:
390,48,98194,1,2,0:2:0:0:
302,77,98361,2,0,B|272:88|241:75|247:62|216:45|182:57,1,125.999996154785,2|0,3:2|0:0,0:0:0:0:
141,77,98694,2,0,P|160:136|166:199,1,125.999996154785,0|0,3:2|0:0,0:0:0:0:
191,238,99027,6,0,P|233:244|261:273,1,83.9999974365235,2|2,0:2|0:2,0:0:0:0:
184,340,99361,2,0,P|123:342|41:353,1,125.999996154785,10|0,0:2|0:0,0:0:0:0:
27,309,99694,2,0,P|30:267|40:226,1,83.9999974365235,2|0,3:2|0:0,0:0:0:0:
60,136,100027,1,2,0:2:0:0:
49,121,100111,1,2,0:2:0:0:
33,114,100194,1,2,0:2:0:0:
108,57,100361,6,0,P|149:55|191:47,1,83.9999974365235,2|2,0:2|0:2,0:0:0:0:
284,32,100694,1,10,0:2:0:0:
283,32,100861,2,0,P|323:39|346:72,1,83.9999974365235,2|2,0:2|0:2,0:0:0:0:
438,148,101194,1,0,3:2:0:0:
438,148,101361,6,0,P|410:197|373:292,1,125.999996154785,0|0,3:2|0:0,0:0:0:0:
381,307,101694,2,0,P|338:313|295:330,1,83.9999974365235,2|2,0:2|0:2,0:0:0:0:
210,348,102027,2,0,P|151:335|137:277,1,125.999996154785,10|0,0:2|0:0,0:0:0:0:
167,242,102361,2,0,B|198:240|198:240|223:197|270:182,1,125.999996154785,2|0,3:2|0:0,0:0:0:0:
288,139,102694,5,2,0:2:0:0:
239,44,102861,1,2,0:2:0:0:
223,53,102945,1,2,0:2:0:0:
205,53,103028,1,2,0:2:0:0:
32,119,103361,2,0,P|64:146|74:186,1,83.9999974365235,10|2,0:2|0:2,0:0:0:0:
22,262,103694,1,2,3:2:0:0:
206,343,104027,6,0,P|266:334|329:324,1,125.999996154785,0|0,3:2|0:0,0:0:0:0:
376,302,104361,2,0,P|397:336|438:347,2,83.9999974365235,2|2|10,0:2|0:2|0:2,0:0:0:0:
465,162,105027,2,0,B|458:130|477:100|484:109|508:78|494:45|494:45|456:27,1,167.999994873047,2|0,3:2|0:0,0:0:0:0:
455,27,106694,6,0,P|415:34|372:37,1,83.9999974365235,0|0,3:2|0:0,0:0:0:0:
283,33,107027,1,2,0:2:0:0:
283,33,107194,1,0,0:0:0:0:
249,119,107361,2,0,P|266:179|272:242,1,125.999996154785,10|0,0:2|0:0,0:0:0:0:
253,284,107694,2,0,P|192:271|141:304,1,125.999996154785,2|0,3:2|0:0,0:0:0:0:
113,341,108027,5,2,0:2:0:0:
30,260,108194,1,2,0:2:0:0:
18,242,108278,1,2,0:2:0:0:
20,221,108361,2,0,P|44:187|59:148,1,83.9999974365235,2|0,0:2|0:0,0:0:0:0:
31,55,108694,5,10,0:2:0:0:
31,55,108861,1,2,0:2:0:0:
128,29,109027,2,0,B|157:25|157:25|193:54|249:49,1,125.999996154785,2|0,3:2|0:0,0:0:0:0:
299,41,109361,2,0,P|270:97|250:157,1,125.999996154785,0|0,3:2|0:0,0:0:0:0:
204,176,109694,2,0,P|183:211|186:252,1,83.9999974365235,2|2,0:2|0:2,0:0:0:0:
289,240,110027,6,0,B|315:233|327:212|327:212|377:208|395:241,1,125.999996154785,10|0,0:2|0:0,0:0:0:0:
396,290,110361,2,0,P|363:316|334:347,1,83.9999974365235,2|0,3:2|0:0,0:0:0:0:
233,346,110694,1,2,0:2:0:0:
218,337,110777,1,2,0:2:0:0:
200,334,110861,1,2,0:2:0:0:
101,355,111027,6,0,P|94:313|84:272,1,83.9999974365235,2|2,0:2|0:2,0:0:0:0:
13,207,111361,1,10,0:2:0:0:
13,207,111527,2,0,P|41:177|82:171,1,83.9999974365235,2|2,0:2|0:2,0:0:0:0:
163,102,111861,1,0,3:2:0:0:
163,102,112027,6,0,B|193:104|193:104|225:139|277:148,1,125.999996154785,0|0,3:2|0:0,0:0:0:0:
312,178,112361,2,0,P|313:218|349:236,1,83.9999974365235,2|2,0:2|0:2,0:0:0:0:
455,201,112694,2,0,P|467:145|486:79,1,125.999996154785,10|0,0:2|0:0,0:0:0:0:
458,41,113027,2,0,B|428:30|397:43|403:56|372:73|338:61,1,125.999996154785,2|0,3:2|0:0,0:0:0:0:
297,38,113361,5,2,0:2:0:0:
189,72,113527,1,2,0:2:0:0:
182,92,113611,1,2,0:2:0:0:
163,102,113694,1,2,0:2:0:0:
21,215,114027,2,0,P|62:223|100:242,1,83.9999974365235,10|2,0:2|0:2,0:0:0:0:
139,316,114361,1,2,3:2:0:0:
297,353,114694,6,0,P|310:291|332:232,1,125.999996154785,0|0,3:2|0:0,0:0:0:0:
376,208,115027,2,0,P|399:241|439:252,2,83.9999974365235,2|2|10,0:2|0:2|0:2,0:0:0:0:
294,41,115694,2,0,P|233:56|170:59,1,125.999996154785,2|0,3:2|0:0,0:0:0:0:
129,81,116027,2,0,P|98:53|57:53,2,83.9999974365235,2|2|2,0:2|0:2|0:2,0:0:0:0:
52,277,116694,6,0,B|93:292|133:273|124:256|165:233|209:249,1,167.999994873047,2|2,0:2|0:2,0:0:0:0:
337,308,117361,6,0,P|368:346|417:337,1,105,2|2,0:2|0:2,0:0:0:0:
441,302,117694,1,2,0:2:0:0:
421,159,118027,2,0,P|463:128|502:92,2,105,2|2|2,0:2|0:2|0:2,0:0:0:0:
357,93,118694,6,0,P|335:55|276:54,1,105,2|2,0:2|0:2,0:0:0:0:
255,88,119027,1,2,0:2:0:0:
114,180,119361,2,0,P|66:158|15:143,2,105,2|2|2,0:2|0:2|0:2,0:0:0:0:
187,237,120027,2,0,P|224:213|276:240,1,105,2|2,0:2|0:2,0:0:0:0:
293,276,120361,6,0,B|348:282|348:282|366:297|366:297|427:304,2,140,2|2|2,0:2|0:2|0:2,0:0:0:0:
353,134,121361,2,0,P|378:107|380:72,1,70,2|2,0:2|0:2,0:0:0:0:
364,48,121611,1,2,0:2:0:0:
364,48,121694,2,0,P|438:36|504:28,2,140,2|2|2,0:2|0:2|0:2,0:0:0:0:
227,41,122694,6,0,P|176:36|145:76,1,105,2|2,0:2|0:2,0:0:0:0:
163,114,123027,1,2,0:2:0:0:
297,214,123361,2,0,P|348:202|398:186,2,105,2|2|2,0:2|0:2|0:2,0:0:0:0:
237,273,124027,6,0,P|218:319|168:324,1,105,2|2,0:2|0:2,0:0:0:0:
135,297,124361,1,2,0:2:0:0:
116,130,124694,2,0,P|66:113|14:102,2,105,2|2|2,0:2|0:2|0:2,0:0:0:0:
194,100,125361,5,2,0:2:0:0:
